osu file format v14

[General]
AudioFilename: audio.mp3
AudioLeadIn: 0
PreviewTime: 212792
Countdown: 0
SampleSet: Soft
StackLeniency: 0.4
Mode: 0
LetterboxInBreaks: 0
WidescreenStoryboard: 1

[Editor]
Bookmarks: 133317
DistanceSpacing: 1.4
BeatDivisor: 4
GridSize: 16
TimelineZoom: 2.599999

[Metadata]
Title:Haikei Doppelganger
TitleUnicode:拝啓ドッペルゲンガー
Artist:Matsushita
ArtistUnicode:松下
Creator:gazimal
Version:wring's Insane
Source:
Tags:cover japanese rock vocaloid GUMI AdveNt wring Dear Doppelganger KEMU VOXX 堀江晶太 Horie Shota
BeatmapID:3262616
BeatmapSetID:1481802

[Difficulty]
HPDrainRate:5
CircleSize:3.8
OverallDifficulty:8
ApproachRate:9
SliderMultiplier:1.6
SliderTickRate:1

[Events]
//Background and Video events
0,0,"6905756.jpg",0,0
//Break Periods
//Storyboard Layer 0 (Background)
//Storyboard Layer 1 (Fail)
//Storyboard Layer 2 (Pass)
//Storyboard Layer 3 (Foreground)
//Storyboard Layer 4 (Overlay)
//Storyboard Sound Samples

[TimingPoints]
57,331.491712707182,4,2,1,60,1,0
7930,-100,4,2,1,5,0,0
8012,-100,4,2,1,70,0,0
18289,-100,4,2,2,70,0,0
18620,-100,4,2,1,60,0,0
19117,-100,4,2,2,60,0,0
21106,-100,4,2,1,60,0,0
23924,-100,4,2,2,60,0,0
26742,-100,4,2,2,5,0,0
26825,-100,4,2,2,60,0,0
26990,-100,4,2,2,5,0,0
27073,-100,4,2,2,60,0,0
29642,-100,4,2,2,5,0,0
29725,-100,4,2,2,60,0,0
31880,-100,4,2,1,60,0,0
34532,-100,4,2,2,60,0,0
40747,-100,4,2,2,5,0,0
40830,-100,4,2,2,60,0,0
42488,-100,4,2,1,60,0,0
44642,-100,4,2,3,60,0,0
45140,-100,4,2,2,60,0,0
47543,-100,4,2,2,5,0,0
47626,-100,4,2,2,60,0,0
50029,-100,4,2,2,5,0,0
50112,-100,4,2,2,60,0,0
50361,-100,4,2,2,5,0,0
50443,-100,4,2,2,60,0,0
53095,-100,4,2,2,70,0,0
54421,-100,4,2,1,60,0,0
54587,-100,4,2,1,5,0,0
54670,-100,4,2,1,60,0,0
54836,-100,4,2,1,5,0,0
54919,-100,4,2,1,60,0,0
55913,-100,4,2,1,5,0,0
55996,-100,4,2,1,60,0,0
56162,-100,4,2,1,5,0,0
56245,-100,4,2,1,60,0,0
57073,-100,4,2,2,80,0,1
58151,-100,4,2,2,5,0,1
58233,-100,4,2,2,80,0,1
58482,-100,4,2,2,5,0,1
58565,-100,4,2,2,80,0,1
59311,-100,4,2,2,5,0,1
59394,-100,4,2,2,80,0,1
60803,-100,4,2,2,5,0,1
60885,-100,4,2,2,80,0,1
61134,-100,4,2,2,5,0,1
61217,-100,4,2,2,80,0,1
61963,-100,4,2,2,5,0,1
62045,-100,4,2,2,80,0,1
62377,-100,4,2,5,80,0,1
62460,-100,4,2,2,80,0,1
62874,-100,4,2,5,80,0,1
62957,-100,4,2,2,80,0,1
63454,-100,4,2,2,5,0,1
63537,-100,4,2,2,80,0,1
63786,-100,4,2,2,5,0,1
63869,-100,4,2,2,80,0,1
65443,-100,4,2,2,5,0,1
65526,-100,4,2,2,80,0,1
68758,-100,4,2,2,5,0,1
68841,-100,4,2,2,80,0,1
69090,-100,4,2,2,5,0,1
69173,-100,4,2,2,80,0,1
69919,-100,4,2,2,5,0,1
70001,-100,4,2,2,80,0,1
70499,-100,4,2,1,80,0,1
70830,-100,4,2,2,80,0,1
70996,-100,4,2,1,80,0,1
71327,-100,4,2,2,80,0,1
71410,-100,4,2,2,5,0,1
71493,-100,4,2,2,80,0,1
71742,-100,4,2,2,5,0,1
71825,-100,4,2,2,80,0,1
72985,-100,4,2,5,80,0,1
73979,-100,4,2,2,80,0,1
74808,-100,4,2,1,80,0,1
74974,-100,4,2,2,80,0,1
75803,-100,4,2,2,5,0,1
75885,-100,4,2,2,80,0,1
76051,-100,4,2,2,5,0,1
76134,-100,4,2,2,80,0,1
76466,-100,4,2,2,5,0,1
76548,-100,4,2,2,80,0,1
76714,-100,4,2,2,5,0,1
76797,-100,4,2,2,80,0,1
77874,-100,4,2,2,5,0,1
77957,-100,4,2,5,80,0,1
78289,-100,4,2,1,70,0,0
83095,-100,4,2,2,70,0,0
83150,-100,4,2,1,70,0,0
83593,-100,4,2,1,70,0,0
88896,-100,4,2,2,65,0,0
90388,-100,4,2,1,65,0,0
90678,-100,4,2,1,5,0,0
90720,-100,4,2,1,65,0,0
90761,-100,4,2,1,5,0,0
90803,-100,4,2,1,65,0,0
90844,-100,4,2,1,5,0,0
90885,-100,4,2,1,65,0,0
91051,-100,4,2,1,5,0,0
91134,-100,4,2,1,65,0,0
91300,-100,4,2,1,5,0,0
91383,-100,4,2,1,65,0,0
92128,-100,4,2,1,5,0,0
92211,-100,4,2,1,65,0,0
92377,-100,4,2,1,5,0,0
92460,-100,4,2,1,65,0,0
92626,-100,4,2,1,5,0,0
92709,-100,4,2,1,65,0,0
92791,-100,4,2,1,5,0,0
92874,-100,4,2,1,65,0,0
93454,-100,4,2,1,5,0,0
93537,-100,4,2,1,65,0,0
93703,-100,4,2,1,5,0,0
93786,-100,4,2,1,65,0,0
93952,-100,4,2,1,5,0,0
94035,-100,4,2,1,65,0,0
96189,-100,4,2,1,65,0,0
96355,-100,4,2,1,5,0,0
96438,-100,4,2,1,65,0,0
96604,-100,4,2,1,5,0,0
96686,-100,4,2,1,65,0,0
97101,-100,4,2,1,5,0,0
97184,-100,4,2,1,65,0,0
97432,-100,4,2,1,5,0,0
97515,-100,4,2,1,65,0,0
97681,-100,4,2,1,5,0,0
97764,-100,4,2,1,65,0,0
97930,-100,4,2,1,5,0,0
98012,-100,4,2,1,65,0,0
99504,-100,4,2,1,75,0,0
99836,-100,4,2,1,80,0,0
100168,331.491712707182,4,2,1,80,1,0
102322,-100,4,2,2,60,0,0
102488,-100,4,2,2,5,0,0
102571,-100,4,2,2,60,0,0
102737,-100,4,2,2,5,0,0
102819,-100,4,2,2,60,0,0
105140,-100,4,2,2,5,0,0
105223,-100,4,2,2,60,0,0
105388,-100,4,2,2,5,0,0
105471,-100,4,2,2,60,0,0
106714,-100,4,2,2,5,0,0
106797,-100,4,2,2,60,0,0
106880,-100,4,2,2,5,0,0
107377,-100,4,2,1,60,0,0
110775,-100,4,2,2,60,0,0
116991,-100,4,2,2,5,0,0
117074,-100,4,2,2,60,0,0
118731,-100,4,2,1,60,0,0
121051,-100,4,2,3,60,0,0
121383,-100,4,2,2,60,0,0
123786,-100,4,2,2,5,0,0
123869,-100,4,2,2,60,0,0
126272,-100,4,2,2,5,0,0
126355,-100,4,2,2,60,0,0
126604,-100,4,2,2,5,0,0
126687,-100,4,2,2,60,0,0
129339,-100,4,2,2,70,0,0
130665,-100,4,2,1,70,0,0
130830,-100,4,2,1,5,0,0
130913,-100,4,2,1,70,0,0
131079,-100,4,2,1,5,0,0
131162,-100,4,2,1,70,0,0
132156,-100,4,2,1,5,0,0
132239,-100,4,2,1,70,0,0
132405,-100,4,2,1,5,0,0
132488,-100,4,2,1,70,0,0
133317,-100,4,2,2,80,0,1
134394,-100,4,2,2,5,0,1
134477,-100,4,2,2,80,0,1
134726,-100,4,2,2,5,0,1
134808,-100,4,2,2,80,0,1
135554,-100,4,2,2,5,0,1
135637,-100,4,2,2,80,0,1
137046,-100,4,2,2,5,0,1
137129,-100,4,2,2,80,0,1
137377,-100,4,2,2,5,0,1
137460,-100,4,2,2,80,0,1
138206,-100,4,2,2,5,0,1
138289,-100,4,2,2,80,0,1
138621,-100,4,2,5,80,0,1
138704,-100,4,2,2,80,0,1
139118,-100,4,2,5,80,0,1
139201,-100,4,2,2,80,0,1
139698,-100,4,2,2,5,0,1
139781,-100,4,2,2,80,0,1
140029,-100,4,2,2,5,0,1
140112,-100,4,2,2,80,0,1
141687,-100,4,2,2,5,0,1
141770,-100,4,2,2,80,0,1
145002,-100,4,2,2,5,0,1
145085,-100,4,2,2,80,0,1
145333,-100,4,2,2,5,0,1
145416,-100,4,2,2,80,0,1
146162,-100,4,2,2,5,0,1
146245,-100,4,2,2,80,0,1
146743,-100,4,2,1,80,0,1
147074,-100,4,2,2,80,0,1
147240,-100,4,2,1,80,0,1
147571,-100,4,2,2,80,0,1
147654,-100,4,2,2,5,0,1
147737,-100,4,2,2,80,0,1
147985,-100,4,2,2,5,0,1
148068,-100,4,2,2,80,0,1
149229,-100,4,2,5,80,0,1
150223,-100,4,2,2,80,0,1
151052,-100,4,2,1,80,0,1
151218,-100,4,2,2,80,0,1
152046,-100,4,2,2,5,0,1
152129,-100,4,2,2,80,0,1
152295,-100,4,2,2,5,0,1
152377,-100,4,2,2,80,0,1
152709,-100,4,2,2,5,0,1
152792,-100,4,2,2,80,0,1
152958,-100,4,2,2,5,0,1
153040,-100,4,2,2,80,0,1
154118,-100,4,2,2,5,0,1
154201,-200,4,2,5,80,0,1
154532,-125,4,2,1,60,0,0
154698,-125,4,2,1,5,0,0
154781,-125,4,2,1,60,0,0
154947,-125,4,2,1,5,0,0
155029,-125,4,2,1,60,0,0
155692,-125,4,2,1,5,0,0
155775,-125,4,2,1,60,0,0
155941,-125,4,2,1,5,0,0
156024,-125,4,2,1,60,0,0
156687,-125,4,2,1,5,0,0
156770,-125,4,2,1,60,0,0
156935,-125,4,2,1,5,0,0
157018,-125,4,2,1,60,0,0
157847,331.491712707182,4,2,1,60,1,0
157847,-100,4,2,6,60,0,0
159172,324.324324324324,4,2,6,60,1,0
159172,-100,4,2,6,60,0,0
160361,-100,4,2,1,5,0,0
160469,331.491712707182,4,2,6,60,1,0
160469,-100,4,2,6,60,0,0
163010,-100,4,2,1,5,0,0
163150,331.491712707182,4,2,6,60,1,0
163150,-100,4,2,6,60,0,0
165691,-100,4,2,6,5,0,0
165801,-100,4,2,6,60,0,0
168674,-100,4,2,6,5,0,0
168785,-100,4,2,6,60,0,0
170995,-100,4,2,6,5,0,0
171105,-100,4,2,6,60,0,0
173647,-100,4,2,6,5,0,0
173757,-100,4,2,6,60,0,0
176299,-100,4,2,6,5,0,0
176409,-100,4,2,6,60,0,0
178951,-100,4,2,6,5,0,0
179061,-100,4,2,6,60,0,0
181603,-100,4,2,6,5,0,0
181713,-100,4,2,6,60,0,0
184254,-100,4,2,6,5,0,0
184365,-100,4,2,6,60,0,0
186906,-100,4,2,6,5,0,0
187017,-100,4,2,6,60,0,0
189227,-100,4,2,6,5,0,0
189337,-100,4,2,6,60,0,0
189586,-100,4,2,2,5,0,0
189669,-100,4,2,1,70,0,0
196382,-100,4,2,1,5,0,0
196464,-100,4,2,1,70,0,0
201685,-100,4,2,1,5,0,0
201768,-100,4,2,1,70,0,0
202431,-100,4,2,1,5,0,0
202514,-100,4,2,1,70,0,0
202680,-100,4,2,1,5,0,0
202763,-100,4,2,1,70,0,0
208232,-100,4,2,1,75,0,0
211050,-100,4,2,1,5,0,0
211133,-100,4,2,1,75,0,0
212790,-100,4,2,1,5,0,0
212873,-100,4,2,1,75,0,0
214696,-100,4,2,1,75,0,0
215194,-125,4,2,1,75,0,0
215940,-125,4,2,1,75,0,0
216188,-100,4,2,1,75,0,0
217348,-100,4,2,1,80,0,0
217597,-100,4,2,1,5,0,0
217680,-100,4,2,1,80,0,0
220000,-100,4,2,1,5,0,0
220083,-100,4,2,1,80,0,0
220332,-100,4,2,2,80,0,0
222487,-100,4,2,2,5,0,0
222569,-100,4,2,2,80,0,0
222735,-100,4,2,2,5,0,0
222818,-100,4,2,2,80,0,0
224144,-86.9565217391304,4,2,2,85,0,1
225221,-86.9565217391304,4,2,2,5,0,1
225304,-86.9565217391304,4,2,2,85,0,1
225553,-86.9565217391304,4,2,2,5,0,1
225636,-86.9565217391304,4,2,2,85,0,1
226382,-86.9565217391304,4,2,2,5,0,1
226464,-86.9565217391304,4,2,2,85,0,1
226962,-86.9565217391304,4,2,1,85,0,1
227293,-86.9565217391304,4,2,2,85,0,1
227459,-86.9565217391304,4,2,1,85,0,1
227790,-86.9565217391304,4,2,2,85,0,1
227873,-86.9565217391304,4,2,2,5,0,1
227956,-86.9565217391304,4,2,2,85,0,1
228205,-86.9565217391304,4,2,2,5,0,1
228288,-86.9565217391304,4,2,2,85,0,1
229448,-86.9565217391304,4,2,5,85,0,1
230442,-86.9565217391304,4,2,2,85,0,1
231271,-86.9565217391304,4,2,1,85,0,1
231437,-86.9565217391304,4,2,2,85,0,1
232266,-86.9565217391304,4,2,2,5,0,1
232348,-86.9565217391304,4,2,2,85,0,1
232514,-86.9565217391304,4,2,2,5,0,1
232597,-86.9565217391304,4,2,2,85,0,1
232929,-86.9565217391304,4,2,2,5,0,1
233011,-86.9565217391304,4,2,2,85,0,1
233177,-86.9565217391304,4,2,2,5,0,1
233260,-86.9565217391304,4,2,2,85,0,1
234420,-86.9565217391304,4,2,2,85,0,1
234793,-86.9565217391304,4,2,2,5,0,1
235083,-86.9565217391304,4,2,2,85,0,1
235125,-86.9565217391304,4,2,2,5,0,1
235415,-86.9565217391304,4,2,2,85,0,1
235663,-86.9565217391304,4,2,2,5,0,1
235746,-86.9565217391304,4,2,2,85,0,1
236078,-100,4,2,1,80,0,0
251326,-100,4,2,2,80,0,0
251547,-100,4,2,1,80,0,0
251658,-100,4,2,1,80,0,0
256133,-100,4,2,1,85,0,0
256630,-100,4,2,1,90,0,0
259448,-100,4,2,1,100,0,0
259531,-100,4,2,1,5,0,0

[Colours]
Combo1 : 255,128,0
Combo2 : 128,128,255
Combo3 : 192,192,192
Combo4 : 168,0,168

[HitObjects]
256,192,4034,12,0,6521,0:0:0:0:
104,83,6686,6,0,L|101:148,3,40,8|0|0|0,3:2|3:0|3:0|3:0,0:0:0:0:
183,148,7018,2,0,L|188:214,3,40,8|0|0|0,3:2|3:0|3:0|3:0,0:0:0:0:
267,222,7349,1,8,3:2:0:0:
269,237,7432,1,0,3:0:0:0:
270,252,7515,1,0,3:0:0:0:
271,267,7598,1,0,3:0:0:0:
274,282,7681,2,0,P|312:281|359:271,1,80,12|0,3:2|0:0,0:0:0:0:
435,140,8012,6,0,L|428:228,1,80,6|2,3:2|0:0,0:0:0:0:
490,294,8344,1,10,3:2:0:0:
490,294,8427,1,2,0:0:0:0:
490,294,8510,1,2,0:0:0:0:
279,346,8675,2,0,P|220:334|157:334,1,120,2|2,3:2|0:0,0:0:0:0:
142,349,9007,2,0,L|136:254,1,80,10|2,3:2|0:0,0:0:0:0:
227,186,9338,6,0,L|236:97,1,80,0|2,3:2|0:0,0:0:0:0:
191,20,9670,1,10,3:2:0:0:
191,20,9753,1,2,0:2:0:0:
191,20,9836,1,2,0:2:0:0:
18,104,10001,2,0,P|78:97|147:96,1,120,2|2,3:2|0:2,0:0:0:0:
156,110,10333,2,0,P|196:113|245:102,1,80,10|0,3:2|0:0,0:0:0:0:
193,207,10664,6,0,L|198:263,3,40,2|2|2|2,3:2|0:2|0:2|0:2,0:0:0:0:
247,310,10996,1,10,3:2:0:0:
338,219,11161,6,0,L|344:168,3,40,2|2|2|2,0:0|0:0|3:2|0:0,0:0:0:0:
393,114,11493,1,2,0:0:0:0:
476,232,11659,6,0,L|452:292,3,40,10|2|2|2,3:2|0:2|0:2|0:2,0:0:0:0:
482,348,11990,2,0,P|440:352|385:364,1,80,2|2,3:2|0:0,0:0:0:0:
273,320,12322,6,0,L|253:269,3,40,8|2|2|2,3:2|0:0|0:0|0:0,0:0:0:0:
219,217,12653,2,0,P|179:214|127:205,1,80,12|2,3:2|3:2,0:0:0:0:
116,214,12874,2,0,L|104:252,2,26.6666666666667,2|2|10,0:0|0:0|3:2,0:0:0:0:
74,126,13150,1,8,0:0:0:0:
171,28,13316,6,0,P|180:67|177:107,1,80,6|2,3:2|0:0,0:0:0:0:
295,177,13648,1,10,3:2:0:0:
295,177,13731,1,2,0:0:0:0:
295,177,13813,1,2,0:0:0:0:
213,229,13979,2,0,P|157:227|87:248,1,120,2|2,3:2|0:0,0:0:0:0:
76,258,14311,2,0,P|74:216|84:176,1,80,10|2,3:2|0:0,0:0:0:0:
229,269,14642,6,0,P|231:311|221:351,1,80,2|2,3:2|0:0,0:0:0:0:
202,170,14974,1,10,3:2:0:0:
202,170,15056,1,2,0:2:0:0:
202,170,15139,1,2,0:2:0:0:
310,187,15305,2,0,P|315:244|337:309,1,120,2|2,3:2|0:2,0:0:0:0:
334,328,15637,2,0,P|378:324|423:315,1,80,10|0,3:2|0:0,0:0:0:0:
405,195,15968,6,0,L|451:201,3,40,6|2|2|2,3:2|0:2|0:2|0:2,0:0:0:0:
501,137,16300,1,10,0:2:0:0:
299,145,16465,6,0,L|352:137,3,40,2|2|2|2,0:0|0:0|3:2|0:0,0:0:0:0:
393,78,16797,1,2,0:0:0:0:
185,90,16963,6,0,L|240:100,3,40,10|2|2|2,3:2|0:0|0:0|0:0,0:0:0:0:
280,32,17294,2,0,L|368:44,1,80,2|6,3:2|0:0,0:0:0:0:
465,154,17626,5,8,0:0:0:0:
465,154,17708,1,8,0:0:0:0:
465,154,17791,2,0,L|470:208,1,40,8|8,0:0|0:0,0:0:0:0:
403,243,17957,2,0,L|315:231,1,80,8|10,3:0|3:2,0:0:0:0:
310,244,18178,2,0,L|319:276,2,26.6666666666667,2|2|10,0:0|0:0|3:0,0:0:0:0:
130,128,18454,1,8,3:0:0:0:
41,214,18620,6,0,L|205:218,1,160,4|0,3:2|3:2,0:0:0:0:
82,236,19283,2,0,L|243:227,1,160,0|0,3:2|3:2,0:0:0:0:
118,268,19946,2,0,L|278:248,1,160,0|0,3:2|3:2,0:0:0:0:
152,296,20609,2,0,L|318:265,1,160,0|0,3:2|3:2,0:0:0:0:
455,315,21106,5,8,0:0:0:0:
455,315,21189,1,8,0:0:0:0:
455,315,21272,2,0,P|498:272|492:207,1,120,4|8,3:2|0:0,0:0:0:0:
485,195,21603,2,0,P|446:193|397:178,1,80,0|8,3:2|3:3,0:0:0:0:
321,87,21935,2,0,P|301:92|279:115,1,40,0|8,3:0|0:0,0:0:0:0:
282,128,22101,6,0,P|281:83|275:28,2,80,8|0|0,0:0|3:2|3:0,0:0:0:0:
107,110,22598,6,0,P|76:134|76:176,1,80,4|8,3:2|0:0,0:0:0:0:
52,182,22847,2,0,P|47:220|76:250,1,80,8|8,3:2|0:0,0:0:0:0:
64,271,23095,2,0,P|87:302|130:302,1,80,8|8,0:0|3:2,0:0:0:0:
146,317,23344,5,8,0:0:0:0:
170,316,23427,1,8,0:0:0:0:
191,306,23510,1,8,0:0:0:0:
207,288,23592,1,8,3:2:0:0:
217,266,23675,1,8,0:0:0:0:
218,241,23758,1,8,0:0:0:0:
210,218,23841,1,8,0:0:0:0:
190,203,23924,6,0,P|191:148|194:83,1,120,4|0,3:2|3:0,0:0:0:0:
181,62,24255,2,0,P|222:49|264:58,1,80,8|0,0:0|3:2,0:0:0:0:
325,125,24587,1,2,0:0:0:0:
421,116,24753,2,0,P|462:115|496:97,1,80,0|10,3:0|0:0,0:0:0:0:
368,44,25084,1,8,0:0:0:0:
456,208,25250,6,0,B|380:199|404:242|315:239,1,120,2|0,3:2|3:2,0:0:0:0:
319,232,25581,2,0,L|325:325,1,80,12|0,0:0|3:0,0:0:0:0:
415,351,25913,2,0,L|456:353,2,40,2|8|0,0:0|0:0|3:0,0:0:0:0:
235,328,26244,2,0,P|195:336|139:332,1,80,10|2,0:0|0:0,0:0:0:0:
38,305,26576,6,0,P|10:252|30:192,1,120,0|0,3:2|3:0,0:0:0:0:
45,183,26907,2,0,P|87:180|126:199,1,80,8|0,0:0|3:0,0:0:0:0:
261,173,27239,1,2,0:0:0:0:
203,244,27405,1,0,3:2:0:0:
206,95,27570,6,0,P|240:57|313:49,1,120,10|8,0:0|0:0,0:0:0:0:
326,58,27902,2,0,P|366:71|409:69,1,80,0|0,3:2|0:0,0:0:0:0:
503,115,28233,1,10,0:0:0:0:
362,161,28399,6,0,P|355:240|408:278,1,120,0|8,3:2|0:0,0:0:0:0:
399,279,28731,2,0,P|436:263|490:260,1,80,2|8,3:2|0:0,0:0:0:0:
346,360,29062,1,8,0:0:0:0:
261,307,29228,6,0,B|188:298|224:269|139:259,1,120,4|0,3:2|3:0,0:0:0:0:
131,273,29559,2,0,P|90:272|49:288,1,80,8|0,0:0|3:0,0:0:0:0:
78,94,29891,1,2,0:0:0:0:
78,94,30056,2,0,P|119:95|160:79,1,80,0|10,3:0|0:0,0:0:0:0:
120,183,30388,5,8,0:0:0:0:
120,183,30471,1,8,0:0:0:0:
120,183,30554,1,0,3:2:0:0:
29,212,30719,2,0,P|18:253|26:309,1,80,0|8,3:0|0:0,0:0:0:0:
190,317,31051,1,8,0:0:0:0:
190,317,31134,1,8,0:0:0:0:
190,317,31217,2,0,P|201:276|193:220,1,80,2|8,3:2|0:0,0:0:0:0:
316,135,31548,2,0,P|276:138|238:164,1,80,8|8,3:2|0:0,0:0:0:0:
316,334,31880,6,0,P|356:331|394:305,1,80,6|2,3:2|0:0,0:0:0:0:
485,308,32211,1,10,0:0:0:0:
485,308,32294,1,2,0:0:0:0:
485,308,32377,1,2,3:2:0:0:
318,231,32543,2,0,B|373:223|373:223|383:215|383:215|437:208,1,120,2|2,3:2|0:0,0:0:0:0:
458,210,32874,2,0,P|457:168|468:118,1,80,10|2,0:0|3:2,0:0:0:0:
370,14,33206,6,0,L|380:103,1,80,2|2,3:2|0:0,0:0:0:0:
297,146,33537,1,10,0:2:0:0:
297,146,33620,1,2,0:0:0:0:
297,146,33703,1,2,3:2:0:0:
142,56,33869,2,0,P|199:50|264:71,1,120,2|2,0:2|0:2,0:0:0:0:
267,90,34200,2,0,L|259:179,1,80,10|8,0:2|0:0,0:0:0:0:
276,304,34532,6,0,P|238:301|191:313,1,80,4|0,3:2|0:0,0:0:0:0:
173,303,34780,1,0,3:2:0:0:
173,303,34863,2,0,P|138:323|115:354,1,80,8|0,0:0|3:2,0:0:0:0:
113,231,35195,1,2,0:0:0:0:
183,170,35360,1,0,3:0:0:0:
75,62,35526,1,8,0:0:0:0:
13,142,35692,6,0,P|59:142|102:155,1,80,2|0,0:0|3:2,0:0:0:0:
273,235,36023,2,0,P|233:242|196:255,1,80,0|8,0:0|0:0,0:0:0:0:
263,91,36355,2,0,P|321:86|371:137,1,120,0|8,3:0|0:0,0:0:0:0:
387,114,36686,2,0,L|403:206,1,80,0|8,3:0|0:0,0:0:0:0:
472,261,37018,1,2,0:0:0:0:
316,216,37184,6,0,B|316:263|316:263|326:273|326:273|317:338,1,120,0|0,3:2|3:0,0:0:0:0:
305,349,37515,2,0,P|265:353|225:336,1,80,8|0,0:0|3:0,0:0:0:0:
228,242,37847,1,2,0:0:0:0:
138,210,38012,1,0,3:0:0:0:
13,319,38178,6,0,P|67:308|151:301,1,120,8|8,0:0|0:0,0:0:0:0:
152,289,38510,2,0,L|134:186,1,80,0|0,3:1|3:0,0:0:0:0:
193,85,38841,1,8,0:0:0:0:
78,53,39007,1,0,3:0:0:0:
78,53,39090,1,0,3:0:0:0:
78,53,39173,2,0,P|77:99|86:138,1,80,8|2,0:0|3:2,0:0:0:0:
180,163,39504,2,0,P|181:124|197:75,1,80,8|2,0:0|0:0,0:0:0:0:
356,29,39836,6,0,P|305:67|285:132,1,120,4|0,3:2|3:0,0:0:0:0:
284,142,40167,2,0,P|320:131|362:129,1,80,10|0,0:0|3:0,0:0:0:0:
444,76,40498,2,0,P|482:94|513:122,1,80,2|0,0:0|0:0,0:0:0:0:
410,293,40830,2,0,P|418:250|416:214,1,80,10|0,0:0|0:0,0:0:0:0:
328,354,41161,6,0,P|316:296|262:257,1,120,4|0,3:2|0:0,0:0:0:0:
250,272,41493,2,0,P|214:288|170:286,1,80,10|0,0:2|3:2,0:0:0:0:
29,201,41824,2,0,L|22:161,2,40,8|8|8,0:0|0:0|0:0,0:0:0:0:
126,181,42156,2,0,L|129:132,2,40,8|8|8,3:2|0:0|0:0,0:0:0:0:
75,346,42487,6,0,P|73:303|84:264,1,80,6|2,3:2|0:0,0:0:0:0:
220,178,42819,1,10,0:0:0:0:
220,178,42902,1,2,0:0:0:0:
220,178,42985,1,2,3:2:0:0:
191,77,43150,2,0,B|144:74|144:74|132:64|132:64|71:63,1,120,2|2,0:0|0:2,0:0:0:0:
54,50,43482,2,0,P|67:87|66:130,1,80,10|2,0:2|3:2,0:0:0:0:
165,257,43813,6,0,P|153:297|122:332,1,80,6|2,0:0|3:2,0:0:0:0:
277,370,44145,1,8,0:0:0:0:
277,370,44228,1,2,0:0:0:0:
277,370,44311,1,10,0:0:0:0:
248,289,44476,2,0,B|257:239|257:239|251:221|251:221|260:166,1,120,2|2,3:2|0:0,0:0:0:0:
283,170,44808,2,0,P|321:184|366:183,1,80,10|8,0:0|0:0,0:0:0:0:
437,59,45139,5,4,3:2:0:0:
420,41,45222,2,0,P|382:27|342:26,1,80,2|0,0:0|0:0,0:0:0:0:
322,39,45471,2,0,L|222:52,1,80,0|0,3:2|0:0,0:0:0:0:
109,21,45802,2,0,L|102:111,1,80,0|0,3:2|0:0,0:0:0:0:
190,246,46134,2,0,L|183:158,1,80,2|0,3:2|0:0,0:0:0:0:
43,218,46465,6,0,L|-6:243,2,40,0|0|0,3:2|0:0|0:0,0:0:0:0:
102,296,46797,2,0,L|110:344,2,40,2|0|0,3:2|0:0|0:0,0:0:0:0:
190,258,47128,1,0,3:2:0:0:
190,258,47294,2,0,B|294:265|255:222|357:232,1,160
456,161,47791,6,0,P|456:201|465:256,1,80,0|0,3:2|0:0,0:0:0:0:
360,109,48123,2,0,P|328:48|234:58,1,160,2|0,3:2|3:2,0:0:0:0:
127,32,48620,1,0,0:0:0:0:
127,32,48786,2,0,P|106:65|106:113,1,80,2|0,3:2|0:0,0:0:0:0:
34,192,49117,6,0,P|6:153|0:115,1,80,0|0,3:2|0:0,0:0:0:0:
146,213,49449,1,2,3:2:0:0:
40,335,49615,1,0,0:0:0:0:
40,335,49697,1,0,0:0:0:0:
40,335,49780,2,0,P|90:308|157:312,1,120,0|0,3:2|0:0,0:0:0:0:
174,317,50112,2,0,B|246:321|223:286|296:293,1,120,2|0,3:2|0:0,0:0:0:0:
301,271,50443,6,0,P|299:230|279:196,1,80,4|2,3:2|0:0,0:0:0:0:
429,127,50775,2,0,P|394:149|375:183,1,80,0|2,3:2|0:0,0:0:0:0:
237,91,51106,1,0,3:2:0:0:
237,91,51272,2,0,P|273:109|312:109,2,80,2|0|2,0:0|3:2|0:0,0:0:0:0:
161,161,51769,6,0,L|135:25,1,120,0|0,3:2|0:0,0:0:0:0:
121,25,52101,2,0,P|81:21|42:35,1,80,0|2,3:2|0:0,0:0:0:0:
73,197,52432,2,0,L|47:333,1,120,0|0,3:2|0:0,0:0:0:0:
63,335,52764,2,0,P|103:340|143:325,1,80,0|2,3:2|0:0,0:0:0:0:
272,257,53095,6,0,P|332:254|384:284,1,120,4|8,3:2|0:2,0:0:0:0:
397,263,53427,2,0,L|406:351,1,80,8|8,3:2|0:2,0:0:0:0:
433,125,53758,2,0,P|373:122|321:152,1,120,8|8,3:2|0:2,0:0:0:0:
308,131,54090,2,0,L|299:219,1,80,8|8,3:2|0:2,0:0:0:0:
208,61,54421,6,0,L|120:52,1,80,4|0,3:3|0:0,0:0:0:0:
108,67,54670,2,0,P|101:106|123:149,1,80,4|0,3:3|0:0,0:0:0:0:
137,155,54918,2,0,L|126:251,1,80,4|8,3:3|3:2,0:0:0:0:
44,343,55250,5,8,0:0:0:0:
44,343,55333,1,8,0:0:0:0:
44,343,55416,2,0,L|-10:326,3,40,8|8|8|8,0:3|0:3|0:3|0:3,0:0:0:0:
46,257,55747,6,0,L|5:139,2,120,4|4|4,3:3|3:3|3:3,0:0:0:0:
117,302,56410,5,4,3:3:0:0:
328,92,57073,6,0,P|394:96|436:132,1,120,4|0,3:2|0:0,0:0:0:0:
465,121,57405,2,0,L|475:216,1,80,2|8,0:0|0:0,0:0:0:0:
367,285,57736,1,2,0:0:0:0:
367,285,57819,1,0,0:0:0:0:
367,285,57902,2,0,B|298:289|322:325|245:326,1,120,8|0,0:0|0:0,0:0:0:0:
231,305,58233,6,0,P|173:303|121:263,1,120,8|0,0:0|0:0,0:0:0:0:
117,235,58565,1,8,0:0:0:0:
120,129,58731,1,2,3:2:0:0:
200,185,58896,1,8,0:0:0:0:
31,152,59062,6,0,P|34:112|42:60,1,80,2|0,0:0|0:0,0:0:0:0:
254,33,59394,2,0,P|251:73|243:125,1,80,2|8,0:0|0:0,0:0:0:0:
143,182,59725,6,0,P|152:226|165:276,1,80,6|8,3:2|0:0,0:0:0:0:
307,351,60056,2,0,P|318:310|329:257,1,80,2|8,0:0|0:0,0:0:0:0:
336,166,60388,1,2,0:0:0:0:
336,166,60471,1,0,0:0:0:0:
336,166,60554,1,8,0:0:0:0:
243,218,60719,1,0,0:0:0:0:
399,324,60885,6,0,P|458:317|497:271,1,120,8|0,0:0|0:0,0:0:0:0:
500,241,61217,2,0,L|485:140,1,80,8|2,0:0|0:0,0:0:0:0:
431,58,61548,1,8,0:0:0:0:
290,155,61714,2,0,P|329:142|376:136,1,80,2|0,3:2|0:0,0:0:0:0:
230,38,62045,2,0,P|191:51|144:57,1,80,2|8,3:2|0:0,0:0:0:0:
42,117,62377,6,0,L|63:165,3,40,4|2|10|2,0:0|0:3|0:2|0:3,0:0:0:0:
39,237,62708,1,2,0:3:0:0:
201,178,62874,6,0,L|184:222,3,40,12|2|2|2,0:0|0:3|0:3|0:3,0:0:0:0:
132,280,63206,2,0,P|169:268|223:273,1,80,8|0,0:2|0:0,0:0:0:0:
320,240,63537,6,0,B|369:265|369:265|370:275|370:275|439:309,1,120,8|0,0:0|0:0,0:0:0:0:
445,319,63869,2,0,P|483:304|504:273,1,80,8|0,0:0|3:2,0:0:0:0:
420,97,64200,1,8,0:0:0:0:
405,183,64366,2,0,P|426:184|456:177,1,40,0|0,3:2|0:0,0:0:0:0:
510,122,64532,5,8,0:0:0:0:
334,38,64697,1,0,3:2:0:0:
315,204,64863,2,0,P|314:183|309:155,1,40,8|0,0:0|0:0,0:0:0:0:
202,287,65029,6,0,P|244:277|290:284,1,80,0|8,3:2|0:0,0:0:0:0:
192,126,65360,2,0,P|149:135|104:129,1,80,8|8,0:0|0:0,0:0:0:0:
67,242,65692,2,0,P|57:258|48:287,2,40,0|0|8,3:2|0:0|0:0,0:0:0:0:
185,277,66023,2,0,P|189:303|194:329,2,40,0|0|8,3:2|3:2|0:0,0:0:0:0:
164,81,66355,5,0,3:2:0:0:
193,68,66438,1,0,0:0:0:0:
225,69,66521,1,8,0:0:0:0:
252,85,66603,1,0,0:0:0:0:
268,113,66686,2,0,P|260:136|263:166,3,40,8|8|8|0,3:3|3:3|0:0|0:0,0:0:0:0:
387,154,67018,6,0,P|366:167|350:187,3,40,8|8|8|8,3:3|3:3|0:0|0:0,0:0:0:0:
467,250,67349,2,0,P|449:245|422:246,3,40,8|8|8|8,0:0|0:0|0:0|0:0,0:0:0:0:
496,346,67681,6,0,P|436:329|374:335,1,120,4|0,3:2|0:0,0:0:0:0:
350,347,68012,2,0,P|318:370|274:372,1,80,0|8,3:2|0:2,0:0:0:0:
166,271,68344,1,0,3:2:0:0:
166,271,68427,1,0,0:0:0:0:
166,271,68510,2,0,L|154:140,1,120,8|0,0:2|3:0,0:0:0:0:
125,138,68841,6,0,P|120:85|175:54,1,120,8|0,0:0|0:0,0:0:0:0:
203,60,69173,1,8,0:2:0:0:
384,171,69338,1,0,3:2:0:0:
249,144,69504,1,8,0:2:0:0:
454,50,69670,2,0,B|399:55|399:55|390:65|390:65|329:70,1,120,0|0,3:2|0:0,0:0:0:0:
308,57,70001,6,0,P|289:95|294:140,1,80,0|8,3:2|0:2,0:0:0:0:
330,248,70333,1,4,3:2:0:0:
154,265,70498,1,10,0:2:0:0:
154,265,70581,1,2,0:2:0:0:
154,265,70664,1,2,3:2:0:0:
244,205,70830,1,10,3:2:0:0:
93,150,70996,1,2,3:2:0:0:
93,150,71079,1,2,0:2:0:0:
93,150,71161,2,0,L|147:158,3,40,10|0|0|0,0:2|0:0|0:0|0:0,0:0:0:0:
227,200,71493,6,0,P|284:183|346:182,1,120,8|0,0:0|0:0,0:0:0:0:
371,198,71824,2,0,P|358:162|364:115,1,80,8|2,0:0|3:2,0:0:0:0:
443,315,72156,2,0,P|465:279|471:232,1,80,8|4,0:0|3:2,0:0:0:0:
308,320,72487,1,8,0:0:0:0:
278,307,72570,1,0,0:0:0:0:
248,295,72653,1,8,3:2:0:0:
217,305,72736,1,8,0:0:0:0:
188,319,72819,1,8,0:0:0:0:
66,217,72985,6,0,L|70:165,3,40,4|2|8|2,3:2|0:3|0:0|0:3,0:0:0:0:
104,99,73316,1,2,3:2:0:0:
242,54,73482,6,0,L|246:105,3,40,12|2|2|2,3:2|0:3|0:2|0:3,0:0:0:0:
307,154,73813,2,0,L|293:241,1,80,8|0,0:0|3:0,0:0:0:0:
207,307,74145,5,8,0:0:0:0:
132,256,74311,2,0,P|130:210|163:170,1,80,4|8,3:2|0:0,0:0:0:0:
375,288,74642,2,0,P|377:334|344:374,1,80,8|8,0:0|3:3,0:0:0:0:
207,307,74974,5,8,3:3:0:0:
306,150,75139,1,8,3:3:0:0:
483,213,75305,2,0,P|490:252|489:314,1,80,8|8,0:0|0:0,0:0:0:0:
382,94,75637,6,0,P|332:62|254:67,2,120,4|4|8,3:2|3:2|3:2,0:0:0:0:
345,190,76300,6,0,L|237:199,1,80,4|0,3:2|0:0,0:0:0:0:
237,212,76548,2,0,L|141:220,1,80,4|0,3:2|0:0,0:0:0:0:
127,231,76797,1,8,3:2:0:0:
267,331,76963,6,0,P|306:327|346:301,1,80,8|0,3:2|0:0,0:0:0:0:
230,89,77294,2,0,P|191:93|151:119,1,80,8|0,3:2|0:0,0:0:0:0:
413,177,77626,5,8,3:2:0:0:
265,10,77957,1,2,0:0:0:0:
65,101,78289,6,0,P|65:141|75:194,1,80,4|2,3:2|0:0,0:0:0:0:
146,240,78620,1,8,3:2:0:0:
146,240,78703,1,2,0:0:0:0:
146,240,78786,1,2,0:0:0:0:
287,157,78952,2,0,P|344:168|395:217,1,120,0|2,3:0|0:0,0:0:0:0:
401,228,79283,2,0,P|360:237|329:266,1,80,8|2,3:2|0:0,0:0:0:0:
303,339,79532,1,2,0:0:0:0:
303,339,79615,6,0,P|268:320|224:315,1,80,2|2,3:2|0:0,0:0:0:0:
83,296,79946,1,10,3:2:0:0:
83,296,80029,1,2,0:0:0:0:
83,296,80112,1,2,0:0:0:0:
44,208,80277,2,0,P|47:146|91:103,1,120,2|2,3:2|0:2,0:0:0:0:
67,89,80609,2,0,P|109:96|171:99,1,80,10|2,3:2|0:0,0:0:0:0:
241,29,80940,6,0,L|295:37,3,40,2|2|2|2,3:2|0:2|0:2|0:2,0:0:0:0:
355,82,81272,1,10,3:2:0:0:
201,150,81438,6,0,L|251:138,3,40,2|2|2|2,0:2|0:2|3:2|0:2,0:0:0:0:
321,183,81769,1,2,0:2:0:0:
186,275,81935,6,0,L|235:240,3,40,10|2|2|2,3:2|0:2|0:2|0:2,0:0:0:0:
294,290,82266,2,0,P|333:297|372:328,1,80,6|8,3:2|0:0,0:0:0:0:
501,354,82598,6,0,P|487:332|476:312,3,40,8|8|8|8,0:0|0:0|3:3|3:3,0:0:0:0:
457,238,82929,2,0,P|470:203|466:158,1,80,8|8,3:3|3:3,0:0:0:0:
453,131,83150,2,0,L|482:119,2,26.6666666666667,2|2|10,0:0|0:0|0:2,0:0:0:0:
341,184,83427,1,8,0:2:0:0:
272,116,83592,6,0,P|304:93|363:87,1,80,6|2,3:2|0:0,0:0:0:0:
229,31,83924,1,10,3:2:0:0:
229,31,84007,1,2,0:0:0:0:
229,31,84090,1,2,0:0:0:0:
153,86,84255,2,0,P|174:138|190:213,1,120,0|2,3:0|0:0,0:0:0:0:
193,223,84587,2,0,P|154:206|104:199,1,80,8|2,3:2|0:0,0:0:0:0:
52,252,84836,1,2,0:0:0:0:
52,252,84918,6,0,P|50:292|57:339,1,80,2|2,3:2|0:0,0:0:0:0:
144,373,85250,1,10,3:2:0:0:
144,373,85333,1,2,0:0:0:0:
144,373,85416,1,2,0:0:0:0:
243,292,85581,2,0,B|315:292|282:336|382:337,1,120,2|2,3:2|0:2,0:0:0:0:
376,335,85913,2,0,P|412:304|408:259,1,80,10|2,3:2|0:0,0:0:0:0:
342,184,86244,6,0,P|364:171|376:152,3,40,2|2|2|2,3:2|0:2|0:2|0:2,0:0:0:0:
383,73,86576,1,10,3:2:0:0:
204,166,86742,6,0,P|222:172|260:171,3,40,2|2|2|2,0:2|0:2|3:2|0:2,0:0:0:0:
299,106,87073,1,2,0:2:0:0:
117,54,87239,6,0,P|125:81|142:97,3,40,10|2|2|2,3:2|0:2|0:2|0:2,0:0:0:0:
217,85,87570,2,0,P|255:75|285:48,1,80,6|8,3:2|0:0,0:0:0:0:
416,91,87902,6,0,P|415:110|430:151,3,40,8|8|8|8,0:0|0:0|0:0|0:0,0:0:0:0:
493,180,88233,2,0,P|473:215|439:234,1,80,8|8,3:0|3:0,0:0:0:0:
408,245,88454,2,0,L|424:277,2,26.6666666666667,2|2|10,0:0|0:0|3:0,0:0:0:0:
283,245,88731,1,8,3:2:0:0:
170,167,88896,6,0,B|104:210|188:258|101:316,1,160,4|0,3:2|0:0,0:0:0:0:
39,255,89394,1,0,3:0:0:0:
18,252,89476,1,0,3:0:0:0:
15,224,89559,6,0,L|301:260,1,280,8|0,0:0|0:0,0:0:0:0:
386,324,90222,6,0,B|368:262|368:262|390:275,1,80,4|2,3:2|0:0,0:0:0:0:
438,223,90471,6,0,B|420:161|420:161|442:174,1,80,0|2,0:0|0:0,0:0:0:0:
493,128,90719,6,0,B|475:66|475:66|497:79,1,80,2|4,0:0|3:2,0:0:0:0:
327,63,91134,1,0,0:0:0:0:
168,54,91382,1,0,3:0:0:0:
165,34,91465,1,0,3:0:0:0:
133,28,91548,6,0,B|139:92|139:92|174:119|174:119|184:234|184:234|147:192,1,280,4|0,3:2|0:0,0:0:0:0:
65,211,92211,6,0,B|45:241|45:241|70:279,1,80,12|0,3:2|0:0,0:0:0:0:
75,355,92460,2,0,L|165:344,1,80,0|0,3:0|0:0,0:0:0:0:
253,284,92708,2,0,B|260:303|260:303|259:327,1,40,0|0,3:0|0:0,0:0:0:0:
230,287,92874,6,0,B|153:285|156:204|188:302|344:321|326:118|266:107,1,280,4|0,3:2|0:0,0:0:0:0:
325,161,93537,6,0,P|287:171|243:154,1,80,4|0,3:2|0:0,0:0:0:0:
176,182,93786,2,0,P|147:151|136:111,1,80,0|0,3:0|0:0,0:0:0:0:
79,66,94034,2,0,P|87:39|112:18,1,40,0|0,3:0|0:0,0:0:0:0:
109,24,94200,6,0,L|153:32,5,40,2|2|2|2|2|2,0:0|0:0|0:0|0:0|0:0|0:0,0:0:0:0:
244,53,94697,5,2,3:2:0:0:
244,53,94780,1,2,3:2:0:0:
244,53,94863,2,0,B|282:43|282:43|315:71|369:57,2,120,12|2|0,3:2|0:0|3:2,0:0:0:0:
179,130,95526,1,4,3:2:0:0:
179,130,95692,6,0,B|164:85|164:85|121:77,1,80,2|0,0:0|0:0,0:0:0:0:
97,160,95940,1,2,0:0:0:0:
102,174,96023,1,2,3:2:0:0:
108,188,96106,1,2,3:2:0:0:
136,204,96189,6,0,L|126:304,1,80,12|0,3:2|0:0,0:0:0:0:
215,235,96438,2,0,L|207:314,1,80,0|0,3:0|0:0,0:0:0:0:
287,351,96686,1,0,3:0:0:0:
287,351,96769,1,0,0:0:0:0:
287,351,96852,6,0,B|296:264|296:264|307:254|307:254|314:186,2,160,4|0|2,3:2|3:0|3:2,0:0:0:0:
125,339,97764,1,2,0:0:0:0:
115,330,97847,2,0,L|26:324,1,80,0|2,0:0|0:0,0:0:0:0:
29,316,98095,1,0,0:0:0:0:
22,308,98178,1,0,3:0:0:0:
154,240,98344,1,0,3:0:0:0:
74,145,98510,5,0,3:0:0:0:
136,67,98675,1,0,3:0:0:0:
228,94,98841,5,0,3:0:0:0:
228,118,98924,1,0,3:0:0:0:
233,141,99007,1,0,3:0:0:0:
241,163,99090,1,0,3:0:0:0:
255,182,99173,1,0,3:0:0:0:
271,199,99255,1,0,3:0:0:0:
291,211,99338,1,0,3:0:0:0:
313,219,99421,1,0,3:0:0:0:
327,250,99504,6,0,L|347:210,3,40,2|2|2|2,0:0|0:0|0:0|0:0,0:0:0:0:
421,268,99836,6,0,L|419:229,5,26.6666666666667,2|2|2|0|2|2,0:0|0:2|0:2|0:2|0:2|0:2,0:0:0:0:
498,216,100168,5,10,3:2:0:0:
448,122,102322,5,2,3:2:0:0:
356,43,102571,1,2,3:2:0:0:
331,157,102819,1,10,3:2:0:0:
336,90,104974,5,2,3:2:0:0:
488,127,105223,1,2,3:2:0:0:
380,239,105471,1,10,3:2:0:0:
434,83,106466,5,2,3:2:0:0:
314,163,106797,1,2,3:2:0:0:
321,188,107377,5,2,0:0:0:0:
472,174,107626,1,2,0:0:0:0:
405,309,107875,1,2,0:0:0:0:
283,340,108040,1,2,0:0:0:0:
283,340,108123,6,0,L|197:331,1,80,6|2,3:2|0:0,0:0:0:0:
105,315,108455,2,0,P|93:327|84:349,2,40,10|2|2,0:0|0:0|3:2,0:0:0:0:
239,228,108786,2,0,P|259:178|218:105,1,120,2|2,3:2|0:0,0:0:0:0:
217,102,109118,2,0,L|121:114,1,80,10|2,0:0|3:2,0:0:0:0:
51,204,109366,1,2,0:0:0:0:
51,204,109449,6,0,L|147:192,1,80,2|2,3:2|0:0,0:0:0:0:
217,102,109781,2,0,L|228:52,2,40,10|2|2,0:2|0:0|3:2,0:0:0:0:
239,228,110112,2,0,B|295:214|295:214|310:222|310:222|361:210,1,120,2|2,0:2|0:2,0:0:0:0:
378,210,110444,2,0,P|369:252|367:303,1,80,10|8,0:2|0:0,0:0:0:0:
489,338,110775,6,0,P|433:320|357:314,1,120,4|0,3:2|3:2,0:0:0:0:
352,300,111107,2,0,P|361:338|364:385,1,80,8|0,0:0|3:2,0:0:0:0:
193,356,111438,1,2,0:0:0:0:
105,295,111604,2,0,P|163:279|207:241,1,120,0|0,3:0|0:0,0:0:0:0:
216,218,111935,6,0,P|214:174|203:115,1,80,2|0,0:0|3:2,0:0:0:0:
72,40,112267,2,0,P|67:78|66:127,1,80,0|8,0:0|0:0,0:0:0:0:
127,197,112598,1,0,3:0:0:0:
127,197,112764,1,10,0:0:0:0:
382,182,112930,2,0,P|342:185|301:199,2,80,0|8|2,3:0|0:0|0:0,0:0:0:0:
244,47,113427,6,0,P|296:81|355:91,1,120,0|0,3:2|3:0,0:0:0:0:
375,82,113759,2,0,P|415:88|460:114,1,80,8|0,0:0|3:0,0:0:0:0:
492,301,114090,1,2,0:0:0:0:
418,250,114256,1,0,3:0:0:0:
352,310,114422,2,0,P|316:325|274:328,1,80,8|8,0:0|0:0,0:0:0:0:
253,317,114670,1,8,0:0:0:0:
253,317,114753,2,0,P|216:309|194:341,1,80,0|0,3:1|3:0,0:0:0:0:
93,359,115085,5,8,0:0:0:0:
78,263,115250,2,0,B|116:208|49:176|66:120,1,120,0|8,3:0|0:0,0:0:0:0:
46,133,115582,2,0,P|39:88|52:54,1,80,2|8,3:2|0:0,0:0:0:0:
223,97,115913,1,2,0:0:0:0:
148,32,116079,6,0,P|206:40|269:10,1,120,4|0,3:2|3:0,0:0:0:0:
282,5,116411,2,0,P|314:31|326:78,1,80,10|0,0:0|3:0,0:0:0:0:
278,152,116742,1,2,0:0:0:0:
390,351,116908,1,0,0:0:0:0:
313,294,117074,2,0,P|321:254|348:218,1,80,10|0,0:0|0:0,0:0:0:0:
445,161,117405,6,0,P|422:215|361:228,1,120,4|8,3:2|3:2,0:0:0:0:
343,222,117737,2,0,P|299:216|263:227,1,80,10|0,0:2|3:2,0:0:0:0:
160,307,118068,2,0,L|146:348,2,40,8|8|8,0:0|0:0|0:0,0:0:0:0:
83,194,118400,2,0,L|28:196,2,40,8|8|8,3:2|0:0|0:0,0:0:0:0:
172,80,118731,6,0,P|211:91|252:87,1,80,6|2,3:2|0:0,0:0:0:0:
424,24,119063,1,10,0:0:0:0:
424,24,119145,1,2,0:0:0:0:
424,24,119228,1,2,3:2:0:0:
359,108,119394,2,0,P|391:156|389:221,1,120,2|2,0:0|0:2,0:0:0:0:
378,237,119726,2,0,P|418:228|469:232,1,80,10|2,0:2|3:2,0:0:0:0:
509,358,120057,6,0,P|474:348|426:342,1,80,6|2,0:0|3:2,0:0:0:0:
296,298,120388,1,8,0:0:0:0:
296,298,120471,1,2,0:0:0:0:
296,298,120554,1,10,0:0:0:0:
201,352,120720,2,0,P|169:304|171:239,1,120,2|2,3:2|0:0,0:0:0:0:
179,221,121051,2,0,P|138:222|99:212,1,80,10|8,0:0|0:0,0:0:0:0:
43,53,121383,6,0,L|54:154,1,80,4|0,3:2|0:0,0:0:0:0:
219,72,121714,2,0,L|138:81,1,80,0|0,3:2|0:0,0:0:0:0:
312,180,122046,2,0,L|308:133,2,40,0|0|0,3:2|0:0|0:0,0:0:0:0:
417,252,122377,2,0,L|470:245,2,40,2|0|0,3:2|0:0|0:0,0:0:0:0:
244,284,122709,5,0,3:2:0:0:
320,344,122875,1,0,0:0:0:0:
244,284,123040,2,0,B|176:292|176:292|167:303|167:303|125:309,1,120,2|0,3:2|0:0,0:0:0:0:
108,297,123372,2,0,P|66:258|69:193,1,120,0|0,3:2|0:0,0:0:0:0:
111,133,123703,2,0,L|211:139,1,80,2|0,3:2|0:0,0:0:0:0:
300,20,124035,6,0,P|280:56|281:104,1,80,0|0,3:2|0:0,0:0:0:0:
459,208,124366,2,0,L|359:202,1,80,2|0,3:2|0:0,0:0:0:0:
287,213,124698,2,0,P|286:186|283:157,2,40,0|0|0,3:2|0:0|0:0,0:0:0:0:
343,288,125029,2,0,P|343:311|347:334,2,40,2|0|0,3:2|0:0|0:0,0:0:0:0:
233,290,125361,5,0,3:2:0:0:
233,290,125444,2,0,L|133:296,1,80
133,308,125692,2,0,P|93:298|71:263,1,80,2|0,3:2|0:0,0:0:0:0:
40,231,125941,1,0,0:0:0:0:
40,231,126024,2,0,L|60:139,1,80,0|0,3:2|0:0,0:0:0:0:
198,10,126355,6,0,L|178:102,1,80,2|0,3:2|0:0,0:0:0:0:
187,218,126687,5,4,3:2:0:0:
187,218,126770,2,0,L|275:201,1,80
265,202,127018,2,0,L|352:223,1,80,0|2,3:2|0:0,0:0:0:0:
185,350,127350,5,0,3:2:0:0:
185,350,127433,2,0,L|273:367,1,80
263,366,127681,2,0,L|350:345,1,80,0|2,3:2|0:0,0:0:0:0:
422,286,128013,6,0,L|504:289,1,80,0|2,3:2|0:0,0:0:0:0:
264,283,128344,2,0,L|322:284,2,40,0|0|2,3:2|0:0|0:0,0:0:0:0:
31,278,128676,2,0,L|113:281,1,80,0|2,3:2|0:0,0:0:0:0:
134,282,128924,1,0,0:0:0:0:
134,281,129007,1,0,3:2:0:0:
278,284,129173,5,2,0:0:0:0:
422,286,129339,2,0,B|431:197|431:197|461:182,1,120,4|8,3:2|0:2,0:0:0:0:
480,174,129670,2,0,L|412:110,1,80,8|8,3:2|0:2,0:0:0:0:
315,181,130002,2,0,B|278:99|278:99|296:71,1,120,8|8,3:2|0:2,0:0:0:0:
309,55,130333,2,0,L|218:33,1,80,8|8,3:2|0:2,0:0:0:0:
90,98,130665,6,0,B|92:142|92:142|70:177,1,80,4|4,3:3|3:3,0:0:0:0:
16,174,130913,2,0,B|56:192|56:192|70:234,1,80,4|0,3:3|0:0,0:0:0:0:
35,273,131162,2,0,B|77:267|77:267|104:297,1,80,4|8,3:3|3:2,0:0:0:0:
203,329,131493,1,8,0:0:0:0:
203,329,131576,1,8,0:0:0:0:
203,329,131659,2,0,L|293:350,1,80,8|8,0:3|0:3,0:0:0:0:
471,279,131991,5,4,3:3:0:0:
417,76,132239,1,4,3:3:0:0:
218,142,132488,1,4,3:3:0:0:
362,186,132654,5,4,3:3:0:0:
362,186,133317,6,0,P|318:147|245:138,1,120,4|0,3:2|0:0,0:0:0:0:
259,103,133648,2,0,L|164:119,1,80,2|8,0:0|0:0,0:0:0:0:
2,51,133980,1,2,0:0:0:0:
2,51,134063,1,0,0:0:0:0:
2,51,134145,2,0,B|54:43|54:43|70:52|70:52|119:41,1,120,8|0,0:0|0:0,0:0:0:0:
149,50,134477,6,0,P|164:109|133:163,1,120,8|0,0:0|0:0,0:0:0:0:
110,175,134808,1,8,0:0:0:0:
115,338,134974,1,2,3:2:0:0:
32,289,135140,2,0,P|16:251|21:204,1,80,8|2,0:0|0:0,0:0:0:0:
139,257,135471,1,0,0:0:0:0:
318,193,135637,6,0,P|336:153|336:114,1,80,2|8,0:0|0:0,0:0:0:0:
253,41,135969,2,0,L|243:129,1,80,6|8,3:2|0:0,0:0:0:0:
395,251,136300,2,0,L|385:163,1,80,2|8,0:0|0:0,0:0:0:0:
167,70,136632,1,2,0:0:0:0:
167,70,136714,1,0,0:0:0:0:
167,70,136797,2,0,P|126:76|92:99,1,80,8|0,0:0|0:0,0:0:0:0:
143,221,137129,6,0,B|192:225|221:191|221:191|252:210,1,120,8|0,0:0|0:0,0:0:0:0:
280,202,137460,2,0,L|269:294,1,80,8|2,0:0|0:0,0:0:0:0:
202,360,137792,1,8,0:0:0:0:
98,308,137958,2,0,P|58:304|21:285,1,80,2|0,3:2|0:0,0:0:0:0:
98,144,138289,2,0,P|138:148|175:167,1,80,2|8,3:2|0:0,0:0:0:0:
270,115,138621,6,0,L|285:61,3,40,4|2|10|2,0:0|0:3|0:2|0:3,0:0:0:0:
370,26,138952,1,2,0:3:0:0:
389,164,139118,6,0,L|402:201,3,40,12|2|2|2,0:0|0:3|0:3|0:3,0:0:0:0:
495,234,139449,2,0,P|481:272|473:330,1,80,8|0,0:2|0:0,0:0:0:0:
344,376,139781,5,8,0:0:0:0:
327,281,139947,2,0,P|277:251|207:264,1,120
188,245,140278,2,0,P|157:271|104:275,1,80,0|8,3:2|0:0,0:0:0:0:
23,170,140609,2,0,P|22:197|32:222,1,40,0|0,3:2|0:0,0:0:0:0:
34,299,140775,5,8,0:0:0:0:
141,163,140941,1,0,3:2:0:0:
54,48,141107,2,0,P|82:39|108:40,1,40,8|0,0:0|0:0,0:0:0:0:
242,55,141272,6,0,P|282:57|326:38,1,80,0|8,3:2|0:0,0:0:0:0:
452,261,141604,2,0,P|412:259|368:278,1,80,0|8,0:0|0:0,0:0:0:0:
430,109,141935,2,0,P|446:95|468:68,2,40,0|0|8,3:2|0:0|0:0,0:0:0:0:
275,208,142267,2,0,P|259:222|237:249,2,40,0|0|8,3:2|3:2|0:0,0:0:0:0:
170,126,142598,5,0,3:2:0:0:
141,112,142681,1,0,0:0:0:0:
107,108,142764,1,8,0:0:0:0:
76,116,142847,1,0,0:0:0:0:
48,132,142930,1,8,3:3:0:0:
30,158,143013,1,8,3:3:0:0:
20,188,143096,1,8,0:0:0:0:
21,220,143179,1,0,0:0:0:0:
33,248,143261,6,0,L|37:297,3,40,8|8|8|8,3:3|3:3|0:0|0:0,0:0:0:0:
132,285,143593,2,0,L|102:334,3,40,8|8|8|8,0:0|0:0|0:0|0:0,0:0:0:0:
199,351,143924,6,0,B|172:369|172:369|224:366|224:366|257:347,1,120,4|0,3:2|0:0,0:0:0:0:
287,347,144256,2,0,P|294:308|322:280,1,80,0|8,3:2|0:2,0:0:0:0:
495,241,144587,1,0,3:2:0:0:
495,241,144670,1,0,0:0:0:0:
495,241,144753,2,0,B|449:232|449:232|439:220|439:220|380:207,1,120,8|0,0:2|3:0,0:0:0:0:
371,177,145085,6,0,B|313:183|313:183|299:176|299:176|250:182,1,120,8|0,0:0|0:0,0:0:0:0:
227,162,145416,1,8,0:2:0:0:
345,91,145582,2,0,L|452:79,1,80,0|8,3:2|0:2,0:0:0:0:
243,52,145913,1,0,3:2:0:0:
243,52,146079,1,8,0:0:0:0:
130,192,146245,6,0,P|126:150|143:106,1,80,0|8,3:2|0:2,0:0:0:0:
236,285,146576,1,4,3:2:0:0:
227,162,146742,1,10,0:2:0:0:
227,162,146825,1,2,0:2:0:0:
227,162,146908,1,2,3:2:0:0:
350,230,147074,1,10,3:2:0:0:
322,147,147239,1,2,3:2:0:0:
322,147,147322,1,2,0:2:0:0:
322,147,147405,2,0,P|340:130|347:107,1,40,10|0,0:2|0:0,0:0:0:0:
424,82,147571,2,0,P|425:60|417:31,1,40
269,11,147737,6,0,B|221:9|199:52|147:50,1,120,8|0,0:0|0:0,0:0:0:0:
126,39,148068,2,0,L|117:128,1,80,8|2,0:0|3:2,0:0:0:0:
193,263,148400,2,0,L|202:174,1,80,8|4,0:0|3:2,0:0:0:0:
25,240,148731,1,8,0:0:0:0:
56,247,148814,1,0,0:0:0:0:
80,268,148897,1,8,3:2:0:0:
89,298,148980,1,8,0:0:0:0:
85,329,149063,1,8,0:0:0:0:
230,370,149228,6,0,L|290:359,3,40,4|2|8|2,3:2|0:3|0:0|0:3,0:0:0:0:
353,316,149560,1,2,3:2:0:0:
180,239,149726,6,0,L|240:264,3,40,12|2|2|2,3:2|0:3|0:2|0:3,0:0:0:0:
299,221,150057,2,0,L|394:195,2,80,8|0|8,0:0|3:0|0:0,0:0:0:0:
247,111,150554,5,4,3:2:0:0:
157,57,150720,1,8,0:0:0:0:
84,131,150886,1,8,0:0:0:0:
139,218,151051,1,8,3:3:0:0:
293,207,151217,5,8,3:3:0:0:
395,223,151383,1,8,3:3:0:0:
405,326,151549,1,8,0:0:0:0:
309,366,151714,1,8,0:0:0:0:
180,281,151880,6,0,L|54:294,2,120,4|4|8,3:2|3:2|3:2,0:0:0:0:
289,190,152543,6,0,L|384:216,1,80,4|0,3:2|0:0,0:0:0:0:
389,233,152792,2,0,L|474:214,1,80,4|0,3:2|0:0,0:0:0:0:
498,219,153040,1,8,3:2:0:0:
449,91,153206,6,0,P|408:95|363:117,1,80,8|0,3:2|0:0,0:0:0:0:
315,342,153538,2,0,P|356:338|401:316,1,80,8|0,3:2|0:0,0:0:0:0:
366,211,153869,6,0,L|231:218,1,120,8|0,3:2|0:0,0:0:0:0:
172,209,154201,6,0,L|231:195,1,60,2|2,0:0|0:0,0:0:0:0:
151,194,154532,6,0,L|78:184,1,64,4|0,3:2|0:0,0:0:0:0:
114,111,154781,2,0,L|99:44,1,64,0|0,3:0|0:0,0:0:0:0:
180,55,155029,2,0,L|246:22,1,64,0|8,3:0|0:0,0:0:0:0:
314,67,155278,1,8,0:0:0:0:
319,78,155361,1,8,0:0:0:0:
324,89,155444,1,8,0:0:0:0:
329,100,155527,6,0,L|357:160,1,64,4|0,3:2|0:0,0:0:0:0:
401,247,155775,2,0,L|322:231,1,64,0|0,3:0|0:0,0:0:0:0:
280,181,156024,2,0,L|249:241,1,64,0|8,3:0|0:0,0:0:0:0:
270,319,156272,1,8,0:0:0:0:
258,324,156355,1,8,0:0:0:0:
246,330,156438,1,8,0:0:0:0:
234,335,156521,6,0,L|159:307,1,64,4|0,3:2|0:0,0:0:0:0:
96,313,156770,2,0,L|99:239,1,64,0|0,3:0|0:0,0:0:0:0:
41,194,157018,2,0,L|99:144,1,64,0|4,3:0|0:3,0:0:0:0:
214,47,157405,5,4,0:3:0:0:
409,164,157626,1,4,0:3:0:0:
409,62,157847,2,0,B|351:55|345:102|295:106,1,106.666666666667,4|2,3:2|3:0,0:0:0:0:
194,196,158288,5,0,3:2:0:0:
194,196,158399,1,0,3:2:0:0:
194,196,158509,2,0,P|245:179|267:236,1,106.666666666667,0|0,3:2|3:2,0:0:0:0:
357,342,158951,1,0,3:2:0:0:
357,342,159062,1,0,3:2:0:0:
357,342,159172,2,0,P|328:300|356:257,1,106.666666666667,0|0,3:2|3:2,0:0:0:0:
458,305,159604,5,0,3:2:0:0:
458,305,159712,1,0,3:2:0:0:
458,305,159820,2,0,L|521:294,2,53.3333333333333,0|0|0,3:2|3:2|3:2,0:0:0:0:
384,365,160144,6,0,L|263:353,1,106.666666666667,0|0,3:2|0:0,0:0:0:0:
188,339,160469,1,0,3:2:0:0:
188,339,160689,1,0,3:2:0:0:
49,246,160910,5,0,3:2:0:0:
49,246,161021,1,0,3:2:0:0:
49,246,161131,2,0,P|32:294|81:319,1,106.666666666667,0|0,3:2|3:2,0:0:0:0:
225,236,161573,1,0,3:2:0:0:
225,236,161684,1,0,3:2:0:0:
225,236,161794,2,0,P|179:216|149:256,1,106.666666666667,0|0,3:2|3:2,0:0:0:0:
325,264,162236,5,0,3:2:0:0:
325,264,162347,1,0,3:2:0:0:
325,264,162457,2,0,L|334:336,2,53.3333333333333,2|0|0,0:0|0:0|0:0,0:0:0:0:
263,212,162789,6,0,L|249:101,1,106.666666666667,2|0,0:2|0:0,0:0:0:0:
322,52,163150,6,0,B|356:34|356:34|435:58,2,106.666666666667,4|0|0,3:2|3:2|3:2,0:0:0:0:
360,126,163702,1,0,3:2:0:0:
360,126,163812,2,0,B|337:150|337:150|377:226,1,106.666666666667,0|0,3:2|3:2,0:0:0:0:
455,227,164144,6,0,L|452:160,2,53.3333333333333,0|0|0,3:2|3:2|3:2,0:0:0:0:
492,310,164475,2,0,B|504:329|504:329|412:303,1,106.666666666667,0|0,3:2|3:2,0:0:0:0:
338,338,164807,6,0,L|345:278,2,53.3333333333333,0|0|0,3:2|3:2|3:2,0:0:0:0:
246,353,165138,2,0,B|209:376|209:376|218:310,1,106.666666666667,0|0,3:2|3:2,0:0:0:0:
272,245,165470,2,0,L|287:125,1,106.666666666667,0|0,3:2|0:0,0:0:0:0:
266,61,165801,6,0,B|189:50|189:50|201:97,1,106.666666666667,4|0,3:2|3:2,0:0:0:0:
150,162,166133,1,0,3:2:0:0:
150,162,166243,2,0,L|208:159,1,53.3333333333333,0|0,3:2|3:2,0:0:0:0:
75,125,166464,6,0,B|50:77|50:77|70:20,1,106.666666666667,0|0,3:2|3:2,0:0:0:0:
203,40,166796,1,0,3:0:0:0:
203,40,166906,2,0,L|145:43,1,53.3333333333333,0|0,3:2|3:2,0:0:0:0:
278,77,167127,6,0,B|303:125|303:125|283:182,1,106.666666666667,0|8,3:2|0:0,0:0:0:0:
308,263,167459,2,0,L|286:326,2,53.3333333333333,8|0|8,3:2|0:0|3:2,0:0:0:0:
382,321,167790,6,0,L|459:344,2,53.3333333333333,8|8|8,3:2|3:2|3:2,0:0:0:0:
216,265,168122,2,0,L|145:235,2,53.3333333333333,8|8|8,3:2|3:2|3:2,0:0:0:0:
280,345,168453,6,0,B|309:262|309:262|341:249,1,106.666666666667,4|0,3:2|0:0,0:0:0:0:
409,225,168785,1,2,0:0:0:0:
409,225,168895,1,0,0:0:0:0:
409,225,169006,1,0,0:0:0:0:
409,225,169116,2,0,L|449:115,1,106.666666666667,0|0,3:0|0:0,0:0:0:0:
384,43,169448,1,2,0:0:0:0:
384,43,169558,1,0,0:0:0:0:
384,43,169669,1,0,0:0:0:0:
384,43,169779,2,0,B|345:77|345:77|353:138,1,106.666666666667,0|0,3:0|0:0,0:0:0:0:
250,160,170111,6,0,P|245:117|230:146,1,106.666666666667,2|0,0:0|0:0,0:0:0:0:
160,87,170442,2,0,P|126:60|135:91,1,106.666666666667,0|0,3:0|0:0,0:0:0:0:
61,145,170774,2,0,P|18:150|47:164,1,106.666666666667,2|0,0:0|0:0,0:0:0:0:
89,243,171105,6,0,L|120:354,1,106.666666666667,4|0,3:2|0:0,0:0:0:0:
223,286,171437,1,2,0:0:0:0:
223,286,171547,1,0,0:0:0:0:
223,286,171658,1,0,0:0:0:0:
223,286,171768,2,0,L|245:171,1,106.666666666667,0|0,3:0|0:0,0:0:0:0:
337,94,172100,1,2,0:0:0:0:
337,94,172210,1,0,0:0:0:0:
337,94,172321,1,0,0:0:0:0:
337,94,172431,2,0,L|364:200,1,106.666666666667,0|0,3:0|0:0,0:0:0:0:
442,305,172763,5,2,0:0:0:0:
442,305,172873,1,0,0:0:0:0:
442,305,172984,1,0,0:0:0:0:
442,305,173094,2,0,L|324:315,1,106.666666666667,0|0,3:0|0:0,0:0:0:0:
224,355,173426,2,0,P|216:318|234:347,1,106.666666666667,2|0,0:0|0:0,0:0:0:0:
268,243,173757,2,0,P|276:206|258:235,1,106.666666666667,4|0,3:2|0:0,0:0:0:0:
135,176,174089,5,2,0:0:0:0:
135,176,174199,1,0,0:0:0:0:
135,176,174310,1,0,0:0:0:0:
135,176,174420,2,0,P|88:183|73:242,1,106.666666666667,0|0,3:0|0:0,0:0:0:0:
21,332,174752,1,2,0:0:0:0:
21,332,174862,1,0,0:0:0:0:
21,332,174973,1,0,0:0:0:0:
21,332,175083,2,0,P|70:317|145:308,1,106.666666666667,0|0,3:2|0:0,0:0:0:0:
232,336,175415,5,2,0:0:0:0:
232,336,175525,1,0,0:0:0:0:
232,336,175636,1,0,0:0:0:0:
232,336,175746,2,0,P|254:283|215:251,1,106.666666666667,0|0,3:0|0:0,0:0:0:0:
245,135,176078,2,0,P|249:109|250:128,1,106.666666666667,2|0,0:0|0:0,0:0:0:0:
351,73,176409,2,0,P|387:60|358:83,1,106.666666666667,4|0,3:2|0:0,0:0:0:0:
384,218,176741,5,2,0:0:0:0:
384,218,176851,1,0,0:0:0:0:
384,218,176962,1,0,0:0:0:0:
384,218,177072,2,0,P|399:168|455:166,1,106.666666666667,0|0,3:0|0:0,0:0:0:0:
350,317,177404,1,2,0:0:0:0:
350,317,177514,1,0,0:0:0:0:
350,317,177625,1,0,0:0:0:0:
350,317,177735,2,0,B|324:304|299:313|299:313|309:278|298:242,1,106.666666666667,0|0,3:0|0:0,0:0:0:0:
185,189,178067,6,0,P|143:183|167:206,1,106.666666666667,2|0,0:0|0:0,0:0:0:0:
91,312,178398,1,0,3:0:0:0:
91,312,178509,1,0,3:0:0:0:
91,312,178619,1,0,3:0:0:0:
91,312,178730,2,0,P|130:295|105:329,1,106.666666666667,2|0,0:0|0:0,0:0:0:0:
244,313,179061,6,0,L|149:259,1,106.666666666667,4|0,3:2|3:0,0:0:0:0:
38,225,179393,2,0,B|14:240|14:240|9:282,2,53.3333333333333,0|0|0,3:0|3:0|3:0,0:0:0:0:
80,107,179724,2,0,B|81:157|81:157|142:193,1,106.666666666667,8|0,0:0|3:0,0:0:0:0:
175,61,180056,2,0,B|174:37|174:37|150:17,2,53.3333333333333,0|0|0,3:0|3:0|3:0,0:0:0:0:
260,92,180387,2,0,B|310:68|310:68|361:102,1,106.666666666667,0|0,3:0|3:0,0:0:0:0:
369,109,180719,5,8,3:2:0:0:
451,189,180940,1,0,3:0:0:0:
429,190,181050,1,8,0:0:0:0:
325,221,181271,1,0,3:0:0:0:
337,203,181382,2,0,B|311:245|311:245|328:302,1,106.666666666667,0|0,3:0|0:0,0:0:0:0:
452,339,181713,2,0,B|373:328|373:328|348:344,1,106.666666666667,4|0,3:2|3:0,0:0:0:0:
242,349,182045,5,0,3:2:0:0:
242,349,182155,2,0,L|192:381,1,53.3333333333333,0|0,3:2|3:2,0:0:0:0:
120,316,182376,1,8,3:2:0:0:
120,316,182487,2,0,L|45:304,1,53.3333333333333,0|0,3:2|3:2,0:0:0:0:
48,181,182708,1,0,3:2:0:0:
48,181,182818,2,0,L|86:217,1,53.3333333333333,0|0,3:2|3:2,0:0:0:0:
146,83,183039,1,0,3:2:0:0:
146,83,183149,2,0,L|143:136,1,53.3333333333333,0|0,3:0|3:2,0:0:0:0:
240,161,183370,6,0,L|282:110,2,53.3333333333333,0|0|0,3:0|3:0|3:0,0:0:0:0:
261,313,183702,2,0,L|299:363,2,53.3333333333333,8|0|0,3:2|3:0|3:0,0:0:0:0:
174,252,184033,2,0,P|217:247|286:226,1,106.666666666667,0|0,3:0|0:0,0:0:0:0:
303,214,184365,1,4,3:2:0:0:
441,132,184586,5,0,3:0:0:0:
464,150,184696,2,0,P|485:199|482:274,1,106.666666666667,0|0,3:0|3:0,0:0:0:0:
473,276,185028,5,0,3:0:0:0:
370,92,185249,1,0,3:0:0:0:
403,289,185470,2,0,P|411:262|408:230,1,53.3333333333333,0|0,3:0|3:0,0:0:0:0:
326,161,185691,6,0,P|319:136|296:112,2,53.3333333333333,0|0|0,3:0|3:0|3:0,0:0:0:0:
305,318,186022,2,0,P|330:309|349:291,2,53.3333333333333,0|0|0,3:0|3:0|3:0,0:0:0:0:
174,252,186354,6,0,P|217:247|286:226,1,106.666666666667,0|0,3:0|3:0,0:0:0:0:
316,246,186685,2,0,P|355:217|369:158,1,106.666666666667,0|0,3:0|0:0,0:0:0:0:
366,128,187017,1,4,3:2:0:0:
214,49,187238,5,0,3:0:0:0:
189,72,187348,2,0,P|177:126|218:168,1,106.666666666667,0|0,3:0|3:0,0:0:0:0:
335,214,187680,2,0,P|322:196|291:182,2,53.3333333333333,0|0|0,3:0|3:0|3:0,0:0:0:0:
357,301,188011,2,0,P|383:304|411:291,2,53.3333333333333,0|0|0,3:0|3:0|3:0,0:0:0:0:
276,280,188343,5,0,3:0:0:0:
148,321,188564,1,0,3:0:0:0:
140,347,188674,1,0,3:0:0:0:
48,278,188895,1,0,3:0:0:0:
35,254,189006,2,0,P|21:204|37:148,1,106.666666666667,0|0,3:0|0:0,0:0:0:0:
60,130,189337,2,0,B|134:114|134:161|179:144,1,106.666666666667,2|0,3:2|0:0,0:0:0:0:
225,61,189669,6,0,P|300:51|353:110,1,160,4|0,3:2|3:0,0:0:0:0:
506,177,190166,2,0,L|483:236,1,40,10|0,0:0|0:0,0:0:0:0:
496,314,190332,2,0,P|429:271|343:263,1,160,0|0,3:0|3:0,0:0:0:0:
201,239,190829,2,0,L|190:183,1,40,10|0,0:0|0:0,0:0:0:0:
279,174,190995,2,0,L|269:120,3,40,0|0|10|0,0:0|0:0|0:0|0:0,0:0:0:0:
140,69,191326,2,0,P|78:81|63:144,1,120,0|0,3:0|0:0,0:0:0:0:
35,150,191658,2,0,P|45:183|50:245,1,80,0|10,3:0|0:0,0:0:0:0:
125,377,191989,2,0,P|132:339|148:291,1,80,0|10,3:0|0:0,0:0:0:0:
237,188,192321,6,0,L|251:237,3,40,0|0|10|0,3:0|0:0|0:0|0:0,0:0:0:0:
322,287,192652,2,0,L|383:276,3,40,0|0|10|0,3:0|3:0|0:0|0:0,0:0:0:0:
476,340,192984,2,0,L|443:302,3,40,0|0|10|0,3:0|0:0|0:0|0:0,0:0:0:0:
431,218,193315,5,0,3:0:0:0:
439,187,193398,1,0,3:0:0:0:
446,155,193481,2,0,B|462:135|492:134|492:134|474:72|394:81,1,160,10|10,0:0|0:0,0:0:0:0:
385,59,193895,1,0,0:0:0:0:
354,48,193978,1,0,3:0:0:0:
321,48,194061,1,0,3:0:0:0:
290,57,194144,1,10,0:0:0:0:
267,79,194227,1,0,0:0:0:0:
258,109,194310,2,0,L|270:166,3,40,0|0|10|0,3:0|0:0|0:0|0:0,0:0:0:0:
146,109,194641,6,0,L|175:145,1,40,8|8,3:2|3:2,0:0:0:0:
48,166,194807,2,0,L|103:186,1,40,10|8,3:2|3:2,0:0:0:0:
127,285,194973,5,12,3:2:0:0:
159,285,195056,1,0,0:0:0:0:
187,298,195138,1,10,0:0:0:0:
209,320,195221,1,0,0:0:0:0:
219,350,195304,1,0,3:0:0:0:
250,357,195387,1,0,3:0:0:0:
281,349,195470,1,10,0:0:0:0:
298,322,195553,1,0,0:0:0:0:
321,300,195636,1,0,3:0:0:0:
316,268,195719,1,0,0:0:0:0:
325,237,195801,1,10,0:0:0:0:
350,217,195884,1,0,0:0:0:0:
370,192,195967,1,0,3:0:0:0:
381,162,196050,1,0,3:0:0:0:
379,129,196133,1,10,0:0:0:0:
366,99,196216,6,0,P|327:78|280:76,1,80
210,36,196464,2,0,L|160:30,3,40,10|0|0|0,0:0|0:0|3:0|3:0,0:0:0:0:
54,93,196796,2,0,L|102:88,3,40,10|0|0|0,0:0|0:0|3:0|0:0,0:0:0:0:
205,169,197127,6,0,L|139:162,1,40,10|0,0:0|0:0,0:0:0:0:
59,251,197293,1,2,3:2:0:0:
90,246,197376,1,2,3:2:0:0:
121,240,197459,1,10,0:2:0:0:
143,262,197542,1,2,0:2:0:0:
163,286,197625,6,0,P|207:290|254:300,1,80,2|10,3:2|0:0,0:0:0:0:
388,135,197956,2,0,P|374:175|369:230,1,80,0|10,3:0|0:0,0:0:0:0:
465,310,198205,5,4,0:2:0:0:
465,310,198288,2,0,P|451:270|446:215,1,80,6|8,3:2|0:0,0:0:0:0:
320,60,198619,2,0,P|279:70|229:74,1,80,0|8,3:0|0:0,0:0:0:0:
79,109,198951,5,6,3:2:0:0:
59,134,199033,1,2,0:2:0:0:
54,165,199116,1,2,0:2:0:0:
64,195,199199,1,2,0:2:0:0:
88,215,199282,2,0,L|142:209,1,40,2|2,3:2|3:2,0:0:0:0:
221,160,199448,2,0,L|272:154,1,40,10|2,0:2|0:2,0:0:0:0:
368,212,199614,5,2,0:3:0:0:
394,228,199696,1,2,0:3:0:0:
409,256,199779,1,2,0:3:0:0:
410,288,199862,1,2,0:3:0:0:
399,318,199945,2,0,L|346:328,3,40,2|2|2|2,0:3|0:3|0:3|0:3,0:0:0:0:
200,354,200277,5,4,3:2:0:0:
178,330,200359,1,0,0:0:0:0:
147,321,200442,1,10,0:0:0:0:
116,329,200525,1,2,0:0:0:0:
92,307,200608,2,0,P|100:266|96:213,1,80,2|8,3:2|0:0,0:0:0:0:
72,209,200857,1,0,0:0:0:0:
82,178,200940,1,2,0:0:0:0:
76,146,201022,1,2,0:0:0:0:
55,121,201105,1,10,0:0:0:0:
160,48,201271,6,0,L|168:-11,2,40,0|0|10,3:0|3:0|0:0,0:0:0:0:
234,146,201603,6,0,P|227:183|223:246,1,80,0|10,0:0|0:0,0:0:0:0:
310,94,201934,2,0,P|350:102|414:106,1,80,0|8,3:0|0:0,0:0:0:0:
370,285,202266,6,0,P|330:277|266:273,1,80,2|8,3:2|0:0,0:0:0:0:
402,189,202514,2,0,P|395:226|391:289,1,80,2|0,0:0|0:0,0:0:0:0:
318,194,202763,1,10,0:0:0:0:
483,335,202929,6,0,P|460:332|437:325,1,40,2|0,3:2|0:0,0:0:0:0:
339,225,203094,2,0,P|281:232|212:255,1,120,8|0,0:0|3:0,0:0:0:0:
84,221,203426,2,0,P|75:197|74:172,1,40,8|0,0:0|0:0,0:0:0:0:
155,156,203591,6,0,P|164:180|165:205,1,40,2|0,3:2|0:0,0:0:0:0:
72,302,203757,2,0,P|153:306|232:334,1,160,8|8,0:0|0:0,0:0:0:0:
389,315,204172,1,0,0:0:0:0:
389,315,204254,2,0,P|398:275|397:236,1,80,2|10,3:2|0:0,0:0:0:0:
293,164,204503,1,0,0:0:0:0:
293,164,204586,2,0,P|285:202|293:253,1,80,2|2,3:2|0:0,0:0:0:0:
466,142,204835,1,0,0:0:0:0:
466,142,204917,2,0,P|465:98|452:57,1,80,6|10,3:2|0:0,0:0:0:0:
431,41,205166,1,10,0:0:0:0:
400,30,205249,1,10,0:0:0:0:
368,36,205332,1,10,0:0:0:0:
341,53,205415,1,10,0:0:0:0:
309,56,205498,1,10,0:0:0:0:
277,50,205580,6,0,L|235:38,3,40,2|2|10|2,0:2|0:2|0:2|0:2,0:0:0:0:
127,19,205912,2,0,L|141:73,3,40,2|2|10|2,3:2|0:2|0:2|0:2,0:0:0:0:
41,120,206243,6,0,P|31:138|32:174,1,40,2|2,3:2|0:2,0:0:0:0:
63,254,206409,2,0,P|84:274|108:279,1,40,10|2,0:2|0:2,0:0:0:0:
192,257,206575,2,0,P|216:249|234:222,3,40,2|2|10|2,3:2|0:2|0:2|0:2,0:0:0:0:
300,170,206906,6,0,P|290:148|290:126,1,40,6|2,0:2|0:0,0:0:0:0:
378,60,207072,2,0,P|401:57|427:71,1,40,2|2,0:0|0:0,0:0:0:0:
486,160,207238,2,0,P|481:190|469:215,3,40,8|8|8|8,0:0|0:0|0:0|0:0,0:0:0:0:
458,315,207569,5,8,0:0:0:0:
434,312,207652,1,8,0:0:0:0:
410,315,207735,1,8,0:0:0:0:
389,326,207818,1,8,0:0:0:0:
367,336,207901,1,8,3:3:0:0:
343,339,207984,1,8,3:3:0:0:
319,340,208067,1,8,3:3:0:0:
295,336,208149,1,8,3:3:0:0:
271,329,208232,6,0,P|232:330|177:347,1,80,4|0,3:2|3:0,0:0:0:0:
12,285,208564,1,0,3:0:0:0:
98,232,208730,2,0,P|136:235|180:250,1,80,4|0,0:0|3:0,0:0:0:0:
312,169,209061,1,0,3:0:0:0:
224,116,209227,2,0,P|184:119|137:138,1,80,4|0,0:0|3:0,0:0:0:0:
33,88,209558,6,0,B|18:66|42:58|25:28,5,40,4|0|0|0|0|0,0:0|0:0|3:0|3:0|3:0|3:0,0:0:0:0:
160,194,210056,6,0,B|176:168|163:156|174:142,5,40,4|0|0|0|0|0,0:0|0:0|3:0|3:0|3:0|3:0,0:0:0:0:
50,281,210553,6,0,P|49:307|59:331,1,40,4|0,0:0|0:0,0:0:0:0:
128,276,210719,2,0,P|132:294|130:319,1,40
227,359,210884,2,0,P|273:318|263:251,1,120,4|4,0:0|0:0,0:0:0:0:
440,263,211216,5,0,0:0:0:0:
433,231,211299,1,2,0:0:0:0:
449,203,211382,1,4,0:0:0:0:
451,171,211464,1,2,0:0:0:0:
470,145,211547,6,0,P|476:120|470:88,3,40,2|2|8|8,0:0|0:0|0:0|0:0,0:0:0:0:
273,50,211879,2,0,P|267:75|273:107,3,40,8|2|8|8,0:0|0:0|0:0|0:0,0:0:0:0:
350,103,212210,6,0,L|390:100,1,40,10|0,0:2|0:0,0:0:0:0:
469,75,212376,6,0,B|404:81|404:81|350:116|350:116|280:120,1,200,10|0,0:2|0:0,0:0:0:0:
191,85,212873,5,10,3:2:0:0:
46,169,213536,5,4,3:3:0:0:
155,172,214696,5,8,3:2:0:0:
213,260,215194,6,0,L|244:255,3,32,8|8|0|0,0:0|0:0|3:0|3:0,0:0:0:0:
320,224,215525,1,0,3:0:0:0:
251,165,215691,6,0,P|189:181|151:187,1,96,4|4,0:0|0:0,0:0:0:0:
46,169,216188,1,4,3:3:0:0:
421,230,217348,6,0,P|436:154|366:100,1,160,4|2,3:2|0:0,0:0:0:0:
132,102,217846,1,10,3:2:0:0:
132,102,218177,6,0,P|76:155|75:199,1,120,10|8,3:2|0:0,0:0:0:0:
91,230,218509,2,0,L|144:223,3,40,8|8|8|8,3:2|0:0|0:0|0:0,0:0:0:0:
208,246,218840,5,0,3:2:0:0:
232,266,218923,1,8,3:3:0:0:
231,298,219006,1,8,0:0:0:0:
250,323,219089,1,8,0:0:0:0:
281,330,219172,1,8,3:3:0:0:
310,221,219337,1,8,0:0:0:0:
337,236,219420,1,8,0:0:0:0:
349,265,219503,1,8,3:3:0:0:
364,236,219586,1,8,3:3:0:0:
395,228,219669,2,0,P|415:203|410:164,1,40,8|0,0:0|0:3,0:0:0:0:
495,164,219835,2,0,P|471:128|486:69,1,80,8|8,3:3|0:0,0:0:0:0:
501,42,220083,1,8,0:0:0:0:
512,24,220166,6,0,L|391:33,1,120,8|8,3:2|3:3,0:0:0:0:
317,16,220498,2,0,P|306:57|304:108,1,80,8|8,3:3|3:3,0:0:0:0:
178,266,220829,5,8,3:2:0:0:
212,77,220995,1,8,0:0:0:0:
257,162,221161,6,0,L|264:224,1,40,8|8,3:2|0:0,0:0:0:0:
332,242,221326,2,0,L|320:281,1,40,8|8,0:0|0:0,0:0:0:0:
248,326,222321,6,0,P|229:275|236:201,2,120,4|4|4,3:2|3:2|3:2,0:0:0:0:
223,346,222901,1,8,0:0:0:0:
191,353,222984,1,8,0:0:0:0:
158,352,223067,1,8,0:0:0:0:
127,343,223149,1,10,3:2:0:0:
98,327,223232,1,8,3:3:0:0:
79,301,223315,1,8,0:2:0:0:
68,270,223398,1,8,0:2:0:0:
71,238,223481,6,0,L|90:193,3,40,10|0|8|8,3:2|0:0|0:2|0:2,0:0:0:0:
44,123,223812,2,0,L|60:83,3,40,10|8|8|8,3:2|3:3|0:2|0:2,0:0:0:0:
192,53,224144,6,0,P|257:42|312:89,1,138.000002632141,8|0,3:2|0:0,0:0:0:0:
345,63,224475,2,0,P|340:111|359:157,1,92.0000017547608,0|8,3:2|0:2,0:0:0:0:
478,251,224807,1,0,3:2:0:0:
478,251,224890,1,0,0:0:0:0:
478,251,224973,2,0,P|403:254|360:331,1,138.000002632141,8|0,0:2|3:0,0:0:0:0:
353,258,225304,6,0,P|294:226|214:260,1,138.000002632141,8|0,0:0|0:0,0:0:0:0:
165,299,225636,1,8,0:2:0:0:
261,131,225801,1,0,3:2:0:0:
283,339,225967,1,8,0:2:0:0:
156,186,226133,2,0,P|97:212|10:197,1,138.000002632141,0|0,3:2|0:0,0:0:0:0:
0,170,226464,6,0,P|10:221|18:287,1,92.0000017547608,0|8,3:2|0:2,0:0:0:0:
167,319,226796,1,4,3:2:0:0:
301,236,226962,1,10,0:2:0:0:
301,236,227045,1,2,0:2:0:0:
301,236,227127,1,2,3:2:0:0:
162,157,227293,1,10,3:2:0:0:
289,97,227459,1,2,3:2:0:0:
289,97,227542,1,2,0:2:0:0:
289,97,227625,2,0,P|336:111|395:109,1,92.0000017547608,10|0,0:2|0:0,0:0:0:0:
490,191,227956,1,8,0:0:0:0:
425,288,228122,6,0,P|378:274|319:276,1,92.0000017547608,0|8,0:0|0:0,0:0:0:0:
296,258,228370,1,0,3:2:0:0:
296,258,228453,2,0,P|280:302|285:354,1,92.0000017547608,2|8,3:2|0:0,0:0:0:0:
78,354,228785,1,4,3:2:0:0:
155,289,228951,2,0,P|178:293|199:306,2,46.0000008773804,8|0|8,0:0|0:0|3:2,0:0:0:0:
48,212,229282,1,8,0:0:0:0:
179,183,229448,5,4,3:2:0:0:
201,153,229531,1,2,0:3:0:0:
184,120,229614,1,8,0:0:0:0:
197,86,229696,1,2,0:3:0:0:
198,49,229779,1,2,3:2:0:0:
298,100,229945,5,12,3:2:0:0:
263,121,230028,1,2,0:3:0:0:
244,152,230111,1,2,0:2:0:0:
201,153,230194,1,2,0:3:0:0:
179,183,230277,1,8,0:0:0:0:
275,18,230442,5,0,3:0:0:0:
398,164,230608,6,0,P|350:159|300:133,2,92.0000017547608,8|4|8,0:0|3:2|0:0,0:0:0:0:
502,295,231105,2,0,P|453:303|414:330,1,92.0000017547608,8|8,0:0|3:3,0:0:0:0:
215,365,231437,1,8,3:3:0:0:
127,238,231603,1,8,3:3:0:0:
336,271,231768,1,8,0:0:0:0:
202,116,231934,5,8,0:0:0:0:
202,116,232017,1,8,0:0:0:0:
202,116,232100,2,0,P|151:79|63:81,2,138.000002632141,4|4|8,3:2|3:2|3:2,0:0:0:0:
326,50,232763,6,0,P|327:98|337:148,1,92.0000017547608,4|0,3:2|0:0,0:0:0:0:
371,145,233011,2,0,P|370:196|363:241,1,92.0000017547608,4|0,3:2|0:0,0:0:0:0:
345,268,233260,1,8,3:2:0:0:
202,308,233426,6,0,P|196:264|202:216,1,92.0000017547608,8|0,3:2|0:0,0:0:0:0:
512,259,233757,2,0,P|503:306|482:357,1,92.0000017547608,8|0,3:2|0:0,0:0:0:0:
338,381,234089,6,0,L|330:333,3,46.0000008773804,8|0|0|0,3:2|3:0|3:0|3:0,0:0:0:0:
345,268,234420,6,0,P|336:223|332:167,1,92.0000017547608,0|0,3:2|3:2,0:0:0:0:
63,113,234752,2,0,P|72:158|76:214,1,92.0000017547608,8|0,3:2|0:0,0:0:0:0:
203,276,235083,2,0,P|201:225|210:179,1,92.0000017547608,8|0,3:2|0:0,0:0:0:0:
342,170,235415,5,8,3:2:0:0:
63,216,235746,1,8,3:3:0:0:
349,162,236078,6,0,P|311:163|247:179,1,80,6|2,3:2|0:0,0:0:0:0:
370,70,236409,1,10,3:2:0:0:
370,70,236492,1,2,0:0:0:0:
370,70,236575,1,2,0:0:0:0:
279,38,236741,2,0,P|220:50|157:50,1,120,2|2,3:2|0:0,0:0:0:0:
142,35,237073,2,0,L|136:130,1,80,10|2,3:2|0:0,0:0:0:0:
227,198,237404,6,0,L|236:287,1,80,0|2,3:2|0:0,0:0:0:0:
191,364,237736,1,10,3:2:0:0:
191,364,237819,1,2,0:2:0:0:
191,364,237902,1,2,0:2:0:0:
18,280,238067,2,0,P|78:287|147:288,1,120,2|2,3:2|0:2,0:0:0:0:
156,274,238399,2,0,P|196:271|245:282,1,80,10|2,3:2|0:0,0:0:0:0:
193,177,238730,6,0,L|198:121,3,40,2|2|2|2,3:2|0:2|0:2|0:2,0:0:0:0:
247,74,239062,1,10,3:2:0:0:
338,165,239227,6,0,L|344:216,3,40,2|2|2|2,0:0|0:0|3:2|0:0,0:0:0:0:
393,270,239559,1,2,0:0:0:0:
476,152,239725,6,0,L|452:92,3,40,10|2|2|2,3:2|0:2|0:2|0:2,0:0:0:0:
482,36,240056,2,0,P|440:32|385:20,1,80,6|10,3:2|0:0,0:0:0:0:
273,64,240388,6,0,L|253:115,3,40,8|10|10|10,3:2|0:0|0:0|0:0,0:0:0:0:
219,167,240719,2,0,P|179:170|127:179,1,80,12|10,3:2|3:2,0:0:0:0:
116,170,240940,2,0,L|104:132,2,26.6666666666667,2|2|10,0:0|0:0|3:2,0:0:0:0:
74,258,241216,1,8,0:0:0:0:
171,356,241382,6,0,P|180:317|177:277,1,80,6|2,3:2|0:0,0:0:0:0:
234,141,241714,1,10,3:2:0:0:
234,141,241797,1,2,0:0:0:0:
234,141,241879,1,2,0:0:0:0:
161,57,242045,2,0,P|105:59|35:38,1,120,2|2,3:2|0:0,0:0:0:0:
24,28,242377,2,0,P|22:70|32:110,1,80,10|2,3:2|0:0,0:0:0:0:
132,231,242708,6,0,P|134:189|124:149,1,80,0|2,3:2|0:0,0:0:0:0:
240,264,243040,1,10,3:2:0:0:
240,264,243122,1,2,0:2:0:0:
240,264,243205,1,2,0:2:0:0:
310,197,243371,2,0,P|315:140|337:75,1,120,2|2,3:2|0:2,0:0:0:0:
334,56,243703,2,0,P|378:60|423:69,1,80,10|2,3:2|0:0,0:0:0:0:
405,189,244034,6,0,L|451:183,3,40,2|2|2|2,3:2|0:2|0:2|0:2,0:0:0:0:
501,247,244366,1,10,3:2:0:0:
299,239,244531,6,0,L|352:247,3,40,2|2|2|2,0:0|0:0|3:2|0:0,0:0:0:0:
393,306,244863,1,2,0:0:0:0:
185,294,245029,6,0,L|240:284,3,40,10|2|2|2,3:2|0:2|0:2|0:2,0:0:0:0:
280,352,245360,2,0,L|368:340,1,80,2|10,3:2|0:2,0:0:0:0:
465,230,245692,5,8,3:2:0:0:
465,230,245774,1,10,0:2:0:0:
465,230,245857,2,0,L|470:176,1,40,10|10,0:2|0:2,0:0:0:0:
403,141,246023,2,0,L|315:153,1,80,12|10,3:2|3:2,0:0:0:0:
310,140,246244,2,0,L|319:108,2,26.6666666666667,2|2|10,0:0|0:0|3:2,0:0:0:0:
197,203,246520,1,8,0:2:0:0:
180,90,246685,6,0,P|142:89|100:82,1,80,6|2,3:2|0:0,0:0:0:0:
24,240,247017,1,10,3:2:0:0:
24,240,247100,1,2,0:0:0:0:
24,240,247183,1,2,0:0:0:0:
100,301,247348,2,0,P|154:284|219:277,1,120,2|2,3:2|0:0,0:0:0:0:
240,283,247680,2,0,P|270:319|288:359,1,80,10|2,3:2|0:0,0:0:0:0:
390,356,247929,1,2,0:0:0:0:
390,356,248011,6,0,P|409:321|453:281,1,80,0|2,3:2|0:0,0:0:0:0:
452,100,248343,1,10,3:2:0:0:
452,100,248426,1,2,0:2:0:0:
452,100,248509,1,2,0:2:0:0:
506,194,248674,2,0,L|460:204,3,40,2|2|2|2,3:2|0:2|0:2|0:2,0:0:0:0:
393,172,249006,2,0,P|354:172|311:160,1,80,10|2,3:2|0:0,0:0:0:0:
203,79,249254,1,0,0:0:0:0:
203,79,249337,6,0,P|212:101|214:130,3,40,2|2|2|2,3:2|0:2|0:2|0:2,0:0:0:0:
171,207,249669,1,10,3:2:0:0:
285,183,249835,6,0,P|284:206|277:247,3,40,2|2|2|2,0:0|0:0|3:2|0:0,0:0:0:0:
198,287,250166,1,2,0:0:0:0:
344,298,250332,6,0,P|336:317|315:348,3,40,10|2|2|2,3:2|0:2|0:2|0:2,0:0:0:0:
172,367,250663,2,0,P|133:360|95:334,1,80,2|2,3:2|0:0,0:0:0:0:
19,186,250995,6,0,P|36:175|64:173,3,40,8|2|2|2,3:3|3:3|3:3|3:3,0:0:0:0:
78,178,251326,2,0,L|64:88,1,80,12|2,3:2|3:3,0:0:0:0:
56,85,251547,2,0,L|22:97,2,26.6666666666667,2|2|10,0:2|0:2|3:2,0:0:0:0:
158,12,251824,1,8,0:0:0:0:
307,87,251989,6,0,P|273:101|221:103,1,80,6|2,3:2|0:0,0:0:0:0:
180,200,252321,1,10,3:2:0:0:
180,200,252404,1,2,0:0:0:0:
180,200,252487,1,2,0:0:0:0:
413,133,252652,2,0,P|372:168|395:229,1,120,2|2,3:2|0:0,0:0:0:0:
404,243,252984,2,0,P|362:249|301:271,1,80,10|2,3:2|0:0,0:0:0:0:
426,320,253232,1,2,0:0:0:0:
426,320,253315,6,0,P|385:332|344:339,1,80,0|2,3:2|0:0,0:0:0:0:
152,331,253647,1,10,3:2:0:0:
152,331,253730,1,2,0:2:0:0:
152,331,253812,1,2,0:2:0:0:
234,273,253978,2,0,P|222:252|201:236,3,40,2|2|2|2,3:2|0:2|0:2|0:2,0:0:0:0:
131,239,254310,2,0,P|126:197|133:157,1,80,10|2,3:2|0:0,0:0:0:0:
207,94,254558,1,0,0:0:0:0:
207,94,254641,6,0,P|179:88|150:79,3,40,2|2|2|2,3:2|0:2|0:2|0:2,0:0:0:0:
120,16,254973,1,10,3:2:0:0:
337,128,255138,6,0,P|315:111|300:90,3,40,2|2|2|2,3:2|0:0|3:2|0:0,0:0:0:0:
314,7,255470,1,2,3:2:0:0:
437,205,255636,6,0,P|426:181|422:149,3,40,10|2|2|2,3:2|0:2|3:2|0:2,0:0:0:0:
507,74,255967,2,0,L|501:158,1,80,2|10,3:2|3:2,0:0:0:0:
404,296,256299,6,0,L|400:349,3,40,8|10|10|10,3:2|0:0|0:0|0:0,0:0:0:0:
378,343,256630,2,0,P|338:324|294:326,1,80,12|10,3:2|3:2,0:0:0:0:
289,314,256851,2,0,L|292:278,2,26.6666666666667,2|2|10,0:0|0:0|3:2,0:0:0:0:
148,223,257127,6,0,L|157:282,1,40,8|8,0:0|0:0,0:0:0:0:
148,223,259448,6,0,L|155:272,1,40,4|0,0:1|0:0,0:0:0:0:
