osu file format v14

[General]
AudioFilename: audio.mp3
AudioLeadIn: 0
PreviewTime: 212792
Countdown: 0
SampleSet: Soft
StackLeniency: 0.4
Mode: 0
LetterboxInBreaks: 0
WidescreenStoryboard: 1

[Editor]
DistanceSpacing: 1.3
BeatDivisor: 4
GridSize: 16
TimelineZoom: 2.899999

[Metadata]
Title:Haikei Doppelganger
TitleUnicode:拝啓ドッペルゲンガー
Artist:Matsushita
ArtistUnicode:松下
Creator:gazimal
Version:AdveNt's Extra
Source:
Tags:cover japanese rock vocaloid GUMI AdveNt wring Dear Doppelganger KEMU VOXX 堀江晶太 Horie Shota
BeatmapID:3187194
BeatmapSetID:1481802

[Difficulty]
HPDrainRate:5
CircleSize:4
OverallDifficulty:8.5
ApproachRate:9.2
SliderMultiplier:1.6
SliderTickRate:1

[Events]
//Background and Video events
0,0,"6905756.jpg",0,0
//Break Periods
//Storyboard Layer 0 (Background)
//Storyboard Layer 1 (Fail)
//Storyboard Layer 2 (Pass)
//Storyboard Layer 3 (Foreground)
//Storyboard Layer 4 (Overlay)
//Storyboard Sound Samples

[TimingPoints]
57,331.491712707182,4,2,1,60,1,0
6686,-83.3333333333333,4,2,1,60,0,0
7929,-83.3333333333333,4,2,1,5,0,0
8012,-83.3333333333333,4,2,1,60,0,0
18289,-83.3333333333333,4,2,2,60,0,0
18620,-83.3333333333333,4,2,1,60,0,0
19117,-83.3333333333333,4,2,2,60,0,0
21106,-83.3333333333333,4,2,1,60,0,0
23924,-83.3333333333333,4,2,2,60,0,0
31880,-83.3333333333333,4,2,1,60,0,0
34532,-83.3333333333333,4,2,2,60,0,0
40084,-83.3333333333333,4,2,2,60,0,0
40167,-83.3333333333333,4,2,2,60,0,0
42488,-83.3333333333333,4,2,1,60,0,0
44642,-83.3333333333333,4,2,3,60,0,0
44974,-133.333333333333,4,2,3,60,0,0
45140,-133.333333333333,4,2,2,60,0,0
47294,-100,4,2,2,60,0,0
50360,-100,4,2,2,5,0,0
50443,-100,4,2,2,60,0,0
53095,-83.3333333333333,4,2,2,60,0,0
54421,-66.6666666666667,4,2,1,60,0,0
54587,-66.6666666666667,4,2,1,5,0,0
54670,-66.6666666666667,4,2,1,60,0,0
54836,-66.6666666666667,4,2,1,5,0,0
54918,-66.6666666666667,4,2,1,60,0,0
56659,-66.6666666666667,4,2,1,5,0,0
56742,-66.6666666666667,4,2,1,60,0,0
56990,-66.6666666666667,4,2,1,5,0,0
57073,-66.6666666666667,4,2,2,80,0,1
58150,-66.6666666666667,4,2,2,5,0,1
58233,-66.6666666666667,4,2,2,80,0,1
58482,-66.6666666666667,4,2,2,5,0,1
58565,-66.6666666666667,4,2,2,80,0,1
59311,-66.6666666666667,4,2,2,5,0,1
59394,-66.6666666666667,4,2,2,80,0,1
60802,-66.6666666666667,4,2,2,80,0,1
60885,-66.6666666666667,4,2,2,80,0,1
61963,-66.6666666666667,4,2,2,5,0,1
62045,-66.6666666666667,4,2,2,80,0,1
62377,-66.6666666666667,4,2,5,80,0,1
62460,-66.6666666666667,4,2,2,80,0,1
62874,-66.6666666666667,4,2,5,80,0,1
62957,-66.6666666666667,4,2,2,80,0,1
63454,-66.6666666666667,4,2,2,5,0,1
63537,-66.6666666666667,4,2,2,80,0,1
65195,-66.6666666666667,4,2,2,80,0,1
65277,-66.6666666666667,4,2,2,80,0,1
65443,-66.6666666666667,4,2,2,80,0,1
65526,-66.6666666666667,4,2,2,80,0,1
68758,-66.6666666666667,4,2,2,80,0,1
68841,-66.6666666666667,4,2,2,80,0,1
69918,-66.6666666666667,4,2,2,5,0,1
70001,-66.6666666666667,4,2,2,80,0,1
70499,-66.6666666666667,4,2,1,80,0,1
70830,-66.6666666666667,4,2,2,80,0,1
70996,-66.6666666666667,4,2,1,80,0,1
71327,-66.6666666666667,4,2,2,80,0,1
71410,-66.6666666666667,4,2,2,5,0,1
71493,-55.5555555555556,4,2,2,80,0,1
71990,-66.6666666666667,4,2,2,80,0,1
72985,-66.6666666666667,4,2,5,80,0,1
73979,-66.6666666666667,4,2,2,80,0,1
74062,-66.6666666666667,4,2,2,5,0,1
74145,-66.6666666666667,4,2,2,80,0,1
74808,-66.6666666666667,4,2,1,80,0,1
74974,-66.6666666666667,4,2,2,80,0,1
75802,-66.6666666666667,4,2,2,5,0,1
75885,-66.6666666666667,4,2,2,80,0,1
76051,-66.6666666666667,4,2,2,5,0,1
76134,-66.6666666666667,4,2,2,80,0,1
76217,-66.6666666666667,4,2,2,5,0,1
76300,-66.6666666666667,4,2,2,80,0,1
76465,-66.6666666666667,4,2,2,5,0,1
76548,-66.6666666666667,4,2,2,80,0,1
76714,-66.6666666666667,4,2,2,5,0,1
76797,-66.6666666666667,4,2,2,80,0,1
77957,-100,4,2,5,80,0,1
78289,-83.3333333333333,4,2,1,60,0,0
83095,-83.3333333333333,4,2,2,60,0,0
83593,-83.3333333333333,4,2,1,60,0,0
88896,-100,4,2,2,60,0,0
89476,-100,4,2,2,60,0,0
89559,-66.6666666666667,4,2,2,60,0,0
90388,-66.6666666666667,4,2,1,60,0,0
90471,-66.6666666666667,4,2,1,60,0,0
91548,-100,4,2,1,60,0,0
92211,-83.3333333333333,4,2,1,60,0,0
92377,-66.6666666666667,4,2,1,5,0,0
92460,-83.3333333333333,4,2,1,60,0,0
92626,-66.6666666666667,4,2,1,5,0,0
92708,-83.3333333333333,4,2,1,60,0,0
92791,-66.6666666666667,4,2,1,5,0,0
92874,-83.3333333333333,4,2,1,60,0,0
93454,-83.3333333333333,4,2,1,5,0,0
93537,-83.3333333333333,4,2,1,60,0,0
93703,-83.3333333333333,4,2,1,5,0,0
93786,-83.3333333333333,4,2,1,60,0,0
93952,-83.3333333333333,4,2,1,5,0,0
94034,-83.3333333333333,4,2,1,60,0,0
94117,-83.3333333333333,4,2,1,5,0,0
94200,-333.333333333333,4,2,1,60,0,0
94615,-333.333333333333,4,2,1,60,0,0
94697,-333.333333333333,4,2,1,60,0,0
94863,-83.3333333333333,4,2,1,60,0,0
96355,-83.3333333333333,4,2,1,5,0,0
96438,-83.3333333333333,4,2,1,60,0,0
96603,-83.3333333333333,4,2,1,5,0,0
96686,-83.3333333333333,4,2,1,60,0,0
97681,-83.3333333333333,4,2,1,5,0,0
97764,-83.3333333333333,4,2,1,60,0,0
97929,-83.3333333333333,4,2,1,5,0,0
98012,-83.3333333333333,4,2,1,60,0,0
100168,331.491712707182,4,2,1,60,1,0
102322,-100,4,2,2,60,0,0
102488,-100,4,2,2,5,0,0
102571,-100,4,2,2,60,0,0
102737,-100,4,2,2,5,0,0
102819,-100,4,2,2,60,0,0
105140,-100,4,2,2,5,0,0
105223,-100,4,2,2,60,0,0
105388,-100,4,2,2,5,0,0
105471,-100,4,2,2,60,0,0
106466,-200,4,2,2,60,0,0
106714,-100,4,2,2,5,0,0
106797,-200,4,2,2,60,0,0
107377,-200,4,2,1,60,0,0
108123,-83.3333333333333,4,2,1,60,0,0
110775,-83.3333333333333,4,2,2,60,0,0
118731,-83.3333333333333,4,2,1,60,0,0
121051,-83.3333333333333,4,2,3,60,0,0
121383,-133.333333333333,4,2,2,60,0,0
123538,-100,4,2,2,60,0,0
126604,-100,4,2,2,5,0,0
126687,-100,4,2,2,60,0,0
130665,-66.6666666666667,4,2,1,60,0,0
130830,-66.6666666666667,4,2,1,5,0,0
130913,-66.6666666666667,4,2,1,60,0,0
131079,-66.6666666666667,4,2,1,5,0,0
131162,-66.6666666666667,4,2,1,60,0,0
132902,-66.6666666666667,4,2,1,5,0,0
132985,-66.6666666666667,4,2,1,60,0,0
133234,-66.6666666666667,4,2,1,5,0,0
133317,-66.6666666666667,4,2,2,80,0,1
134394,-66.6666666666667,4,2,2,5,0,1
134477,-66.6666666666667,4,2,2,80,0,1
135554,-66.6666666666667,4,2,2,80,0,1
135637,-66.6666666666667,4,2,2,80,0,1
137046,-66.6666666666667,4,2,2,80,0,1
137129,-66.6666666666667,4,2,2,80,0,1
138206,-66.6666666666667,4,2,2,80,0,1
138289,-66.6666666666667,4,2,2,80,0,1
138538,-66.6666666666667,4,2,2,80,0,1
138621,-66.6666666666667,4,2,5,80,0,1
138704,-66.6666666666667,4,2,2,80,0,1
139118,-66.6666666666667,4,2,5,80,0,1
139201,-66.6666666666667,4,2,2,80,0,1
139698,-66.6666666666667,4,2,2,80,0,1
139781,-66.6666666666667,4,2,2,80,0,1
140112,-66.6666666666667,4,2,2,80,0,1
141438,-66.6666666666667,4,2,2,80,0,1
141521,-66.6666666666667,4,2,2,80,0,1
141687,-66.6666666666667,4,2,2,80,0,1
141770,-66.6666666666667,4,2,2,80,0,1
145002,-66.6666666666667,4,2,2,80,0,1
145085,-66.6666666666667,4,2,2,80,0,1
145333,-66.6666666666667,4,2,2,80,0,1
145416,-66.6666666666667,4,2,2,80,0,1
146162,-66.6666666666667,4,2,2,80,0,1
146245,-66.6666666666667,4,2,2,80,0,1
146743,-66.6666666666667,4,2,1,80,0,1
147074,-66.6666666666667,4,2,2,80,0,1
147240,-66.6666666666667,4,2,1,80,0,1
147571,-66.6666666666667,4,2,2,80,0,1
147654,-66.6666666666667,4,2,2,80,0,1
147737,-55.5555555555556,4,2,2,80,0,1
147985,-66.6666666666667,4,2,2,80,0,1
148068,-66.6666666666667,4,2,2,80,0,1
149229,-66.6666666666667,4,2,5,80,0,1
150223,-66.6666666666667,4,2,2,80,0,1
150306,-66.6666666666667,4,2,2,80,0,1
150388,-66.6666666666667,4,2,2,80,0,1
151052,-66.6666666666667,4,2,1,80,0,1
151218,-66.6666666666667,4,2,2,80,0,1
152046,-66.6666666666667,4,2,2,80,0,1
152129,-66.6666666666667,4,2,2,80,0,1
152295,-66.6666666666667,4,2,2,80,0,1
152377,-66.6666666666667,4,2,2,80,0,1
152543,-66.6666666666667,4,2,2,80,0,1
152709,-66.6666666666667,4,2,2,80,0,1
152792,-66.6666666666667,4,2,2,80,0,1
152958,-66.6666666666667,4,2,2,80,0,1
153040,-66.6666666666667,4,2,2,80,0,1
153206,-66.6666666666667,4,2,2,80,0,1
154201,-100,4,2,5,80,0,1
154449,-66.6666666666667,4,2,5,80,0,1
154532,-66.6666666666667,4,2,1,60,0,0
154698,-66.6666666666667,4,2,1,5,0,0
154781,-100,4,2,1,60,0,0
154947,-66.6666666666667,4,2,1,5,0,0
155029,-100,4,2,1,60,0,0
155112,-100,4,2,1,5,0,0
155195,-100,4,2,1,60,0,0
155527,-66.6666666666667,4,2,1,60,0,0
155692,-66.6666666666667,4,2,1,5,0,0
155775,-100,4,2,1,60,0,0
155941,-66.6666666666667,4,2,1,5,0,0
156024,-100,4,2,1,60,0,0
156107,-100,4,2,1,5,0,0
156190,-100,4,2,1,60,0,0
156521,-66.6666666666667,4,2,1,60,0,0
156687,-66.6666666666667,4,2,1,5,0,0
156770,-100,4,2,1,60,0,0
156935,-66.6666666666667,4,2,1,5,0,0
157018,-100,4,2,1,60,0,0
157101,-100,4,2,1,5,0,0
157184,-200,4,2,1,60,0,0
157847,331.491712707182,4,2,6,60,1,0
157847,-100,4,2,6,60,0,0
159172,324.324324324324,4,2,6,60,1,0
160144,-200,4,2,6,60,0,0
160361,-200,4,2,6,5,0,0
160469,331.491712707182,4,2,6,60,1,0
162457,-200,4,2,6,60,0,0
163065,-200,4,2,6,5,0,0
163150,331.491712707182,4,2,6,60,1,0
165691,-100,4,2,6,5,0,0
165801,-100,4,2,6,60,0,0
168453,-66.6666666666667,4,2,6,60,0,0
168674,-66.6666666666667,4,2,6,5,0,0
168785,-100,4,2,6,60,0,0
171105,-66.6666666666667,4,2,6,60,0,0
171326,-66.6666666666667,4,2,6,5,0,0
171437,-100,4,2,6,60,0,0
173757,-66.6666666666667,4,2,6,60,0,0
173978,-66.6666666666667,4,2,6,5,0,0
174089,-100,4,2,6,60,0,0
176409,-66.6666666666667,4,2,6,60,0,0
176630,-66.6666666666667,4,2,6,5,0,0
176741,-100,4,2,6,60,0,0
179061,-66.6666666666667,4,2,6,60,0,0
179282,-66.6666666666667,4,2,6,5,0,0
179393,-100,4,2,6,60,0,0
181713,-66.6666666666667,4,2,6,60,0,0
181934,-66.6666666666667,4,2,6,5,0,0
182045,-100,4,2,6,60,0,0
184365,-66.6666666666667,4,2,6,60,0,0
184586,-66.6666666666667,4,2,6,5,0,0
184696,-100,4,2,6,60,0,0
187017,-66.6666666666667,4,2,6,60,0,0
187238,-66.6666666666667,4,2,6,5,0,0
187348,-83.3333333333333,4,2,6,60,0,0
189669,-76.9230769230769,4,2,1,60,0,0
201437,-66.6666666666667,4,2,1,60,0,0
210884,-200,4,2,1,60,0,0
211050,-66.6666666666667,4,2,1,60,0,0
211133,-66.6666666666667,4,2,1,60,0,0
212376,-66.6666666666667,4,2,1,60,0,0
212459,-66.6666666666667,4,2,1,60,0,0
212625,-66.6666666666667,4,2,1,60,0,0
212708,-55.5555555555556,4,2,1,60,0,0
212873,-200,4,2,1,60,0,0
213122,-200,4,2,1,5,0,0
213205,-200,4,2,1,60,0,0
213536,-66.6666666666667,4,2,1,80,0,0
213578,-66.6666666666667,4,2,1,5,0,0
214696,-66.6666666666667,4,2,1,80,0,0
214738,-66.6666666666667,4,2,1,5,0,0
215194,-66.6666666666667,4,2,1,80,0,0
215857,-66.6666666666667,4,2,1,5,0,0
215940,-66.6666666666667,4,2,1,80,0,0
216105,-66.6666666666667,4,2,1,5,0,0
216188,-66.6666666666667,4,2,1,80,0,0
216230,-66.6666666666667,4,2,1,5,0,0
217348,-76.9230769230769,4,2,1,80,0,0
219917,-76.9230769230769,4,2,1,80,0,0
220000,-76.9230769230769,4,2,1,80,0,0
220332,-76.9230769230769,4,2,2,80,0,0
222487,-76.9230769230769,4,2,2,5,0,0
222569,-76.9230769230769,4,2,2,80,0,0
222735,-76.9230769230769,4,2,2,5,0,0
222818,-76.9230769230769,4,2,2,80,0,0
224144,-66.6666666666667,4,2,2,80,0,1
225553,-66.6666666666667,4,2,2,5,0,1
225636,-66.6666666666667,4,2,2,80,0,1
226382,-66.6666666666667,4,2,2,5,0,1
226464,-66.6666666666667,4,2,2,80,0,1
226962,-66.6666666666667,4,2,1,80,0,1
227293,-66.6666666666667,4,2,2,80,0,1
227459,-66.6666666666667,4,2,1,80,0,1
227790,-66.6666666666667,4,2,2,80,0,1
228205,-66.6666666666667,4,2,2,5,0,1
228288,-66.6666666666667,4,2,2,80,0,1
229448,-66.6666666666667,4,2,5,80,0,1
230442,-66.6666666666667,4,2,2,80,0,1
231271,-66.6666666666667,4,2,1,80,0,1
231437,-66.6666666666667,4,2,2,80,0,1
232266,-66.6666666666667,4,2,2,5,0,1
232348,-66.6666666666667,4,2,2,80,0,1
232514,-66.6666666666667,4,2,2,5,0,1
232597,-66.6666666666667,4,2,2,80,0,1
232680,-66.6666666666667,4,2,2,5,0,1
232763,-66.6666666666667,4,2,2,80,0,1
232929,-66.6666666666667,4,2,2,5,0,1
233011,-66.6666666666667,4,2,2,80,0,1
233177,-66.6666666666667,4,2,2,5,0,1
233260,-66.6666666666667,4,2,2,80,0,1
233343,-66.6666666666667,4,2,2,5,0,1
233426,-66.6666666666667,4,2,2,80,0,1
235000,-66.6666666666667,4,2,2,5,0,1
235083,-66.6666666666667,4,2,2,80,0,1
235332,-66.6666666666667,4,2,2,5,0,1
235415,-66.6666666666667,4,2,2,80,0,1
235663,-66.6666666666667,4,2,2,5,0,1
235746,-66.6666666666667,4,2,2,80,0,1
236078,-83.3333333333333,4,2,1,80,0,0
251326,-83.3333333333333,4,2,2,80,0,0
251658,-83.3333333333333,4,2,1,80,0,0
259448,-83.3333333333333,4,2,1,90,0,0
259531,-83.3333333333333,4,2,1,5,0,0

[Colours]
Combo1 : 255,128,0
Combo2 : 128,128,255
Combo3 : 192,192,192
Combo4 : 168,0,168

[HitObjects]
256,192,4034,12,0,6521,0:0:0:0:
278,152,6686,5,8,3:2:0:0:
278,152,6769,1,0,3:0:0:0:
278,152,6852,2,0,P|250:133|218:134,1,47.9999985351563,0|0,3:0|3:0,0:0:0:0:
162,235,7018,1,8,3:2:0:0:
162,235,7101,1,0,3:0:0:0:
162,235,7184,2,0,P|190:254|222:253,1,47.9999985351563,0|0,3:0|3:0,0:0:0:0:
396,214,7349,5,8,3:2:0:0:
428,202,7431,1,0,3:0:0:0:
460,216,7514,1,0,3:0:0:0:
472,249,7597,1,0,3:0:0:0:
457,281,7681,2,0,P|390:237|409:159,1,143.999995605469,12|0,3:2|0:0,0:0:0:0:
460,111,8012,6,0,P|467:82|455:46,1,47.9999985351563,6|0,3:2|0:0,0:0:0:0:
366,33,8178,2,0,P|359:62|371:98,1,47.9999985351563,2|0,0:0|0:0,0:0:0:0:
478,117,8344,1,10,3:2:0:0:
484,94,8426,1,2,0:0:0:0:
482,70,8509,1,2,0:0:0:0:
250,223,8675,6,0,P|243:200|245:176,1,47.9999985351563,2|0,3:2|0:0,0:0:0:0:
361,79,8841,1,2,0:0:0:0:
367,102,8923,1,2,0:0:0:0:
365,126,9006,1,10,3:2:0:0:
230,228,9173,2,0,P|223:205|225:181,1,47.9999985351563,2|2,0:0|0:0,0:0:0:0:
440,246,9338,6,0,P|447:275|435:311,1,47.9999985351563,0|0,3:2|0:0,0:0:0:0:
346,324,9504,2,0,P|339:295|351:259,1,47.9999985351563,2|0,0:0|0:0,0:0:0:0:
458,240,9670,1,10,3:2:0:0:
464,263,9752,1,2,0:2:0:0:
462,287,9835,1,2,0:2:0:0:
230,134,10001,6,0,P|223:156|225:180,1,47.9999985351563,2|2,3:2|0:2,0:0:0:0:
341,278,10167,1,2,0:2:0:0:
347,255,10249,1,2,0:2:0:0:
345,231,10332,1,10,3:2:0:0:
210,129,10499,2,0,P|203:151|205:175,1,47.9999985351563
425,343,10664,5,2,3:2:0:0:
464,365,10746,1,2,0:2:0:0:
501,339,10829,1,2,0:2:0:0:
493,294,10912,1,2,0:2:0:0:
449,283,10996,2,0,P|424:296|420:316,1,47.9999985351563,10|0,3:2|0:0,0:0:0:0:
424,189,11161,5,2,0:0:0:0:
467,177,11243,1,2,0:0:0:0:
475,132,11326,1,2,3:2:0:0:
438,106,11409,1,2,0:0:0:0:
399,129,11493,2,0,P|389:156|401:173,1,47.9999985351563,2|0,0:0|0:0,0:0:0:0:
302,101,11659,5,10,3:2:0:0:
323,62,11741,1,2,0:2:0:0:
297,25,11824,1,2,0:2:0:0:
253,32,11907,1,2,0:2:0:0:
241,76,11990,2,0,P|253:101|273:105,1,47.9999985351563,2|0,3:2|0:0,0:0:0:0:
138,50,12156,5,2,0:0:0:0:
138,50,12239,1,0,0:0:0:0:
138,50,12322,2,0,L|119:109,1,47.9999985351563,8|2,3:2|0:0,0:0:0:0:
15,148,12487,2,0,L|91:157,1,47.9999985351563,2|2,0:0|0:0,0:0:0:0:
147,210,12653,1,12,3:2:0:0:
147,210,12736,1,2,3:2:0:0:
147,210,12819,2,0,L|127:282,1,47.9999985351563,2|2,3:2|0:0,0:0:0:0:
31,361,12985,5,8,3:2:0:0:
4,324,13067,1,8,0:0:0:0:
26,284,13150,1,8,0:0:0:0:
71,288,13233,1,8,0:0:0:0:
86,331,13316,6,0,P|123:344|150:339,1,47.9999985351563,6|0,3:2|0:0,0:0:0:0:
208,356,13482,2,0,P|242:339|258:316,1,47.9999985351563,2|0,0:0|0:0,0:0:0:0:
323,290,13648,1,10,3:2:0:0:
333,268,13730,1,2,0:0:0:0:
335,244,13813,1,2,0:0:0:0:
231,135,13979,6,0,P|218:171|223:198,1,47.9999985351563,2|0,3:2|0:0,0:0:0:0:
333,291,14145,1,2,0:0:0:0:
343,269,14227,1,2,0:0:0:0:
345,245,14310,1,10,3:2:0:0:
217,128,14476,2,0,P|204:164|209:191,1,47.9999985351563,2|2,0:0|0:0,0:0:0:0:
349,296,14642,6,0,P|361:259|356:232,1,47.9999985351563,2|0,3:2|0:0,0:0:0:0:
373,174,14808,2,0,P|356:139|333:123,1,47.9999985351563,2|0,0:0|0:0,0:0:0:0:
307,59,14974,1,10,3:2:0:0:
285,49,15056,1,2,0:2:0:0:
261,47,15139,1,2,0:2:0:0:
152,151,15305,6,0,P|188:163|215:158,1,47.9999985351563,2|2,3:2|0:2,0:0:0:0:
308,49,15471,1,2,0:2:0:0:
286,39,15553,1,2,0:2:0:0:
262,37,15636,1,10,3:2:0:0:
145,165,15802,2,0,P|181:177|208:172,1,47.9999985351563
373,174,15968,5,6,3:2:0:0:
403,155,16050,1,2,0:2:0:0:
438,149,16133,1,2,0:2:0:0:
473,157,16216,1,2,0:2:0:0:
503,177,16300,2,0,P|473:204|443:212,1,47.9999985351563,10|0,0:2|0:0,0:0:0:0:
251,151,16465,5,2,0:0:0:0:
219,133,16547,1,2,0:0:0:0:
196,106,16630,1,2,3:2:0:0:
185,72,16713,1,2,0:0:0:0:
188,37,16797,2,0,P|226:49|248:71,1,47.9999985351563,2|0,0:0|0:0,0:0:0:0:
296,266,16963,5,10,3:2:0:0:
296,302,17045,1,2,0:0:0:0:
284,336,17128,1,2,0:0:0:0:
260,362,17211,1,2,0:0:0:0:
228,377,17295,2,0,P|219:337|228:307,1,47.9999985351563,2|0,3:2|0:0,0:0:0:0:
311,187,17460,5,6,0:0:0:0:
311,187,17543,1,0,0:0:0:0:
311,187,17626,2,0,L|383:181,1,47.9999985351563,8|8,0:0|0:0,0:0:0:0:
474,107,17791,2,0,L|404:91,1,47.9999985351563,8|8,0:0|0:0,0:0:0:0:
296,23,17957,5,8,3:0:0:0:
292,58,18039,1,8,3:0:0:0:
289,94,18122,1,8,3:0:0:0:
285,130,18205,1,8,3:0:0:0:
282,166,18288,1,8,3:0:0:0:
278,202,18371,1,8,3:0:0:0:
275,237,18454,1,8,3:0:0:0:
271,273,18537,1,8,3:0:0:0:
268,309,18619,5,4,3:2:0:0:
157,345,18786,1,0,0:0:0:0:
196,281,18952,5,0,3:2:0:0:
92,227,19117,1,2,0:0:0:0:
169,205,19283,5,0,3:2:0:0:
133,94,19450,1,2,0:0:0:0:
207,132,19615,5,0,3:2:0:0:
260,28,19780,1,2,0:0:0:0:
287,111,19946,5,0,3:2:0:0:
323,222,20113,1,2,0:0:0:0:
259,183,20277,5,0,3:2:0:0:
205,287,20443,1,2,0:0:0:0:
183,210,20610,5,0,3:2:0:0:
72,246,20775,1,2,0:0:0:0:
110,172,20940,5,0,3:2:0:0:
6,119,21106,1,8,0:0:0:0:
6,119,21189,1,8,0:0:0:0:
6,119,21272,1,4,3:2:0:0:
271,87,21520,5,8,0:0:0:0:
271,87,21603,1,0,3:2:0:0:
121,43,21769,1,8,3:3:0:0:
403,15,21935,5,0,3:0:0:0:
403,15,22018,1,8,0:0:0:0:
403,15,22101,1,8,0:0:0:0:
246,87,22266,1,0,3:2:0:0:
487,125,22432,1,0,3:0:0:0:
338,261,22598,6,0,L|270:241,1,47.9999985351563,4|0,3:2|0:0,0:0:0:0:
152,208,22764,1,8,0:0:0:0:
152,208,22847,1,8,3:2:0:0:
152,208,22929,2,0,L|209:189,3,47.9999985351563,0|8|8|0,3:2|0:0|0:0|0:0,0:0:0:0:
275,162,23261,5,8,3:2:0:0:
288,141,23344,1,8,0:0:0:0:
287,112,23427,1,8,0:0:0:0:
272,81,23510,1,8,0:0:0:0:
237,66,23592,1,8,3:2:0:0:
194,72,23675,1,8,0:0:0:0:
166,111,23758,1,8,0:0:0:0:
172,163,23841,1,8,0:0:0:0:
220,194,23924,6,0,L|284:182,2,47.9999985351563,4|0|0,3:2|0:0|0:0,0:0:0:0:
133,239,24173,1,0,3:0:0:0:
133,239,24255,2,0,L|33:213,1,95.9999970703126,8|0,0:0|3:2,0:0:0:0:
217,289,24587,2,0,P|188:341|196:385,2,95.9999970703126,2|0|10,0:0|3:0|0:0,0:0:0:0:
446,118,25084,5,8,0:0:0:0:
446,118,25167,1,8,0:0:0:0:
446,118,25250,2,0,P|413:71|371:64,1,95.9999970703126,2|0,3:2|3:2,0:0:0:0:
305,114,25498,1,0,3:2:0:0:
305,114,25581,2,0,P|250:137|207:122,1,95.9999970703126,12|0,0:0|3:0,0:0:0:0:
119,43,25913,5,2,0:0:0:0:
119,43,25996,1,8,0:0:0:0:
119,43,26079,1,0,3:0:0:0:
208,114,26244,1,10,0:0:0:0:
53,169,26410,5,2,0:0:0:0:
53,169,26493,1,0,0:0:0:0:
53,169,26576,1,0,3:2:0:0:
350,232,26824,5,0,3:0:0:0:
350,232,26907,1,8,0:0:0:0:
199,202,27073,1,0,3:0:0:0:
350,232,27239,2,0,P|402:233|432:198,2,95.9999970703126,2|0|10,0:0|3:2|0:0,0:0:0:0:
226,135,27736,5,0,0:0:0:0:
226,135,27819,1,8,0:0:0:0:
226,135,27902,1,0,3:2:0:0:
179,344,28150,5,0,3:0:0:0:
179,344,28233,1,10,0:0:0:0:
202,235,28399,1,0,3:2:0:0:
98,180,28565,5,2,0:0:0:0:
98,180,28648,1,8,0:0:0:0:
98,180,28730,1,2,3:2:0:0:
293,147,28896,1,8,0:0:0:0:
167,53,29062,5,8,0:0:0:0:
167,53,29145,1,8,0:0:0:0:
167,53,29228,2,0,L|184:158,1,95.9999970703126,4|0,3:2|0:0,0:0:0:0:
235,221,29476,1,0,3:0:0:0:
235,221,29559,2,0,L|218:326,1,95.9999970703126,8|0,0:0|3:0,0:0:0:0:
142,364,29891,1,2,0:0:0:0:
142,364,29974,1,0,0:0:0:0:
142,364,30056,2,0,L|15:342,1,95.9999970703126,0|10,3:0|0:0,0:0:0:0:
302,298,30388,5,8,0:0:0:0:
302,298,30471,1,8,0:0:0:0:
302,298,30554,2,0,L|420:276,1,95.9999970703126,0|0,3:2|3:0,0:0:0:0:
454,214,30802,1,0,0:0:0:0:
454,214,30885,2,0,L|342:188,1,95.9999970703126,8|8,0:0|0:0,0:0:0:0:
296,129,31134,5,8,0:0:0:0:
296,129,31217,2,0,L|345:111,1,47.9999985351563,2|0,3:2|0:0,0:0:0:0:
422,75,31382,2,0,L|421:142,1,47.9999985351563,8|8,0:0|0:0,0:0:0:0:
268,207,31548,1,8,3:2:0:0:
227,182,31630,1,8,0:0:0:0:
207,139,31713,1,8,0:0:0:0:
214,93,31796,1,8,0:0:0:0:
247,57,31880,6,0,P|272:47|317:38,1,47.9999985351563,6|0,3:2|0:0,0:0:0:0:
390,192,32045,2,0,P|365:202|320:211,1,47.9999985351563,2|0,0:0|3:2,0:0:0:0:
242,44,32211,1,10,0:0:0:0:
264,34,32293,1,2,0:0:0:0:
287,28,32376,1,2,3:2:0:0:
213,281,32543,6,0,P|238:291|283:300,1,47.9999985351563,2|2,3:2|0:0,0:0:0:0:
375,105,32708,1,2,3:2:0:0:
353,95,32790,1,2,0:0:0:0:
330,89,32873,1,10,0:0:0:0:
106,213,33040,5,2,3:2:0:0:
83,204,33122,1,2,0:0:0:0:
62,192,33206,2,0,P|62:158|74:132,1,47.9999985351563,2|0,3:2|0:0,0:0:0:0:
234,97,33371,2,0,P|234:131|222:157,1,47.9999985351563,2|0,0:0|3:2,0:0:0:0:
45,184,33537,1,10,0:2:0:0:
43,160,33619,1,2,0:0:0:0:
49,137,33702,1,2,3:2:0:0:
334,135,33869,6,0,P|334:101|322:75,1,47.9999985351563,2|2,0:2|0:2,0:0:0:0:
137,39,34035,1,10,0:2:0:0:
135,63,34117,1,2,0:2:0:0:
141,86,34200,1,10,0:2:0:0:
425,131,34366,2,0,P|424:159|415:183,1,47.9999985351563,8|8,0:0|0:0,0:0:0:0:
260,317,34532,6,0,P|227:286|243:221,1,95.9999970703126,4|0,3:2|0:0,0:0:0:0:
288,185,34780,1,0,3:2:0:0:
288,185,34863,2,0,P|307:127|293:91,1,95.9999970703126,8|0,0:0|3:2,0:0:0:0:
246,35,35195,1,2,0:0:0:0:
149,126,35360,1,0,3:0:0:0:
315,201,35526,1,8,0:0:0:0:
161,306,35692,5,2,0:0:0:0:
161,306,35775,1,2,0:0:0:0:
161,306,35858,1,0,3:2:0:0:
408,364,36106,5,0,3:2:0:0:
408,364,36189,1,8,0:0:0:0:
273,262,36355,1,0,3:0:0:0:
75,358,36521,5,10,0:0:0:0:
75,358,36603,1,8,0:0:0:0:
75,358,36686,1,0,3:0:0:0:
249,261,36852,1,8,0:0:0:0:
90,213,37018,1,2,0:0:0:0:
273,262,37184,6,0,P|323:243|320:182,1,95.9999970703126,0|0,3:2|0:0,0:0:0:0:
296,131,37432,1,0,3:0:0:0:
296,131,37515,2,0,L|250:120,1,47.9999985351563,8|0,0:0|0:0,0:0:0:0:
195,55,37681,2,0,L|246:40,1,47.9999985351563,0|0,3:0|0:0,0:0:0:0:
317,55,37847,5,2,0:0:0:0:
160,131,38012,1,0,3:0:0:0:
317,55,38178,1,8,0:0:0:0:
168,138,38344,5,8,0:0:0:0:
168,138,38427,1,8,0:0:0:0:
168,138,38510,1,0,3:1:0:0:
8,20,38758,5,0,0:0:0:0:
8,20,38841,2,0,P|-4:62|33:104,1,95.9999970703126,8|0,0:0|3:0,0:0:0:0:
84,163,39090,1,0,3:0:0:0:
84,163,39173,2,0,P|95:215|54:261,1,95.9999970703126,8|2,0:0|3:2,0:0:0:0:
19,367,39504,2,0,L|124:350,1,95.9999970703126,8|2,0:0|0:0,0:0:0:0:
367,278,39836,6,0,P|407:231|342:246,1,143.999995605469,4|0,3:2|3:0,0:0:0:0:
283,273,40167,2,0,L|293:380,2,95.9999970703126,10|0|2,0:0|3:0|0:0,0:0:0:0:
266,139,40664,1,0,3:2:0:0:
280,260,40830,1,10,0:0:0:0:
280,260,40996,1,0,0:0:0:0:
376,178,41161,6,0,L|486:158,1,95.9999970703126,4|0,3:2|0:0,0:0:0:0:
405,84,41410,1,8,3:2:0:0:
405,84,41493,2,0,L|294:62,1,95.9999970703126,10|0,0:2|3:2,0:0:0:0:
281,163,41742,5,0,0:0:0:0:
281,163,41824,2,0,L|296:227,1,47.9999985351563,8|8,0:0|0:0,0:0:0:0:
383,359,41990,2,0,L|400:306,1,47.9999985351563,8|8,0:0|0:0,0:0:0:0:
481,268,42156,1,8,3:2:0:0:
433,262,42238,1,8,0:0:0:0:
385,256,42321,1,8,0:0:0:0:
337,251,42404,1,8,0:0:0:0:
290,245,42487,6,0,L|209:234,1,47.9999985351563,6|0,3:2|0:0,0:0:0:0:
132,141,42653,2,0,L|192:130,1,47.9999985351563,2|0,0:0|3:2,0:0:0:0:
285,265,42819,1,10,0:0:0:0:
261,261,42901,1,2,0:0:0:0:
237,258,42984,1,2,3:2:0:0:
226,125,43150,6,0,L|145:136,1,47.9999985351563,2|0,0:0|0:0,0:0:0:0:
118,307,43316,1,2,3:2:0:0:
142,303,43398,1,2,0:2:0:0:
166,300,43481,1,10,0:2:0:0:
65,82,43648,5,2,3:2:0:0:
65,82,43731,1,2,0:0:0:0:
65,82,43813,2,0,L|76:163,1,47.9999985351563,6|0,0:0|0:0,0:0:0:0:
169,240,43979,2,0,L|180:180,1,47.9999985351563,2|0,3:2|3:2,0:0:0:0:
45,87,44145,1,8,0:0:0:0:
49,111,44227,1,2,0:0:0:0:
52,135,44310,1,10,0:0:0:0:
334,130,44476,6,0,L|323:211,1,47.9999985351563,2|2,3:2|0:0,0:0:0:0:
152,238,44642,1,2,0:0:0:0:
156,214,44724,1,2,0:0:0:0:
159,190,44807,1,10,0:0:0:0:
406,196,44974,5,8,0:0:0:0:
406,196,45056,1,8,0:0:0:0:
406,196,45139,2,0,L|451:187,2,30.0000011444092,4|0|0,3:2|0:0|0:0,0:0:0:0:
331,267,45388,1,0,0:0:0:0:
331,267,45471,2,0,L|293:259,2,30.0000011444092,0|0|0,3:2|0:0|0:0,0:0:0:0:
424,285,45719,1,0,0:0:0:0:
424,285,45802,2,0,L|432:328,2,30.0000011444092,0|0|0,3:2|0:0|0:0,0:0:0:0:
317,184,46051,1,0,0:0:0:0:
317,184,46134,2,0,L|327:141,2,30.0000011444092,2|0|0,3:2|0:0|0:0,0:0:0:0:
248,255,46382,5,0,0:0:0:0:
248,255,46465,2,0,L|214:261,3,30.0000011444092,0|0|0|0,3:2|0:0|0:0|0:0,0:0:0:0:
140,214,46797,2,0,L|106:208,3,30.0000011444092,2|0|0|0,3:2|0:0|0:0|0:0,0:0:0:0:
11,270,47128,5,0,3:2:0:0:
11,270,47294,2,0,P|78:249|54:170,1,160
28,98,47791,6,0,L|17:52,2,40,0|0|0,3:2|0:0|0:0,0:0:0:0:
102,156,48040,1,0,0:0:0:0:
102,156,48123,2,0,L|91:202,2,40,2|0|0,3:2|0:0|0:0,0:0:0:0:
170,100,48371,1,0,0:0:0:0:
170,100,48454,2,0,L|179:61,2,40,0|0|0,3:2|0:0|0:0,0:0:0:0:
210,180,48703,1,0,0:0:0:0:
210,180,48786,2,0,L|219:218,2,40,2|0|0,3:2|0:0|0:0,0:0:0:0:
261,111,49034,5,0,0:0:0:0:
261,111,49117,2,0,L|321:122,3,40,0|0|0|0,3:2|0:0|0:0|0:0,0:0:0:0:
366,169,49449,2,0,L|426:158,3,40,2|0|0|0,3:2|0:0|0:0|0:0,0:0:0:0:
475,113,49780,5,0,3:2:0:0:
475,113,50112,2,0,P|418:133|418:198,1,120,2|0,3:2|0:0,0:0:0:0:
438,277,50443,5,4,3:2:0:0:
438,277,50526,1,0,0:0:0:0:
438,277,50609,2,0,P|404:296|380:293,1,40,2|0,0:0|0:0,0:0:0:0:
338,362,50775,1,0,3:2:0:0:
338,362,50858,1,0,0:0:0:0:
338,362,50941,2,0,P|300:352|286:333,1,40,2|0,0:0|0:0,0:0:0:0:
205,349,51106,2,0,P|185:315|188:291,1,40,0|0,3:2|0:0,0:0:0:0:
256,173,51272,2,0,P|275:206|272:230,1,40,2|0,0:0|0:0,0:0:0:0:
190,288,51438,1,0,3:2:0:0:
150,282,51520,1,0,0:0:0:0:
110,276,51603,1,2,0:0:0:0:
71,271,51686,1,0,0:0:0:0:
31,263,51769,6,0,B|21:235|21:235|31:208,1,40,0|0,3:2|0:0,0:0:0:0:
69,137,51935,1,2,0:0:0:0:
107,11,52101,6,0,B|117:39|117:39|107:66,1,40,0|0,3:2|0:0,0:0:0:0:
69,137,52267,1,2,0:0:0:0:
31,263,52432,6,0,B|21:235|21:235|31:208,1,40,0|0,3:2|0:0,0:0:0:0:
107,11,52598,2,0,B|117:39|117:39|107:66,1,40,2|0,0:0|0:0,0:0:0:0:
69,137,52764,2,0,L|16:129,1,40,0|0,3:2|0:0,0:0:0:0:
14,122,52929,2,0,L|53:127,1,40,2|0,0:0|0:0,0:0:0:0:
228,206,53095,5,4,3:2:0:0:
263,202,53177,1,0,0:0:0:0:
292,181,53260,1,8,0:2:0:0:
306,148,53343,1,8,0:2:0:0:
302,113,53427,1,8,3:2:0:0:
293,79,53509,1,8,0:2:0:0:
305,45,53592,1,8,0:2:0:0:
334,25,53675,1,8,0:2:0:0:
369,26,53758,5,8,3:2:0:0:
358,72,53840,1,8,0:2:0:0:
324,104,53923,1,8,0:2:0:0:
277,113,54006,1,8,0:2:0:0:
234,94,54090,1,8,3:2:0:0:
201,60,54172,1,8,0:2:0:0:
155,48,54255,1,8,0:2:0:0:
110,63,54338,1,8,0:2:0:0:
79,99,54421,6,0,P|111:164|174:152,1,120.000004577637,4|0,3:3|0:0,0:0:0:0:
263,154,54670,2,0,B|278:114|266:74|266:74|233:84|225:113,1,120.000004577637,4|0,3:3|0:0,0:0:0:0:
205,226,54918,2,0,L|196:297,1,60.0000022888184,4|0,3:3|0:0,0:0:0:0:
210,297,55084,2,0,L|217:237,1,60.0000022888184,8|8,3:2|0:0,0:0:0:0:
79,99,55250,2,0,L|71:158,1,60.0000022888184,8|8,0:0|0:0,0:0:0:0:
296,344,55416,1,8,0:3:0:0:
310,341,55498,1,8,0:3:0:0:
325,338,55581,1,8,0:3:0:0:
340,336,55664,1,8,0:3:0:0:
355,333,55747,5,4,3:3:0:0:
119,261,55996,1,4,3:3:0:0:
302,126,56244,1,4,3:3:0:0:
220,147,56410,6,0,B|170:171|126:175|126:175|193:195|210:227,1,180.000006866455,4|0,3:3|0:0,0:0:0:0:
293,267,56742,2,0,B|343:243|387:239|387:239|320:219|303:187,1,180.000006866455
127,175,57073,6,0,P|87:174|51:163,1,60.0000022888184,4|0,3:2|0:0,0:0:0:0:
387,239,57239,2,0,P|427:240|463:251,1,60.0000022888184,8|0,0:0|0:0,0:0:0:0:
213,301,57405,1,2,0:0:0:0:
213,301,57487,1,0,0:0:0:0:
213,301,57570,2,0,P|211:330|219:375,1,60.0000022888184,8|0,0:0|0:0,0:0:0:0:
306,122,57736,1,2,0:0:0:0:
306,122,57818,1,0,0:0:0:0:
306,122,57901,2,0,P|305:84|234:146,1,180.000006866455,8|0,0:0|0:0,0:0:0:0:
262,177,58233,6,0,B|338:137|343:237|451:179,1,180.000006866455,8|0,0:0|0:0,0:0:0:0:
449,112,58565,1,8,0:0:0:0:
449,112,58648,1,0,3:0:0:0:
449,112,58731,2,0,P|405:103|385:124,1,60.0000022888184,2|0,3:2|0:0,0:0:0:0:
292,248,58896,2,0,P|248:257|228:236,1,60.0000022888184,8|0,0:0|0:0,0:0:0:0:
116,166,59062,2,0,P|180:181|168:294,1,180.000006866455,2|0,0:0|0:0,0:0:0:0:
203,360,59394,2,0,B|244:352|244:352|179:333,1,60.0000022888184,2|0,0:0|0:0,0:0:0:0:
57,250,59559,2,0,B|16:242|16:242|81:223,1,60.0000022888184,8|8,0:0|0:0,0:0:0:0:
214,160,59725,6,0,L|305:142,1,60.0000022888184,6|0,3:2|0:0,0:0:0:0:
394,176,59891,2,0,L|485:158,1,60.0000022888184,8|0,0:0|0:0,0:0:0:0:
326,20,60056,1,2,0:0:0:0:
326,20,60139,1,0,0:0:0:0:
326,20,60222,2,0,L|308:111,1,60.0000022888184,8|0,0:0|0:0,0:0:0:0:
360,188,60388,1,2,0:0:0:0:
360,188,60471,1,0,0:0:0:0:
360,188,60553,2,0,L|332:369,1,180.000006866455,8|0,0:0|3:2,0:0:0:0:
297,371,60885,6,0,P|208:354|248:268,1,180.000006866455,8|0,0:0|0:0,0:0:0:0:
265,172,61217,1,8,0:0:0:0:
265,172,61300,1,0,0:0:0:0:
265,172,61382,2,0,P|243:191|185:205,1,60.0000022888184,2|0,0:0|3:0,0:0:0:0:
128,247,61548,2,0,P|110:215|115:175,1,60.0000022888184,8|0,0:0|0:0,0:0:0:0:
129,102,61714,2,0,B|206:76|215:107|226:135|325:106,1,180.000006866455,2|0,3:2|0:0,0:0:0:0:
362,54,62045,2,0,P|363:-13|318:53,1,180.000006866455,2|0,3:2|0:0,0:0:0:0:
370,145,62377,5,4,0:0:0:0:
366,189,62459,1,2,0:3:0:0:
377,233,62542,1,10,0:2:0:0:
402,270,62625,1,2,0:3:0:0:
437,297,62708,1,2,0:3:0:0:
148,214,62874,5,12,0:0:0:0:
151,169,62956,1,2,0:3:0:0:
140,125,63039,1,2,0:3:0:0:
115,88,63122,1,2,0:3:0:0:
80,61,63206,2,0,B|60:119|60:119|123:62|212:98,1,180.000006866455,8|0,0:2|0:0,0:0:0:0:
269,124,63537,6,0,P|341:147|419:72,1,180.000006866455,8|0,0:0|0:0,0:0:0:0:
411,67,63869,2,0,P|391:104|400:137,1,60.0000022888184,8|0,0:0|0:0,0:0:0:0:
466,224,64034,1,0,3:2:0:0:
466,224,64117,1,0,3:2:0:0:
466,224,64200,2,0,P|486:187|477:154,1,60.0000022888184,8|0,0:0|0:0,0:0:0:0:
311,53,64366,6,0,P|273:44|229:38,1,60.0000022888184,0|0,3:2|0:0,0:0:0:0:
218,183,64532,1,8,0:0:0:0:
218,183,64615,1,0,0:0:0:0:
218,183,64697,2,0,P|246:156|271:119,1,60.0000022888184,0|0,3:2|3:2,0:0:0:0:
146,30,64863,2,0,P|153:65|174:108,1,60.0000022888184,8|0,0:0|0:0,0:0:0:0:
305,302,65029,6,0,B|399:280|399:280|341:268,1,120.000004577637,0|8,3:2|0:0,0:0:0:0:
364,255,65277,2,0,P|339:330|367:366,1,120.000004577637,0|0,0:0|3:2,0:0:0:0:
358,359,65526,2,0,L|225:328,1,120.000004577637,8|0,0:0|3:2,0:0:0:0:
0,222,65858,2,0,L|131:201,1,120.000004577637,8|0,0:0|3:2,0:0:0:0:
195,189,66106,1,0,3:2:0:0:
195,189,66189,2,0,L|270:179,1,60.0000022888184,8|0,0:0|0:0,0:0:0:0:
470,49,66355,6,0,B|472:32|484:18|484:18|457:18|428:6,1,60.0000022888184,0|0,3:2|0:0,0:0:0:0:
380,44,66521,6,0,B|366:33|360:16|360:16|347:39|322:58,1,60.0000022888184,8|0,0:0|0:0,0:0:0:0:
337,122,66686,6,0,B|321:128|303:124|303:124|317:148|320:179,1,60.0000022888184,8|8,3:3|3:3,0:0:0:0:
404,186,66852,6,0,B|401:202|389:216|389:216|416:216|445:228,1,60.0000022888184,8|8,0:0|0:0,0:0:0:0:
489,144,67018,5,8,3:3:0:0:
447,102,67100,1,8,3:3:0:0:
389,93,67183,1,8,0:0:0:0:
337,122,67266,1,8,0:0:0:0:
313,176,67349,1,8,0:0:0:0:
282,226,67431,1,8,0:0:0:0:
228,249,67514,1,8,0:0:0:0:
171,237,67597,1,8,0:0:0:0:
131,193,67681,6,0,L|119:116,1,60.0000022888184,4|0,3:2|0:0,0:0:0:0:
404,186,67847,2,0,L|416:263,1,60.0000022888184,8|0,0:2|0:0,0:0:0:0:
250,105,68012,1,0,3:2:0:0:
250,105,68095,1,0,0:0:0:0:
250,105,68178,2,0,L|267:27,1,60.0000022888184,8|0,0:2|0:0,0:0:0:0:
279,312,68344,1,0,3:2:0:0:
279,312,68427,1,0,0:0:0:0:
279,312,68510,2,0,P|247:368|191:288,1,180.000006866455,8|0,0:2|3:0,0:0:0:0:
211,234,68841,6,0,B|205:186|159:171|159:171|145:226|88:244,1,180.000006866455,8|0,0:0|0:0,0:0:0:0:
11,239,69173,1,8,0:2:0:0:
11,239,69255,1,0,0:0:0:0:
11,239,69338,2,0,P|25:283|51:300,1,60.0000022888184,0|0,3:2|0:0,0:0:0:0:
100,239,69504,2,0,L|103:149,1,60.0000022888184,8|0,0:2|0:0,0:0:0:0:
41,38,69670,2,0,B|4:46|-20:97|25:149|25:149|36:116|76:101,1,180.000006866455,0|0,3:2|0:0,0:0:0:0:
148,98,70001,2,0,L|225:86,1,60.0000022888184,0|0,3:2|0:0,0:0:0:0:
218,78,70167,2,0,L|158:87,1,60.0000022888184,8|0,0:2|0:0,0:0:0:0:
269,226,70333,6,0,L|343:241,1,60.0000022888184,4|0,3:2|0:0,0:0:0:0:
488,349,70498,1,10,0:2:0:0:
458,354,70581,1,2,0:2:0:0:
429,360,70664,1,2,3:2:0:0:
264,213,70830,6,0,L|338:228,1,60.0000022888184,10|0,3:2|0:0,0:0:0:0:
483,336,70995,1,2,3:2:0:0:
453,341,71078,1,2,0:2:0:0:
424,347,71161,2,0,P|362:287|391:205,1,180.000006866455,10|0,0:2|0:0,0:0:0:0:
458,151,71493,6,0,P|468:60|348:88,1,215.999993408203,8|0,0:0|0:0,0:0:0:0:
306,116,71824,1,8,0:0:0:0:
306,116,71907,1,0,3:2:0:0:
306,116,71990,2,0,P|257:125|227:121,1,60.0000022888184,2|0,3:2|0:0,0:0:0:0:
31,36,72156,2,0,P|80:27|110:31,1,60.0000022888184,8|0,0:0|0:0,0:0:0:0:
221,132,72322,6,0,P|229:181|218:212,1,60.0000022888184,4|0,3:2|0:0,0:0:0:0:
86,131,72487,1,8,0:0:0:0:
86,131,72570,1,0,0:0:0:0:
86,131,72653,2,0,P|124:99|156:93,1,60.0000022888184,8|8,3:2|0:0,0:0:0:0:
148,264,72819,2,0,P|101:246|80:221,1,60.0000022888184,8|8,0:0|0:0,0:0:0:0:
221,132,72985,5,4,3:2:0:0:
279,143,73068,1,2,0:3:0:0:
337,129,73150,1,8,0:0:0:0:
383,91,73233,1,2,0:3:0:0:
408,38,73316,1,2,3:2:0:0:
264,261,73482,5,12,3:2:0:0:
206,250,73565,1,2,0:3:0:0:
148,264,73647,1,2,0:2:0:0:
102,302,73730,1,2,0:3:0:0:
77,355,73813,2,0,B|111:354|144:324|144:324|146:254|104:206,1,180.000006866455,8|0,0:0|0:0,0:0:0:0:
82,180,74145,2,0,P|93:208|121:225,1,60.0000022888184,8|0,0:0|0:0,0:0:0:0:
251,179,74311,5,4,3:2:0:0:
251,179,74394,1,0,0:0:0:0:
251,179,74476,2,0,L|322:159,1,60.0000022888184,8|8,0:0|0:0,0:0:0:0:
446,94,74642,1,8,0:0:0:0:
446,94,74725,1,8,0:0:0:0:
446,94,74808,2,0,L|375:74,1,60.0000022888184,8|8,3:3|3:3,0:0:0:0:
299,16,74974,5,8,3:3:0:0:
268,48,75056,1,8,3:3:0:0:
259,91,75139,1,8,3:3:0:0:
273,133,75222,1,8,3:3:0:0:
308,161,75305,1,8,0:0:0:0:
338,193,75387,1,8,0:0:0:0:
347,236,75470,1,8,0:0:0:0:
333,278,75553,1,8,0:0:0:0:
298,306,75637,6,0,P|234:320|167:289,1,120.000004577637,4|0,3:2|0:0,0:0:0:0:
122,243,75885,2,0,B|94:230|55:231|55:231|89:248|110:273,1,120.000004577637,4|0,3:2|0:0,0:0:0:0:
183,302,76134,2,0,P|206:264|198:232,1,60.0000022888184,8|0,3:2|0:0,0:0:0:0:
169,158,76300,6,0,P|149:103|177:52,1,120.000004577637,4|0,3:2|0:0,0:0:0:0:
261,51,76548,2,0,B|289:40|316:12|316:12|289:32|248:21,1,120.000004577637,4|0,3:2|0:0,0:0:0:0:
177,52,76797,2,0,P|142:55|107:44,1,60.0000022888184,8|0,3:2|0:0,0:0:0:0:
85,27,76963,5,8,3:2:0:0:
386,151,77294,1,8,3:2:0:0:
97,315,77626,1,8,3:2:0:0:
97,315,77957,2,0,P|116:257|173:287,1,120,2|2,0:0|0:0,0:0:0:0:
183,293,78289,6,0,L|170:360,1,47.9999985351563,4|0,3:2|0:0,0:0:0:0:
324,234,78454,2,0,L|311:167,1,47.9999985351563,2|0,0:0|0:0,0:0:0:0:
196,307,78620,1,8,3:2:0:0:
191,330,78702,1,2,0:0:0:0:
186,354,78785,1,2,0:0:0:0:
335,184,78952,6,0,L|348:251,1,47.9999985351563,0|0,3:0|0:0,0:0:0:0:
189,135,79117,1,2,0:0:0:0:
194,112,79199,1,2,0:0:0:0:
199,88,79282,1,8,3:2:0:0:
95,230,79449,5,2,0:0:0:0:
95,230,79532,1,2,0:0:0:0:
95,230,79615,2,0,L|28:243,1,47.9999985351563,2|0,3:2|0:0,0:0:0:0:
151,78,79780,2,0,L|218:91,1,47.9999985351563,2|0,0:0|0:0,0:0:0:0:
81,217,79946,1,10,3:2:0:0:
58,222,80028,1,2,0:0:0:0:
34,227,80111,1,2,0:0:0:0:
204,78,80278,6,0,L|137:65,1,47.9999985351563,2|2,3:2|0:2,0:0:0:0:
253,224,80443,1,2,0:2:0:0:
276,219,80525,1,2,0:2:0:0:
300,214,80608,1,10,3:2:0:0:
120,329,80775,2,0,L|167:338,1,47.9999985351563,2|0,0:0|0:0,0:0:0:0:
376,328,80940,5,2,3:2:0:0:
430,310,81023,1,2,0:2:0:0:
430,252,81106,1,2,0:2:0:0:
376,234,81189,1,2,0:2:0:0:
342,281,81272,2,0,P|335:303|341:339,1,47.9999985351563,10|0,3:2|0:0,0:0:0:0:
194,238,81438,5,2,0:2:0:0:
140,220,81521,1,2,0:2:0:0:
140,162,81604,1,2,3:2:0:0:
194,144,81687,1,2,0:2:0:0:
228,191,81770,2,0,P|235:213|229:249,1,47.9999985351563,2|0,0:2|0:0,0:0:0:0:
357,134,81935,5,10,3:2:0:0:
411,116,82018,1,2,0:2:0:0:
411,58,82101,1,2,0:2:0:0:
357,40,82184,1,2,0:2:0:0:
323,87,82267,2,0,P|316:109|322:145,1,47.9999985351563,6|0,3:2|0:0,0:0:0:0:
391,224,82432,5,8,0:0:0:0:
391,224,82515,1,8,0:0:0:0:
391,224,82598,2,0,L|448:207,1,47.9999985351563,8|8,0:0|0:0,0:0:0:0:
323,87,82764,2,0,L|258:78,1,47.9999985351563,8|8,3:3|3:3,0:0:0:0:
156,167,82929,6,0,L|167:242,1,47.9999985351563,8|8,3:3|3:3,0:0:0:0:
81,321,83095,1,8,3:3:0:0:
81,321,83178,1,8,3:3:0:0:
81,321,83261,2,0,L|-2:304,1,47.9999985351563,8|8,0:2|0:2,0:0:0:0:
156,167,83427,2,0,L|218:145,1,47.9999985351563,8|8,0:2|0:2,0:0:0:0:
353,256,83592,6,0,L|366:323,1,47.9999985351563,6|0,3:2|0:0,0:0:0:0:
212,197,83758,2,0,L|225:130,1,47.9999985351563,2|0,0:0|0:0,0:0:0:0:
340,270,83924,1,10,3:2:0:0:
345,293,84007,1,2,0:0:0:0:
350,317,84090,1,2,0:0:0:0:
201,150,84255,6,0,L|188:217,1,47.9999985351563,0|0,3:0|0:0,0:0:0:0:
347,98,84421,1,2,0:0:0:0:
342,75,84504,1,2,0:0:0:0:
337,51,84587,1,8,3:2:0:0:
441,193,84752,5,2,0:0:0:0:
441,193,84835,1,2,0:0:0:0:
441,193,84918,2,0,L|508:206,1,47.9999985351563,2|0,3:2|0:0,0:0:0:0:
385,41,85084,2,0,L|318:54,1,47.9999985351563,2|0,0:0|0:0,0:0:0:0:
455,180,85250,1,10,3:2:0:0:
478,185,85333,1,2,0:0:0:0:
502,190,85416,1,2,0:0:0:0:
332,41,85581,6,0,L|399:28,1,47.9999985351563,2|2,3:2|0:2,0:0:0:0:
283,187,85747,1,2,0:2:0:0:
260,182,85830,1,2,0:2:0:0:
236,177,85913,1,10,3:2:0:0:
416,292,86079,2,0,L|369:301,1,47.9999985351563,2|0,0:0|0:0,0:0:0:0:
130,335,86244,5,2,3:2:0:0:
75,317,86327,1,2,0:2:0:0:
75,259,86410,1,2,0:2:0:0:
130,241,86493,1,2,0:2:0:0:
163,288,86576,2,0,P|191:304|229:302,1,47.9999985351563,10|0,3:2|0:0,0:0:0:0:
301,246,86742,5,2,0:2:0:0:
356,228,86825,1,2,0:2:0:0:
356,170,86908,1,2,3:2:0:0:
301,152,86991,1,2,0:2:0:0:
268,199,87074,2,0,P|240:215|202:213,1,47.9999985351563,2|0,0:2|0:0,0:0:0:0:
120,159,87239,5,10,3:2:0:0:
65,141,87322,1,2,0:2:0:0:
65,83,87405,1,2,0:2:0:0:
120,65,87488,1,2,0:2:0:0:
153,112,87571,2,0,P|181:128|219:126,1,47.9999985351563,6|0,3:2|0:0,0:0:0:0:
316,51,87736,5,8,0:0:0:0:
316,51,87819,1,8,0:0:0:0:
316,51,87902,2,0,P|279:60|265:97,1,47.9999985351563,8|8,0:0|0:0,0:0:0:0:
268,199,88068,2,0,P|296:174|292:134,1,47.9999985351563,8|8,0:0|0:0,0:0:0:0:
177,98,88233,6,0,L|102:82,1,47.9999985351563,8|8,3:0|3:0,0:0:0:0:
381,207,88399,1,8,3:0:0:0:
381,207,88482,1,8,3:0:0:0:
381,207,88565,2,0,L|457:196,1,47.9999985351563,8|8,3:0|3:0,0:0:0:0:
447,181,88731,2,0,L|399:187,1,47.9999985351563,8|8,3:0|3:0,0:0:0:0:
120,317,88896,6,0,P|58:273|175:263,1,280,4|0,3:2|3:0,0:0:0:0:
219,339,89559,6,0,B|281:361|281:361|335:321|407:331,2,180.000006866455,8|0|0,0:0|0:0|0:0,0:0:0:0:
125,173,90222,6,0,B|79:166|42:195|42:195|49:174|51:157,1,120.000004577637,4|2,3:2|0:0,0:0:0:0:
40,81,90471,2,0,P|77:82|105:109,1,60.0000022888184,0|0,0:0|0:2,0:0:0:0:
189,112,90637,5,2,0:0:0:0:
213,136,90719,5,2,0:0:0:0:
246,129,90802,5,2,0:2:0:0:
266,145,90885,6,0,B|315:124|315:124|364:171|443:143,2,180.000006866455,4|0|0,3:2|0:0|3:0,0:0:0:0:
201,220,91465,5,0,3:0:0:0:
201,220,91548,2,0,B|220:262|220:262|210:274|210:274|203:358|203:358|192:369|192:369|257:321,1,240,4|0,3:2|0:0,0:0:0:0:
341,132,92211,6,0,P|385:107|444:121,1,95.9999970703126,12|0,3:2|0:0,0:0:0:0:
468,252,92460,2,0,P|424:226|406:168,1,95.9999970703126,0|0,3:0|0:0,0:0:0:0:
510,117,92708,2,0,P|509:143|487:167,1,47.9999985351563,0|0,3:0|0:0,0:0:0:0:
340,354,92874,6,0,B|245:336|256:292|271:240|249:167|170:165|130:217|148:285|220:245,1,335.999989746094,4|0,3:2|0:0,0:0:0:0:
264,150,93537,6,0,P|220:125|161:139,1,95.9999970703126,4|0,3:2|0:0,0:0:0:0:
154,314,93786,2,0,P|197:288|215:230,1,95.9999970703126,0|0,3:0|0:0,0:0:0:0:
62,172,94034,2,0,P|62:198|81:221,1,47.9999985351563,0|0,3:0|0:0,0:0:0:0:
350,192,94200,6,0,L|355:124,1,59.9999981689454,2|2,0:0|0:0,0:0:0:0:
293,41,94697,5,2,3:2:0:0:
241,76,94780,1,2,3:2:0:0:
178,83,94863,2,0,P|110:81|72:14,1,127.99999609375,12|0,3:2|3:0,0:0:0:0:
37,150,95195,2,0,L|25:190,4,31.9999990234375,0|0|0|0|0,3:0|3:0|3:2|3:0|3:0,3:0:0:0:
134,303,95526,6,0,P|158:305|179:296,1,47.9999985351563,4|0,3:2|0:0,0:0:0:0:
216,259,95692,2,0,P|174:255|182:297,1,95.9999970703126,2|0,0:0|0:0,0:0:0:0:
269,333,95940,5,2,0:0:0:0:
313,305,96023,5,2,3:2:0:0:
367,311,96106,5,2,3:2:0:0:
401,345,96189,6,0,P|442:302|433:249,1,95.9999970703126,12|0,3:2|0:0,0:0:0:0:
351,137,96438,2,0,P|368:213|417:235,1,95.9999970703126,0|0,3:0|0:0,0:0:0:0:
452,194,96686,2,0,P|465:167|465:139,1,47.9999985351563,0|0,3:0|0:0,0:0:0:0:
453,65,96852,5,4,3:2:0:0:
453,65,97184,1,0,3:0:0:0:
453,65,97515,2,0,L|328:91,1,95.9999970703126,2|0,3:2|0:0,0:0:0:0:
343,116,97764,2,0,L|218:142,1,95.9999970703126,2|0,0:0|0:0,0:0:0:0:
229,151,98012,1,2,0:0:0:0:
87,336,98178,5,0,3:0:0:0:
71,291,98344,5,0,3:0:0:0:
85,246,98510,5,0,3:0:0:0:
125,219,98675,5,0,3:0:0:0:
172,222,98841,5,0,3:0:0:0:
209,250,98924,1,0,3:0:0:0:
256,260,99007,1,0,3:0:0:0:
302,249,99090,1,0,3:0:0:0:
339,219,99173,1,0,3:0:0:0:
360,176,99255,1,0,3:0:0:0:
360,128,99338,1,0,3:0:0:0:
340,85,99421,1,0,3:0:0:0:
303,55,99504,6,0,P|285:59|263:79,3,47.9999985351563,2|2|2|2,0:0|0:0|0:0|0:0,0:0:0:0:
241,112,99836,1,2,0:0:0:0:
203,141,99918,1,2,0:0:0:0:
156,143,100001,1,2,0:0:0:0:
117,117,100084,1,2,0:0:0:0:
100,73,100167,1,10,3:2:0:0:
100,73,102322,6,0,P|136:114|143:167,1,80,2|0,3:2|0:0,0:0:0:0:
244,140,102571,2,0,P|240:194|207:236,1,80,2|0,3:2|0:0,0:0:0:0:
136,247,102819,1,10,3:2:0:0:
136,247,104974,6,0,P|156:210|216:202,1,80,2|0,3:2|0:0,0:0:0:0:
170,101,105223,2,0,P|210:88|258:125,1,80,2|0,3:2|0:0,0:0:0:0:
300,198,105471,1,10,3:2:0:0:
300,198,106466,6,0,L|308:127,1,60,2|0,3:2|0:0,0:0:0:0:
316,66,106797,5,2,3:2:0:0:
316,66,108123,6,0,L|266:54,1,47.9999985351563,6|0,3:2|0:0,0:0:0:0:
190,142,108289,2,0,L|240:154,1,47.9999985351563,2|0,0:0|3:2,0:0:0:0:
323,54,108455,1,10,0:0:0:0:
299,48,108537,1,2,0:0:0:0:
276,42,108620,1,2,3:2:0:0:
235,172,108786,6,0,L|188:160,1,47.9999985351563,2|2,3:2|0:0,0:0:0:0:
105,36,108952,1,2,3:2:0:0:
129,42,109034,1,2,0:0:0:0:
152,48,109117,1,10,0:0:0:0:
189,174,109284,5,2,3:2:0:0:
211,182,109366,1,2,0:0:0:0:
234,190,109449,2,0,L|222:252,1,47.9999985351563,2|0,3:2|0:0,0:0:0:0:
126,340,109615,2,0,L|117:276,1,47.9999985351563,2|0,0:0|3:2,0:0:0:0:
250,205,109781,1,10,0:2:0:0:
246,229,109863,1,2,0:0:0:0:
241,252,109946,1,2,3:2:0:0:
104,283,110112,6,0,L|110:330,1,47.9999985351563,2|2,0:2|0:2,0:0:0:0:
340,352,110278,1,10,0:2:0:0:
336,328,110360,1,2,0:2:0:0:
333,304,110444,2,0,L|325:250,1,47.9999985351563,10|0,0:2|0:0,0:0:0:0:
314,174,110609,2,0,L|306:120,1,47.9999985351563,8|8,0:0|0:0,0:0:0:0:
298,39,110775,5,4,3:2:0:0:
173,199,110941,1,0,0:0:0:0:
173,199,111024,1,0,3:2:0:0:
173,199,111107,2,0,L|198:319,1,95.9999970703126,8|0,0:0|3:2,0:0:0:0:
332,358,111438,2,0,P|379:357|446:305,2,95.9999970703126,2|0|8,0:0|3:0|0:0,0:0:0:0:
88,131,111935,5,2,0:0:0:0:
88,131,112018,1,2,0:0:0:0:
88,131,112101,2,0,P|121:84|163:77,1,95.9999970703126,0|0,3:2|0:0,0:0:0:0:
229,127,112349,1,0,3:2:0:0:
229,127,112432,2,0,P|284:150|327:135,1,95.9999970703126,8|0,0:0|3:0,0:0:0:0:
402,66,112764,5,10,0:0:0:0:
402,66,112847,1,8,0:0:0:0:
402,66,112930,1,0,3:0:0:0:
229,127,113095,1,8,0:0:0:0:
54,169,113261,5,2,0:0:0:0:
54,169,113344,1,0,0:0:0:0:
54,169,113427,1,0,3:2:0:0:
351,232,113675,5,0,3:0:0:0:
351,232,113758,1,8,0:0:0:0:
195,201,113924,1,0,3:0:0:0:
351,232,114090,2,0,P|403:233|433:198,2,95.9999970703126,2|0|8,0:0|3:0|0:0,0:0:0:0:
227,135,114587,5,8,0:0:0:0:
227,135,114670,1,8,0:0:0:0:
227,135,114753,1,0,3:1:0:0:
62,49,115002,5,0,0:0:0:0:
62,49,115084,1,8,0:0:0:0:
227,135,115250,1,0,3:0:0:0:
99,180,115416,5,8,0:0:0:0:
99,180,115499,1,8,0:0:0:0:
99,180,115581,1,2,3:2:0:0:
308,216,115747,1,8,0:0:0:0:
218,334,115913,5,2,0:0:0:0:
218,334,115996,1,2,0:0:0:0:
218,334,116079,2,0,L|201:229,1,95.9999970703126,4|0,3:2|0:0,0:0:0:0:
150,166,116327,1,0,3:0:0:0:
150,166,116410,2,0,L|167:61,1,95.9999970703126,10|0,0:0|3:0,0:0:0:0:
107,276,116742,1,2,0:0:0:0:
107,276,116825,1,0,0:0:0:0:
107,276,116908,2,0,L|-20:254,1,95.9999970703126,0|10,3:2|0:0,0:0:0:0:
303,86,117239,5,0,0:0:0:0:
303,86,117322,1,8,0:0:0:0:
303,86,117405,2,0,L|421:108,1,95.9999970703126,4|0,3:2|0:0,0:0:0:0:
455,170,117653,1,8,3:2:0:0:
455,170,117736,2,0,L|379:187,1,47.9999985351563,10|0,0:2|0:0,0:0:0:0:
293,226,117902,2,0,L|342:244,1,47.9999985351563,0|0,3:2|0:0,0:0:0:0:
371,369,118068,5,8,0:0:0:0:
380,321,118150,1,8,0:0:0:0:
389,274,118233,1,8,0:0:0:0:
398,227,118316,1,8,0:0:0:0:
408,180,118400,2,0,L|421:118,1,47.9999985351563,8|8,3:2|0:0,0:0:0:0:
247,50,118565,1,8,0:0:0:0:
247,50,118648,1,8,0:0:0:0:
247,50,118731,6,0,L|262:125,1,47.9999985351563,6|0,3:2|0:0,0:0:0:0:
417,133,118897,2,0,L|432:58,1,47.9999985351563,2|0,0:0|3:2,0:0:0:0:
234,61,119063,1,10,0:0:0:0:
238,84,119145,1,2,0:0:0:0:
243,108,119228,1,2,3:2:0:0:
441,82,119394,6,0,L|427:160,1,47.9999985351563,2|0,0:0|0:0,0:0:0:0:
229,123,119560,1,2,3:2:0:0:
225,99,119642,1,2,0:2:0:0:
220,75,119725,1,10,0:2:0:0:
74,32,119891,2,0,L|59:107,1,47.9999985351563,2|2,3:2|0:0,0:0:0:0:
21,266,120057,6,0,P|49:285|73:286,1,47.9999985351563,6|0,0:0|0:0,0:0:0:0:
179,186,120223,2,0,P|151:167|127:166,1,47.9999985351563,2|0,3:2|3:2,0:0:0:0:
19,286,120388,1,8,0:0:0:0:
37,301,120470,1,2,0:0:0:0:
60,306,120553,1,10,0:0:0:0:
230,131,120720,6,0,P|261:118|285:123,1,47.9999985351563,2|2,3:2|0:0,0:0:0:0:
363,264,120886,1,2,0:0:0:0:
342,274,120969,1,2,0:0:0:0:
318,274,121050,1,10,0:0:0:0:
215,119,121217,2,0,P|246:106|270:111,1,47.9999985351563,8|8,0:0|0:0,0:0:0:0:
429,216,121383,6,0,L|441:263,2,30.0000011444092,4|0|0,3:2|0:0|0:0,0:0:0:0:
398,117,121632,1,0,0:0:0:0:
398,117,121715,2,0,L|406:79,2,30.0000011444092,0|0|0,3:2|0:0|0:0,0:0:0:0:
320,198,121963,1,0,0:0:0:0:
320,198,122046,2,0,L|328:241,2,30.0000011444092,0|0|0,3:2|0:0|0:0,0:0:0:0:
252,110,122295,1,0,0:0:0:0:
252,110,122378,2,0,L|262:67,2,30.0000011444092,2|0|0,3:2|0:0|0:0,0:0:0:0:
220,215,122626,5,0,0:0:0:0:
220,215,122709,2,0,L|186:221,3,30.0000011444092,0|0|0|0,3:2|0:0|0:0|0:0,0:0:0:0:
125,283,123041,2,0,L|91:277,3,30.0000011444092,2|0|0|0,3:2|0:0|0:0|0:0,0:0:0:0:
11,270,123372,5,0,3:2:0:0:
11,270,123538,2,0,P|15:191|96:207,1,160
125,283,124035,6,0,L|136:329,2,40,0|0|0,3:2|0:0|0:0,0:0:0:0:
199,206,124284,1,0,0:0:0:0:
199,206,124367,2,0,L|210:160,2,40,2|0|0,3:2|0:0|0:0,0:0:0:0:
265,311,124615,1,0,0:0:0:0:
265,311,124698,2,0,L|274:350,2,40,0|0|0,3:2|0:0|0:0,0:0:0:0:
346,214,124947,1,0,0:0:0:0:
346,214,125030,2,0,L|355:176,2,40,2|0|0,3:2|0:0|0:0,0:0:0:0:
398,322,125278,5,0,0:0:0:0:
398,322,125361,2,0,L|459:309,3,40,0|0|0|0,3:2|0:0|0:0|0:0,0:0:0:0:
346,214,125693,2,0,L|286:203,3,40,2|0|0|0,3:2|0:0|0:0|0:0,0:0:0:0:
469,183,126024,5,0,3:2:0:0:
469,183,126356,2,0,P|412:163|421:99,1,120,2|0,3:2|0:0,0:0:0:0:
468,54,126687,5,4,3:2:0:0:
468,54,126770,1,0,0:0:0:0:
468,54,126853,2,0,P|434:35|408:38,1,40,2|0,0:0|0:0,0:0:0:0:
325,83,127018,1,0,3:2:0:0:
325,83,127101,1,0,0:0:0:0:
325,83,127184,2,0,P|306:117|309:143,1,40,2|0,0:0|0:0,0:0:0:0:
344,215,127350,1,0,3:2:0:0:
344,215,127433,1,0,0:0:0:0:
344,215,127516,2,0,P|333:252|312:268,1,40,2|0,0:0|0:0,0:0:0:0:
222,295,127681,1,0,3:2:0:0:
222,295,127764,1,0,0:0:0:0:
222,295,127847,2,0,P|184:284|168:263,1,40,2|0,0:0|0:0,0:0:0:0:
112,194,128013,6,0,P|54:174|25:186,2,80,0|2|0,3:2|0:0|3:2,0:0:0:0:
204,200,128427,2,0,P|245:166|238:116,1,80
154,73,128676,2,0,L|156:148,1,40,0|0,3:2|0:0,0:0:0:0:
164,275,128842,1,2,0:0:0:0:
166,318,128924,1,0,0:0:0:0:
168,361,129007,1,0,3:2:0:0:
154,73,129173,1,2,0:0:0:0:
403,225,129339,5,4,3:2:0:0:
428,194,129421,1,0,0:0:0:0:
433,155,129504,1,8,0:2:0:0:
417,119,129587,1,8,0:2:0:0:
385,96,129670,1,8,3:2:0:0:
345,95,129753,1,8,0:2:0:0:
311,114,129836,1,8,0:2:0:0:
291,148,129919,1,8,0:2:0:0:
293,188,130002,5,8,3:2:0:0:
290,227,130084,1,8,0:2:0:0:
265,257,130167,1,8,0:2:0:0:
227,268,130250,1,8,0:2:0:0:
190,255,130333,1,8,3:2:0:0:
157,234,130415,1,8,0:2:0:0:
117,228,130498,1,8,0:2:0:0:
79,240,130581,1,8,0:2:0:0:
50,266,130665,6,0,P|75:312|155:297,1,120.000004577637,4|0,3:3|0:0,0:0:0:0:
227,268,130913,2,0,B|268:250|309:273|309:273|272:293,1,120.000004577637,4|0,3:3|0:0,0:0:0:0:
148,291,131162,2,0,L|142:211,1,60.0000022888184,4|0,3:3|0:0,0:0:0:0:
235,99,131328,2,0,L|241:179,1,60.0000022888184,8|8,3:2|0:0,0:0:0:0:
132,283,131493,2,0,L|126:203,1,60.0000022888184,8|8,0:0|0:0,0:0:0:0:
250,89,131659,1,8,0:3:0:0:
251,103,131741,1,8,0:3:0:0:
252,118,131824,1,8,0:3:0:0:
253,133,131907,1,8,0:3:0:0:
254,148,131991,5,4,3:3:0:0:
274,326,132239,1,4,3:3:0:0:
264,237,132488,1,4,3:3:0:0:
349,277,132654,6,0,P|403:217|312:194,1,180.000006866455,4|0,3:3|0:0,0:0:0:0:
163,107,132985,2,0,P|109:167|200:190,1,180.000006866455
337,176,133317,6,0,B|363:161|363:161|411:165,1,60.0000022888184,4|0,3:2|0:0,0:0:0:0:
174,207,133482,2,0,B|148:222|148:222|100:218,1,60.0000022888184,8|0,0:0|0:0,0:0:0:0:
243,50,133648,1,2,0:0:0:0:
243,50,133731,1,0,0:0:0:0:
243,50,133814,2,0,L|250:123,1,60.0000022888184,8|0,0:0|0:0,0:0:0:0:
276,333,133980,1,2,0:0:0:0:
276,333,134063,1,0,0:0:0:0:
276,333,134145,2,0,P|287:272|190:285,1,180.000006866455,8|0,0:0|0:0,0:0:0:0:
141,342,134477,6,0,B|113:365|82:373|82:373|14:319|54:225,1,180.000006866455,8|0,0:0|0:0,0:0:0:0:
65,178,134808,1,8,0:0:0:0:
65,178,134891,1,0,3:0:0:0:
65,178,134974,2,0,P|109:169|129:190,1,60.0000022888184,2|0,3:2|0:0,0:0:0:0:
172,94,135140,2,0,P|209:118|208:147,1,60.0000022888184,8|0,0:0|0:0,0:0:0:0:
311,141,135306,2,0,P|332:228|264:273,1,180.000006866455,2|0,0:0|0:0,0:0:0:0:
243,266,135637,2,0,P|216:255|171:257,1,60.0000022888184,2|0,0:0|0:0,0:0:0:0:
26,350,135803,2,0,P|53:361|98:359,1,60.0000022888184,8|8,0:0|0:0,0:0:0:0:
182,238,135969,6,0,L|200:147,1,60.0000022888184,6|0,3:2|0:0,0:0:0:0:
43,26,136134,2,0,L|25:117,1,60.0000022888184,8|0,0:0|0:0,0:0:0:0:
58,251,136300,1,2,0:0:0:0:
58,251,136383,1,0,0:0:0:0:
58,251,136466,2,0,L|76:160,1,60.0000022888184,8|0,0:0|0:0,0:0:0:0:
154,60,136632,1,2,0:0:0:0:
154,60,136714,1,0,0:0:0:0:
154,60,136797,2,0,L|182:241,1,180.000006866455,8|0,0:0|3:2,0:0:0:0:
221,335,137129,6,0,B|292:294|310:339|325:375|407:339,1,180.000006866455,8|0,0:0|0:0,0:0:0:0:
472,298,137460,1,8,0:0:0:0:
472,298,137543,1,0,0:0:0:0:
472,298,137626,2,0,P|478:269|463:211,1,60.0000022888184,2|0,0:0|3:0,0:0:0:0:
336,66,137792,2,0,P|329:94|344:152,1,60.0000022888184,8|0,0:0|0:0,0:0:0:0:
475,239,137958,2,0,B|398:213|389:244|378:272|279:243,1,180.000006866455,2|0,3:2|0:0,0:0:0:0:
223,212,138289,2,0,B|213:177|211:110|211:110|237:170|269:197,1,180.000006866455,2|0,3:2|0:0,0:0:0:0:
300,248,138621,5,4,0:0:0:0:
271,281,138703,1,2,0:3:0:0:
232,305,138786,1,10,0:2:0:0:
188,313,138868,1,2,0:3:0:0:
145,308,138952,1,2,0:3:0:0:
338,146,139118,5,12,0:0:0:0:
367,112,139201,1,2,0:3:0:0:
406,88,139284,1,2,0:3:0:0:
450,80,139366,1,2,0:3:0:0:
494,85,139449,2,0,P|441:132|353:69,1,180.000006866455,8|0,0:2|0:0,0:0:0:0:
295,32,139781,6,0,P|223:9|145:84,1,180.000006866455,8|0,0:0|0:0,0:0:0:0:
150,102,140112,2,0,L|161:172,1,60.0000022888184,8|0,0:0|0:0,0:0:0:0:
46,224,140277,1,0,3:2:0:0:
46,224,140360,1,0,3:2:0:0:
46,224,140444,2,0,P|26:187|35:154,1,60.0000022888184,8|0,0:0|0:0,0:0:0:0:
162,187,140609,2,0,L|171:246,1,60.0000022888184,0|0,3:2|0:0,0:0:0:0:
293,177,140775,1,8,0:0:0:0:
293,177,140858,1,0,0:0:0:0:
293,177,140941,2,0,P|291:147|274:123,1,60.0000022888184,0|0,3:2|3:2,0:0:0:0:
176,275,141107,2,0,L|185:334,1,60.0000022888184,8|0,0:0|0:0,0:0:0:0:
98,356,141272,6,0,B|34:337|34:337|92:334,1,120.000004577637,0|8,3:2|0:0,0:0:0:0:
277,304,141521,2,0,B|341:323|341:323|283:326,1,120.000004577637,0|0,0:0|3:2,0:0:0:0:
176,275,141770,2,0,L|156:142,1,120.000004577637,8|0,0:0|3:2,0:0:0:0:
402,12,142101,6,0,L|381:143,1,120.000004577637,8|0,0:0|3:2,0:0:0:0:
371,211,142349,1,0,3:2:0:0:
371,211,142433,2,0,L|361:286,1,60.0000022888184,8|0,0:0|0:0,0:0:0:0:
92,358,142598,6,0,B|76:366|68:382|68:382|58:357|36:335,1,60.0000022888184,0|0,3:2|0:0,0:0:0:0:
53,275,142764,6,0,B|37:266|19:266|19:266|36:246|44:215,1,60.0000022888184,8|0,0:0|0:0,0:0:0:0:
109,206,142930,6,0,B|108:188|98:173|98:173|125:177|155:168,1,60.0000022888184,8|8,3:3|3:3,0:0:0:0:
194,244,143096,6,0,B|207:235|216:218|216:218|226:243|248:266,1,60.0000022888184,8|8,0:0|0:0,0:0:0:0:
186,339,143261,5,8,3:3:0:0:
147,317,143343,1,8,3:3:0:0:
126,278,143426,1,8,0:0:0:0:
130,233,143509,1,8,0:0:0:0:
157,198,143593,1,8,0:0:0:0:
195,154,143675,1,8,0:0:0:0:
198,95,143758,1,8,0:0:0:0:
163,47,143841,1,8,0:0:0:0:
107,31,143924,6,0,P|74:63|71:90,1,60.0000022888184,4|0,3:2|0:0,0:0:0:0:
243,225,144090,2,0,P|275:192|278:165,1,60.0000022888184,8|0,0:2|0:0,0:0:0:0:
331,58,144256,1,0,3:2:0:0:
331,58,144339,1,0,0:0:0:0:
331,58,144422,2,0,P|365:37|401:42,1,60.0000022888184,8|0,0:2|0:0,0:0:0:0:
496,108,144587,1,0,3:2:0:0:
496,108,144670,1,0,0:0:0:0:
496,108,144753,2,0,P|410:113|387:28,1,180.000006866455,8|0,0:2|3:0,0:0:0:0:
460,44,145085,6,0,B|472:148|472:148|432:157|397:215,1,180.000006866455,8|0,0:0|0:0,0:0:0:0:
441,288,145416,2,0,P|476:265|485:222,1,60.0000022888184,8|0,0:2|0:0,0:0:0:0:
330,180,145582,2,0,P|344:235|360:249,1,60.0000022888184,0|0,3:2|0:0,0:0:0:0:
420,200,145748,5,8,0:2:0:0:
420,200,145830,1,0,0:0:0:0:
420,200,145913,2,0,L|231:180,1,180.000006866455,0|0,3:2|0:0,0:0:0:0:
187,116,146245,2,0,P|161:151|164:190,1,60.0000022888184,0|0,3:2|0:0,0:0:0:0:
77,177,146411,2,0,P|83:220|113:245,1,60.0000022888184,8|0,0:2|0:0,0:0:0:0:
202,266,146576,6,0,L|276:251,1,60.0000022888184,4|0,3:2|0:0,0:0:0:0:
421,143,146741,1,10,0:2:0:0:
391,138,146824,1,2,0:2:0:0:
362,132,146907,1,2,3:2:0:0:
197,279,147073,6,0,L|271:264,1,60.0000022888184,10|0,3:2|0:0,0:0:0:0:
416,156,147238,1,2,3:2:0:0:
386,151,147321,1,2,0:2:0:0:
357,145,147405,2,0,P|295:205|324:287,1,180.000006866455,10|0,0:2|0:0,0:0:0:0:
440,357,147737,6,0,P|499:311|403:272,1,215.999993408203,8|0,0:0|0:0,0:0:0:0:
332,359,148068,1,8,0:0:0:0:
332,359,148151,1,0,3:2:0:0:
332,359,148234,2,0,P|285:370|253:358,1,60.0000022888184,2|0,3:2|0:0,0:0:0:0:
139,287,148400,2,0,P|186:276|218:288,1,60.0000022888184,8|0,0:0|0:0,0:0:0:0:
326,245,148565,6,0,P|358:207|358:184,1,60.0000022888184,4|0,3:2|0:0,0:0:0:0:
228,121,148731,1,8,0:0:0:0:
228,121,148814,1,0,0:0:0:0:
228,121,148897,2,0,P|244:167|264:179,1,60.0000022888184,8|8,3:2|0:0,0:0:0:0:
392,109,149063,2,0,P|343:100|323:111,1,60.0000022888184,8|8,0:0|0:0,0:0:0:0:
143,174,149228,5,4,3:2:0:0:
98,171,149310,1,2,0:3:0:0:
61,147,149393,1,8,0:0:0:0:
40,107,149476,1,2,0:3:0:0:
41,63,149559,1,2,3:2:0:0:
359,198,149726,5,12,3:2:0:0:
404,201,149808,1,2,0:3:0:0:
441,225,149891,1,2,0:2:0:0:
462,265,149974,1,2,0:3:0:0:
461,309,150057,2,0,P|403:262|449:157,1,180.000006866455,8|0,0:0|0:0,0:0:0:0:
482,111,150388,2,0,P|486:75|470:39,1,60.0000022888184,8|0,0:0|0:0,0:0:0:0:
312,90,150554,5,4,3:2:0:0:
312,90,150637,1,0,0:0:0:0:
312,90,150720,2,0,L|304:158,1,60.0000022888184,8|8,0:0|0:0,0:0:0:0:
217,272,150886,1,8,0:0:0:0:
217,272,150969,1,8,0:0:0:0:
217,272,151052,2,0,L|202:198,1,60.0000022888184,8|8,3:3|3:3,0:0:0:0:
90,52,151217,5,8,3:3:0:0:
37,75,151299,1,8,3:3:0:0:
27,132,151382,1,8,3:3:0:0:
68,172,151465,1,8,3:3:0:0:
124,161,151549,1,8,0:0:0:0:
174,130,151631,1,8,0:0:0:0:
234,131,151714,1,8,0:0:0:0:
284,161,151797,1,8,0:0:0:0:
312,214,151880,6,0,P|314:272|295:336,1,120.000004577637,4|0,3:2|0:0,0:0:0:0:
218,364,152129,2,0,B|146:348|146:348|199:332,1,120.000004577637,4|0,3:2|0:0,0:0:0:0:
297,331,152377,2,0,P|326:333|360:352,1,60.0000022888184,8|0,3:2|0:0,0:0:0:0:
454,370,152543,6,0,P|499:322|428:282,1,120.000004577637,4|0,3:2|0:0,0:0:0:0:
380,217,152792,2,0,B|310:213|310:213|371:248,1,120.000004577637,4|0,3:2|0:0,0:0:0:0:
473,191,153040,2,0,P|482:157|481:111,1,60.0000022888184,8|0,3:2|0:0,0:0:0:0:
457,38,153206,5,8,3:2:0:0:
255,174,153538,1,8,3:2:0:0:
53,310,153869,1,8,3:2:0:0:
53,310,154201,6,0,P|56:253|108:261,1,120,2|2,0:0|0:0,0:0:0:0:
173,331,154532,6,0,P|228:307|229:219,1,120.000004577637,4|0,3:2|0:0,0:0:0:0:
241,225,154781,2,0,P|227:181|178:159,1,80,4|0,3:0|0:0,0:0:0:0:
173,157,155029,2,0,P|135:155|113:166,1,40,0|0,3:0|0:0,0:0:0:0:
15,208,155195,1,8,0:0:0:0:
36,261,155278,1,8,0:0:0:0:
53,310,155361,1,8,0:0:0:0:
337,189,155527,6,0,P|282:165|281:77,1,120.000004577637,4|0,3:2|0:0,0:0:0:0:
269,83,155776,2,0,P|283:39|332:17,1,80,0|0,3:0|0:0,0:0:0:0:
337,15,156024,2,0,P|375:13|397:24,1,40,0|0,3:0|0:0,0:0:0:0:
495,66,156190,1,8,0:0:0:0:
474,119,156273,1,8,0:0:0:0:
457,168,156356,1,8,0:0:0:0:
197,324,156521,6,0,B|160:313|130:297|130:297|170:294|186:281,1,120.000004577637,4|0,3:2|0:0,0:0:0:0:
288,310,156770,2,0,B|309:341|310:358|310:358|289:348|266:339,1,80,0|0,3:0|0:0,0:0:0:0:
249,232,157018,2,0,P|260:217|291:208,1,40,0|0,3:0|0:0,0:0:0:0:
451,299,157184,6,0,L|445:359,2,53.3333333333333,4|4|4,0:3|0:3|0:3,0:0:0:0:
474,114,157847,5,4,0:0:0:0:
474,114,158067,1,2,0:3:0:0:
357,163,158288,5,2,0:3:0:0:
344,186,158399,1,2,0:3:0:0:
347,213,158509,1,2,0:3:0:0:
474,114,158730,1,2,0:3:0:0:
357,163,158951,5,2,0:3:0:0:
344,186,159062,1,2,0:3:0:0:
347,213,159172,1,2,0:3:0:0:
474,114,159388,1,2,0:3:0:0:
357,163,159604,5,2,0:3:0:0:
344,186,159712,1,2,0:3:0:0:
347,213,159820,1,2,0:3:0:0:
363,247,159928,1,2,0:3:0:0:
376,270,160036,1,2,0:3:0:0:
373,297,160144,2,0,P|345:314|308:308,1,53.3333333333333
235,302,160469,5,2,0:3:0:0:
235,302,160689,1,2,0:3:0:0:
118,253,160910,5,2,0:3:0:0:
105,230,161021,1,2,0:3:0:0:
108,203,161131,1,2,0:3:0:0:
235,302,161352,1,2,0:3:0:0:
118,253,161573,5,2,0:3:0:0:
105,230,161684,1,2,0:3:0:0:
108,203,161794,1,2,0:3:0:0:
235,302,162015,1,2,0:3:0:0:
118,253,162236,5,2,0:3:0:0:
105,230,162347,1,2,0:3:0:0:
108,203,162457,2,2,P|137:157|101:73,1,146.666666666667,2|0,0:0|0:0,0:1:0:0:
30,30,163150,5,4,3:2:0:0:
160,125,163370,1,0,3:2:0:0:
206,151,163481,1,2,0:3:0:0:
256,136,163591,1,0,3:2:0:0:
298,103,163702,1,0,3:2:0:0:
351,103,163812,1,0,3:2:0:0:
446,313,164033,5,0,3:2:0:0:
396,333,164144,1,2,0:3:0:0:
355,298,164254,1,0,3:2:0:0:
345,245,164365,1,0,3:2:0:0:
310,204,164475,1,0,3:2:0:0:
22,331,164696,5,0,3:2:0:0:
75,326,164807,1,2,0:3:0:0:
91,275,164917,1,0,3:2:0:0:
130,238,165028,1,0,3:2:0:0:
181,251,165138,2,0,P|189:264|194:314,2,53.3333333333333,0|0|0,3:2|3:2|3:2,0:0:0:0:
122,207,165470,2,0,P|100:147|136:98,1,106.666666666667,0|0,3:2|0:0,0:0:0:0:
241,51,165801,5,4,3:2:0:0:
241,51,166022,1,0,3:2:0:0:
391,110,166243,1,0,3:2:0:0:
352,147,166354,1,0,3:2:0:0:
299,139,166464,1,0,3:2:0:0:
241,51,166685,1,0,3:2:0:0:
122,207,166906,1,0,3:2:0:0:
161,244,167017,1,0,3:2:0:0:
214,236,167127,1,0,3:2:0:0:
265,221,167238,1,0,0:0:0:0:
308,253,167348,1,8,0:0:0:0:
372,307,167459,6,0,L|355:367,2,53.3333333333333,8|0|8,3:2|0:0|3:2,0:0:0:0:
447,264,167790,1,8,3:2:0:0:
473,217,167901,1,8,3:2:0:0:
445,171,168011,1,8,3:2:0:0:
402,138,168122,1,8,3:2:0:0:
384,87,168232,1,8,3:2:0:0:
408,39,168343,1,8,3:2:0:0:
470,92,168453,6,0,L|276:62,1,160.000006103516,4|0,3:2|0:0,0:0:0:0:
221,49,168785,6,0,L|153:37,2,53.3333333333333,2|0|0,0:0|0:0|0:0,0:0:0:0:
308,84,169116,2,0,P|342:154|316:209,1,106.666666666667,0|0,3:0|0:0,0:0:0:0:
274,245,169448,1,2,0:0:0:0:
246,242,169558,1,0,0:0:0:0:
219,239,169668,1,0,0:0:0:0:
194,237,169779,6,0,L|114:226,2,53.3333333333333,0|0|0,3:0|0:0|0:0,0:0:0:0:
317,314,170111,2,0,L|397:303,2,53.3333333333333,2|0|0,0:0|0:0|0:0,0:0:0:0:
226,359,170442,2,0,P|192:312|231:264,1,106.666666666667,0|0,3:0|0:0,0:0:0:0:
284,232,170774,2,0,P|318:185|279:137,1,106.666666666667,2|0,0:0|0:0,0:0:0:0:
203,34,171105,6,0,B|169:96|223:141|223:141|221:105|258:61,1,160.000006103516,4|0,3:2|0:0,0:0:0:0:
299,58,171437,5,2,0:0:0:0:
347,36,171547,1,0,0:0:0:0:
397,54,171658,1,0,0:0:0:0:
443,79,171768,2,0,P|476:32|421:16,1,106.666666666667,0|0,3:0|0:0,0:0:0:0:
351,118,172100,1,2,0:0:0:0:
366,168,172210,1,0,0:0:0:0:
351,219,172321,1,0,0:0:0:0:
379,264,172431,6,0,L|392:340,2,53.3333333333333,0|0|0,3:0|0:0|0:0,0:0:0:0:
268,183,172763,2,0,L|268:119,2,53.3333333333333,2|0|0,0:0|0:0|0:0,0:0:0:0:
253,291,173094,2,0,P|205:310|159:287,1,106.666666666667,0|0,3:0|0:0,0:0:0:0:
140,201,173426,2,0,P|92:181|46:204,1,106.666666666667,2|0,0:0|0:0,0:0:0:0:
0,271,173757,6,0,B|-1:310|14:326|36:352|36:352|45:308|83:274,1,160.000006103516,4|0,3:2|0:0,0:0:0:0:
140,201,174089,6,0,P|163:190|200:184,2,53.3333333333333,2|0|0,0:0|0:0|0:0,0:0:0:0:
52,173,174420,2,0,P|20:108|56:61,1,106.666666666667,0|0,3:0|0:0,0:0:0:0:
123,32,174752,1,2,0:0:0:0:
156,73,174862,1,0,0:0:0:0:
209,73,174973,1,0,0:0:0:0:
258,53,175083,6,0,P|280:40|311:33,2,53.3333333333333,0|0|0,3:2|0:0|0:0,0:0:0:0:
198,167,175415,2,0,P|175:154|145:147,2,53.3333333333333,2|0|0,0:0|0:0|0:0,0:0:0:0:
277,229,175746,2,0,P|350:200|388:234,1,106.666666666667,0|0,3:0|0:0,0:0:0:0:
408,295,176078,2,0,P|481:324|519:290,1,106.666666666667,2|0,0:0|0:0,0:0:0:0:
498,229,176409,6,0,B|487:191|440:159|440:159|454:200|454:261,1,160.000006103516,4|0,3:2|0:0,0:0:0:0:
390,313,176741,5,2,0:0:0:0:
347,345,176851,1,0,0:0:0:0:
296,326,176962,1,0,0:0:0:0:
244,314,177072,2,0,P|198:312|116:348,1,106.666666666667,0|0,3:0|0:0,0:0:0:0:
53,283,177404,1,2,0:0:0:0:
40,231,177514,1,0,0:0:0:0:
83,200,177625,1,0,0:0:0:0:
135,203,177735,6,0,P|176:218|194:238,2,53.3333333333333,0|0|0,3:0|0:0|0:0,0:0:0:0:
71,112,178067,2,0,P|29:127|12:147,2,53.3333333333333,2|0|0,0:0|0:0|0:0,0:0:0:0:
185,114,178398,2,0,P|228:62|208:8,1,106.666666666667,0|0,3:0|0:0,0:0:0:0:
195,26,178730,2,0,P|194:77|232:112,1,106.666666666667,2|0,0:0|0:0,0:0:0:0:
370,111,179061,6,0,B|433:118|433:118|471:67|471:67|400:53,1,160.000006103516,4|0,3:2|0:0,0:0:0:0:
343,126,179393,6,0,L|334:201,2,53.3333333333333,0|0|0,3:0|3:0|3:0,0:0:0:0:
313,49,179724,2,0,P|258:15|208:42,1,106.666666666667,8|0,3:2|3:0,0:0:0:0:
151,106,180056,5,0,3:2:0:0:
131,155,180166,1,0,3:0:0:0:
173,187,180277,1,0,3:2:0:0:
205,229,180387,1,0,3:0:0:0:
200,282,180498,1,0,3:0:0:0:
172,327,180608,1,0,3:0:0:0:
219,351,180719,1,8,3:2:0:0:
267,329,180829,1,0,3:0:0:0:
318,344,180940,1,0,3:0:0:0:
370,343,181050,6,0,L|427:331,2,53.3333333333333,8|0|0,3:2|3:0|3:2,0:0:0:0:
313,265,181382,2,0,P|279:187|309:145,1,106.666666666667,0|0,3:0|3:2,0:0:0:0:
386,132,181713,6,0,B|396:86|426:52|426:52|371:51|350:73,1,160.000006103516,4|0,3:2|0:0,0:0:0:0:
271,152,182045,5,0,3:2:0:0:
226,180,182155,1,0,3:2:0:0:
172,176,182266,1,0,3:2:0:0:
128,145,182376,2,0,P|89:128|59:129,2,53.3333333333333,8|0|0,3:2|3:2|3:2,0:0:0:0:
263,282,182708,2,0,P|302:265|332:266,2,53.3333333333333,0|0|0,3:2|3:2|3:2,0:0:0:0:
155,339,183039,6,0,P|75:303|32:326,1,106.666666666667,0|0,3:2|3:2,0:0:0:0:
39,343,183370,1,0,3:2:0:0:
85,316,183481,1,0,3:0:0:0:
74,263,183591,1,0,3:0:0:0:
112,226,183702,2,0,P|140:175|121:123,1,106.666666666667,8|0,3:2|3:0,0:0:0:0:
44,102,184033,2,0,P|16:51|35:-1,1,106.666666666667,0|0,3:0|3:2,0:0:0:0:
108,44,184365,6,0,L|276:23,1,160.000006103516,4|0,3:2|0:0,0:0:0:0:
362,80,184696,6,0,L|433:94,2,53.3333333333333,0|0|0,3:0|3:0|3:0,0:0:0:0:
268,43,185028,2,0,P|243:85|247:107,1,53.3333333333333,0|0,3:0|3:0,0:0:0:0:
330,301,185249,2,0,P|355:259|351:237,1,53.3333333333333,0|0,3:0|3:0,0:0:0:0:
293,171,185470,1,0,3:0:0:0:
293,171,185580,1,0,3:0:0:0:
293,171,185691,6,0,P|248:179|235:189,1,53.3333333333333,0|0,3:0|3:0,0:0:0:0:
166,249,185912,1,0,3:0:0:0:
149,255,186022,2,0,P|104:247|91:237,1,53.3333333333333,0|0,3:0|3:0,0:0:0:0:
59,136,186243,1,0,3:0:0:0:
76,130,186353,2,0,P|121:138|134:148,1,53.3333333333333,0|0,3:0|3:0,0:0:0:0:
269,270,186575,1,0,3:0:0:0:
282,284,186685,2,0,P|338:303|378:277,1,106.666666666667,0|0,3:0|3:0,0:0:0:0:
457,255,187017,6,0,B|489:234|509:188|509:188|465:210|412:207,1,160.000006103516,4|0,3:2|0:0,0:0:0:0:
346,188,187348,6,0,P|310:142|346:59,1,127.99999609375,0|0,3:0|3:0,0:0:0:0:
490,34,187680,1,0,3:0:0:0:
472,114,187790,1,0,3:0:0:0:
388,122,187901,1,0,3:0:0:0:
199,285,188011,5,0,3:0:0:0:
217,365,188121,1,0,3:0:0:0:
301,373,188232,1,0,3:0:0:0:
424,188,188343,6,0,P|379:169|355:172,2,63.9999980468751,0|0|0,3:1|3:1|3:1,3:0:0:0:
185,354,188674,2,0,P|230:373|254:370,2,63.9999980468751,0|0|0,3:1|3:1|3:1,3:0:0:0:
452,306,189006,6,0,P|468:230|416:186,1,143.999995605469,0|0,3:0|3:0,0:0:0:0:
156,238,189337,2,0,P|140:314|189:355,1,143.999995605469,2|0,3:2|3:0,0:0:0:0:
303,295,189669,5,4,3:2:0:0:
304,277,189751,1,0,0:0:0:0:
305,260,189834,1,0,0:0:0:0:
306,243,189917,1,0,0:0:0:0:
307,225,190000,1,0,3:0:0:0:
308,208,190083,1,0,3:0:0:0:
309,191,190166,2,0,L|313:132,1,51.999997619629,10|0,0:0|0:0,0:0:0:0:
228,84,190332,5,0,3:0:0:0:
228,84,190415,1,0,0:0:0:0:
228,84,190498,2,0,B|209:110|209:110|228:141,1,51.999997619629,10|0,0:0|0:0,0:0:0:0:
398,170,190663,1,0,3:0:0:0:
398,170,190746,1,0,3:0:0:0:
398,170,190829,2,0,B|417:144|417:144|398:113,1,51.999997619629,10|0,0:0|0:0,0:0:0:0:
320,17,190995,6,0,L|316:76,3,51.999997619629,0|0|10|0,3:0|0:0|0:0|0:0,0:0:0:0:
240,183,191326,2,0,L|236:124,3,51.999997619629,0|0|10|0,3:0|3:0|0:0|0:0,0:0:0:0:
141,39,191658,5,0,3:0:0:0:
141,39,191741,1,0,0:0:0:0:
141,39,191824,2,0,L|129:112,1,51.999997619629,10|0,0:0|0:0,0:0:0:0:
28,193,191989,1,0,3:0:0:0:
28,193,192072,1,0,3:0:0:0:
28,193,192155,2,0,L|16:120,1,51.999997619629,10|0,0:0|0:0,0:0:0:0:
8,35,192321,5,0,3:0:0:0:
45,24,192403,1,0,0:0:0:0:
83,32,192486,1,10,0:0:0:0:
114,55,192569,1,0,0:0:0:0:
131,89,192652,1,0,3:0:0:0:
147,124,192734,1,0,3:0:0:0:
179,146,192817,1,10,0:0:0:0:
218,146,192900,1,0,0:0:0:0:
251,126,192984,6,0,P|303:94|280:33,1,103.999995239258,0|10,3:0|0:0,0:0:0:0:
214,7,193232,1,0,0:0:0:0:
214,7,193315,2,0,L|202:72,1,51.999997619629,0|0,3:0|3:0,0:0:0:0:
142,266,193481,2,0,P|90:233|113:172,1,103.999995239258,10|0,0:0|3:0,0:0:0:0:
179,146,193729,1,0,0:0:0:0:
179,146,193812,2,0,L|191:211,1,51.999997619629,10|0,0:0|0:0,0:0:0:0:
243,300,193978,5,0,3:0:0:0:
273,323,194060,1,0,3:0:0:0:
311,329,194143,1,10,0:0:0:0:
348,317,194226,1,0,0:0:0:0:
374,289,194310,1,0,3:0:0:0:
399,260,194392,1,0,0:0:0:0:
436,249,194475,1,10,0:0:0:0:
472,261,194558,1,0,0:0:0:0:
496,291,194641,2,0,P|447:287|426:182,1,155.999992858887,8|8,3:2|3:2,0:0:0:0:
472,120,194973,5,12,3:2:0:0:
480,123,195056,1,0,0:0:0:0:
480,132,195138,1,10,0:0:0:0:
472,134,195221,1,0,0:0:0:0:
466,127,195304,1,0,3:0:0:0:
472,120,195387,1,0,3:0:0:0:
480,123,195470,1,10,0:0:0:0:
480,132,195553,1,0,0:0:0:0:
472,134,195636,5,0,3:0:0:0:
440,156,195718,1,0,0:0:0:0:
402,163,195801,1,10,0:0:0:0:
365,153,195884,1,0,0:0:0:0:
335,128,195967,1,0,3:0:0:0:
303,105,196050,1,0,3:0:0:0:
265,98,196133,1,10,0:0:0:0:
228,108,196216,1,0,0:0:0:0:
198,133,196299,5,0,3:0:0:0:
223,153,196381,1,0,0:0:0:0:
254,160,196464,1,10,0:0:0:0:
286,153,196547,1,0,0:0:0:0:
311,133,196630,1,0,3:0:0:0:
326,105,196713,1,0,3:0:0:0:
327,73,196796,1,10,0:0:0:0:
314,43,196879,1,0,0:0:0:0:
290,22,196962,6,0,P|253:49|252:81,1,51.999997619629,0|0,3:0|0:0,0:0:0:0:
164,50,197127,2,0,P|156:95|178:118,1,51.999997619629,10|0,0:0|0:0,0:0:0:0:
97,158,197293,1,2,3:2:0:0:
116,191,197375,1,2,3:2:0:0:
146,215,197458,1,10,0:2:0:0:
183,226,197541,1,2,0:2:0:0:
222,221,197625,6,0,P|255:219|281:205,3,51.999997619629,2|0|10|0,3:2|0:0|0:0|0:0,0:0:0:0:
343,172,197956,1,0,3:0:0:0:
343,172,198039,1,0,3:0:0:0:
343,172,198122,2,0,P|368:156|388:133,1,51.999997619629,10|4,0:0|0:2,0:0:0:0:
269,59,198288,1,6,3:2:0:0:
269,59,198371,1,0,0:0:0:0:
269,59,198454,2,0,P|270:88|280:117,1,51.999997619629,8|0,0:0|0:0,0:0:0:0:
393,57,198619,1,0,3:0:0:0:
393,57,198702,1,0,3:0:0:0:
393,57,198785,2,0,P|366:43|336:37,1,51.999997619629,8|0,0:0|0:0,0:0:0:0:
44,171,198951,5,6,3:2:0:0:
56,167,199033,1,2,0:2:0:0:
69,164,199116,2,0,L|125:149,1,51.999997619629,2|2,0:2|0:2,0:0:0:0:
215,70,199282,1,2,3:2:0:0:
203,66,199364,1,2,3:2:0:0:
190,63,199448,2,0,L|134:48,1,51.999997619629,10|2,0:2|0:2,0:0:0:0:
48,27,199614,5,2,0:3:0:0:
45,35,199696,1,2,0:3:0:0:
43,50,199779,1,2,0:3:0:0:
45,70,199862,1,2,0:3:0:0:
59,97,199945,1,2,0:3:0:0:
90,125,200028,1,2,0:3:0:0:
120,167,200111,1,2,0:3:0:0:
128,228,200194,1,2,0:3:0:0:
101,296,200277,6,0,P|62:306|21:286,1,51.999997619629,4|0,3:2|0:0,0:0:0:0:
206,181,200442,1,10,0:0:0:0:
206,181,200525,1,2,0:0:0:0:
206,181,200608,2,0,P|245:171|286:191,1,51.999997619629,2|0,3:2|3:2,0:0:0:0:
101,296,200774,6,0,P|62:306|21:286,1,51.999997619629,8|0,0:0|0:0,0:0:0:0:
206,181,200939,1,2,0:0:0:0:
206,181,201022,1,2,0:0:0:0:
206,181,201105,2,0,P|245:171|286:191,1,51.999997619629,10|0,0:0|0:0,0:0:0:0:
353,254,201271,1,0,3:0:0:0:
353,254,201354,1,0,3:0:0:0:
353,254,201437,6,0,P|436:223|400:136,1,180.000006866455,10|0,0:0|0:0,0:0:0:0:
385,78,201768,2,0,P|352:105|345:141,1,60.0000022888184,10|0,0:0|0:0,0:0:0:0:
254,312,201934,1,0,3:0:0:0:
265,284,202016,1,2,3:2:0:0:
265,254,202099,1,8,0:0:0:0:
254,227,202182,1,0,0:0:0:0:
233,206,202266,6,0,B|196:191|143:203|143:203|180:225,1,120.000004577637,2|8,3:2|0:0,0:0:0:0:
167,217,202514,2,0,P|207:142|168:89,1,120.000004577637,2|0,0:0|0:0,0:0:0:0:
110,86,202763,2,0,B|82:62|82:62|118:68,1,60.0000022888184,10|0,0:0|0:0,0:0:0:0:
196,115,202929,5,2,3:2:0:0:
247,144,203011,1,0,0:0:0:0:
305,136,203094,1,8,0:0:0:0:
347,95,203177,1,0,0:0:0:0:
356,37,203260,2,0,P|316:42|302:88,1,60.0000022888184,0|0,3:0|3:0,0:0:0:0:
391,181,203426,2,0,P|431:176|445:130,1,60.0000022888184,8|0,0:0|0:0,0:0:0:0:
196,115,203591,5,2,3:2:0:0:
151,153,203673,1,0,0:0:0:0:
132,210,203756,1,8,0:0:0:0:
146,267,203839,1,0,0:0:0:0:
187,310,203923,2,0,P|213:285|208:239,1,60.0000022888184,0|0,3:0|3:0,0:0:0:0:
70,146,204089,2,0,P|44:171|49:217,1,60.0000022888184,8|0,0:0|0:0,0:0:0:0:
101,346,204254,6,0,L|161:323,1,60.0000022888184,2|0,3:2|0:0,0:0:0:0:
238,366,204420,2,0,L|264:307,1,60.0000022888184,10|0,0:0|0:0,0:0:0:0:
357,319,204586,2,0,L|334:259,1,60.0000022888184,2|0,3:2|0:0,0:0:0:0:
402,200,204752,2,0,L|343:173,1,60.0000022888184,2|0,0:0|0:0,0:0:0:0:
360,80,204917,2,0,L|300:102,1,60.0000022888184,6|0,3:2|0:0,0:0:0:0:
214,170,205083,5,10,0:0:0:0:
231,218,205166,1,10,0:0:0:0:
197,189,205249,5,10,0:0:0:0:
247,198,205332,1,10,0:0:0:0:
205,213,205415,5,10,0:0:0:0:
239,174,205498,1,10,0:0:0:0:
231,218,205580,6,0,L|326:197,1,60.0000022888184,2|2,0:2|0:2,0:0:0:0:
189,91,205746,1,10,0:2:0:0:
189,91,205829,1,2,0:2:0:0:
189,91,205912,2,0,L|109:69,1,60.0000022888184,2|2,3:2|0:2,0:0:0:0:
311,38,206078,6,0,L|303:121,1,60.0000022888184,10|2,0:2|0:2,0:0:0:0:
145,256,206243,1,2,3:2:0:0:
145,256,206326,1,2,0:2:0:0:
145,256,206409,2,0,L|137:195,1,60.0000022888184,10|2,0:2|0:2,0:0:0:0:
339,185,206575,1,2,3:2:0:0:
341,228,206657,1,2,0:2:0:0:
312,261,206740,1,10,0:2:0:0:
268,262,206823,1,2,0:2:0:0:
237,231,206906,6,0,P|231:195|249:160,3,60.0000022888184,6|2|2|2,0:2|0:0|0:0|0:0,0:0:0:0:
233,97,207238,5,8,0:0:0:0:
233,97,207321,1,8,0:0:0:0:
233,97,207404,2,0,P|275:80|309:88,1,60.0000022888184,8|8,0:0|0:0,0:0:0:0:
332,9,207569,5,8,0:0:0:0:
376,14,207651,1,8,0:0:0:0:
416,34,207734,1,8,0:0:0:0:
449,65,207817,1,8,0:0:0:0:
470,104,207900,1,8,3:3:0:0:
476,139,207983,1,8,3:3:0:0:
473,162,208066,1,8,3:3:0:0:
465,178,208149,1,8,3:3:0:0:
457,186,208232,6,0,P|415:188|378:177,1,60.0000022888184,4|0,3:2|0:0,0:0:0:0:
248,102,208398,1,0,3:0:0:0:
248,102,208481,1,0,3:0:0:0:
248,102,208564,2,0,P|221:119|205:147,1,60.0000022888184,0|0,3:0|3:0,0:0:0:0:
76,268,208730,6,0,P|118:270|155:259,1,60.0000022888184,4|0,0:0|0:0,0:0:0:0:
285,184,208896,1,0,3:0:0:0:
285,184,208979,1,0,3:0:0:0:
285,184,209062,2,0,P|312:201|328:229,1,60.0000022888184,0|0,3:0|3:0,0:0:0:0:
467,344,209227,6,0,P|425:346|388:335,1,60.0000022888184,4|0,0:0|0:0,0:0:0:0:
258,260,209393,2,0,P|231:277|215:305,1,60.0000022888184,0|0,3:0|3:0,0:0:0:0:
122,344,209558,6,0,P|160:364|201:354,1,60.0000022888184,4|0,0:0|0:0,0:0:0:0:
336,306,209724,1,0,3:0:0:0:
336,306,209807,1,0,3:0:0:0:
336,306,209890,2,0,L|334:237,1,60.0000022888184,0|0,3:0|3:0,0:0:0:0:
487,227,210056,6,0,P|449:247|408:237,1,60.0000022888184,4|0,0:0|0:0,0:0:0:0:
273,189,210222,1,0,3:0:0:0:
273,189,210305,1,0,3:0:0:0:
273,189,210388,2,0,L|275:120,1,60.0000022888184,0|0,3:0|3:0,0:0:0:0:
122,132,210553,6,0,P|160:152|201:142,1,60.0000022888184,4|0,0:0|0:0,0:0:0:0:
333,66,210719,2,0,L|326:-23,1,60.0000022888184
460,127,210884,6,0,B|481:133|481:133|455:137,1,40,4|2,0:0|0:0,0:0:0:0:
421,138,211133,6,0,P|379:209|414:299,1,180.000006866455,4|4,0:0|0:0,0:0:0:0:
434,313,211464,1,2,0:0:0:0:
426,283,211547,1,2,0:0:0:0:
399,269,211630,1,2,0:0:0:0:
363,261,211713,1,8,0:0:0:0:
322,272,211796,1,8,0:0:0:0:
290,308,211879,1,8,0:0:0:0:
232,324,211962,1,2,0:0:0:0:
172,319,212045,1,8,0:0:0:0:
131,275,212127,1,8,0:0:0:0:
142,209,212210,6,0,P|177:162|260:167,1,120.000004577637,14|2,3:2|0:2,0:0:0:0:
275,165,212459,2,0,P|333:155|316:74,1,120.000004577637,10|2,3:2|0:2,0:0:0:0:
289,15,212708,2,0,P|261:53|270:92,1,71.9999978027344,10|10,3:2|0:2,0:0:0:0:
366,250,212873,6,0,L|428:240,1,60,10|0,3:2|0:0,0:0:0:0:
429,227,213205,2,0,L|367:237,1,60,2|0,0:0|0:0,0:0:0:0:
418,316,213536,6,0,L|426:357,1,30.0000011444092,4|0,3:3|0:0,0:0:0:0:
117,83,214696,6,0,L|125:42,1,30.0000011444092,8|0,3:2|0:0,0:0:0:0:
436,156,215194,5,8,0:0:0:0:
417,179,215276,1,8,0:0:0:0:
392,194,215359,1,0,3:0:0:0:
362,198,215442,1,0,3:0:0:0:
333,191,215525,2,0,P|306:156|311:114,1,60.0000022888184,0|0,3:0|0:0,0:0:0:0:
269,31,215691,6,0,B|290:32|313:60|313:60|262:69|244:103,1,120.000004577637,4|0,0:0|0:0,0:0:0:0:
165,86,215940,2,0,B|144:87|121:115|121:115|172:124|190:158,1,120.000004577637,4|0,0:0|0:0,0:0:0:0:
253,188,216188,6,0,L|248:234,1,30.0000011444092,4|0,3:3|0:0,0:0:0:0:
69,195,217348,6,0,B|33:211|33:211|22:257,1,51.999997619629,4|0,3:2|3:2,0:0:0:0:
221,245,217514,2,0,B|235:281|235:281|210:322,1,51.999997619629,0|0,3:2|3:2,0:0:0:0:
30,223,217680,2,0,B|46:259|46:259|92:270,1,51.999997619629,0|0,3:2|3:2,0:0:0:0:
228,292,217846,2,0,B|191:306|191:306|150:281,1,51.999997619629,8|8,3:2|0:0,0:0:0:0:
165,163,218011,2,0,L|141:231,1,51.999997619629,8|8,0:0|0:0,0:0:0:0:
84,379,218177,5,8,3:2:0:0:
97,342,218259,1,8,0:0:0:0:
111,305,218342,1,8,0:0:0:0:
125,269,218425,1,8,0:0:0:0:
138,232,218508,1,8,3:2:0:0:
152,196,218591,1,8,0:0:0:0:
166,159,218674,1,8,0:0:0:0:
179,123,218757,1,8,0:0:0:0:
193,86,218840,6,0,P|244:92|273:116,1,51.999997619629,0|8,3:2|3:3,0:0:0:0:
372,161,219006,1,8,0:0:0:0:
372,161,219089,1,8,0:0:0:0:
372,161,219172,2,0,P|321:166|292:190,1,51.999997619629,8|8,3:3|3:3,0:0:0:0:
193,86,219337,6,0,P|244:92|273:116,1,51.999997619629,8|8,0:0|0:0,0:0:0:0:
372,161,219503,1,8,3:3:0:0:
372,161,219586,1,8,3:3:0:0:
372,161,219669,2,0,P|321:166|291:269,1,155.999992858887,8|8,0:0|3:3,0:0:0:0:
373,356,220000,5,8,0:0:0:0:
373,356,220083,1,8,0:0:0:0:
373,356,220166,1,8,3:2:0:0:
398,326,220248,1,8,3:0:0:0:
403,288,220331,1,8,3:3:0:0:
386,254,220414,1,8,3:3:0:0:
354,233,220498,1,8,3:3:0:0:
311,205,220580,1,8,3:3:0:0:
292,158,220663,1,8,3:3:0:0:
305,108,220746,1,8,3:3:0:0:
345,76,220829,5,8,3:2:0:0:
378,107,220911,1,8,0:0:0:0:
391,150,220994,1,8,0:0:0:0:
380,194,221077,1,8,0:0:0:0:
349,226,221160,1,8,3:2:0:0:
306,239,221243,1,8,0:0:0:0:
262,228,221326,1,8,0:0:0:0:
230,197,221409,1,8,0:0:0:0:
218,154,221491,1,0,3:2:0:0:
218,154,222321,6,0,B|237:129|293:139|293:139|262:160,1,103.999995239258,4|0,3:2|0:0,0:0:0:0:
138,228,222569,2,0,B|119:203|63:213|63:213|94:234,1,103.999995239258,4|0,3:2|0:0,0:0:0:0:
226,291,222818,5,4,3:2:0:0:
225,297,222900,1,8,0:0:0:0:
224,303,222983,1,8,0:0:0:0:
223,310,223066,1,8,0:0:0:0:
222,316,223149,1,10,3:2:0:0:
221,323,223232,1,8,3:3:0:0:
220,329,223315,1,8,0:2:0:0:
219,336,223398,1,8,0:2:0:0:
218,342,223481,5,10,3:2:0:0:
179,309,223563,1,0,0:0:0:0:
170,259,223646,1,8,0:2:0:0:
195,214,223729,1,8,0:2:0:0:
243,197,223812,1,10,3:2:0:0:
289,176,223894,1,8,3:3:0:0:
316,132,223977,1,8,0:2:0:0:
311,81,224060,1,8,0:2:0:0:
278,42,224144,6,0,B|238:33|238:33|196:50,1,60.0000022888184,8|0,3:2|0:0,0:0:0:0:
275,283,224310,2,0,B|315:292|315:292|357:275,1,60.0000022888184,8|0,0:2|0:0,0:0:0:0:
451,176,224475,1,0,3:2:0:0:
451,176,224558,1,0,0:0:0:0:
451,176,224641,2,0,L|367:166,1,60.0000022888184,8|0,0:2|0:0,0:0:0:0:
152,116,224807,1,0,3:2:0:0:
152,116,224890,1,0,0:0:0:0:
152,116,224973,2,0,L|236:106,1,60.0000022888184,8|0,0:2|0:0,0:0:0:0:
404,48,225138,5,0,3:2:0:0:
404,48,225221,1,0,3:0:0:0:
404,48,225304,2,0,B|366:18|366:18|357:24|357:24|273:42|310:129,1,180.000006866455,8|0,0:0|0:0,0:0:0:0:
387,187,225636,2,0,B|403:215|376:274,1,60.0000022888184,8|0,0:2|0:0,0:0:0:0:
253,141,225801,2,0,B|269:113|333:107,1,60.0000022888184,0|0,3:2|0:0,0:0:0:0:
280,280,225967,2,0,B|247:279|210:226,1,60.0000022888184,8|0,0:2|0:0,0:0:0:0:
311,200,226133,6,0,B|364:187|364:187|380:192|380:192|463:202|463:202|493:180,1,180.000006866455,0|0,3:2|0:0,0:0:0:0:
434,110,226464,1,0,3:2:0:0:
434,110,226547,1,0,0:0:0:0:
434,110,226630,2,0,L|349:98,1,60.0000022888184,8|0,0:2|0:0,0:0:0:0:
66,125,226796,6,0,B|39:142|39:142|79:150,1,60.0000022888184,4|0,3:2|0:0,0:0:0:0:
153,122,226962,1,10,0:2:0:0:
153,122,227045,1,2,0:2:0:0:
153,122,227127,2,0,L|235:107,1,60.0000022888184,2|0,3:2|0:0,0:0:0:0:
442,256,227293,6,0,B|469:273|469:273|429:281,1,60.0000022888184,10|0,3:2|0:0,0:0:0:0:
355,253,227459,1,2,3:2:0:0:
355,253,227542,1,2,0:2:0:0:
355,253,227625,2,0,L|273:238,1,60.0000022888184,10|0,0:2|0:0,0:0:0:0:
116,325,227790,5,2,3:2:0:0:
116,325,227873,1,0,0:0:0:0:
116,325,227956,2,0,B|152:353|152:353|162:339|162:339|241:315|186:211,1,180.000006866455,8|0,0:0|0:0,0:0:0:0:
147,158,228288,1,8,0:0:0:0:
147,158,228370,1,0,3:2:0:0:
147,158,228453,6,0,B|78:118,1,60.0000022888184,2|0,3:2|0:0,0:0:0:0:
275,241,228619,2,0,B|206:201,1,60.0000022888184,8|0,0:0|0:0,0:0:0:0:
202,90,228785,6,0,B|182:13,1,60.0000022888184,4|0,3:2|0:0,0:0:0:0:
233,239,228950,2,0,B|213:162,1,60.0000022888184,8|0,0:0|0:0,0:0:0:0:
290,83,229116,6,0,B|330:14,1,60.0000022888184,8|8,3:2|0:0,0:0:0:0:
206,210,229282,2,0,B|246:141,1,60.0000022888184,8|8,0:0|0:0,0:0:0:0:
342,180,229448,5,4,3:2:0:0:
354,223,229530,1,2,0:3:0:0:
367,266,229613,1,8,0:0:0:0:
380,309,229696,1,2,0:3:0:0:
393,352,229779,2,0,L|318:332,1,60.0000022888184,2|0,3:2|0:0,0:0:0:0:
170,204,229945,5,12,3:2:0:0:
158,161,230027,1,2,0:3:0:0:
145,118,230110,1,2,0:2:0:0:
132,75,230193,1,2,0:3:0:0:
119,32,230277,2,0,L|194:52,1,60.0000022888184,8|0,0:0|0:0,0:0:0:0:
342,180,230442,6,0,L|267:160,1,60.0000022888184,0|0,3:0|0:0,0:0:0:0:
170,204,230608,2,0,L|245:224,1,60.0000022888184,8|0,0:0|0:0,0:0:0:0:
459,153,230774,5,4,3:2:0:0:
444,123,230856,1,0,0:0:0:0:
419,101,230939,1,8,0:0:0:0:
390,88,231022,1,8,0:0:0:0:
357,84,231105,1,8,0:0:0:0:
325,92,231188,1,8,0:0:0:0:
297,111,231271,1,8,3:3:0:0:
278,137,231354,1,8,3:3:0:0:
267,168,231436,5,8,3:3:0:0:
251,197,231520,1,8,3:3:0:0:
227,219,231603,1,8,3:3:0:0:
197,232,231686,1,8,3:3:0:0:
164,235,231769,1,8,0:0:0:0:
132,227,231852,1,8,0:0:0:0:
105,209,231935,1,8,0:0:0:0:
85,182,232018,1,8,0:0:0:0:
74,152,232100,6,0,P|94:85|151:58,1,120.000004577637,4|0,3:2|0:0,0:0:0:0:
218,77,232348,2,0,B|248:57|282:46|282:46|247:34|220:43,1,120.000004577637,4|0,3:2|0:0,0:0:0:0:
134,60,232597,2,0,P|133:101|153:132,1,60.0000022888184,8|0,3:2|0:0,0:0:0:0:
209,182,232763,6,0,P|234:244|213:298,1,120.000004577637,4|0,3:2|0:0,0:0:0:0:
137,343,233011,2,0,B|108:343|72:325|72:325|105:319|139:311,1,120.000004577637,4|0,3:2|0:0,0:0:0:0:
217,291,233260,2,0,P|259:288|287:300,1,60.0000022888184,8|0,3:2|0:0,0:0:0:0:
366,339,233426,6,0,P|443:348|447:198,2,240.000009155274,8|8|8,3:2|3:2|3:2,0:0:0:0:
352,312,234172,1,2,0:3:0:0:
333,289,234255,1,2,0:3:0:0:
309,270,234338,1,2,0:3:0:0:
282,258,234420,1,0,3:2:0:0:
253,253,234504,1,0,3:2:0:0:
223,255,234587,1,0,3:2:0:0:
194,263,234670,1,0,3:2:0:0:
168,278,234752,6,0,P|100:320|34:229,1,180.000006866455,8|0,3:2|0:0,0:0:0:0:
36,232,235083,2,0,P|115:158|58:67,1,180.000006866455,8|0,3:2|0:0,0:0:0:0:
70,76,235415,2,0,P|52:39|125:71,1,180.000006866455,8|0,3:2|0:0,0:0:0:0:
70,76,235746,6,0,P|52:39|125:71,1,180.000006866455,8|0,3:3|0:0,0:0:0:0:
153,136,236078,6,0,P|182:143|218:131,1,47.9999985351563,6|0,3:2|0:0,0:0:0:0:
263,40,236244,2,0,P|234:33|198:45,1,47.9999985351563,2|0,0:0|0:0,0:0:0:0:
147,154,236410,1,10,3:2:0:0:
170,160,236492,1,2,0:0:0:0:
194,158,236575,1,2,0:0:0:0:
355,241,236741,6,0,P|378:234|402:236,1,47.9999985351563,2|0,3:2|0:0,0:0:0:0:
499,352,236907,1,2,0:0:0:0:
476,358,236989,1,2,0:0:0:0:
452,356,237072,1,10,3:2:0:0:
350,221,237239,2,0,P|373:214|397:216,1,47.9999985351563,2|2,0:0|0:0,0:0:0:0:
186,363,237404,6,0,P|179:334|191:298,1,47.9999985351563,0|0,3:2|0:0,0:0:0:0:
280,285,237570,2,0,P|287:314|275:350,1,47.9999985351563,2|0,0:0|0:0,0:0:0:0:
168,369,237736,1,10,3:2:0:0:
162,346,237818,1,2,0:2:0:0:
164,322,237901,1,2,0:2:0:0:
421,260,238067,6,0,P|428:238|426:214,1,47.9999985351563,2|2,3:2|0:2,0:0:0:0:
310,116,238233,1,2,0:2:0:0:
304,139,238315,1,2,0:2:0:0:
306,163,238398,1,10,3:2:0:0:
441,265,238565,2,0,P|448:243|446:219,1,47.9999985351563,2|0,0:0|0:0,0:0:0:0:
152,25,238730,5,2,3:2:0:0:
130,52,238812,1,2,0:2:0:0:
130,87,238895,1,2,0:2:0:0:
152,115,238978,1,2,0:2:0:0:
187,122,239061,2,0,P|224:115|252:93,1,47.9999985351563,10|0,3:2|0:0,0:0:0:0:
426,90,239227,5,2,0:0:0:0:
412,57,239309,1,2,0:0:0:0:
382,39,239392,1,2,3:2:0:0:
347,45,239475,1,2,0:0:0:0:
323,71,239558,2,0,P|311:106|316:142,1,47.9999985351563,2|0,0:0|0:0,0:0:0:0:
235,292,239724,5,10,3:2:0:0:
270,296,239806,1,2,0:2:0:0:
301,279,239889,1,2,0:2:0:0:
313,246,239972,1,2,0:2:0:0:
302,212,240055,2,0,P|276:183|243:170,1,47.9999985351563,6|0,3:2|0:0,0:0:0:0:
167,160,240222,5,10,0:0:0:0:
167,160,240305,1,8,0:0:0:0:
167,160,240388,2,0,L|148:219,1,47.9999985351563,8|10,3:2|0:0,0:0:0:0:
26,257,240553,2,0,L|74:263,1,47.9999985351563,10|10,0:0|0:0,0:0:0:0:
152,352,240719,1,12,3:2:0:0:
152,352,240802,1,10,3:2:0:0:
152,352,240885,2,0,L|172:280,1,47.9999985351563,10|10,3:2|0:0,0:0:0:0:
45,54,241051,5,8,3:2:0:0:
18,91,241133,1,8,0:0:0:0:
40,131,241216,1,8,0:0:0:0:
85,127,241299,1,8,0:0:0:0:
100,84,241382,6,0,P|137:71|164:76,1,47.9999985351563,6|0,3:2|0:0,0:0:0:0:
222,59,241548,2,0,P|256:76|272:99,1,47.9999985351563,2|0,0:0|0:0,0:0:0:0:
337,125,241714,1,10,3:2:0:0:
347,147,241796,1,2,0:0:0:0:
349,171,241879,1,2,0:0:0:0:
246,280,242045,6,0,P|233:244|238:217,1,47.9999985351563,2|0,3:2|0:0,0:0:0:0:
348,124,242211,1,2,0:0:0:0:
358,146,242293,1,2,0:0:0:0:
360,170,242376,1,10,3:2:0:0:
75,203,242542,2,0,P|62:239|67:266,1,47.9999985351563,2|2,0:0|0:0,0:0:0:0:
209,356,242708,6,0,P|221:319|216:292,1,47.9999985351563,0|0,3:2|0:0,0:0:0:0:
233,234,242874,2,0,P|216:199|193:183,1,47.9999985351563,2|0,0:0|0:0,0:0:0:0:
167,119,243040,1,10,3:2:0:0:
145,109,243122,1,2,0:2:0:0:
121,107,243205,1,2,0:2:0:0:
339,141,243371,6,0,P|303:153|276:148,1,47.9999985351563,2|2,3:2|0:2,0:0:0:0:
183,39,243537,1,2,0:2:0:0:
205,29,243619,1,2,0:2:0:0:
229,27,243702,1,10,3:2:0:0:
405,65,243868,2,0,P|369:53|342:58,1,47.9999985351563,2|0,0:0|0:0,0:0:0:0:
125,228,244033,5,2,3:2:0:0:
94,246,244115,1,2,0:2:0:0:
59,244,244198,1,2,0:2:0:0:
31,222,244281,1,2,0:2:0:0:
20,188,244365,2,0,P|54:169|82:170,1,47.9999985351563,10|0,3:2|0:0,0:0:0:0:
223,209,244531,5,2,0:0:0:0:
254,226,244613,1,2,0:0:0:0:
270,257,244696,1,2,3:2:0:0:
265,292,244779,1,2,0:0:0:0:
241,318,244863,2,0,P|207:299|193:274,1,47.9999985351563,2|0,0:0|0:0,0:0:0:0:
164,146,245028,5,10,3:2:0:0:
163,110,245110,1,2,0:2:0:0:
182,81,245193,1,2,0:2:0:0:
214,68,245276,1,2,0:2:0:0:
249,75,245360,2,0,P|249:113|234:137,1,47.9999985351563,2|0,3:2|0:0,0:0:0:0:
160,240,245526,5,10,0:2:0:0:
160,240,245609,1,8,0:2:0:0:
160,240,245692,2,0,L|92:229,1,47.9999985351563,8|10,3:2|0:2,0:0:0:0:
33,131,245857,2,0,L|98:147,1,47.9999985351563,10|10,0:2|0:2,0:0:0:0:
290,197,246022,2,0,L|349:211,1,47.9999985351563,12|10,3:2|3:2,0:0:0:0:
373,99,246188,1,10,3:2:0:0:
373,99,246271,1,10,0:2:0:0:
373,99,246354,2,0,L|302:122,1,47.9999985351563,8|8,3:2|0:2,0:0:0:0:
242,289,246520,2,0,L|255:359,1,47.9999985351563,8|8,0:2|0:2,0:0:0:0:
156,199,246685,6,0,P|125:203|103:226,1,47.9999985351563,6|0,3:2|0:0,0:0:0:0:
88,346,246851,2,0,P|119:342|141:319,1,47.9999985351563,2|0,0:0|0:0,0:0:0:0:
150,190,247017,1,10,3:2:0:0:
126,191,247099,1,2,0:0:0:0:
106,203,247182,1,2,0:0:0:0:
139,343,247348,6,0,P|118:355|95:356,1,47.9999985351563,2|0,3:2|0:0,0:0:0:0:
5,283,247514,1,2,0:0:0:0:
25,270,247597,1,2,0:0:0:0:
48,269,247679,1,10,3:2:0:0:
269,351,247846,2,0,P|312:319|316:300,1,47.9999985351563,2|2,0:0|0:0,0:0:0:0:
289,157,248011,6,0,P|281:182|298:226,1,47.9999985351563,0|0,3:2|0:0,0:0:0:0:
411,288,248177,2,0,P|419:263|402:219,1,47.9999985351563,2|0,0:0|0:0,0:0:0:0:
276,163,248343,1,10,3:2:0:0:
268,185,248425,1,2,0:2:0:0:
270,209,248508,1,2,0:2:0:0:
162,293,248674,6,0,P|164:316|156:339,1,47.9999985351563,2|2,3:2|0:2,0:0:0:0:
53,215,248840,1,2,0:2:0:0:
50,191,248922,1,2,0:2:0:0:
58,168,249005,1,10,3:2:0:0:
165,339,249172,2,0,P|173:316|171:292,1,47.9999985351563,2|0,0:0|0:0,0:0:0:0:
79,61,249337,5,2,3:2:0:0:
73,96,249419,1,2,0:2:0:0:
88,128,249502,1,2,0:2:0:0:
118,146,249585,1,2,0:2:0:0:
154,144,249669,2,0,P|180:126|189:90,1,47.9999985351563,10|0,3:2|0:0,0:0:0:0:
202,215,249835,5,2,0:0:0:0:
222,243,249917,1,2,0:0:0:0:
256,255,250000,1,2,3:2:0:0:
290,247,250083,1,2,0:0:0:0:
314,220,250167,2,0,P|319:188|300:157,1,47.9999985351563,2|0,0:0|0:0,0:0:0:0:
390,266,250332,5,10,3:2:0:0:
424,272,250414,1,2,0:2:0:0:
456,256,250497,1,2,0:2:0:0:
475,226,250580,1,2,0:2:0:0:
473,190,250664,2,0,P|454:164|418:155,1,47.9999985351563,2|0,3:2|0:0,0:0:0:0:
261,39,250829,5,2,0:0:0:0:
260,54,250911,1,2,0:0:0:0:
259,70,250994,1,8,3:3:0:0:
258,86,251077,1,2,3:3:0:0:
258,102,251160,1,2,3:3:0:0:
257,118,251243,1,2,3:3:0:0:
256,134,251326,6,0,L|253:201,1,47.9999985351563,12|2,3:2|3:3,0:0:0:0:
326,299,251492,1,2,3:3:0:0:
326,299,251575,1,2,3:3:0:0:
326,299,251658,2,0,P|343:304|385:304,1,47.9999985351563,8|8,3:2|0:0,0:0:0:0:
196,347,251824,2,0,P|179:352|137:352,1,47.9999985351563,8|8,0:0|0:0,0:0:0:0:
46,171,251989,6,0,L|33:104,1,47.9999985351563,6|0,3:2|0:0,0:0:0:0:
187,230,252155,2,0,L|174:297,1,47.9999985351563,2|0,0:0|0:0,0:0:0:0:
59,157,252320,1,10,3:2:0:0:
54,134,252404,1,2,0:0:0:0:
49,110,252487,1,2,0:0:0:0:
187,278,252652,6,0,L|200:211,1,47.9999985351563,2|0,3:2|0:0,0:0:0:0:
41,327,252818,1,2,0:0:0:0:
46,350,252901,1,2,0:0:0:0:
51,374,252984,1,10,3:2:0:0:
213,118,253149,5,2,0:0:0:0:
213,118,253232,1,2,0:0:0:0:
213,118,253315,2,0,L|146:105,1,47.9999985351563,0|0,3:2|0:0,0:0:0:0:
269,270,253481,2,0,L|336:257,1,47.9999985351563,2|0,0:0|0:0,0:0:0:0:
199,131,253647,1,10,3:2:0:0:
176,126,253730,1,2,0:2:0:0:
152,121,253812,1,2,0:2:0:0:
106,280,253978,6,0,L|39:293,1,47.9999985351563,2|2,3:2|0:2,0:0:0:0:
155,134,254144,1,2,0:2:0:0:
178,139,254227,1,2,0:2:0:0:
202,144,254310,1,10,3:2:0:0:
281,282,254475,2,0,L|328:273,1,47.9999985351563,2|0,0:0|0:0,0:0:0:0:
436,120,254641,5,2,3:2:0:0:
417,162,254723,1,2,0:2:0:0:
372,173,254806,1,2,0:2:0:0:
335,145,254889,1,2,0:2:0:0:
334,99,254973,2,0,P|350:69|382:62,1,47.9999985351563,10|0,3:2|0:0,0:0:0:0:
75,188,255138,5,2,3:2:0:0:
93,230,255220,1,2,0:0:0:0:
138,241,255303,1,2,3:2:0:0:
175,213,255386,1,2,0:0:0:0:
176,167,255470,2,0,P|160:136|128:129,1,47.9999985351563,2|0,3:2|0:0,0:0:0:0:
368,319,255636,5,10,3:2:0:0:
350,361,255718,1,2,0:2:0:0:
305,372,255801,1,2,3:2:0:0:
268,344,255884,1,2,0:2:0:0:
267,298,255968,2,0,P|282:267|314:260,1,47.9999985351563,2|0,3:2|0:0,0:0:0:0:
381,189,256132,5,10,3:2:0:0:
381,189,256215,1,8,0:0:0:0:
381,189,256299,2,0,L|364:246,1,47.9999985351563,8|10,3:2|0:0,0:0:0:0:
183,367,256464,2,0,L|166:310,1,47.9999985351563,10|10,0:0|0:0,0:0:0:0:
85,229,256630,5,12,3:2:0:0:
132,237,256712,1,10,3:2:0:0:
179,245,256795,1,10,3:2:0:0:
226,254,256878,1,10,0:0:0:0:
274,262,256961,1,8,3:2:0:0:
321,271,257044,1,8,0:0:0:0:
368,279,257127,1,8,0:0:0:0:
415,288,257210,1,8,0:0:0:0:
463,296,257292,1,4,0:0:0:0:
463,296,259448,6,0,L|407:286,1,47.9999985351563,4|0,0:1|0:0,0:0:0:0:
