osu file format v14

[General]
AudioFilename: 01-fly-high.mp3
AudioLeadIn: 0
PreviewTime: 63825
Countdown: 1
SampleSet: Soft
StackLeniency: 0.2
Mode: 0
LetterboxInBreaks: 1
WidescreenStoryboard: 0

[Editor]
DistanceSpacing: 0.5
BeatDivisor: 4
GridSize: 4
TimelineZoom: 0.8000001

[Metadata]
Title:FLY HIGH
TitleUnicode:FLY HIGH
Artist:Matsunaga Toshihiko
ArtistUnicode:松永俊彦
Creator:Lanturn
Version:Match Point
Source:テニスの王子様
Tags:Oujisama Prince of Tennis no Opening
BeatmapID:1460949
BeatmapSetID:690267

[Difficulty]
HPDrainRate:6.5
CircleSize:5
OverallDifficulty:6.5
ApproachRate:8
SliderMultiplier:1.8
SliderTickRate:2

[Events]
//Background and Video events
0,0,"FHSHbg.jpg",0,0
//Break Periods
2,21936,33899
2,97953,105250
2,169304,176601
//Storyboard Layer 0 (Background)
//Storyboard Layer 1 (Fail)
//Storyboard Layer 2 (Pass)
//Storyboard Layer 3 (Foreground)
//Storyboard Sound Samples

[TimingPoints]
656,405.405405405405,4,2,0,60,1,0
63899,-100,4,2,0,60,0,1
93088,-100,4,2,0,60,0,0
135250,-100,4,2,0,60,0,1
164439,-100,4,2,0,60,0,0
200115,-100,4,2,0,60,0,1
222818,-100,4,2,0,60,0,0

[Colours]
Combo1 : 255,192,0
Combo2 : 0,202,0
Combo3 : 18,124,255
Combo4 : 242,24,57

[HitObjects]
128,92,7142,5,4,0:0:0:0:
256,300,7750,1,2,0:0:0:0:
388,84,8358,1,0,0:0:0:0:
388,300,8764,5,2,0:0:0:0:
256,84,9372,1,2,0:0:0:0:
124,300,9980,1,0,0:0:0:0:
124,84,10385,5,2,0:0:0:0:
92,104,10993,1,2,0:0:0:0:
80,136,11601,1,0,0:0:0:0:
256,96,12007,5,2,0:0:0:0:
160,140,12412,1,0,0:0:0:0:
160,244,12818,1,2,0:0:0:0:
256,288,13223,1,0,0:0:0:0:
424,32,13628,5,2,0:0:0:0:
388,124,14237,1,2,0:0:0:0:
292,156,14845,1,0,0:0:0:0:
88,352,15250,5,2,0:0:0:0:
124,260,15858,1,2,0:0:0:0:
220,228,16466,1,0,0:0:0:0:
220,228,16669,1,0,0:0:0:0:
220,228,16872,5,2,0:0:0:0:
256,108,17277,1,0,0:0:0:0:
292,228,17683,1,2,0:0:0:0:
292,228,17885,1,0,0:0:0:0:
256,108,18291,5,2,0:0:0:0:
180,320,18899,1,0,0:0:0:0:
332,320,19304,1,2,0:0:0:0:
332,320,19507,1,0,0:0:0:0:
384,88,19912,6,0,B|304:48|304:48|324:104|288:124|288:124|352:148|328:204|328:204|288:192|288:192|296:244|256:264|256:264|216:244|224:192|224:192|184:204|184:204|160:148|224:124|224:124|188:104|208:48|208:48|128:88,1,810,2|4,0:0|0:0,0:0:0:0:
168,192,34710,6,0,B|176:156|208:132|240:132|256:152|264:192|256:224|232:244|216:272|192:288|144:288|120:288|76:236|68:208|66:169|112:128|140:80|176:64|252:88,1,540,2|0,0:0|1:0,0:0:0:0:
360,124,36331,5,2,0:0:0:0:
284,268,36939,1,2,0:0:0:0:
132,324,37547,5,0,1:0:0:0:
84,300,37750,1,0,3:0:0:0:
48,260,37953,1,4,0:3:0:0:
52,152,38358,5,0,1:0:0:0:
140,92,38764,1,2,0:0:0:0:
140,92,38966,1,0,1:0:0:0:
244,64,39372,6,0,P|352:64|432:116,1,180,4|4,0:0|0:0,0:0:0:0:
512,72,40183,2,0,P|452:32|316:56,1,180,2|2,0:0|0:0,0:0:0:0:
344,192,41196,6,0,B|336:228|304:252|272:252|256:232|248:192|256:160|280:140|296:112|320:96|368:96|392:96|436:148|444:176|446:215|400:256|372:304|336:320|260:296,1,540,4|0,0:0|1:0,0:0:0:0:
196,240,42818,6,0,P|224:112|340:48,1,270,2|2,0:0|0:0,0:0:0:0:
144,288,44034,1,0,1:0:0:0:
256,332,44237,1,0,3:0:0:0:
368,288,44439,5,4,3:0:0:0:
368,96,44845,1,0,1:0:0:0:
144,96,45250,1,4,3:0:0:0:
144,288,45656,1,0,1:0:0:0:
292,192,46061,6,0,B|328:136|292:56|292:56|256:44|256:44|220:56|220:56|184:136|220:192,1,360,2|2,0:0|0:0,0:0:0:0:
80,312,47683,6,0,B|40:232|40:232|104:168|88:108|88:108|44:56,1,270,4|2,0:0|0:0,0:0:0:0:
124,240,48899,1,0,1:0:0:0:
124,240,49304,5,4,3:0:0:0:
192,240,49507,1,0,3:0:0:0:
148,60,49912,2,0,B|236:56|256:160|256:160|184:144|160:184,1,270,2|0,0:0|1:0,0:0:0:0:
432,312,50926,6,0,B|472:232|472:232|408:168|424:108|424:108|468:56,1,270,4|2,0:0|0:0,0:0:0:0:
376,252,52142,6,0,P|344:296|216:272,1,180,0|4,1:0|0:0,0:0:0:0:
292,232,52750,1,0,3:0:0:0:
364,60,53358,6,0,B|276:56|256:108|256:108|304:156,1,180,4|0,0:0|1:0,0:0:0:0:
360,188,53966,1,0,3:0:0:0:
216,88,54777,5,2,0:0:0:0:
216,88,54980,1,4,0:0:0:0:
296,296,55385,1,2,0:0:0:0:
296,296,55588,1,2,0:0:0:0:
128,308,56399,5,2,0:0:0:0:
128,308,56601,2,0,P|84:244|120:152,1,180,4|0,3:0|1:0,0:0:0:0:
224,64,57412,5,0,3:0:0:0:
360,64,57716,1,2,0:0:0:0:
292,180,58020,1,2,0:0:0:0:
292,108,58223,5,0,3:0:0:0:
428,108,58527,1,2,0:0:0:0:
360,224,58831,1,2,0:0:0:0:
360,152,59034,5,0,3:0:0:0:
256,268,59439,1,0,1:0:0:0:
152,152,59845,1,0,3:0:0:0:
256,36,60250,1,0,1:0:0:0:
256,192,60655,12,4,62277,0:0:0:0:
256,120,62885,5,2,0:0:0:0:
252,264,63088,1,0,0:0:0:0:
252,264,63493,1,2,0:0:0:0:
404,336,63899,5,4,0:0:0:0:
256,60,64507,1,2,0:0:0:0:
108,336,65115,1,0,1:0:0:0:
256,336,65520,5,4,0:3:0:0:
404,48,66128,1,2,0:0:0:0:
108,48,66737,1,0,1:0:0:0:
256,192,67142,6,0,P|216:160|44:280,2,270,4|2|0,0:0|0:0|1:0,0:0:0:0:
328,272,68764,6,0,L|508:272,1,180,4|0,0:0|1:0,0:0:0:0:
184,112,69574,2,0,L|4:112,1,180,2|0,0:0|1:0,0:0:0:0:
256,332,70385,5,4,0:0:0:0:
256,296,70993,1,2,0:0:0:0:
256,260,71601,1,0,1:0:0:0:
256,80,72007,6,0,B|316:160|316:160|184:160|184:160|216:116,1,270,4|2,0:3|0:0,0:0:0:0:
174,313,73223,5,0,1:0:0:0:
337,313,73426,1,0,3:0:0:0:
256,151,73628,1,4,0:0:0:0:
174,313,74034,5,0,1:0:0:0:
337,313,74439,1,4,0:3:0:0:
256,151,74642,1,0,3:0:0:0:
256,151,75047,6,0,B|208:128|204:80|204:80|232:56|264:48|296:80|296:80|336:80|356:96|352:128|344:152,1,270,2|8,0:0|0:0,0:0:0:0:
320,184,75858,5,0,1:0:0:0:
256,332,76061,1,0,3:0:0:0:
320,184,76466,1,0,1:0:0:0:
111,275,76872,5,4,0:0:0:0:
256,25,77480,1,2,0:0:0:0:
399,275,78088,1,0,1:0:0:0:
111,108,78493,5,4,3:0:0:0:
400,108,79101,1,2,0:0:0:0:
255,358,79709,1,0,1:0:0:0:
256,192,80115,6,0,P|296:224|468:104,2,270,4|2|0,0:0|0:0|1:0,0:0:0:0:
184,112,81737,6,0,L|4:112,1,180,4|0,0:0|1:0,0:0:0:0:
328,272,82547,2,0,L|508:272,1,180,2|0,0:0|1:0,0:0:0:0:
132,192,83358,5,4,0:0:0:0:
200,192,83966,1,2,0:0:0:0:
64,192,84574,1,0,1:0:0:0:
380,192,84980,5,4,3:0:0:0:
312,192,85588,1,2,0:0:0:0:
448,192,86196,1,0,1:0:0:0:
448,192,86399,1,0,3:0:0:0:
448,192,86601,5,4,0:0:0:0:
256,44,87007,1,0,1:0:0:0:
64,192,87412,1,0,3:0:0:0:
64,192,87615,1,0,1:0:0:0:
144,300,88020,6,0,P|256:364|368:300,1,270,2|0,0:0|1:0,0:0:0:0:
256,264,89034,1,0,3:0:0:0:
256,60,89237,1,0,1:0:0:0:
228,200,89642,6,0,B|216:152|176:136|176:136|208:88|256:104|256:104|304:88|336:136|336:136|296:152|284:200,2,360,2|2|2,0:0|0:0|0:0,0:0:0:0:
80,256,91669,5,2,0:0:0:0:
152,336,91872,1,0,0:0:0:0:
256,360,92074,1,2,0:0:0:0:
360,336,92277,1,0,0:0:0:0:
432,256,92480,1,2,0:0:0:0:
332,85,92885,6,0,P|256:126|180:85,1,180,2|0,0:0|0:0,0:0:0:0:
256,192,93493,12,2,97750,0:0:0:0:
138,175,106061,6,0,B|153:93|124:41|76:27|26:48|-3:96|16:145|47:157|69:160,2,270,4|2|0,0:0|0:0|1:0,0:0:0:0:
374,175,107683,6,0,B|359:93|388:41|436:27|486:48|515:96|496:145|465:157|443:160,1,270,2|2,0:0|0:0,0:0:0:0:
256,44,108899,2,0,B|236:104|236:104|292:136|300:176|284:200,1,180,0|2,1:0|0:0,0:0:0:0:
144,308,109710,5,0,1:0:0:0:
368,308,110115,1,0,3:0:0:0:
368,308,110318,1,0,1:0:0:0:
256,340,110723,6,0,B|276:280|276:280|220:248|212:208|228:184,3,180,4|4|2|2,0:0|0:0|0:0|0:0,0:0:0:0:
115,96,112547,5,4,0:0:0:0:
256,272,113155,2,0,B|284:168|364:204|364:204|352:144|397:95,1,270,2|0,0:0|1:0,0:0:0:0:
397,96,114169,5,2,0:0:0:0:
256,272,114777,2,0,B|228:168|148:204|148:204|160:144|114:95,1,270,2|0,0:0|1:0,0:0:0:0:
48,176,115588,1,0,3:0:0:0:
92,272,115791,5,4,0:0:0:0:
464,176,116196,1,0,1:0:0:0:
420,272,116601,1,4,0:0:0:0:
397,96,117007,1,0,1:0:0:0:
256,36,117412,6,0,B|148:124|256:192|364:260|256:348,1,360,4|2,0:0|0:0,0:0:0:0:
152,192,119034,5,4,0:0:0:0:
56,287,119642,1,2,0:0:0:0:
56,152,120250,1,0,1:0:0:0:
119,88,120655,5,2,0:0:0:0:
160,104,120858,1,0,3:0:0:0:
152,192,121264,1,0,1:0:0:0:
360,192,122277,5,4,0:0:0:0:
455,287,122885,1,2,0:0:0:0:
455,152,123493,1,0,1:0:0:0:
391,88,123898,5,4,0:0:0:0:
300,88,124304,1,0,1:0:0:0:
236,151,124710,1,4,3:0:0:0:
316,192,125115,1,0,1:0:0:0:
360,192,125318,1,2,0:0:0:0:
224,280,126128,5,2,0:0:0:0:
178,280,126331,1,4,3:0:0:0:
288,280,126737,1,0,1:0:0:0:
332,280,126939,1,2,0:0:0:0:
256,104,127750,5,2,0:0:0:0:
256,58,127953,1,4,3:0:0:0:
256,104,128358,1,0,1:0:0:0:
72,44,128764,5,4,3:0:0:0:
8,112,129068,1,2,0:0:0:0:
68,184,129372,1,2,0:0:0:0:
68,184,129574,5,4,3:0:0:0:
132,252,129878,1,2,0:0:0:0:
72,324,130182,1,2,0:0:0:0:
72,324,130385,5,4,3:0:0:0:
256,324,130791,1,0,1:0:0:0:
104,292,131196,1,4,3:0:0:0:
288,292,131601,1,0,1:0:0:0:
256,192,132007,12,4,133628,3:0:0:0:
256,192,134237,5,2,0:0:0:0:
120,192,134439,1,0,0:0:0:0:
392,192,134845,1,2,0:0:0:0:
120,192,135250,6,0,B|24:172|4:216|56:256|56:256|104:248|140:268|144:312,2,270,4|2|0,0:0|0:0|1:0,0:0:0:0:
392,192,136872,6,0,B|488:172|508:216|456:256|456:256|408:248|372:268|368:312,2,270,4|2|0,0:3|0:0|1:0,0:0:0:0:
28,100,138493,6,0,B|104:64|128:96|180:52|180:52|216:104|216:104|176:168,1,270,4|2,0:0|0:0,0:0:0:0:
68,228,139710,1,0,1:0:0:0:
288,224,140115,5,2,0:0:0:0:
224,224,140520,1,0,1:0:0:0:
224,160,140926,1,2,0:0:0:0:
288,160,141331,1,0,1:0:0:0:
256,300,141737,5,4,0:0:0:0:
144,104,142345,1,2,0:0:0:0:
368,104,142953,1,0,1:0:0:0:
368,104,143358,5,2,0:0:0:0:
144,104,143966,1,2,0:0:0:0:
256,300,144574,1,0,1:0:0:0:
256,300,144777,1,0,3:0:0:0:
256,300,144980,6,0,P|164:268|64:296,1,180,4|0,0:0|1:0,0:0:0:0:
344,192,145791,2,0,L|444:192,1,90,0|0,3:0|1:0,0:0:0:0:
256,84,146399,1,0,3:0:0:0:
85,99,147210,5,2,0:0:0:0:
12,192,147412,1,0,3:0:0:0:
85,284,147818,1,0,1:0:0:0:
352,68,148223,5,4,0:0:0:0:
360,88,148831,1,2,0:0:0:0:
368,108,149439,1,0,1:0:0:0:
160,68,149845,5,4,3:0:0:0:
152,88,150453,1,2,0:0:0:0:
144,108,151061,1,0,1:0:0:0:
160,316,151466,5,4,0:0:0:0:
152,296,152074,1,2,0:0:0:0:
144,276,152683,1,0,1:0:0:0:
352,316,153088,5,4,3:0:0:0:
360,296,153493,1,0,1:0:0:0:
368,276,153899,1,2,0:0:0:0:
376,256,154304,1,0,1:0:0:0:
344,64,154710,6,0,B|344:124|356:144|376:180|376:180|432:144|432:144|476:160|500:120|500:120|500:80,1,270,4|2,0:0|0:0,0:0:0:0:
344,64,155926,1,0,1:0:0:0:
168,64,156331,6,0,B|168:124|156:144|136:180|136:180|80:144|80:144|36:160|12:120|12:120|12:80,1,270,4|2,3:0|0:0,0:0:0:0:
168,64,157547,5,0,1:0:0:0:
168,64,157750,1,0,3:0:0:0:
168,64,157953,1,4,0:0:0:0:
256,192,158358,5,0,1:0:0:0:
344,320,158764,1,0,3:0:0:0:
344,320,158966,1,0,1:0:0:0:
256,192,159372,6,0,P|154:199|236:137,1,270,2|0,0:0|1:0,0:0:0:0:
100,124,160385,1,0,3:0:0:0:
136,276,160588,1,0,1:0:0:0:
228,232,160993,6,0,B|192:160|192:160|184:124|200:108|228:124|228:124|256:88|256:88|284:124|284:124|312:108|328:124|320:160|320:160|284:232,2,360,2|2|2,0:0|0:0|0:0,0:0:0:0:
372,229,163020,5,2,0:0:0:0:
328,92,163223,1,0,0:0:0:0:
183,92,163426,1,2,0:0:0:0:
139,229,163628,1,0,0:0:0:0:
256,314,163831,1,2,0:0:0:0:
172,32,164237,6,0,B|228:48|256:64|256:64|284:48|340:32,1,180,2|0,0:0|0:0,0:0:0:0:
256,192,164845,12,2,169101,0:0:0:0:
144,196,177412,6,0,B|120:132|56:100|56:100|160:36|200:132|200:132|256:172|208:204|200:256|200:256|164:272|144:272|116:268|96:248,1,540,4|0,0:0|1:0,0:0:0:0:
436,112,179034,5,2,0:0:0:0:
440,248,179237,1,0,3:0:0:0:
436,112,179642,1,2,0:0:0:0:
304,64,180655,6,0,B|388:124|388:124|420:56|472:72|484:112|492:152|480:196|432:220|432:220|356:192|356:192|340:244|368:304|440:316,1,540,4|0,0:0|1:0,0:0:0:0:
92,80,182277,5,4,0:0:0:0:
92,80,182480,2,0,B|114:129|154:129|154:129|122:177|138:225|138:225|86:213|69:256,1,270,2|4,0:0|0:0,0:0:0:0:
69,256,183493,5,4,3:0:0:0:
69,256,183696,1,0,1:0:0:0:
442,257,184507,5,2,0:0:0:0:
442,257,184710,1,4,0:0:0:0:
256,40,185115,5,0,1:0:0:0:
256,40,185318,1,2,0:0:0:0:
256,336,186128,6,0,L|256:232,1,90,2|4,0:0|0:0,0:0:0:0:
256,336,186736,1,0,1:0:0:0:
210,166,187142,5,4,0:0:0:0:
301,166,187446,1,2,0:0:0:0:
255,243,187750,1,2,0:0:0:0:
153,132,187953,5,4,0:3:0:0:
358,132,188257,1,2,0:0:0:0:
255,310,188561,1,2,0:0:0:0:
93,98,188764,5,4,0:3:0:0:
418,98,189169,1,0,1:0:0:0:
419,380,189574,1,4,0:3:0:0:
93,380,189980,1,0,1:0:0:0:
256,192,190385,12,4,192007,0:0:0:0:
256,24,192615,5,2,0:0:0:0:
144,220,192818,1,0,0:0:0:0:
368,220,193223,1,2,0:0:0:0:
256,24,193628,5,4,0:0:0:0:
112,252,194237,1,2,0:0:0:0:
400,252,194845,1,0,0:0:0:0:
192,128,195250,5,4,0:0:0:0:
256,128,195858,1,2,0:0:0:0:
320,128,196466,1,0,0:0:0:0:
256,24,196872,5,4,0:0:0:0:
400,252,197481,1,2,0:0:0:0:
112,252,198089,1,0,0:0:0:0:
320,128,198494,5,4,0:0:0:0:
276,128,198899,1,2,0:0:0:0:
236,128,199304,1,4,0:3:0:0:
192,128,199710,1,8,0:0:0:0:
256,256,200115,6,0,B|176:236|176:236|192:280|180:316|144:348|144:348|104:320|92:272|108:236|108:236|84:208|80:172|124:124|168:136|168:136|192:156|200:184,1,540,4|0,0:0|1:0,0:0:0:0:
256,256,201737,6,0,B|280:312|328:316|328:316|380:288|372:240|372:240|404:276|440:284|472:244|472:208|456:172|408:156|408:156|368:192|320:168|320:168|304:224,1,540,4|0,3:0|1:0,0:0:0:0:
256,256,203155,1,0,3:0:0:0:
256,256,203358,6,0,B|215:182|215:182|194:144|143:150|143:150|184:118|179:66|179:66|216:104|267:98|267:98|224:129|236:166|249:178|245:173,1,450,4|0,0:0|3:0,0:0:0:0:
245,173,204777,1,0,1:0:0:0:
444,280,205588,5,2,0:0:0:0:
260,280,205791,1,0,3:0:0:0:
444,280,206196,1,2,0:0:0:0:
64,344,206601,5,4,0:0:0:0:
120,40,207210,1,2,0:0:0:0:
160,344,207818,1,0,1:0:0:0:
448,344,208223,5,4,3:0:0:0:
392,40,208831,1,2,0:0:0:0:
352,344,209440,1,0,1:0:0:0:
192,160,209845,6,0,B|192:132|168:104|128:104|104:128|96:160|116:192|116:192|68:224|68:224|16:204,2,270,4|2|0,0:0|0:0|1:0,0:0:0:0:
320,160,211466,5,4,3:0:0:0:
328,180,211872,1,0,1:0:0:0:
328,204,212277,1,2,0:0:0:0:
320,224,212683,1,0,1:0:0:0:
192,224,213088,6,0,B|192:252|168:280|128:280|104:252|104:252|112:220|112:220|100:192|88:164|88:164|120:140|152:108,2,270,4|2|0,0:0|0:0|1:0,0:0:0:0:
320,160,214710,6,0,B|348:180|344:212|344:212|388:220|416:240|416:276|388:300|388:300|348:284|304:296,1,270,4|2,3:0|0:0,0:0:0:0:
252,84,215926,5,0,1:0:0:0:
256,192,216128,1,0,3:0:0:0:
252,300,216331,1,4,0:0:0:0:
256,192,216737,5,0,1:0:0:0:
148,196,217142,5,0,3:0:0:0:
364,196,217345,1,0,1:0:0:0:
148,196,217750,6,0,B|192:200|208:164|208:164|248:152|256:129|256:129|268:152|304:164|304:164|320:200|364:196,1,270,2|0,0:0|1:0,0:0:0:0:
164,116,218764,5,0,3:0:0:0:
348,116,218966,1,0,1:0:0:0:
216,336,219372,6,0,B|172:304|172:304|180:284|176:264|176:264|208:244|228:252|240:264|256:268|256:268|272:264|284:252|304:244|336:264|336:264|332:284|340:304|340:304|296:336,2,360,2|2|2,0:0|0:0|0:0,0:0:0:0:
256,80,221399,5,2,0:0:0:0:
184,144,221601,1,0,0:0:0:0:
328,144,221804,1,2,0:0:0:0:
128,208,222007,1,0,0:0:0:0:
384,208,222210,1,2,0:0:0:0:
256,360,222615,6,0,B|256:328|235:296|235:296|278:296|278:296|256:264|256:232,1,180,2|0,0:0|0:0,0:0:0:0:
256,192,223223,12,2,227480,0:0:0:0:
