osu file format v14

[General]
AudioFilename: audio.mp3
AudioLeadIn: 0
PreviewTime: 133875
Countdown: 0
SampleSet: Soft
StackLeniency: 0.3
Mode: 0
LetterboxInBreaks: 0
WidescreenStoryboard: 0

[Editor]
DistanceSpacing: 2.5
BeatDivisor: 2
GridSize: 16
TimelineZoom: 1.5

[Metadata]
Title:Suika
TitleUnicode:酔花
Artist:Matsumoto Sara
ArtistUnicode:秣本 瑳羅
Creator:handsome
Version:Drunken Flower
Source:東方萃夢想 ~ Immaterial and Missing Power.
Tags:萃夢想 よひむすび 東方Project touhou _yoc. u2 akiyama uni riverside zun oriental memory of forgathering dream
BeatmapID:1034421
BeatmapSetID:485022

[Difficulty]
HPDrainRate:6
CircleSize:6
OverallDifficulty:9
ApproachRate:8
SliderMultiplier:1.4
SliderTickRate:1

[Events]
//Background and Video events
0,0,"56342769_p0.jpg",0,0
//Break Periods
2,291958,312541
//Storyboard Layer 0 (Background)
//Storyboard Layer 1 (Fail)
//Storyboard Layer 2 (Pass)
//Storyboard Layer 3 (Foreground)
//Storyboard Sound Samples

[TimingPoints]
62625,666.666666666667,4,2,0,30,1,0
62625,-166.666666666667,4,2,0,30,0,0
73291,-166.666666666667,4,2,0,40,0,0
83958,-125,4,2,0,50,0,0
86625,-100,4,2,0,60,0,0
89291,-100,4,2,0,70,0,0
89958,-100,4,2,0,80,0,0
90625,-100,4,2,0,70,0,0
90708,-100,4,2,0,30,0,0
91958,-166.666666666667,4,2,0,30,0,0
113291,-125,4,2,0,50,0,0
132291,-125,4,2,0,60,0,0
132958,-125,4,2,0,70,0,0
133291,-125,4,2,0,80,0,0
133625,-125,4,2,0,90,0,0
133958,-500,4,2,0,100,0,0
134041,-500,4,2,0,30,0,0
134625,-100,4,2,0,70,0,1
142625,-100,4,2,0,50,0,1
143291,-100,4,2,0,60,0,1
143958,-100,4,2,0,70,0,1
144291,-100,4,2,0,80,0,1
144625,-100,4,2,0,90,0,1
145291,-100,4,2,0,70,0,1
153625,-100,4,2,0,60,0,1
154291,-100,4,2,0,70,0,1
154625,-100,4,2,0,80,0,1
154958,-100,4,2,0,80,0,1
155291,-500,4,2,0,100,0,0
155375,-500,4,2,0,30,0,0
155958,-100,4,2,0,70,0,1
163958,-100,4,2,0,50,0,1
164625,-100,4,2,0,50,0,1
165291,-100,4,2,0,70,0,1
165625,-100,4,2,0,80,0,1
165958,-100,4,2,0,90,0,1
166625,-100,4,2,0,70,0,1
169958,-125,4,2,0,60,0,1
170625,-166.666666666667,4,2,0,50,0,1
171291,-100,4,2,0,70,0,1
174958,-100,4,2,0,50,0,1
175625,-100,4,2,0,60,0,1
176291,-100,4,2,0,70,0,1
176625,-100,4,2,0,80,0,1
177291,-100,4,2,0,90,0,1
177958,-100,4,2,0,80,0,1
178625,-100,4,2,0,70,0,1
179291,-100,4,2,0,60,0,1
179958,-166.666666666667,4,2,0,40,0,0
198625,-166.666666666667,4,2,0,40,0,0
201291,-125,4,2,0,50,0,0
220291,-125,4,2,0,60,0,0
220958,-125,4,2,0,70,0,0
221291,-125,4,2,0,80,0,0
221625,-125,4,2,0,90,0,0
221958,-500,4,2,0,100,0,0
222041,-500,4,2,0,30,0,0
222625,-100,4,2,0,70,0,1
230625,-100,4,2,0,50,0,1
231291,-100,4,2,0,60,0,1
231958,-100,4,2,0,70,0,1
232291,-100,4,2,0,80,0,1
232625,-100,4,2,0,90,0,1
233291,-100,4,2,0,70,0,1
241625,-100,4,2,0,60,0,1
242291,-100,4,2,0,70,0,1
242625,-100,4,2,0,80,0,1
242958,-100,4,2,0,90,0,1
243291,-500,4,2,0,100,0,0
243375,-500,4,2,0,30,0,0
243958,-100,4,2,0,70,0,1
251958,-100,4,2,0,50,0,1
252625,-100,4,2,0,60,0,1
253291,-100,4,2,0,70,0,1
253625,-100,4,2,0,80,0,1
253958,-100,4,2,0,90,0,1
254625,-100,4,2,0,70,0,1
257958,-125,4,2,0,60,0,1
258625,-166.666666666667,4,2,0,50,0,1
259291,-100,4,2,0,70,0,1
262958,-100,4,2,0,50,0,1
263625,-100,4,2,0,60,0,1
264291,-100,4,2,0,70,0,1
264625,-100,4,2,0,80,0,1
265291,-100,4,2,0,90,0,1
265958,-100,4,2,0,100,0,1
266625,-100,4,2,0,70,0,0
267291,-100,4,2,0,90,0,0
267958,-100,4,2,0,80,0,0
286958,-100,4,2,0,50,0,0
287625,-100,4,2,0,60,0,0
288291,-100,4,2,0,70,0,0
288625,-100,4,2,0,80,0,0
289291,-100,4,2,0,60,0,0
289958,-100,4,2,0,40,0,0
290625,-100,4,2,0,70,0,0
290708,-100,4,2,0,30,0,0
315291,-500,4,2,0,100,0,0
315375,-500,4,2,0,30,0,0
315958,-100,4,2,0,70,0,1
323958,-100,4,2,0,50,0,1
324625,-100,4,2,0,60,0,1
325291,-100,4,2,0,70,0,1
325625,-100,4,2,0,80,0,1
325958,-100,4,2,0,90,0,1
326625,-100,4,2,0,70,0,1
327291,-100,4,2,0,80,0,1
327958,-100,4,2,0,70,0,1
334958,-100,4,2,0,60,0,1
335625,-100,4,2,0,70,0,1
335958,-100,4,2,0,80,0,1
336291,-100,4,2,0,90,0,1
336625,-500,4,2,0,100,0,0
336708,-500,4,2,0,30,0,0
337291,-100,4,2,0,70,0,1
345291,-100,4,2,0,50,0,1
345958,-100,4,2,0,60,0,1
346625,-100,4,2,0,70,0,1
346958,-100,4,2,0,80,0,1
347291,-100,4,2,0,90,0,1
347958,-100,4,2,0,70,0,1
348625,-100,4,2,0,80,0,1
349291,-100,4,2,0,70,0,1
351291,-125,4,2,0,60,0,1
351958,-166.666666666667,4,2,0,50,0,1
352625,-100,4,2,0,70,0,1
356291,-100,4,2,0,50,0,1
356958,-100,4,2,0,60,0,1
357625,-100,4,2,0,70,0,1
357958,-100,4,2,0,80,0,1
358625,-100,4,2,0,90,0,1
359291,-100,4,2,0,80,0,1
359958,-100,4,2,0,70,0,1
360625,-100,4,2,0,60,0,1
361291,-166.666666666667,4,2,0,40,0,0
382625,-166.666666666667,4,2,0,30,0,0
382958,-166.666666666667,4,2,2,20,0,0
390291,-166.666666666667,4,2,2,5,0,0
390625,-166.666666666667,4,2,0,40,0,0
390708,-166.666666666667,4,2,0,10,0,0

[Colours]
Combo1 : 255,244,213
Combo2 : 210,255,253
Combo3 : 255,217,255

[HitObjects]
120,130,62625,6,0,P|143:132|164:122,1,41.9999987182618
73,82,63125,2,0,P|63:61|44:47,1,41.9999987182618,6|0,0:0|0:0,0:0:0:0:
55,147,63625,2,0,P|41:165|39:189,1,41.9999987182618,2|0,0:0|0:0,0:0:0:0:
76,238,64125,5,2,0:0:0:0:
76,238,64625,1,2,0:0:0:0:
134,331,65291,6,0,P|87:318|6:337,1,125.999996154785,4|0,0:1|0:0,0:0:0:0:
169,257,66625,2,0,P|216:270|297:251,1,125.999996154785,4|0,0:1|0:0,0:0:0:0:
138,61,67958,6,0,L|89:56,1,41.9999987182618,6|0,0:0|0:0,0:0:0:0:
239,27,68458,2,0,L|190:32,1,41.9999987182618,6|0,0:0|0:0,0:0:0:0:
303,83,68958,1,2,0:0:0:0:
371,29,69458,5,2,0:0:0:0:
371,29,69958,1,2,0:0:0:0:
482,98,70625,6,0,L|452:93,7,20.9999993591309,4|0|0|0|0|0|0|0,0:1|0:0|0:0|0:0|0:0|0:0|0:0|0:0,0:0:0:0:
411,137,71958,2,0,L|381:132,7,20.9999993591309,4|0|0|0|0|0|0|0,0:1|0:0|0:0|0:0|0:0|0:0|0:0|0:0,0:0:0:0:
474,236,73291,6,0,P|476:217|463:190,1,41.9999987182618,6|0,0:0|0:0,0:0:0:0:
433,289,73791,2,0,P|448:300|477:302,1,41.9999987182618,6|0,0:0|0:0,0:0:0:0:
407,226,74291,2,0,P|389:233|372:257,1,41.9999987182618,2|0,0:0|0:0,0:0:0:0:
371,318,74791,5,2,0:0:0:0:
371,318,75291,1,2,0:0:0:0:
103,313,75958,6,0,P|122:290|119:191,1,125.999996154785,4|0,0:1|0:0,0:0:0:0:
237,62,77291,2,0,P|218:85|221:184,1,125.999996154785,4|0,0:1|0:0,0:0:0:0:
504,117,78625,6,0,L|512:166,1,41.9999987182618,6|0,0:0|0:0,0:0:0:0:
452,73,79125,2,0,L|458:27,1,41.9999987182618,6|0,0:0|0:0,0:0:0:0:
393,110,79625,1,2,0:0:0:0:
335,74,80125,5,2,0:0:0:0:
278,110,80625,2,0,P|255:111|216:88,1,62.9999980773926,2|0,0:0|0:0,0:0:0:0:
134,77,81291,6,0,L|136:48,3,20.9999993591309,4|0|0|0,0:1|0:0|0:0|0:0,0:0:0:0:
167,136,81958,2,0,L|188:151,1,20.9999993591309,2|0,0:0|0:0,0:0:0:0:
99,135,82291,2,0,L|73:146,1,20.9999993591309,2|0,0:0|0:0,0:0:0:0:
205,293,82625,6,0,L|207:317,3,20.9999993591309,4|0|0|0,0:1|0:0|0:0|0:0,0:0:0:0:
253,205,83291,2,0,L|276:188,1,20.9999993591309,2|0,0:0|0:0,0:0:0:0:
153,207,83625,2,0,L|126:195,1,20.9999993591309,2|0,0:0|0:0,0:0:0:0:
15,332,83958,6,0,P|42:327|66:312,1,56,6|0,0:0|0:0,0:0:0:0:
175,306,84458,2,0,P|157:284|132:270,1,56,6|0,0:0|0:0,0:0:0:0:
73,180,84958,2,0,P|62:205|63:233,1,56,2|0,0:0|0:0,0:0:0:0:
121,356,85458,5,2,0:0:0:0:
298,314,85958,2,0,L|234:306,1,56,2|0,0:0|0:0,0:0:0:0:
242,307,86458,1,2,0:0:0:0:
351,360,86625,6,0,P|363:333|359:288,1,70,4|0,1:0|0:0,0:0:0:0:
312,253,87125,1,0,0:0:0:0:
380,197,87291,2,0,L|372:239,1,35,2|0,0:0|0:0,0:0:0:0:
292,155,87625,2,0,L|300:197,1,35,2|0,0:0|0:0,0:0:0:0:
394,128,87958,5,0,1:0:0:0:
394,128,88125,1,0,0:0:0:0:
394,128,88291,2,0,L|352:135,1,35,2|0,0:0|0:0,0:0:0:0:
252,104,88625,5,0,1:0:0:0:
252,104,88791,1,0,0:0:0:0:
252,104,88958,2,0,L|210:97,1,35,2|0,0:0|0:0,0:0:0:0:
93,78,89291,5,4,1:0:0:0:
136,38,89458,1,0,0:0:0:0:
37,61,89625,1,2,0:0:0:0:
107,135,89791,1,0,0:0:0:0:
5,157,89958,5,0,1:0:0:0:
129,238,90125,1,0,0:0:0:0:
26,259,90291,1,2,0:0:0:0:
107,135,90458,1,0,0:0:0:0:
72,204,90625,6,2,L|56:176,2,17.5,2|2|2,0:0|0:0|0:0,0:0:0:0:
422,358,91958,6,0,P|417:341|420:312,1,41.9999987182618,4|0,0:1|0:0,0:0:0:0:
454,229,92458,2,0,P|459:246|456:275,1,41.9999987182618,4|0,0:0|0:0,0:0:0:0:
398,259,92958,1,2,0:0:0:0:
398,259,93291,6,0,L|372:264,1,20.9999993591309,2|0,0:0|0:0,0:0:0:0:
322,232,93625,2,0,L|296:227,1,20.9999993591309,2|0,0:0|0:0,0:0:0:0:
265,283,93958,2,0,L|239:288,1,20.9999993591309,2|0,0:0|0:0,0:0:0:0:
189,208,94291,2,0,L|163:203,1,20.9999993591309,2|0,0:0|0:0,0:0:0:0:
104,296,94625,6,0,P|110:279|111:246,1,41.9999987182618,4|0,0:1|0:0,0:0:0:0:
44,332,95125,2,0,P|38:349|37:382,1,41.9999987182618,4|0,0:0|0:0,0:0:0:0:
2,280,95625,1,2,0:0:0:0:
64,211,95958,6,0,L|58:163,1,41.9999987182618,2|0,0:0|0:0,0:0:0:0:
0,43,96625,2,0,L|6:91,1,41.9999987182618,4|0,0:0|0:0,0:0:0:0:
141,97,97291,6,0,P|125:96|97:106,1,41.9999987182618,4|0,0:1|0:0,0:0:0:0:
188,141,97791,2,0,P|204:142|232:132,1,41.9999987182618,4|0,0:0|0:0,0:0:0:0:
183,36,98291,1,2,0:0:0:0:
183,36,98625,6,0,L|191:62,1,20.9999993591309,2|0,0:0|0:0,0:0:0:0:
254,80,98958,2,0,L|262:54,1,20.9999993591309,2|0,0:0|0:0,0:0:0:0:
313,8,99291,2,0,L|321:34,1,20.9999993591309,2|0,0:0|0:0,0:0:0:0:
384,108,99625,2,0,L|392:82,1,20.9999993591309,2|0,0:0|0:0,0:0:0:0:
495,36,99958,6,0,P|503:60|502:80,1,41.9999987182618,4|0,0:1|0:0,0:0:0:0:
458,156,100458,2,0,P|449:131|450:111,1,41.9999987182618,4|0,0:2|0:0,0:0:0:0:
390,87,100958,1,2,0:0:0:0:
327,183,101291,5,4,0:1:0:0:
327,183,101958,2,2,L|324:205,1,20.9999993591309,0|0,0:0|0:0,0:0:0:0:
265,261,102291,2,0,L|268:238,1,20.9999993591309,2|0,0:0|0:0,0:0:0:0:
234,150,102625,6,4,P|252:141|273:140,1,41.9999987182618,0|0,0:0|0:0,0:0:0:0:
366,173,103125,2,0,P|347:181|326:182,1,41.9999987182618,4|0,0:0|0:0,0:0:0:0:
335,121,103625,1,2,0:0:0:0:
335,121,103958,6,0,L|330:98,1,20.9999993591309,2|0,0:0|0:0,0:0:0:0:
263,46,104291,2,0,L|268:69,1,20.9999993591309,2|0,0:0|0:0,0:0:0:0:
234,150,104625,2,0,L|229:127,1,20.9999993591309,2|0,0:0|0:0,0:0:0:0:
157,58,104958,2,0,L|162:81,1,20.9999993591309,2|0,0:0|0:0,0:0:0:0:
107,207,105291,6,0,P|81:215|62:214,1,41.9999987182618,4|0,0:1|0:0,0:0:0:0:
32,158,105791,2,0,P|58:150|77:151,1,41.9999987182618,4|0,0:0|0:0,0:0:0:0:
3,220,106291,1,2,0:0:0:0:
102,315,106625,6,0,L|54:310,1,41.9999987182618,2|0,0:0|0:0,0:0:0:0:
213,238,107291,2,0,L|165:233,1,41.9999987182618,4|0,0:0|0:0,0:0:0:0:
314,273,107958,6,0,P|321:246|315:224,1,41.9999987182618,4|0,0:1|0:0,0:0:0:0:
264,151,108458,2,0,P|257:178|263:200,1,41.9999987182618,4|0,0:0|0:0,0:0:0:0:
213,238,108958,1,2,0:0:0:0:
213,238,109291,6,0,L|184:242,1,20.9999993591309,2|0,0:0|0:0,0:0:0:0:
290,268,109625,2,0,L|261:264,1,20.9999993591309,2|0,0:0|0:0,0:0:0:0:
357,219,109958,2,0,L|328:223,1,20.9999993591309,2|0,0:0|0:0,0:0:0:0:
434,287,110291,2,0,L|405:283,1,20.9999993591309,0|0,0:0|0:0,0:0:0:0:
489,192,110625,5,4,0:1:0:0:
421,224,110958,1,0,0:0:0:0:
399,154,111291,5,2,0:0:0:0:
489,192,111625,1,0,0:0:0:0:
511,122,111958,5,2,0:0:0:0:
399,154,112291,1,0,0:0:0:0:
377,84,112625,5,2,0:0:0:0:
511,122,112958,1,2,0:0:0:0:
476,27,113291,6,0,L|415:33,1,56,4|0,1:0|0:0,0:0:0:0:
329,40,113791,1,0,1:0:0:0:
371,111,113958,2,0,L|378:79,1,28,4|0,1:2|0:0,0:0:0:0:
273,0,114291,1,2,0:0:0:0:
115,37,114625,6,0,P|105:25|100:11,1,28,6|0,0:0|0:0,0:0:0:0:
212,96,114958,2,0,P|227:99|239:108,1,28,2|0,0:0|0:0,0:0:0:0:
99,105,115291,2,0,P|84:110|69:111,1,28,6|0,0:0|0:0,0:0:0:0:
186,30,115625,2,0,P|194:16|206:7,1,28,2|0,0:0|0:0,0:0:0:0:
158,142,115958,6,0,P|159:157|139:200,1,56,4|0,1:0|0:0,0:0:0:0:
81,209,116458,1,0,1:0:0:0:
175,249,116625,1,4,1:2:0:0:
175,249,116958,6,0,L|142:258,1,28,0|0,1:0|0:0,0:0:0:0:
23,294,117291,1,2,1:3:0:0:
23,294,117625,5,0,1:0:0:0:
144,194,117791,1,2,1:3:0:0:
170,348,117958,1,4,1:2:0:0:
170,348,118291,2,0,L|134:343,1,28,2|0,0:0|0:0,0:0:0:0:
3,379,118625,6,0,L|66:361,1,56,4|0,1:0|0:0,0:0:0:0:
93,308,119125,1,0,1:0:0:0:
20,257,119291,2,0,L|56:262,1,28,4|0,1:2|0:0,0:0:0:0:
147,273,119625,1,2,0:0:0:0:
340,344,119958,6,0,L|374:342,1,28,6|0,0:2|0:0,0:0:0:0:
273,357,120291,2,0,L|240:369,1,28,2|0,0:0|0:0,0:0:0:0:
347,276,120625,2,0,L|381:274,1,28,6|0,0:2|0:0,0:0:0:0:
240,299,120958,2,0,L|207:311,1,28,2|0,0:0|0:0,0:0:0:0:
285,249,121291,6,0,P|280:233|291:188,1,56,4|0,1:0|0:0,0:0:0:0:
346,167,121791,1,0,1:0:0:0:
246,147,121958,1,4,1:2:0:0:
246,147,122291,6,0,P|261:136|281:133,1,28,0|0,1:0|0:0,0:0:0:0:
346,231,122625,1,2,1:3:0:0:
346,231,122958,5,0,1:0:0:0:
451,143,123125,1,2,1:3:0:0:
321,78,123291,6,0,L|328:110,1,28,4|0,1:2|0:0,0:0:0:0:
418,229,123625,2,0,L|425:197,1,28,2|0,0:0|0:0,0:0:0:0:
489,37,123958,6,0,L|495:97,1,56,4|0,1:0|0:0,0:0:0:0:
504,185,124458,1,0,1:0:0:0:
423,138,124625,2,0,L|463:145,1,28,4|0,1:2|0:0,0:0:0:0:
363,170,124958,1,2,0:0:0:0:
498,325,125291,6,0,L|502:352,1,28,6|0,0:2|0:0,0:0:0:0:
425,247,125625,2,0,L|429:219,1,28,2|0,0:0|0:0,0:0:0:0:
357,348,125958,2,0,L|361:375,1,28,6|0,0:2|0:0,0:0:0:0:
284,224,126291,2,0,L|288:196,1,28,2|0,0:0|0:0,0:0:0:0:
164,292,126625,6,0,P|148:295|113:326,1,56,4|0,1:0|0:0,0:0:0:0:
120,384,127125,1,0,1:0:0:0:
55,305,127291,1,4,1:2:0:0:
55,305,127625,6,0,L|66:266,1,28,0|0,1:0|0:0,0:0:0:0:
91,151,127958,1,2,1:3:0:0:
91,151,128291,5,0,1:0:0:0:
201,262,128458,1,2,1:3:0:0:
243,112,128625,1,4,1:2:0:0:
243,112,128958,2,0,L|210:106,1,28,2|0,0:0|0:0,0:0:0:0:
26,17,129291,6,0,L|35:79,1,56,4|0,1:0|0:0,0:0:0:0:
106,164,129791,2,0,L|97:102,1,56,4|0,1:2|0:0,0:0:0:0:
150,31,130291,6,0,L|154:65,1,28,0|0,1:0|0:0,0:0:0:0:
234,172,130625,1,0,1:0:0:0:
234,172,130958,6,0,L|240:204,1,28,2|0,0:0|0:0,0:0:0:0:
251,107,131291,2,0,L|275:85,1,28,4|0,0:0|0:0,0:0:0:0:
187,125,131625,2,0,L|156:114,1,28,2|0,0:0|0:0,0:0:0:0:
307,161,131958,5,4,1:0:0:0:
307,161,132291,5,0,1:0:0:0:
416,127,132458,1,0,1:0:0:0:
390,238,132625,1,2,1:3:0:0:
390,238,132958,5,0,1:0:0:0:
371,176,133125,1,0,1:0:0:0:
512,168,133291,5,4,1:2:0:0:
478,281,133458,1,0,1:0:0:0:
287,343,133625,5,0,1:0:0:0:
230,157,133791,1,0,1:0:0:0:
413,49,133958,6,0,L|408:74,1,24.5,4|0,1:2|0:0,0:0:0:0:
408,73,134625,6,0,L|455:66,1,35,4|0,1:2|0:0,0:0:0:0:
231,205,134958,2,0,L|196:210,1,35,4|0,1:2|0:0,0:0:0:0:
431,291,135291,2,0,L|478:284,1,35,4|0,1:2|0:0,0:0:0:0:
377,130,135625,5,4,1:2:0:0:
294,203,135791,1,2,0:0:0:0:
398,238,135958,1,4,1:0:0:0:
398,238,136291,2,0,L|357:228,1,35,2|0,0:0|0:0,0:0:0:0:
198,188,136625,5,0,1:0:0:0:
92,312,136791,1,0,0:0:0:0:
206,304,136958,5,0,1:0:0:0:
84,198,137125,1,0,0:0:0:0:
239,244,137291,6,0,L|287:232,1,35,4|0,1:2|0:0,0:0:0:0:
132,141,137625,2,0,L|180:129,1,35,4|0,1:2|0:0,0:0:0:0:
25,38,137958,2,0,L|73:26,1,35,4|0,1:2|0:0,0:0:0:0:
216,6,138291,5,4,1:2:0:0:
149,64,138458,1,2,0:0:0:0:
232,92,138625,1,4,1:0:0:0:
232,92,138958,2,0,L|271:81,1,35,2|0,0:0|0:0,0:0:0:0:
235,293,139291,5,0,1:0:0:0:
138,201,139458,1,0,0:0:0:0:
106,331,139625,5,0,1:0:0:0:
160,275,139791,1,0,0:0:0:0:
47,211,139958,6,0,P|31:219|15:226,1,35,4|0,1:2|0:0,0:0:0:0:
144,59,140291,2,0,P|150:42|160:28,1,35,4|0,1:2|0:0,0:0:0:0:
155,240,140625,2,0,P|158:257|159:274,1,35,4|0,1:2|0:0,0:0:0:0:
41,101,140958,2,0,P|27:89|17:75,1,35,4|0,1:2|0:0,0:0:0:0:
217,148,141291,6,0,L|302:129,1,70,4|0,1:0|0:0,0:0:0:0:
166,101,141791,1,0,1:0:0:0:
268,202,141958,2,0,L|262:237,1,35,4|0,1:2|0:0,0:0:0:0:
365,63,142291,2,0,L|371:28,1,35,4|0,1:2|0:0,0:0:0:0:
478,148,142625,5,4,1:0:0:0:
478,148,142791,1,0,0:0:0:0:
478,148,142958,2,0,L|472:183,1,35,2|0,1:2|0:0,0:0:0:0:
337,229,143291,5,4,1:0:0:0:
337,229,143458,1,0,0:0:0:0:
337,229,143625,2,0,L|343:264,1,35,2|0,1:2|0:0,0:0:0:0:
483,368,143958,5,4,1:0:0:0:
407,291,144125,1,2,0:0:0:0:
512,263,144291,5,2,1:2:0:0:
325,384,144458,1,2,0:0:0:0:
108,203,144625,6,0,L|143:197,1,35,4|0,1:2|0:0,0:0:0:0:
292,92,144958,2,0,L|258:99,1,35,4|0,1:2|0:0,0:0:0:0:
207,334,145291,6,0,P|220:306|224:253,1,70,4|0,1:0|0:0,0:0:0:0:
208,204,145791,1,0,1:0:0:0:
128,263,145958,2,0,L|163:257,1,35,4|0,1:2|0:0,0:0:0:0:
295,154,146291,2,0,L|260:160,1,35,4|0,1:2|0:0,0:0:0:0:
24,121,146625,6,0,L|104:107,1,70,4|0,1:0|0:0,0:0:0:0:
181,12,147125,1,0,1:0:0:0:
321,46,147291,5,4,1:2:0:0:
321,46,147625,2,0,L|330:93,1,35,2|0,0:0|0:0,0:0:0:0:
506,248,147958,6,0,L|471:242,1,35,4|0,1:2|0:0,0:0:0:0:
322,273,148291,2,0,L|353:257,1,35,4|0,1:2|0:0,0:0:0:0:
455,145,148625,6,0,L|439:176,1,35,4|0,1:2|0:0,0:0:0:0:
343,160,148958,2,0,L|366:185,1,35,4|0,1:2|0:0,0:0:0:0:
418,294,149291,6,0,L|426:339,1,35,4|0,1:0|0:0,0:0:0:0:
263,189,149625,2,0,L|256:142,1,35,0|0,1:0|0:0,0:0:0:0:
141,331,149958,1,4,1:2:0:0:
141,331,150291,2,0,P|170:325|183:317,1,35,2|0,0:0|0:0,0:0:0:0:
179,129,150625,6,0,P|165:164|172:199,1,70,4|0,1:0|0:0,0:0:0:0:
224,364,151125,2,0,P|239:328|232:293,1,70,4|0,1:2|0:0,0:0:0:0:
127,247,151625,6,0,P|146:257|175:257,1,35,0|0,1:0|0:0,0:0:0:0:
345,145,151958,1,0,1:0:0:0:
345,145,152291,6,0,L|308:138,1,35,4|0,1:2|0:0,0:0:0:0:
194,15,152625,2,0,L|207:50,1,35,4|0,1:2|0:0,0:0:0:0:
156,210,152958,2,0,L|181:181,1,35,2|0,1:2|0:0,0:0:0:0:
233,123,153291,5,0,1:0:0:0:
233,123,153625,5,0,1:0:0:0:
305,29,153791,1,0,1:0:0:0:
348,137,153958,1,2,1:3:0:0:
348,137,154291,5,0,1:0:0:0:
233,123,154458,1,0,1:0:0:0:
162,264,154625,5,4,1:2:0:0:
323,244,154791,1,0,1:0:0:0:
294,80,154958,5,0,1:0:0:0:
85,54,155125,1,0,1:0:0:0:
91,276,155291,6,0,L|95:251,1,24.5,4|0,1:2|0:0,0:0:0:0:
95,252,155958,6,0,L|48:259,1,35,4|0,1:2|0:0,0:0:0:0:
272,121,156291,2,0,L|307:116,1,35,4|0,1:2|0:0,0:0:0:0:
72,35,156625,2,0,L|25:42,1,35,4|0,1:2|0:0,0:0:0:0:
126,196,156958,5,4,1:2:0:0:
209,123,157125,1,2,0:0:0:0:
105,88,157291,1,4,1:0:0:0:
105,88,157625,2,0,L|100:137,1,35,2|0,0:0|0:0,0:0:0:0:
13,290,157958,5,0,1:0:0:0:
94,194,158125,1,0,0:0:0:0:
139,310,158291,5,0,1:0:0:0:
81,263,158458,1,0,0:0:0:0:
200,279,158625,6,0,L|234:284,1,35,4|0,1:2|0:0,0:0:0:0:
261,165,158958,2,0,L|295:170,1,35,4|0,1:2|0:0,0:0:0:0:
322,51,159291,2,0,L|356:56,1,35,4|0,1:2|0:0,0:0:0:0:
423,349,159625,5,4,1:2:0:0:
340,325,159791,1,0,0:0:0:0:
434,189,159958,5,2,1:2:0:0:
459,293,160125,1,0,0:0:0:0:
277,384,160291,5,2,1:2:0:0:
319,242,160458,1,4,1:2:0:0:
492,350,160625,6,0,L|488:384,1,35,0|0,1:0|0:0,0:0:0:0:
255,292,160958,2,0,L|258:257,1,35,0|0,1:0|0:0,0:0:0:0:
269,19,161291,6,0,P|257:37|250:59,1,35,4|0,1:2|0:0,0:0:0:0:
346,250,161625,2,0,P|346:228|338:206,1,35,4|0,1:2|0:0,0:0:0:0:
148,108,161958,2,0,P|162:124|181:138,1,35,4|0,1:2|0:0,0:0:0:0:
392,106,162291,2,0,P|372:100|349:100,1,35,4|0,1:2|0:0,0:0:0:0:
229,235,162625,6,0,P|214:244|150:247,1,70,4|0,1:0|0:0,0:0:0:0:
69,132,163125,1,0,1:0:0:0:
116,176,163291,2,0,L|110:222,1,35,4|0,1:2|0:0,0:0:0:0:
4,364,163625,2,0,L|10:318,1,35,4|0,1:2|0:0,0:0:0:0:
2,209,163958,5,4,1:0:0:0:
2,209,164125,1,0,0:0:0:0:
2,209,164291,2,0,L|47:220,1,35,2|0,1:2|0:0,0:0:0:0:
204,324,164625,5,4,1:0:0:0:
204,324,164791,1,0,0:0:0:0:
204,324,164958,2,0,L|249:313,1,35,2|0,1:2|0:0,0:0:0:0:
469,323,165291,5,4,1:0:0:0:
379,266,165458,1,2,0:0:0:0:
375,372,165625,5,2,1:2:0:0:
478,199,165791,1,2,0:0:0:0:
289,46,165958,6,0,L|280:87,1,35,4|0,1:2|0:0,0:0:0:0:
101,302,166291,2,0,L|110:261,1,35,4|0,1:2|0:0,0:0:0:0:
29,84,166625,6,0,P|68:76|106:85,1,70,4|0,1:0|0:0,0:0:0:0:
203,219,167125,1,0,1:0:0:0:
166,71,167291,6,0,L|174:32,1,35,4|0,1:2|0:0,0:0:0:0:
270,221,167625,2,0,L|262:260,1,35,4|0,1:2|0:0,0:0:0:0:
359,30,167958,5,4,1:0:0:0:
459,7,168125,1,0,0:0:0:0:
512,93,168291,1,0,0:0:0:0:
444,170,168458,1,0,1:0:0:0:
351,130,168625,1,4,1:2:0:0:
351,130,168958,2,0,P|338:158|337:176,1,35,2|0,0:0|0:0,0:0:0:0:
436,240,169291,6,0,L|367:224,1,70,4|0,1:2|0:0,0:0:0:0:
291,206,169791,1,0,1:0:0:0:
450,311,169958,6,0,L|395:298,1,56,4|0,1:2|0:0,0:0:0:0:
319,280,170458,1,0,1:0:0:0:
461,384,170625,6,0,L|420:374,1,41.9999987182618,4|0,1:2|0:0,0:0:0:0:
344,356,171125,1,0,1:0:0:0:
293,194,171291,6,0,L|290:159,1,35,4|0,1:0|0:0,0:0:0:0:
191,297,171625,2,0,L|194:332,1,35,0|0,1:0|0:0,0:0:0:0:
109,135,171958,5,4,1:2:0:0:
109,135,172291,2,0,P|109:163|95:194,1,35,2|0,0:0|0:0,0:0:0:0:
13,53,172625,5,4,1:2:0:0:
13,53,172958,2,0,P|12:24|26:-6,1,35,2|0,0:0|0:0,0:0:0:0:
263,88,173291,6,0,L|308:81,1,35,4|0,1:2|0:0,0:0:0:0:
221,38,173625,2,0,L|230:-7,1,35,4|0,1:2|0:0,0:0:0:0:
163,62,173958,2,0,L|122:40,1,35,4|0,1:2|0:0,0:0:0:0:
167,126,174291,2,0,L|134:158,1,35,4|0,1:2|0:0,0:0:0:0:
229,142,174625,5,4,1:0:0:0:
229,142,174958,5,0,1:0:0:0:
329,185,175125,1,0,1:0:0:0:
317,77,175291,1,2,1:3:0:0:
317,77,175625,5,0,1:0:0:0:
411,51,175791,1,2,1:3:0:0:
505,25,175958,1,4,1:2:0:0:
505,25,176291,5,0,1:0:0:0:
317,77,176458,1,0,1:0:0:0:
410,277,176625,6,0,L|417:242,1,35,4|0,1:2|0:0,0:0:0:0:
246,121,176958,2,0,L|254:160,1,35,4|0,1:2|0:0,0:0:0:0:
243,344,177291,5,4,1:2:0:0:
163,214,177458,1,0,1:0:0:0:
92,348,177625,1,2,1:2:0:0:
166,301,177791,1,2,1:2:0:0:
12,223,177958,5,4,1:2:0:0:
120,158,178125,1,0,1:0:0:0:
34,136,178291,1,2,1:2:0:0:
99,244,178458,1,2,1:2:0:0:
229,91,178625,5,4,1:2:0:0:
139,91,178791,1,0,1:0:0:0:
212,37,178958,1,2,1:2:0:0:
183,125,179125,1,2,1:2:0:0:
155,38,179291,6,0,L|120:31,3,35,4|2|2|2,1:2|0:0|0:0|0:0,0:0:0:0:
36,91,179958,6,0,L|46:25,2,62.9999980773926,4|2|2,0:1|0:0|0:0,0:0:0:0:
256,192,182625,12,2,183625,0:0:0:0:
407,125,185291,6,0,P|374:132|338:117,2,62.9999980773926,4|2|2,0:1|0:0|0:0,0:0:0:0:
256,192,187958,12,2,188958,0:0:0:0:
433,346,190625,6,0,L|482:336,1,41.9999987182618,4|0,0:1|0:0,0:0:0:0:
371,314,191125,2,0,L|322:324,1,41.9999987182618,2|0,0:0|0:0,0:0:0:0:
403,255,191625,1,2,0:0:0:0:
256,192,193291,12,2,194291,0:0:0:0:
47,259,195958,6,0,P|37:282|39:308,1,41.9999987182618,4|0,0:1|0:0,0:0:0:0:
81,376,196458,2,0,P|91:353|89:327,1,41.9999987182618,2|0,0:0|0:0,0:0:0:0:
143,295,196958,1,2,0:0:0:0:
256,160,198625,5,4,0:1:0:0:
228,208,199125,1,2,0:0:0:0:
283,208,199625,1,2,0:0:0:0:
29,336,201291,6,0,L|89:326,1,56,4|0,1:0|0:0,0:0:0:0:
139,369,201791,1,0,1:0:0:0:
149,274,201958,2,0,L|144:317,1,28,4|0,1:2|0:0,0:0:0:0:
159,205,202291,1,2,0:0:0:0:
117,28,202625,6,0,L|105:57,1,28,6|0,0:0|0:0,0:0:0:0:
17,48,202958,2,0,L|41:68,1,28,2|0,0:0|0:0,0:0:0:0:
5,150,203291,2,0,L|31:133,1,28,6|0,0:0|0:0,0:0:0:0:
98,192,203625,2,0,L|90:161,1,28,2|0,0:0|0:0,0:0:0:0:
140,115,203958,6,0,P|166:107|201:116,1,56,4|0,1:0|0:0,0:0:0:0:
232,160,204458,1,0,1:0:0:0:
220,220,204625,1,4,1:2:0:0:
220,220,204958,6,0,L|226:256,1,28,0|0,1:0|0:0,0:0:0:0:
248,383,205291,1,2,1:3:0:0:
248,383,205625,5,0,1:0:0:0:
380,350,205791,1,2,1:3:0:0:
512,318,205958,1,4,1:2:0:0:
512,318,206291,2,0,L|482:314,1,28,2|0,0:0|0:0,0:0:0:0:
427,219,206625,6,0,L|438:281,1,56,4|0,1:0|0:0,0:0:0:0:
424,334,207125,1,0,1:0:0:0:
512,378,207291,2,0,L|482:374,1,28,4|0,1:2|0:0,0:0:0:0:
360,367,207625,1,2,0:0:0:0:
223,161,207958,6,0,L|229:189,1,28,6|0,0:2|0:0,0:0:0:0:
308,197,208291,2,0,L|282:212,1,28,2|0,0:0|0:0,0:0:0:0:
162,232,208625,2,0,L|191:234,1,28,6|0,0:2|0:0,0:0:0:0:
301,290,208958,2,0,L|278:270,1,28,2|0,0:0|0:0,0:0:0:0:
222,286,209291,6,0,P|207:315|210:347,1,56,4|0,1:0|0:0,0:0:0:0:
250,384,209791,1,0,1:0:0:0:
306,357,209958,1,4,1:2:0:0:
306,357,210291,6,0,P|316:351|340:348,1,28,0|0,1:0|0:0,0:0:0:0:
445,384,210625,1,2,1:3:0:0:
445,384,210958,5,0,1:0:0:0:
405,257,211125,1,2,1:3:0:0:
365,130,211291,6,0,L|402:122,1,28,4|0,1:2|0:0,0:0:0:0:
302,46,211625,2,0,L|265:54,1,28,2|0,0:0|0:0,0:0:0:0:
450,10,211958,6,0,L|461:73,1,56,4|0,1:0|0:0,0:0:0:0:
425,147,212458,1,0,1:0:0:0:
512,127,212625,2,0,L|484:122,1,28,4|0,1:2|0:0,0:0:0:0:
334,83,212958,1,2,0:0:0:0:
174,203,213291,6,0,L|147:195,1,28,6|0,0:2|0:0,0:0:0:0:
310,166,213625,2,0,L|337:158,1,28,2|0,0:0|0:0,0:0:0:0:
150,120,213958,2,0,L|123:112,1,28,6|0,0:2|0:0,0:0:0:0:
334,83,214291,2,0,L|361:75,1,28,2|0,0:0|0:0,0:0:0:0:
182,6,214625,6,0,P|170:36|179:67,1,56,4|0,1:0|0:0,0:0:0:0:
216,104,215125,1,0,1:0:0:0:
277,92,215291,1,4,1:2:0:0:
277,92,215625,6,0,L|273:131,1,28,0|0,1:0|0:0,0:0:0:0:
257,249,215958,1,2,1:3:0:0:
257,249,216291,5,0,1:0:0:0:
133,296,216458,1,2,1:3:0:0:
0,344,216625,1,4,1:2:0:0:
0,344,216958,2,0,L|8:380,1,28,2|0,0:0|0:0,0:0:0:0:
126,350,217291,6,0,P|135:321|130:287,1,56,4|0,1:0|0:0,0:0:0:0:
75,224,217791,2,0,P|66:253|71:287,1,56,4|0,1:2|0:0,0:0:0:0:
193,285,218291,6,0,L|206:252,1,28,0|0,1:0|0:0,0:0:0:0:
267,76,218625,1,0,1:0:0:0:
267,76,218958,6,0,L|288:110,1,28,2|0,0:0|0:0,0:0:0:0:
271,233,219291,2,0,L|283:207,1,28,4|0,0:0|0:0,0:0:0:0:
405,151,219625,2,0,L|376:151,1,28,2|0,0:0|0:0,0:0:0:0:
233,155,219958,5,4,1:0:0:0:
233,155,220291,5,0,1:0:0:0:
106,195,220458,1,0,1:0:0:0:
133,64,220625,1,2,1:3:0:0:
133,64,220958,5,0,1:0:0:0:
159,139,221125,1,0,1:0:0:0:
0,172,221291,5,4,1:2:0:0:
41,50,221458,1,0,1:0:0:0:
216,0,221625,5,0,1:0:0:0:
280,187,221791,1,0,1:0:0:0:
47,236,221958,6,0,L|71:234,1,24.5,4|0,1:2|0:0,0:0:0:0:
72,234,222625,6,0,L|67:274,1,35,4|0,1:2|0:0,0:0:0:0:
232,41,222958,2,0,L|236:2,1,35,4|0,1:2|0:0,0:0:0:0:
318,275,223291,2,0,L|313:315,1,35,4|0,1:2|0:0,0:0:0:0:
136,187,223625,5,4,1:2:0:0:
240,119,223791,1,2,0:0:0:0:
246,243,223958,1,4,1:0:0:0:
246,243,224291,2,0,L|251:198,1,35,2|0,0:0|0:0,0:0:0:0:
393,146,224625,5,0,1:0:0:0:
281,61,224791,1,0,0:0:0:0:
379,47,224958,5,0,1:0:0:0:
295,160,225125,1,0,0:0:0:0:
446,90,225291,6,0,L|483:98,1,35,4|0,1:2|0:0,0:0:0:0:
357,205,225625,2,0,L|394:213,1,35,4|0,1:2|0:0,0:0:0:0:
268,320,225958,2,0,L|305:328,1,35,4|0,1:2|0:0,0:0:0:0:
498,343,226291,5,4,1:2:0:0:
409,271,226458,1,2,0:0:0:0:
392,384,226625,1,4,1:0:0:0:
392,384,226958,2,0,L|440:376,1,35,2|0,0:0|0:0,0:0:0:0:
203,333,227291,5,0,1:0:0:0:
300,241,227458,1,0,0:0:0:0:
171,203,227625,5,0,1:0:0:0:
225,259,227791,1,0,0:0:0:0:
296,47,227958,6,0,P|275:43|249:47,1,35,4|0,1:2|0:0,0:0:0:0:
465,168,228291,2,0,P|483:158|501:139,1,35,4|0,1:2|0:0,0:0:0:0:
256,169,228625,2,0,P|246:186|241:212,1,35,4|0,1:2|0:0,0:0:0:0:
423,45,228958,2,0,P|419:22|408:0,1,35,4|0,1:2|0:0,0:0:0:0:
362,245,229291,6,0,L|439:257,1,70,4|0,1:0|0:0,0:0:0:0:
404,182,229791,1,0,1:0:0:0:
322,302,229958,2,0,L|328:341,1,35,4|0,1:2|0:0,0:0:0:0:
239,172,230291,2,0,L|233:133,1,35,4|0,1:2|0:0,0:0:0:0:
148,357,230625,5,4,1:0:0:0:
148,357,230791,1,0,0:0:0:0:
148,357,230958,2,0,L|142:318,1,35,2|0,1:2|0:0,0:0:0:0:
17,226,231291,5,4,1:0:0:0:
17,226,231458,1,0,0:0:0:0:
17,226,231625,2,0,L|23:187,1,35,2|0,1:2|0:0,0:0:0:0:
47,13,231958,5,2,0:0:0:0:
125,101,232125,1,4,1:0:0:0:
10,125,232291,5,2,1:2:0:0:
216,10,232458,1,2,0:0:0:0:
392,193,232625,6,0,L|358:185,1,35,4|0,1:2|0:0,0:0:0:0:
141,272,232958,2,0,L|176:281,1,35,4|0,1:2|0:0,0:0:0:0:
292,57,233291,6,0,L|300:129,1,70,4|0,1:0|0:0,0:0:0:0:
252,183,233791,1,0,1:0:0:0:
322,246,233958,2,0,P|297:244|280:232,1,35,4|0,1:2|0:0,0:0:0:0:
179,116,234291,2,0,P|204:118|221:130,1,35,4|0,1:2|0:0,0:0:0:0:
178,338,234625,6,0,P|141:346|106:331,1,70,4|0,1:0|0:0,0:0:0:0:
150,250,235125,1,0,1:0:0:0:
322,365,235291,5,4,1:2:0:0:
322,365,235625,2,0,L|318:323,1,35,2|0,0:0|0:0,0:0:0:0:
392,180,235958,6,0,P|407:192|426:198,1,35,4|0,1:2|0:0,0:0:0:0:
399,115,236291,2,0,P|416:103|426:87,1,35,4|0,1:2|0:0,0:0:0:0:
327,192,236625,6,0,P|320:207|319:225,1,35,4|0,1:2|0:0,0:0:0:0:
339,88,236958,6,0,P|334:71|324:56,1,35,4|0,1:2|0:0,0:0:0:0:
295,136,237291,2,0,P|274:134|256:141,1,35,4|0,1:0|0:0,0:0:0:0:
57,262,237625,2,0,P|77:263|95:256,1,35,0|0,1:0|0:0,0:0:0:0:
176,199,237958,1,4,1:2:0:0:
176,199,238291,2,0,L|178:158,1,35,2|0,0:0|0:0,0:0:0:0:
207,21,238625,6,0,L|134:30,1,70,4|0,1:0|0:0,0:0:0:0:
19,110,239125,2,0,L|92:101,1,70,4|0,1:2|0:0,0:0:0:0:
177,164,239625,6,0,L|129:169,1,35,0|0,1:0|0:0,0:0:0:0:
48,233,239958,1,0,1:0:0:0:
48,233,240291,6,0,L|1:227,1,35,4|0,1:2|0:0,0:0:0:0:
192,332,240625,2,0,L|210:375,1,35,4|0,1:2|0:0,0:0:0:0:
206,158,240958,2,0,L|234:120,1,35,2|0,1:2|0:0,0:0:0:0:
148,240,241291,5,0,1:0:0:0:
148,240,241625,5,0,1:0:0:0:
30,296,241791,1,0,1:0:0:0:
138,371,241958,1,2,1:3:0:0:
138,371,242291,5,0,1:0:0:0:
267,344,242458,1,0,1:0:0:0:
337,221,242625,5,4,1:2:0:0:
175,187,242791,1,0,1:0:0:0:
209,384,242958,5,0,1:0:0:0:
442,335,243125,1,0,1:0:0:0:
280,151,243291,6,0,L|257:148,1,24.5,4|0,1:2|0:0,0:0:0:0:
256,148,243958,6,0,L|251:108,1,35,4|0,1:2|0:0,0:0:0:0:
418,342,244291,2,0,L|422:381,1,35,4|0,1:2|0:0,0:0:0:0:
504,108,244625,2,0,L|499:68,1,35,4|0,1:2|0:0,0:0:0:0:
322,196,244958,5,4,1:2:0:0:
426,264,245125,1,2,0:0:0:0:
432,140,245291,1,4,1:0:0:0:
432,140,245625,2,0,L|391:132,1,35,2|0,0:0|0:0,0:0:0:0:
174,30,245958,5,0,1:0:0:0:
264,118,246125,1,0,0:0:0:0:
298,0,246291,5,0,1:0:0:0:
245,50,246458,1,0,0:0:0:0:
76,29,246625,6,0,L|115:18,1,35,4|0,1:2|0:0,0:0:0:0:
115,145,246958,2,0,L|154:134,1,35,4|0,1:2|0:0,0:0:0:0:
154,261,247291,2,0,L|193:250,1,35,4|0,1:2|0:0,0:0:0:0:
338,166,247625,5,4,1:2:0:0:
257,135,247791,1,2,0:0:0:0:
223,315,247958,5,2,1:2:0:0:
311,253,248125,1,0,0:0:0:0:
245,50,248291,5,2,1:2:0:0:
190,189,248458,1,0,0:0:0:0:
359,83,248625,6,0,L|402:76,1,35,0|0,1:0|0:0,0:0:0:0:
124,202,248958,2,0,L|81:209,1,35,0|0,1:0|0:0,0:0:0:0:
356,374,249291,6,0,P|355:353|347:334,1,35,4|0,1:2|0:0,0:0:0:0:
320,155,249625,2,0,P|308:171|304:191,1,35,4|0,1:2|0:0,0:0:0:0:
220,352,249958,2,0,P|238:344|254:331,1,35,4|0,1:2|0:0,0:0:0:0:
416,251,250291,2,0,P|396:245|376:247,1,35,4|0,1:2|0:0,0:0:0:0:
221,241,250625,6,0,P|206:230|190:173,1,70,4|0,1:0|0:0,0:0:0:0:
254,184,251125,1,0,1:0:0:0:
209,310,251291,2,0,L|169:316,1,35,4|0,1:2|0:0,0:0:0:0:
354,367,251625,2,0,L|394:361,1,35,4|0,1:2|0:0,0:0:0:0:
474,180,251958,5,4,1:0:0:0:
474,180,252125,1,0,0:0:0:0:
474,180,252291,2,0,L|434:186,1,35,2|0,1:2|0:0,0:0:0:0:
338,75,252625,5,4,1:0:0:0:
338,75,252791,1,0,0:0:0:0:
338,75,252958,2,0,L|298:69,1,35,2|0,1:2|0:0,0:0:0:0:
83,54,253291,5,2,0:0:0:0:
169,136,253458,1,4,1:0:0:0:
197,20,253625,5,2,1:2:0:0:
37,200,253791,1,2,0:0:0:0:
210,365,253958,6,0,L|221:309,1,35,4|0,1:2|0:0,0:0:0:0:
356,87,254291,2,0,L|346:143,1,35,4|0,1:2|0:0,0:0:0:0:
502,325,254625,6,0,P|465:345|428:340,1,70,4|0,1:0|0:0,0:0:0:0:
328,190,255125,1,0,1:0:0:0:
374,351,255291,6,0,L|359:406,1,35,4|0,1:2|0:0,0:0:0:0:
259,179,255625,2,0,L|274:124,1,35,4|0,1:2|0:0,0:0:0:0:
153,354,255958,5,4,1:0:0:0:
53,377,256125,1,0,0:0:0:0:
0,291,256291,1,0,0:0:0:0:
68,214,256458,1,0,1:0:0:0:
161,254,256625,1,4,1:2:0:0:
161,254,256958,2,0,L|168:206,1,35,2|0,0:0|0:0,0:0:0:0:
49,98,257291,6,0,P|69:63|123:46,1,70,4|0,1:2|0:0,0:0:0:0:
206,37,257791,1,0,1:0:0:0:
110,165,257958,6,0,P|102:137|113:103,1,56,4|0,1:2|0:0,0:0:0:0:
154,68,258458,1,0,1:0:0:0:
199,155,258625,6,0,P|179:152|163:134,1,41.9999987182618,4|0,1:2|0:0,0:0:0:0:
209,99,259125,1,0,1:0:0:0:
318,140,259291,6,0,L|357:131,1,35,4|0,1:0|0:0,0:0:0:0:
194,238,259625,2,0,L|155:247,1,35,0|0,1:0|0:0,0:0:0:0:
319,344,259958,5,4,1:2:0:0:
319,344,260291,2,0,P|339:351|366:343,1,35,2|0,0:0|0:0,0:0:0:0:
497,234,260625,5,4,1:2:0:0:
497,234,260958,2,0,P|477:227|450:235,1,35,2|0,0:0|0:0,0:0:0:0:
261,270,261291,6,0,L|268:315,1,35,4|0,1:2|0:0,0:0:0:0:
311,228,261625,2,0,L|356:237,1,35,4|0,1:2|0:0,0:0:0:0:
287,170,261958,2,0,L|309:129,1,35,4|0,1:2|0:0,0:0:0:0:
223,174,262291,2,0,L|191:141,1,35,4|0,1:2|0:0,0:0:0:0:
207,236,262625,5,4,1:0:0:0:
207,236,262958,5,0,1:0:0:0:
132,307,263125,1,0,1:0:0:0:
108,206,263291,1,2,1:3:0:0:
108,206,263625,5,0,1:0:0:0:
246,144,263791,1,2,1:3:0:0:
384,82,263958,1,4,1:2:0:0:
384,82,264291,5,0,1:0:0:0:
321,288,264458,1,0,1:0:0:0:
246,144,264625,6,0,L|293:139,1,35,4|0,1:2|0:0,0:0:0:0:
152,259,264958,2,0,L|105:264,1,35,4|0,1:2|0:0,0:0:0:0:
273,362,265291,5,4,1:2:0:0:
367,222,265458,1,0,1:0:0:0:
250,245,265625,1,2,1:2:0:0:
390,339,265791,1,2,1:2:0:0:
430,217,265958,5,4,1:2:0:0:
311,193,266125,1,0,1:0:0:0:
393,280,266291,1,2,1:2:0:0:
378,161,266458,1,2,1:2:0:0:
320,267,266625,6,0,L|282:265,1,35,4|0,1:2|0:0,0:0:0:0:
153,193,266958,2,0,L|191:195,1,35,4|0,1:2|0:0,0:0:0:0:
397,101,267291,6,0,L|359:99,1,35,4|0,1:2|0:0,0:0:0:0:
108,27,267625,2,0,L|146:29,1,35,4|0,1:2|0:0,0:0:0:0:
447,9,267958,6,0,L|457:91,1,70,4|0,1:0|0:0,0:0:0:0:
387,173,268458,1,0,1:0:0:0:
492,154,268625,2,0,L|442:145,1,35,4|0,1:2|0:0,0:0:0:0:
287,203,268958,2,0,L|337:212,1,35,4|0,1:2|0:0,0:0:0:0:
496,317,269291,5,4,1:0:0:0:
496,317,269625,1,2,0:0:0:0:
496,317,269958,6,0,L|450:322,1,35,4|0,1:2|0:0,0:0:0:0:
274,259,270291,2,0,L|228:264,1,35,4|0,1:2|0:0,0:0:0:0:
16,351,270625,5,2,1:2:0:0:
75,364,270958,1,2,1:2:0:0:
106,313,271291,1,2,1:2:0:0:
66,267,271625,1,2,1:2:0:0:
11,291,271958,6,0,L|7:332,1,35,4|0,1:0|0:0,0:0:0:0:
141,195,272291,2,0,L|145:154,1,35,0|0,1:0|0:0,0:0:0:0:
290,363,272625,1,4,1:2:0:0:
290,363,272958,2,0,L|293:328,1,35,2|0,1:2|0:0,0:0:0:0:
347,113,273291,6,0,P|305:105|267:117,1,70,4|0,1:0|0:0,0:0:0:0:
212,166,273791,1,0,1:0:0:0:
266,235,273958,2,0,P|268:202|265:194,1,35,4|0,1:2|0:0,0:0:0:0:
158,97,274291,2,0,P|156:130|159:138,1,35,4|0,1:2|0:0,0:0:0:0:
289,28,274625,5,4,1:0:0:0:
289,28,274958,2,0,L|242:40,1,35,2|0,1:2|0:0,0:0:0:0:
212,166,275291,5,4,1:2:0:0:
176,35,275458,1,0,0:0:0:0:
82,164,275625,5,4,1:2:0:0:
111,8,275791,1,0,0:0:0:0:
248,110,275958,6,0,L|303:117,1,35,2|0,1:2|0:0,0:0:0:0:
34,216,276291,2,0,L|-21:209,1,35,2|0,1:2|0:0,0:0:0:0:
255,252,276625,5,2,1:2:0:0:
135,109,276791,1,2,1:2:0:0:
72,285,276958,2,0,L|83:348,1,35,2|0,1:2|0:0,0:0:0:0:
154,216,277291,6,0,L|147:181,2,35,4|0|0,1:0|0:0|0:0,0:0:0:0:
175,298,277791,1,0,1:0:0:0:
266,107,277958,2,0,L|228:102,1,35,4|0,1:2|0:0,0:0:0:0:
43,207,278291,2,0,L|81:212,1,35,4|0,1:2|0:0,0:0:0:0:
341,291,278625,6,0,P|353:260|346:210,1,70,4|0,1:0|0:0,0:0:0:0:
300,171,279125,1,0,1:0:0:0:
268,374,279291,2,0,L|318:370,1,35,4|0,1:2|0:0,0:0:0:0:
475,286,279625,2,0,L|510:284,1,35,4|0,1:2|0:0,0:0:0:0:
389,329,279958,5,4,1:0:0:0:
389,329,280291,1,2,0:0:0:0:
389,329,280625,6,0,L|397:369,1,35,4|0,1:2|0:0,0:0:0:0:
453,189,280958,2,0,L|461:229,1,35,4|0,1:2|0:0,0:0:0:0:
267,82,281291,6,0,L|347:90,1,70,4|0,1:0|0:0,0:0:0:0:
369,5,281791,1,0,1:0:0:0:
287,193,281958,5,2,1:2:0:0:
398,62,282125,1,2,1:2:0:0:
229,31,282291,2,0,L|184:25,1,35,2|0,1:2|0:0,0:0:0:0:
385,162,282625,5,4,1:0:0:0:
385,162,282958,1,0,1:0:0:0:
251,131,283125,1,0,1:0:0:0:
117,100,283291,1,4,1:2:0:0:
117,100,283625,2,0,L|76:102,1,35,2|0,1:2|0:0,0:0:0:0:
47,277,283958,6,0,L|59:200,1,70,4|0,1:0|0:0,0:0:0:0:
22,147,284458,1,0,1:0:0:0:
86,339,284625,1,4,1:2:0:0:
86,339,284958,2,0,L|136:333,1,35,2|0,1:2|0:0,0:0:0:0:
326,343,285291,6,0,P|329:354|348:380,1,35,4|0,1:2|0:0,0:0:0:0:
297,213,285625,2,0,P|300:202|300:170,1,35,4|0,1:2|0:0,0:0:0:0:
244,333,285958,2,0,P|234:339|215:365,1,35,4|0,1:2|0:0,0:0:0:0:
359,268,286291,2,0,P|370:268|401:258,1,35,4|0,1:2|0:0,0:0:0:0:
225,253,286625,5,4,1:0:0:0:
225,253,286958,1,0,1:0:0:0:
250,111,287125,1,0,1:0:0:0:
361,203,287291,1,2,1:3:0:0:
361,203,287625,5,0,1:0:0:0:
216,179,287791,1,2,1:3:0:0:
71,155,287958,1,4,1:2:0:0:
71,155,288291,5,0,1:0:0:0:
216,20,288458,1,0,1:0:0:0:
264,256,288625,6,0,L|298:260,1,35,4|0,1:2|0:0,0:0:0:0:
135,76,288958,2,0,L|100:71,1,35,4|0,1:2|0:0,0:0:0:0:
349,52,289291,5,4,1:2:0:0:
202,88,289458,1,0,1:0:0:0:
308,197,289625,1,2,1:2:0:0:
286,112,289791,1,2,1:2:0:0:
480,99,289958,5,4,1:2:0:0:
405,209,290125,1,0,1:0:0:0:
498,191,290291,1,2,1:2:0:0:
387,117,290458,1,2,1:2:0:0:
442,142,290625,6,0,L|439:172,2,17.5,2|2|2,0:0|0:0|0:0,0:0:0:0:
256,192,313291,12,2,314958,0:0:0:0:
290,289,315291,6,0,L|285:264,1,24.5,4|0,1:2|0:0,0:0:0:0:
285,265,315958,6,0,L|238:270,1,35,4|0,1:2|0:0,0:0:0:0:
478,136,316291,2,0,L|512:132,1,35,4|0,1:2|0:0,0:0:0:0:
269,32,316625,2,0,L|222:37,1,35,4|0,1:2|0:0,0:0:0:0:
333,213,316958,5,4,1:2:0:0:
409,120,317125,1,2,0:0:0:0:
291,100,317291,1,4,1:0:0:0:
291,100,317625,2,0,L|283:146,1,35,2|0,0:0|0:0,0:0:0:0:
180,324,317958,5,0,1:0:0:0:
265,208,318125,1,0,0:0:0:0:
164,223,318291,5,0,1:0:0:0:
280,308,318458,1,0,0:0:0:0:
217,135,318625,6,0,L|211:174,1,35,4|0,1:2|0:0,0:0:0:0:
360,119,318958,2,0,L|354:158,1,35,4|0,1:2|0:0,0:0:0:0:
503,103,319291,2,0,L|497:142,1,35,4|0,1:2|0:0,0:0:0:0:
425,367,319625,5,4,1:2:0:0:
492,309,319791,1,2,0:0:0:0:
409,281,319958,1,4,1:0:0:0:
409,281,320291,2,0,L|374:283,1,35,2|0,0:0|0:0,0:0:0:0:
435,137,320625,5,0,1:0:0:0:
338,45,320791,1,0,0:0:0:0:
306,175,320958,5,0,1:0:0:0:
360,119,321125,1,0,0:0:0:0:
188,42,321291,6,0,P|187:19|180:2,1,35,4|0,1:2|0:0,0:0:0:0:
96,189,321625,2,0,P|83:207|78:225,1,35,4|0,1:2|0:0,0:0:0:0:
256,123,321958,2,0,P|277:115|291:103,1,35,4|0,1:2|0:0,0:0:0:0:
87,81,322291,2,0,P|65:74|46:76,1,35,4|0,1:2|0:0,0:0:0:0:
198,213,322625,6,0,L|189:292,1,70,4|0,1:0|0:0,0:0:0:0:
131,326,323125,1,0,1:0:0:0:
267,198,323291,2,0,L|310:189,1,35,4|0,1:2|0:0,0:0:0:0:
50,139,323625,2,0,L|7:148,1,35,4|0,1:2|0:0,0:0:0:0:
154,31,323958,5,4,1:0:0:0:
154,31,324125,1,0,0:0:0:0:
154,31,324291,2,0,L|197:22,1,35,2|0,1:2|0:0,0:0:0:0:
294,112,324625,5,4,1:0:0:0:
294,112,324791,1,0,0:0:0:0:
294,112,324958,2,0,L|337:121,1,35,2|0,1:2|0:0,0:0:0:0:
470,130,325291,5,4,1:0:0:0:
394,53,325458,1,2,0:0:0:0:
499,25,325625,5,2,1:2:0:0:
346,175,325791,1,2,0:0:0:0:
181,47,325958,6,0,L|174:0,1,35,4|0,1:2|0:0,0:0:0:0:
358,247,326291,2,0,L|365:294,1,35,4|0,1:2|0:0,0:0:0:0:
48,247,326625,5,4,1:0:0:0:
48,247,326958,1,0,1:0:0:0:
155,161,327125,1,0,1:0:0:0:
135,26,327291,6,0,L|95:18,1,35,4|0,1:2|0:0,0:0:0:0:
398,133,327625,2,0,L|438:141,1,35,4|0,1:2|0:0,0:0:0:0:
144,290,327958,5,4,1:0:0:0:
144,290,328291,1,0,1:0:0:0:
252,258,328458,1,0,1:0:0:0:
321,343,328625,6,0,L|318:379,1,35,4|0,1:2|0:0,0:0:0:0:
262,192,328958,2,0,L|265:156,1,35,4|0,1:2|0:0,0:0:0:0:
108,374,329291,6,0,P|83:365|69:349,1,35,4|0,1:2|0:0,0:0:0:0:
193,327,329625,2,0,P|177:349|158:357,1,35,4|0,1:2|0:0,0:0:0:0:
175,232,329958,2,0,P|190:254|192:274,1,35,4|0,1:2|0:0,0:0:0:0:
78,219,330291,2,0,P|104:211|124:216,1,35,4|0,1:2|0:0,0:0:0:0:
36,306,330625,6,0,P|37:279|47:261,1,35,4|0,1:0|0:0,0:0:0:0:
232,135,330958,2,0,P|231:161|220:179,1,35,0|0,1:0|0:0,0:0:0:0:
17,55,331291,1,4,1:2:0:0:
17,55,331625,2,0,L|56:52,1,35,2|0,0:0|0:0,0:0:0:0:
256,229,331958,6,0,P|222:235|183:221,1,70,4|0,1:0|0:0,0:0:0:0:
97,112,332458,2,0,P|131:106|170:120,1,70,4|0,1:2|0:0,0:0:0:0:
38,155,332958,6,0,P|27:132|26:109,1,35,0|0,1:0|0:0,0:0:0:0:
231,75,333291,1,0,1:0:0:0:
231,75,333625,6,0,L|224:40,1,35,4|0,1:2|0:0,0:0:0:0:
320,181,333958,2,0,L|352:192,1,35,4|0,1:2|0:0,0:0:0:0:
182,205,334291,2,0,L|155:227,1,35,2|0,1:2|0:0,0:0:0:0:
241,154,334625,5,0,1:0:0:0:
241,154,334958,5,0,1:0:0:0:
383,92,335125,1,0,1:0:0:0:
363,245,335291,1,2,1:3:0:0:
363,245,335625,5,0,1:0:0:0:
329,163,335791,1,0,1:0:0:0:
466,97,335958,5,4,1:2:0:0:
420,209,336125,1,0,1:0:0:0:
267,197,336291,5,0,1:0:0:0:
202,29,336458,1,0,1:0:0:0:
408,22,336625,6,0,L|404:46,1,24.5,4|0,1:2|0:0,0:0:0:0:
404,47,337291,6,0,L|451:40,1,35,4|0,1:2|0:0,0:0:0:0:
227,178,337625,2,0,L|192:183,1,35,4|0,1:2|0:0,0:0:0:0:
427,264,337958,2,0,L|474:257,1,35,4|0,1:2|0:0,0:0:0:0:
373,103,338291,5,4,1:2:0:0:
289,173,338458,1,2,0:0:0:0:
394,211,338625,1,4,1:0:0:0:
394,211,338958,2,0,L|359:216,1,35,2|0,0:0|0:0,0:0:0:0:
176,379,339291,5,0,1:0:0:0:
287,290,339458,1,0,0:0:0:0:
153,238,339625,5,0,1:0:0:0:
207,305,339791,1,0,0:0:0:0:
244,144,339958,6,0,L|234:101,1,35,4|0,1:2|0:0,0:0:0:0:
132,178,340291,2,0,L|122:135,1,35,4|0,1:2|0:0,0:0:0:0:
21,212,340625,2,0,L|11:169,1,35,4|0,1:2|0:0,0:0:0:0:
109,85,340958,5,4,1:2:0:0:
184,141,341125,1,2,0:0:0:0:
286,31,341291,5,2,1:2:0:0:
189,46,341458,1,0,0:0:0:0:
170,238,341625,5,2,1:2:0:0:
273,106,341791,1,0,0:0:0:0:
45,93,341958,6,0,L|51:137,1,35,0|0,1:0|0:0,0:0:0:0:
244,248,342291,2,0,L|238:204,1,35,0|0,1:0|0:0,0:0:0:0:
366,16,342625,6,0,P|378:35|382:60,1,35,4|0,1:2|0:0,0:0:0:0:
482,219,342958,2,0,P|461:210|443:192,1,35,4|0,1:2|0:0,0:0:0:0:
268,122,343291,2,0,P|289:116|314:120,1,35,4|0,1:2|0:0,0:0:0:0:
496,74,343625,2,0,P|481:91|459:102,1,35,4|0,1:2|0:0,0:0:0:0:
343,212,343958,6,0,P|337:229|346:289,1,70,4|0,1:0|0:0,0:0:0:0:
392,323,344458,1,0,1:0:0:0:
309,150,344625,2,0,L|300:110,1,35,4|0,1:2|0:0,0:0:0:0:
204,314,344958,2,0,L|213:354,1,35,4|0,1:2|0:0,0:0:0:0:
34,288,345291,5,4,1:0:0:0:
34,288,345458,1,0,0:0:0:0:
34,288,345625,2,0,L|43:248,1,35,2|0,1:2|0:0,0:0:0:0:
207,206,345958,5,4,1:0:0:0:
207,206,346125,1,0,0:0:0:0:
207,206,346291,2,0,L|198:166,1,35,2|0,1:2|0:0,0:0:0:0:
20,74,346625,5,4,1:0:0:0:
137,145,346791,1,2,0:0:0:0:
140,9,346958,5,2,1:2:0:0:
8,172,347125,1,2,0:0:0:0:
272,261,347291,6,0,L|324:250,1,35,4|0,1:2|0:0,0:0:0:0:
137,145,347625,2,0,L|85:156,1,35,4|0,1:2|0:0,0:0:0:0:
375,33,347958,5,4,1:0:0:0:
375,33,348291,1,0,1:0:0:0:
356,215,348458,1,0,1:0:0:0:
189,290,348625,6,0,L|186:335,1,35,4|0,1:2|0:0,0:0:0:0:
129,83,348958,2,0,L|131:37,1,35,4|0,1:2|0:0,0:0:0:0:
3,325,349291,5,4,1:0:0:0:
3,325,349625,1,0,1:0:0:0:
133,218,349791,1,0,1:0:0:0:
291,278,349958,1,4,1:2:0:0:
291,278,350291,2,0,L|286:327,1,35,2|0,0:0|0:0,0:0:0:0:
192,158,350625,6,0,L|266:162,1,70,4|0,1:2|0:0,0:0:0:0:
322,130,351125,1,0,1:0:0:0:
206,94,351291,6,0,L|262:97,1,56,4|0,1:2|0:0,0:0:0:0:
323,66,351791,1,0,1:0:0:0:
220,30,351958,6,0,L|262:33,1,41.9999987182618,4|0,1:2|0:0,0:0:0:0:
324,2,352458,1,0,1:0:0:0:
459,120,352625,6,0,L|504:113,1,35,4|0,1:0|0:0,0:0:0:0:
310,214,352958,2,0,L|265:221,1,35,0|0,1:0|0:0,0:0:0:0:
481,289,353291,5,4,1:2:0:0:
481,289,353625,2,0,P|482:268|477:249,1,35,2|0,0:0|0:0,0:0:0:0:
275,121,353958,5,4,1:2:0:0:
275,121,354291,2,0,P|274:142|279:161,1,35,2|0,0:0|0:0,0:0:0:0:
100,237,354625,6,0,L|109:297,1,35,4|0,1:2|0:0,0:0:0:0:
166,182,354958,2,0,L|225:193,1,35,4|0,1:2|0:0,0:0:0:0:
134,105,355291,2,0,L|163:50,1,35,4|0,1:2|0:0,0:0:0:0:
49,110,355625,2,0,L|7:66,1,35,4|0,1:2|0:0,0:0:0:0:
28,192,355958,5,4,1:0:0:0:
28,192,356291,1,0,1:0:0:0:
196,126,356458,1,0,1:0:0:0:
169,304,356625,1,2,1:3:0:0:
169,304,356958,5,0,1:0:0:0:
112,155,357125,1,2,1:3:0:0:
55,6,357291,1,4,1:2:0:0:
55,6,357625,5,0,1:0:0:0:
10,190,357791,1,0,1:0:0:0:
174,82,357958,6,0,L|126:91,1,35,4|0,1:2|0:0,0:0:0:0:
387,159,358291,2,0,L|435:150,1,35,4|0,1:2|0:0,0:0:0:0:
185,184,358625,5,4,1:2:0:0:
330,230,358791,1,0,1:0:0:0:
217,331,358958,1,2,1:2:0:0:
245,248,359125,1,2,1:2:0:0:
417,251,359291,5,4,1:2:0:0:
309,316,359458,1,0,1:0:0:0:
395,338,359625,1,2,1:2:0:0:
330,230,359791,1,2,1:2:0:0:
466,162,359958,5,4,1:2:0:0:
383,198,360125,1,0,1:0:0:0:
471,219,360291,1,2,1:2:0:0:
410,149,360458,1,2,1:2:0:0:
417,251,360625,6,0,L|425:293,3,35,4|2|2|2,1:2|0:0|0:0|0:0,0:0:0:0:
457,343,361291,6,0,L|503:338,1,41.9999987182618,6|0,0:0|0:0,0:0:0:0:
400,380,361791,2,0,L|352:384,1,41.9999987182618,6|0,0:0|0:0,0:0:0:0:
264,348,362291,2,0,L|311:343,1,41.9999987182618,2|0,0:0|0:0,0:0:0:0:
353,293,362791,5,2,0:0:0:0:
353,293,363291,1,2,0:0:0:0:
264,348,363958,6,0,P|220:353|144:323,1,125.999996154785,4|0,0:1|0:0,0:0:0:0:
39,257,365291,2,0,P|83:262|159:232,1,125.999996154785,4|0,0:1|0:0,0:0:0:0:
84,94,366625,6,0,P|58:99|37:96,1,41.9999987182618,6|0,0:0|0:0,0:0:0:0:
118,38,367125,2,0,P|144:33|165:36,1,41.9999987182618,6|0,0:0|0:0,0:0:0:0:
208,76,367625,1,2,0:0:0:0:
155,160,368125,5,2,0:0:0:0:
155,160,368625,1,2,0:0:0:0:
208,76,369291,6,0,L|202:40,7,20.9999993591309,4|0|0|0|0|0|0|0,0:1|0:0|0:0|0:0|0:0|0:0|0:0|0:0,0:0:0:0:
267,34,370625,2,0,L|261:-2,7,20.9999993591309,4|0|0|0|0|0|0|0,0:1|0:0|0:0|0:0|0:0|0:0|0:0|0:0,0:0:0:0:
320,80,371958,6,0,L|369:75,1,41.9999987182618,6|0,0:0|0:0,0:0:0:0:
450,110,372458,2,0,L|408:114,1,41.9999987182618,6|0,0:0|0:0,0:0:0:0:
330,167,372958,2,0,L|379:162,1,41.9999987182618,2|0,0:0|0:0,0:0:0:0:
420,205,373458,5,2,0:0:0:0:
420,205,373958,1,2,0:0:0:0:
330,167,374625,6,0,P|264:168|218:218,1,125.999996154785,4|0,0:1|0:0,0:0:0:0:
140,300,375958,2,0,P|206:301|252:351,1,125.999996154785,4|0,0:1|0:0,0:0:0:0:
372,353,377291,6,0,P|365:330|371:298,1,41.9999987182618,6|0,0:0|0:0,0:0:0:0:
414,233,377791,2,0,P|421:256|415:288,1,41.9999987182618,6|0,0:0|0:0,0:0:0:0:
355,209,378291,1,2,0:0:0:0:
462,142,378791,5,2,0:0:0:0:
462,142,379291,1,2,0:0:0:0:
305,115,379958,6,0,L|337:108,3,20.9999993591309,4|0|0|0,0:1|0:0|0:0|0:0,0:0:0:0:
246,94,380625,1,2,0:0:0:0:
188,115,380791,1,0,0:0:0:0:
155,168,380958,1,2,0:0:0:0:
163,229,381125,1,0,0:0:0:0:
207,272,381291,6,0,L|239:265,3,20.9999993591309,4|0|0|0,0:1|0:0|0:0|0:0,0:0:0:0:
271,305,381958,1,2,0:0:0:0:
321,275,382125,1,0,0:0:0:0:
307,217,382291,1,2,0:0:0:0:
249,212,382458,1,0,0:0:0:0:
115,192,382791,6,0,B|102:217|70:208|60:230|60:230|70:208|34:180|58:150|71:140|71:140|58:150|20:160|13:110|-10:112|-10:112|13:111|28:69|64:85|76:96|76:96|64:85|42:53|84:31|79:7|79:7|84:31|131:32|129:71|120:86|120:86|129:71|152:40|186:74|207:60|207:60|186:74|200:118|160:126|142:127|142:127|160:126|195:143|177:180|194:197|194:197|177:180|138:209|121:187|112:152,1,944.99997116089,2|0,0:0|0:0,0:0:0:0:
144,254,390625,6,2,L|149:270,2,10.4999996795654,0|0|0,0:0|0:0|0:0,0:0:0:0:
