osu file format v14

[General]
AudioFilename: 01.mp3
AudioLeadIn: 0
PreviewTime: 48581
Countdown: 0
SampleSet: Soft
StackLeniency: 0.4
Mode: 0
LetterboxInBreaks: 0
EpilepsyWarning: 1
WidescreenStoryboard: 1

[Editor]
Bookmarks: 6325,12325,18325,24325,30325,36325,42325
DistanceSpacing: 1.1
BeatDivisor: 6
GridSize: 4
TimelineZoom: 1

[Metadata]
Title:Kuon ~Hikari to Nami no Kioku~
TitleUnicode:久遠 ~光と波の記憶~
Artist:Matsueda Noriko & Eguchi Takahito
ArtistUnicode:松枝賀子&江口貴勅
Creator:BounceBabe
Version:Normal
Source:FINAL FANTASY X-2
Tags:piano square enix playstation ps2 ps3 remastered play station ff x2 piano yuna x2 rikku paine ps4 ffx2 psvita intro Eternity Memories of Lightwaves light and waves slow
BeatmapID:1080441
BeatmapSetID:413476

[Difficulty]
HPDrainRate:4
CircleSize:4
OverallDifficulty:4
ApproachRate:5
SliderMultiplier:1.3
SliderTickRate:1

[Events]
//Background and Video events
0,0,"bg.jpg",0,0
//Break Periods
2,96775,101065
2,103274,104375
//Storyboard Layer 0 (Background)
//Storyboard Layer 1 (Fail)
//Storyboard Layer 2 (Pass)
//Storyboard Layer 3 (Foreground)
//Storyboard Sound Samples

[TimingPoints]
575,500,3,2,1,50,1,0
48575,-100,3,2,1,50,0,1
72575,-100,3,2,1,50,0,0
86450,-100,3,2,1,15,0,0
87575,-100,3,2,1,50,0,0
111575,-100,3,2,1,50,0,1
135575,-100,3,2,1,50,0,0
145075,-100,3,2,1,50,0,0
146075,-100,3,2,1,40,0,0
147075,-100,3,2,1,30,0,0

[Colours]
Combo1 : 255,210,0
Combo2 : 255,166,255
Combo3 : 170,170,255
Combo4 : 255,125,125
Combo5 : 255,233,145
Combo6 : 210,55,255
Combo7 : 0,255,191
Combo8 : 0,0,255

[HitObjects]
0,349,575,6,2,B|85:309|85:309|125:211,1,195
68,168,1575,1,2,0:0:0:0:
135,144,1825,2,0,L|331:119,1,195
399,130,2825,2,0,L|455:165,1,65,0|2,0:0|0:0,0:0:0:0:
471,233,3325,6,2,L|276:256,1,195
210,281,4325,2,0,L|140:252,1,65,0|2,0:0|0:0,0:0:0:0:
86,224,4825,2,0,P|117:167|44:69,1,195
11,131,5825,1,0,0:0:0:0:
11,131,6075,1,2,0:0:0:0:
11,131,6325,6,2,P|71:155|159:71,1,195
218,37,7325,1,0,0:0:0:0:
289,36,7575,1,2,0:0:0:0:
360,36,7825,2,0,B|336:121|336:121|388:145|420:201,1,195
447,254,8825,1,0,0:0:0:0:
409,314,9075,1,2,0:0:0:0:
338,321,9325,6,2,B|285:312|245:271|245:271|173:323,1,195
102,326,10325,1,0,0:0:0:0:
46,282,10575,1,2,0:0:0:0:
30,212,10825,2,0,B|90:169|90:169|78:49,1,195
150,45,11825,2,0,L|214:81,1,65,0|2,0:0|0:0,0:0:0:0:
232,10,12325,70,2,B|292:42|292:42|312:102|312:102|368:138,1,195
430,167,13325,2,0,L|402:227,1,65,0|2,0:0|0:0,0:0:0:0:
368,289,13825,2,0,B|308:257|308:257|288:197|288:197|234:162,1,195
177,119,14825,2,0,L|153:47,1,65,0|2,0:0|0:0,0:0:0:0:
86,70,15325,6,2,L|148:254,1,195
177,319,16325,2,0,P|213:303|249:315,1,65,0|2,0:0|0:0,0:0:0:0:
307,293,16825,2,0,L|243:109,1,195
224,39,17825,1,0,0:0:0:0:
224,39,18075,1,2,0:0:0:0:
224,39,18325,6,2,P|320:85|380:33,1,195
450,34,19325,1,0,0:0:0:0:
450,105,19575,1,2,0:0:0:0:
451,177,19825,2,0,P|399:255|451:332,1,195
510,290,20825,1,0,0:0:0:0:
509,218,21075,1,2,0:0:0:0:
451,177,21325,6,2,P|374:228|295:180,1,195
256,120,22325,1,0,0:0:0:0:
192,88,22575,1,2,0:0:0:0:
120,94,22825,2,0,L|96:290,1,195
164,314,23825,2,0,L|172:246,1,65,0|2,0:0|0:0,0:0:0:0:
180,178,24325,70,2,B|224:163|224:163|310:222|310:222|351:203,1,195
411,166,25325,2,0,P|435:142|471:138,1,65,0|2,0:0|0:0,0:0:0:0:
476,66,25825,2,0,L|280:30,1,195
212,30,26825,2,0,P|184:50|153:57,1,65,0|2,0:0|0:0,0:0:0:0:
96,98,27325,6,2,L|287:133,1,195
358,145,28325,2,0,P|387:151|416:175,1,65,0|2,0:0|0:0,0:0:0:0:
458,228,28825,2,0,B|370:230|370:302|282:304,1,195
212,306,29825,1,0,0:0:0:0:
212,306,30075,1,2,0:0:0:0:
212,306,30325,6,2,P|212:234|112:242,1,195
64,294,31325,1,0,0:0:0:0:
44,226,31575,1,2,0:0:0:0:
84,166,31825,2,0,P|172:138|264:178,1,195
332,198,32825,1,0,0:0:0:0:
384,246,33075,1,2,0:0:0:0:
316,270,33325,6,2,P|228:231|137:259,1,195
68,278,34325,1,0,0:0:0:0:
16,326,34575,1,2,0:0:0:0:
84,350,34825,2,0,B|176:306|176:306|224:310|262:339,1,195
332,350,35825,2,0,L|400:350,1,65,0|2,0:0|0:0,0:0:0:0:
464,326,36325,70,2,B|440:258|480:202|480:202|464:134,1,195
452,70,37325,2,0,L|384:54,1,65,0|2,0:0|0:0,0:0:0:0:
320,42,37825,2,0,B|344:110|304:166|304:166|318:228,1,195
332,298,38825,2,0,L|272:322,1,65,0|2,0:0|0:0,0:0:0:0:
232,262,39325,6,2,B|198:207|198:207|128:194|99:131,1,195
76,62,40325,2,0,L|136:30,1,65,0|2,0:0|0:0,0:0:0:0:
188,78,40825,2,0,B|204:118|252:122|300:102|300:102|340:42,1,195
408,26,41825,1,0,0:0:0:0:
408,26,42075,1,2,0:0:0:0:
408,26,42325,6,2,P|404:134|460:202,1,195
450,275,43325,1,0,0:0:0:0:
450,275,43575,1,2,0:0:0:0:
450,275,43825,2,0,B|420:274|390:243|390:243|292:322,1,195
220,322,44825,1,0,0:0:0:0:
220,322,45075,1,2,0:0:0:0:
220,322,45325,6,2,B|122:243|122:243|92:274|62:275,1,195
57,203,46325,1,0,0:0:0:0:
57,203,46575,1,2,0:0:0:0:
57,203,46825,2,0,B|113:107|113:107|198:96,1,195
267,89,47825,2,0,P|305:89|329:75,1,65,0|2,0:0|0:0,0:0:0:0:
384,32,48325,1,2,0:0:0:0:
393,103,48575,6,2,P|393:183|481:243,2,195,4|2|2,0:1|0:0|0:0,0:0:0:0:
253,67,50575,1,0,0:0:0:0:
253,67,50825,2,0,P|206:148|112:155,1,195,2|2,0:0|0:0,0:0:0:0:
65,19,52075,1,0,0:0:0:0:
65,19,52325,2,0,L|129:207,1,195,2|4,0:0|0:3,0:0:0:0:
153,271,53325,2,0,P|133:307|105:323,2,65,0|4|4,0:0|0:3|0:3,0:0:0:0:
209,228,54075,1,0,0:0:0:0:
277,199,54325,1,4,0:3:0:0:
277,199,54575,6,2,P|369:171|405:83,1,195,4|2,0:1|0:0,0:0:0:0:
265,63,55825,1,0,0:0:0:0:
265,63,56075,2,0,P|173:91|137:179,1,195,2|2,0:0|0:0,0:0:0:0:
73,303,57325,1,0,0:0:0:0:
73,303,57575,6,0,L|205:319,1,130,4|0,0:3|0:0,0:0:0:0:
269,295,58325,2,0,L|401:311,1,130,4|0,0:3|0:0,0:0:0:0:
405,239,59075,2,0,L|275:223,1,130,4|0,0:3|0:0,0:0:0:0:
208,247,59825,2,0,L|78:231,1,130,4|0,0:1|0:0,0:0:0:0:
77,159,60575,6,2,P|133:123|73:35,2,195,4|2|2,0:1|0:0|0:0,0:0:0:0:
13,287,62575,1,0,0:0:0:0:
13,287,62825,2,2,L|145:295,1,130
213,299,63575,2,0,B|269:303|269:303|337:251,1,130,4|0,0:3|0:0,0:0:0:0:
381,211,64325,2,0,B|439:166|439:166|495:170,1,130,4|0,0:3|0:0,0:0:0:0:
493,243,65075,2,0,L|501:43,2,195,4|4|4,0:3|0:3|0:1,0:0:0:0:
381,331,67075,69,0,0:0:0:0:
381,331,67325,2,2,P|337:279|253:343,1,195
129,271,68575,1,0,0:0:0:0:
129,271,68825,2,2,P|163:241|120:185,1,130
49,175,69575,6,0,L|181:123,1,130,4|0,0:3|0:0,0:0:0:0:
209,67,70325,2,0,L|341:15,1,130,4|0,0:3|0:0,0:0:0:0:
365,83,71075,2,0,L|233:135,1,130,4|0,0:3|0:0,0:0:0:0:
205,191,71825,2,0,L|73:243,1,130,4|0,0:1|0:0,0:0:0:0:
17,267,72575,38,0,P|57:307|125:299,1,130,2|2,0:0|0:3,0:0:0:0:
269,279,73575,1,0,0:0:0:0:
269,279,73825,2,0,P|330:268|377:310,1,130,2|0,0:0|0:0,0:0:0:0:
445,315,74575,2,0,L|413:371,2,65,2|0|2,0:0|0:0|0:0,0:0:0:0:
477,251,75325,1,0,0:0:0:0:
503,184,75575,2,0,P|441:194|394:152,1,130,2|2,0:0|0:3,0:0:0:0:
315,32,76575,1,0,0:0:0:0:
315,32,76825,6,0,L|183:76,1,130,2|2,0:0|0:0,0:0:0:0:
185,144,77575,2,0,P|157:168|125:172,1,65,2|0,0:0|0:0,0:0:0:0:
127,100,78075,1,2,0:0:0:0:
127,100,78325,2,0,P|121:204|73:284,1,195,0|2,0:0|0:3,0:0:0:0:
197,357,79575,5,0,0:0:0:0:
197,357,79825,2,0,P|274:287|365:265,1,195,2|2,0:0|0:0,0:0:0:0:
433,277,80825,1,0,0:0:0:0:
433,277,81075,1,2,0:0:0:0:
433,277,81325,2,0,B|433:209|433:209|473:145|473:145|473:85,1,195,2|2,0:0|0:3,0:0:0:0:
341,37,82575,1,0,0:0:0:0:
341,37,82825,6,0,B|341:88|341:88|301:152|301:152|301:220,1,195,2|0,0:0|0:0,0:0:0:0:
301,293,83825,2,0,P|261:281|241:261,1,65,0|2,0:0|0:0,0:0:0:0:
229,197,84325,1,2,0:0:0:0:
229,197,84575,2,0,B|229:153|229:153|189:89|189:89|189:78,2,130,2|2|0,0:0|0:0|0:0,0:0:0:0:
244,265,85825,2,0,P|269:285|301:293,1,65,0|2,0:0|0:0,0:0:0:0:
441,32,87575,70,0,P|449:72|441:96,1,65,2|0,0:0|0:0,0:0:0:0:
509,116,88075,2,0,P|486:149|463:161,1,65,0|2,0:0|0:0,0:0:0:0:
497,222,88575,2,0,P|457:230|433:222,1,65,2|0,0:0|0:0,0:0:0:0:
393,167,89075,6,0,P|365:223|393:279,1,130,2|0,0:0|0:0,0:0:0:0:
345,332,89825,2,0,P|288:303|232:331,1,130,2|0,0:0|0:0,0:0:0:0:
177,284,90575,2,0,P|205:228|177:172,1,130,2|0,0:0|0:0,0:0:0:0:
114,137,91325,6,0,L|46:137,2,65,2|0|0,0:0|0:0|0:0,0:0:0:0:
177,172,92075,2,0,P|200:196|234:206,2,65,2|0|0,0:0|0:0|0:0,0:0:0:0:
177,101,92825,2,0,P|201:76|235:66,2,65,2|2|0,0:0|0:0|0:0,0:0:0:0:
238,136,93575,6,0,B|286:116|334:164|374:148,1,130,2|0,0:0|0:0,0:0:0:0:
436,151,94325,1,2,0:0:0:0:
448,349,95075,2,0,B|461:318|413:270|433:222,1,130,2|0,0:0|0:0,0:0:0:0:
436,151,95825,2,0,P|400:139|388:103,2,65,2|2|0,0:0|0:0|0:0,0:0:0:0:
497,189,96575,69,4,0:1:0:0:
497,192,102325,5,0,0:0:0:0:
497,192,102575,2,2,P|445:184|433:112,1,130
497,192,105575,6,2,P|445:184|433:112,1,130
361,100,106325,2,2,P|353:39|294:24,1,130,2|2,0:0|0:0,0:0:0:0:
221,24,107075,2,2,P|161:38|154:99,1,130,2|2,0:0|0:0,0:0:0:0:
83,116,107825,2,2,P|76:177|17:192,1,130,2|2,0:0|0:0,0:0:0:0:
162,351,109075,6,0,B|205:329|205:329|117:233|256:168|256:168|397:233|309:329|309:329|353:352,1,520,2|2,0:0|0:0,0:0:0:0:
495,343,111575,6,0,L|507:191,1,130,4|0,0:1|0:0,0:0:0:0:
435,200,112325,2,0,L|447:48,1,130,2|0,0:0|0:0,0:0:0:0:
377,52,113075,2,0,P|313:68|249:40,1,130
201,92,113825,2,0,P|141:69|79:85,1,130,2|0,0:0|0:0,0:0:0:0:
25,132,114575,2,0,B|-3:192|-3:192|25:252,1,130
77,298,115325,1,2,0:0:0:0:
287,340,116075,5,4,0:3:0:0:
344,296,116325,1,0,0:3:0:0:
416,294,116575,1,4,0:3:0:0:
416,294,116825,1,4,0:3:0:0:
441,226,117075,1,0,0:3:0:0:
469,160,117325,1,4,0:3:0:0:
469,160,117575,6,0,P|409:144|429:32,1,195,4|2,0:1|0:0,0:0:0:0:
209,32,119075,2,0,P|269:48|249:160,1,195,2|2,0:0|0:0,0:0:0:0:
113,192,120325,1,0,0:0:0:0:
113,192,120575,6,0,P|147:250|134:314,1,130,4|0,0:3|0:0,0:0:0:0:
197,347,121325,2,0,P|255:312|319:325,1,130,4|0,0:3|0:0,0:0:0:0:
344,257,122075,2,0,P|309:198|322:134,1,130,4|0,0:3|0:0,0:0:0:0:
260,102,122825,2,0,P|201:136|137:123,1,130,4|0,0:1|0:0,0:0:0:0:
164,57,123575,70,0,L|108:253,2,195,4|0|2,0:1|0:3|0:0,0:0:0:0:
305,32,125575,1,0,0:0:0:0:
305,32,125825,2,0,L|262:180,1,130,2|0,0:0|0:0,0:0:0:0:
253,226,126575,6,0,P|297:238|305:318,1,130,2|0,0:0|0:0,0:0:0:0:
378,330,127325,1,2,0:0:0:0:
501,257,127825,1,0,0:0:0:0:
436,234,128075,2,0,P|392:222|384:142,1,130,4|0,0:3|0:0,0:0:0:0:
421,88,128825,2,0,L|465:36,2,65,4|0|4,0:3|0:0|0:3,0:0:0:0:
380,147,129575,6,0,L|248:155,1,130,4|0,0:1|0:0,0:0:0:0:
178,160,130325,2,2,P|186:256|106:268,1,195
39,141,131575,1,0,0:0:0:0:
39,141,131825,2,2,P|91:113|67:41,1,130
151,41,132575,6,0,L|287:29,1,130,4|0,0:3|0:0,0:0:0:0:
336,73,133325,2,0,L|472:61,1,130,4|0,0:3|0:0,0:0:0:0:
456,132,134075,2,0,L|326:143,1,130,4|0,0:3|0:0,0:0:0:0:
270,98,134825,2,0,L|140:109,1,130,4|0,0:1|0:0,0:0:0:0:
57,306,136075,5,2,0:3:0:0:
197,330,136575,1,0,0:0:0:0:
197,330,136825,2,2,L|329:330,1,130
398,328,137575,2,0,P|426:300|462:296,1,65
492,237,138075,1,2,0:0:0:0:
509,170,138325,5,0,0:0:0:0:
509,170,138575,2,0,P|477:118|509:62,1,130,2|0,0:0|0:0,0:0:0:0:
507,62,139325,2,0,L|377:46,1,130,2|0,0:0|0:0,0:0:0:0:
345,110,140075,2,0,L|215:94,1,130,2|0,0:0|0:0,0:0:0:0:
215,94,140825,2,0,P|247:147|216:201,1,130,2|2,0:0|0:0,0:0:0:0:
145,202,141575,1,2,0:0:0:0:
58,315,142075,5,2,0:3:0:0:
201,318,142575,1,0,0:0:0:0:
201,318,142825,2,0,P|281:282|345:194,1,195,2|2,0:0|0:0,0:0:0:0:
353,126,143825,1,0,0:0:0:0:
361,54,144075,2,0,P|405:42|421:22,1,65,2|2,0:0|0:0,0:0:0:0:
488,29,144575,5,4,0:3:0:0:
256,192,145075,12,2,147575,0:0:0:0:
