osu file format v14

[General]
AudioFilename: Matsuda Ayaka - Clockwise.mp3
AudioLeadIn: 0
PreviewTime: 173065
Countdown: 0
SampleSet: Soft
StackLeniency: 0.7
Mode: 0
LetterboxInBreaks: 0
WidescreenStoryboard: 0

[Editor]
Bookmarks: 3620,8953,19620,30287,40953,51620,62287,83620,94287,104953,115620,136953,147620,158287,174287,195620,206287,216953
DistanceSpacing: 0.8
BeatDivisor: 6
GridSize: 32
TimelineZoom: 1.8

[Metadata]
Title:Clockwise
TitleUnicode:Clockwise
Artist:Matsuda Ayaka
ArtistUnicode:松田彩花
Creator:frozz
Version:EX
Source:メメントモリ
Tags:mementomori mememori japanese rock jrock j-rock video game gacha bank of innovation female vocalist Charlotte シャーロット -keqing kuro fuyusaki silent rock
BeatmapID:3790677
BeatmapSetID:1845353

[Difficulty]
HPDrainRate:6
CircleSize:4.5
OverallDifficulty:9
ApproachRate:9.3
SliderMultiplier:1.72
SliderTickRate:1

[Events]
//Background and Video events
0,0,"Matsuda Ayaka - Clockwise.jpg",0,0
//Break Periods
//Storyboard Layer 0 (Background)
//Storyboard Layer 1 (Fail)
//Storyboard Layer 2 (Pass)
//Storyboard Layer 3 (Foreground)
//Storyboard Layer 4 (Overlay)
//Storyboard Sound Samples

[TimingPoints]
954,333.333333333333,4,2,1,40,1,0
1120,-200,4,2,1,40,0,0
3620,-200,4,2,1,50,0,0
3731,-142.857142857143,4,2,1,50,0,0
8953,-142.857142857143,4,2,1,50,0,0
19620,-142.857142857143,4,2,1,50,0,0
30287,-142.857142857143,4,2,1,60,0,0
40953,-125,4,2,1,65,0,0
51620,-125,4,2,1,65,0,0
56953,-100,4,2,1,65,0,0
62287,-66.6666666666667,4,2,1,85,0,0
62953,-166.666666666667,4,2,1,85,0,0
63620,-66.6666666666667,4,2,1,85,0,0
64287,-166.666666666667,4,2,1,85,0,0
64953,-66.6666666666667,4,2,1,85,0,0
66287,-76.9230769230769,4,2,1,85,0,0
67620,-66.6666666666667,4,2,1,85,0,0
68287,-166.666666666667,4,2,1,85,0,0
68953,-66.6666666666667,4,2,1,85,0,0
69620,-166.666666666667,4,2,1,85,0,0
70287,-66.6666666666667,4,2,1,85,0,0
71120,-76.9230769230769,4,2,1,85,0,0
71453,-66.6666666666667,4,2,1,85,0,0
73620,-166.666666666667,4,2,1,85,0,0
74287,-66.6666666666667,4,2,1,85,0,0
74953,-166.666666666667,4,2,1,85,0,0
75620,-66.6666666666667,4,2,1,85,0,0
76953,-76.9230769230769,4,2,1,85,0,0
77620,-62.5,4,2,1,85,0,0
77953,-76.9230769230769,4,2,1,85,0,0
78287,-66.6666666666667,4,2,1,85,0,0
78953,-166.666666666667,4,2,1,85,0,0
79620,-66.6666666666667,4,2,1,85,0,0
80287,-166.666666666667,4,2,1,85,0,0
80620,-66.6666666666667,4,2,1,85,0,0
81287,-100,4,2,1,85,0,0
81620,-90.9090909090909,4,2,1,85,0,0
81953,-83.3333333333333,4,2,1,85,0,0
82287,-76.9230769230769,4,2,1,85,0,0
83620,-111.111111111111,4,2,1,70,0,0
93620,-222.222222222222,4,2,1,70,0,0
94287,-125,4,2,1,65,0,0
110287,-111.111111111111,4,2,1,65,0,0
115620,-66.6666666666667,4,2,1,85,0,0
116287,-166.666666666667,4,2,1,85,0,0
116953,-66.6666666666667,4,2,1,85,0,0
117620,-166.666666666667,4,2,1,85,0,0
118287,-66.6666666666667,4,2,1,85,0,0
119620,-76.9230769230769,4,2,1,85,0,0
120953,-66.6666666666667,4,2,1,85,0,0
121620,-166.666666666667,4,2,1,85,0,0
122287,-66.6666666666667,4,2,1,85,0,0
122953,-166.666666666667,4,2,1,85,0,0
123620,-66.6666666666667,4,2,1,85,0,0
124453,-76.9230769230769,4,2,1,85,0,0
124787,-66.6666666666667,4,2,1,85,0,0
126953,-166.666666666667,4,2,1,85,0,0
127620,-66.6666666666667,4,2,1,85,0,0
128287,-166.666666666667,4,2,1,85,0,0
128953,-66.6666666666667,4,2,1,85,0,0
130287,-76.9230769230769,4,2,1,85,0,0
130953,-66.6666666666667,4,2,1,85,0,0
131620,-66.6666666666667,4,2,1,85,0,0
132287,-166.666666666667,4,2,1,85,0,0
132953,-66.6666666666667,4,2,1,85,0,0
134620,-100,4,2,1,85,0,0
134953,-90.9090909090909,4,2,1,85,0,0
135287,-83.3333333333333,4,2,1,85,0,0
135620,-76.9230769230769,4,2,1,85,0,0
136953,-62.5,4,2,1,75,0,0
137453,-71.4285714285714,4,2,1,75,0,0
137953,-83.3333333333333,4,2,1,75,0,0
138620,-100,4,2,1,75,0,0
142287,-62.5,4,2,1,75,0,0
142787,-71.4285714285714,4,2,1,75,0,0
143287,-83.3333333333333,4,2,1,75,0,0
143787,-100,4,2,1,75,0,0
144620,-125,4,2,1,75,0,0
145620,-100,4,2,1,75,0,0
147620,-111.111111111111,4,2,1,65,0,0
168953,-250,4,2,1,65,0,0
169287,-199.999999999999,4,2,1,65,0,0
169620,-166.666666666667,4,2,1,65,0,0
169953,-142.857142857143,4,2,1,65,0,0
170287,-125,4,2,1,65,0,0
170620,-111.111111111111,4,2,1,65,0,0
170953,-100,4,2,1,65,0,0
171287,-90.9090909090909,4,2,1,65,0,0
171620,-83.3333333333333,4,2,1,65,0,0
171953,-76.9230769230769,4,2,1,65,0,0
174287,-66.6666666666667,4,2,1,85,0,0
174953,-166.666666666667,4,2,1,85,0,0
177620,-100,4,2,1,85,0,0
179620,-66.6666666666667,4,2,1,85,0,0
180287,-166.666666666667,4,2,1,85,0,0
180953,-66.6666666666667,4,2,1,85,0,0
181620,-166.666666666667,4,2,1,85,0,0
182287,-66.6666666666667,4,2,1,85,0,0
183120,-76.9230769230769,4,2,1,85,0,0
183453,-66.6666666666667,4,2,1,85,0,0
184953,-66.6666666666667,4,2,1,85,0,0
185620,-166.666666666667,4,2,1,85,0,0
186287,-66.6666666666667,4,2,1,85,0,0
186953,-166.666666666667,4,2,1,85,0,0
187620,-66.6666666666667,4,2,1,85,0,0
188953,-76.9230769230769,4,2,1,85,0,0
189620,-62.5,4,2,1,85,0,0
189953,-76.9230769230769,4,2,1,85,0,0
190287,-66.6666666666667,4,2,1,85,0,0
190953,-166.666666666667,4,2,1,85,0,0
191620,-66.6666666666667,4,2,1,85,0,0
192287,-166.666666666667,4,2,1,85,0,0
192620,-66.6666666666667,4,2,1,85,0,0
193287,-100,4,2,1,85,0,0
193620,-90.9090909090909,4,2,1,85,0,0
193953,-83.3333333333333,4,2,1,85,0,0
194287,-76.9230769230769,4,2,1,85,0,0
195620,-90.9090909090909,4,2,1,75,0,0
206287,-100,4,2,1,75,0,0
214620,-125,4,2,1,75,0,0
214953,-111.111111111111,4,2,1,75,0,0
215287,-100,4,2,1,75,0,0
215620,-90.9090909090909,4,2,1,75,0,0

[Colours]
Combo1 : 255,223,128
Combo2 : 255,128,128
Combo3 : 255,179,128

[HitObjects]
512,359,953,5,2,0:0:0:0:
512,359,1120,2,0,P|439:381|397:399,1,86,2|0,0:0|0:0,0:0:0:0:
357,346,1620,1,2,0:0:0:0:
357,346,1787,1,2,0:0:0:0:
431,375,1953,2,0,P|445:326|457:282,1,86,2|0,0:0|0:0,0:0:0:0:
364,233,2453,1,2,0:0:0:0:
364,233,2620,1,2,0:0:0:0:
357,346,2787,2,0,P|323:358|291:368,1,43,2|0,0:0|0:0,0:0:0:0:
444,294,3120,1,2,0:0:0:0:
72,302,3620,6,0,L|77:276,2,14.3333333333333,0|0|0,3:3|3:3|3:3,0:0:0:0:
75,313,3786,2,0,P|135:312|146:240,1,120.399996325684,2|0,3:2|0:0,0:0:0:0:
157,263,4203,2,0,L|160:233,2,30.0999990814209,2|0|0,0:0|0:0|0:0,0:0:0:0:
65,75,4620,2,0,B|39:118|57:175|112:186|111:167|156:176|179:226|150:274,1,240.799992651367,2|0,0:0|0:0,0:0:0:0:
275,351,5620,2,0,P|319:340|341:290,1,90.2999972442628,2|0,0:0|0:0,0:0:0:0:
340,303,5953,2,0,P|301:320|273:325,1,60.1999981628419,2|0,0:0|0:0,0:0:0:0:
164,268,6287,6,0,P|213:245|219:175,1,120.399996325684,2|0,0:0|0:0,0:0:0:0:
285,133,6787,1,2,0:0:0:0:
285,133,6953,2,0,P|313:141|342:152,1,60.1999981628419,2|0,0:0|0:0,0:0:0:0:
449,174,7287,2,0,B|511:136|500:37|444:15|379:51|399:116,1,240.799992651367,2|0,0:0|0:0,0:0:0:0:
205,151,8287,2,0,B|175:149|166:112|166:112|177:77,1,90.2999972442628,2|0,0:0|0:0,0:0:0:0:
171,74,8620,2,0,L|147:150,1,60.1999981628419,2|0,0:0|0:0,0:0:0:0:
29,222,8953,6,0,L|155:260,1,120.399996325684,2|0,0:0|0:0,0:0:0:0:
144,256,9453,1,2,0:0:0:0:
235,326,9620,2,0,P|175:344|115:369,1,120.399996325684,2|0,0:0|0:0,0:0:0:0:
294,384,10120,2,0,B|318:328|271:290|279:320|222:281|245:223,1,180.599994488526,2|0,0:0|0:0,0:0:0:0:
353,284,10787,2,0,P|413:266|473:241,1,120.399996325684,2|0,0:0|0:0,0:0:0:0:
500,319,11287,1,2,0:0:0:0:
500,319,11453,1,2,0:0:0:0:
395,226,11620,6,0,P|416:154|429:98,1,120.399996325684,2|0,0:0|0:0,0:0:0:0:
426,109,12120,1,2,0:0:0:0:
330,55,12287,2,0,P|398:35|457:15,1,120.399996325684,2|0,0:0|0:0,0:0:0:0:
255,92,12787,2,0,B|299:68|309:12|279:-26|223:-26|214:29,1,180.599994488526,2|0,0:0|0:0,0:0:0:0:
324,133,13453,1,2,0:0:0:0:
324,133,13620,2,0,P|306:175|298:201,1,60.1999981628419,2|0,0:0|0:0,0:0:0:0:
255,92,13953,1,2,0:0:0:0:
21,80,14287,6,0,P|88:67|160:46,1,120.399996325684,2|0,0:0|0:0,0:0:0:0:
138,53,14787,1,2,0:0:0:0:
77,157,14953,2,0,P|55:215|33:282,1,120.399996325684,2|0,0:0|0:0,0:0:0:0:
155,372,15453,2,0,B|140:331|90:321|90:321|149:314|162:246,1,180.599994488526,2|0,0:0|0:0,0:0:0:0:
237,355,16120,2,0,P|295:333|362:311,1,120.399996325684,2|0,0:0|0:0,0:0:0:0:
263,264,16620,1,2,0:0:0:0:
263,264,16787,1,2,0:0:0:0:
403,371,16953,6,0,P|443:323|430:252,1,120.399996325684,2|0,0:0|0:0,0:0:0:0:
371,228,17453,2,0,P|342:218|314:207,1,60.1999981628419,2|0,0:0|0:0,0:0:0:0:
314,207,17953,2,0,P|391:189|443:171,1,120.399996325684,2|0,0:0|0:0,0:0:0:0:
235,144,18620,1,2,0:0:0:0:
354,22,18953,1,2,0:0:0:0:
403,73,19120,1,2,0:0:0:0:
406,106,19287,2,0,P|382:136|342:144,1,60.1999981628419,2|0,0:0|0:0,0:0:0:0:
235,144,19620,6,0,P|296:153|378:169,1,120.399996325684,2|0,0:0|0:0,0:0:0:0:
353,163,20120,1,2,0:0:0:0:
255,231,20287,2,0,P|289:301|309:358,1,120.399996325684,2|0,0:0|0:0,0:0:0:0:
194,384,20787,2,0,B|218:328|171:290|179:320|122:281|145:223,1,180.599994488526,2|0,0:0|0:0,0:0:0:0:
166,127,21453,2,0,P|96:161|39:181,1,120.399996325684,2|0,0:0|0:0,0:0:0:0:
64,261,21953,1,2,0:0:0:0:
64,261,22120,1,2,0:0:0:0:
92,110,22287,6,0,P|117:58|143:-6,1,120.399996325684,2|0,0:0|0:0,0:0:0:0:
140,0,22787,1,2,0:0:0:0:
241,94,22953,2,0,P|311:60|368:40,1,120.399996325684,2|0,0:0|0:0,0:0:0:0:
489,55,23453,2,0,B|465:11|409:1|371:31|371:87|426:96,1,180.599994488526,2|0,0:0|0:0,0:0:0:0:
326,190,24120,2,0,P|338:137|346:114,2,60.1999981628419,2|0|0,0:0|0:0|0:0,0:0:0:0:
414,91,24620,1,2,0:0:0:0:
258,223,24953,6,0,P|336:245|393:261,1,120.399996325684,2|0,0:0|0:0,0:0:0:0:
373,255,25453,1,2,0:0:0:0:
268,316,25620,2,0,P|201:342|143:362,1,120.399996325684,2|0,0:0|0:0,0:0:0:0:
81,238,26120,2,0,B|122:234|145:188|145:188|136:247|182:268,1,180.599994488526,2|0,0:0|0:0,0:0:0:0:
57,317,26787,2,0,P|31:250|11:192,1,120.399996325684,2|0,0:0|0:0,0:0:0:0:
75,134,27287,1,2,0:0:0:0:
75,134,27453,1,2,0:0:0:0:
0,0,27620,6,0,P|23:45|100:50,1,120.399996325684,2|0,0:0|0:0,0:0:0:0:
147,107,28120,2,0,P|188:95|211:89,1,60.1999981628419,2|0,0:0|0:0,0:0:0:0:
204,90,28620,2,0,L|188:221,1,120.399996325684,2|0,0:0|0:0,0:0:0:0:
195,220,29120,2,0,L|209:100,1,120.399996325684,2|0,0:0|0:0,0:0:0:0:
287,67,29620,2,0,P|324:54|353:45,1,60.1999981628419,2|0,0:0|0:0,0:0:0:0:
424,62,29953,2,0,P|461:49|490:40,1,60.1999981628419,2|0,0:0|0:0,0:0:0:0:
367,120,30287,6,0,P|350:182|333:251,1,120.399996325684,2|0,1:2|0:0,0:0:0:0:
432,333,30787,2,0,P|418:286|403:256,1,60.1999981628419,0|0,3:0|0:0,0:0:0:0:
413,275,31120,1,0,3:2:0:0:
260,216,31287,2,0,L|128:258,1,120.399996325684,0|0,1:2|0:0,0:0:0:0:
145,252,31953,2,0,B|185:222|169:169|169:169|123:180,2,120.399996325684,2|0|0,0:0|3:0|3:0,0:0:0:0:
145,252,32787,1,0,3:0:0:0:
67,374,32953,6,0,P|46:312|18:250,1,120.399996325684,2|0,1:2|0:0,0:0:0:0:
80,139,33453,2,0,P|70:185|65:212,1,60.1999981628419,0|0,3:0|0:0,0:0:0:0:
67,197,33787,1,0,3:0:0:0:
5,100,33953,2,0,P|72:79|127:59,1,120.399996325684,0|0,1:2|0:0,0:0:0:0:
217,142,34453,1,2,0:0:0:0:
217,142,34620,2,0,P|162:131|140:129,1,60.1999981628419,2|0,0:0|0:0,0:0:0:0:
293,112,34953,2,0,P|310:165|320:185,1,60.1999981628419,2|0,3:2|0:0,0:0:0:0:
230,61,35287,2,0,P|267:18|279:0,1,60.1999981628419,2|0,0:0|3:0,0:0:0:0:
395,128,35620,6,0,P|374:209|362:266,1,120.399996325684,2|0,1:2|0:0,0:0:0:0:
298,304,36120,2,0,P|285:261|276:239,1,60.1999981628419,0|0,3:0|0:0,0:0:0:0:
279,246,36453,1,0,3:0:0:0:
398,348,36620,2,0,P|463:368|526:388,1,120.399996325684,0|0,1:2|0:0,0:0:0:0:
398,348,37287,2,0,B|358:318|374:265|374:265|420:276,2,120.399996325684,2|0|0,0:0|3:0|3:0,0:0:0:0:
398,348,38120,1,0,3:0:0:0:
488,250,38287,6,0,P|472:176|458:120,1,120.399996325684,2|0,1:2|0:0,0:0:0:0:
407,18,38787,2,0,P|391:78|388:98,1,60.1999981628419,0|0,3:0|0:0,0:0:0:0:
391,76,39120,1,0,3:0:0:0:
273,184,39287,2,0,P|346:166|403:151,1,120.399996325684,0|0,1:2|0:0,0:0:0:0:
310,93,39787,1,2,0:0:0:0:
297,76,39953,1,2,0:0:0:0:
243,59,40120,1,2,0:0:0:0:
179,94,40287,2,0,P|170:145|163:172,1,60.1999981628419,2|0,3:2|0:0,0:0:0:0:
112,259,40620,2,0,P|137:303|149:329,1,60.1999981628419,2|0,0:0|3:0,0:0:0:0:
350,265,40953,6,0,P|282:254|213:244,1,137.6,6|0,1:2|0:0,0:0:0:0:
213,244,41453,1,0,1:2:0:0:
361,168,41620,2,0,P|408:156|439:146,1,68.8,2|0,0:0|0:0,0:0:0:0:
506,306,41953,1,2,1:2:0:0:
408,362,42120,6,0,P|423:297|444:219,1,137.6,2|0,0:0|0:0,0:0:0:0:
361,168,42620,1,2,0:0:0:0:
494,85,42787,2,0,P|431:72|407:65,1,68.8,2|8,0:0|0:0,0:0:0:0:
285,103,43120,1,2,0:0:0:0:
339,44,43287,1,2,0:0:0:0:
339,44,43453,1,2,0:0:0:0:
176,77,43620,6,0,P|110:69|22:60,1,137.6,0|0,1:2|0:0,0:0:0:0:
39,61,44120,1,0,1:2:0:0:
154,175,44287,2,0,P|205:158|233:150,1,68.8,2|0,0:0|0:0,0:0:0:0:
44,279,44620,1,2,1:2:0:0:
70,144,44787,6,0,P|53:240|37:304,1,137.6,2|0,0:0|0:0,0:0:0:0:
119,352,45287,1,2,0:0:0:0:
119,352,45370,1,2,0:0:0:0:
119,352,45453,1,2,0:0:0:0:
214,237,45620,1,8,0:0:0:0:
214,237,45953,2,0,P|218:264|228:289,1,34.4,2|0,3:2|0:0,0:0:0:0:
210,295,46120,2,0,P|226:316|248:333,1,34.4,0|0,3:2|0:0,0:0:0:0:
343,362,46287,6,0,P|425:340|498:323,1,137.6,0|0,1:2|0:0,0:0:0:0:
476,327,46787,1,0,1:2:0:0:
350,239,46953,2,0,P|300:229|268:220,1,68.8,2|0,0:0|0:0,0:0:0:0:
343,362,47287,1,2,1:2:0:0:
231,321,47453,6,0,P|204:244|181:176,1,137.6,2|0,0:0|0:0,0:0:0:0:
328,159,47953,1,2,0:0:0:0:
263,28,48120,2,0,P|250:88|245:119,1,68.8,2|8,0:0|0:0,0:0:0:0:
106,157,48453,1,2,0:0:0:0:
160,85,48620,1,2,0:0:0:0:
160,85,48787,1,2,0:0:0:0:
328,159,48953,6,0,P|401:169|474:180,1,137.6,2|0,1:2|0:0,0:0:0:0:
386,296,49453,2,0,P|358:227|331:159,1,137.6,2|0,1:2|0:0,0:0:0:0:
476,178,49953,2,0,P|430:236|384:293,1,137.6,2|0,1:2|0:0,0:0:0:0:
391,286,50620,6,0,P|425:290|459:295,1,68.8,2|0,0:0|0:0,0:0:0:0:
215,252,50953,1,10,0:0:0:0:
215,252,51120,1,2,0:0:0:0:
289,295,51287,2,0,P|280:323|264:352,1,34.4,2|0,3:2|0:0,0:0:0:0:
284,356,51453,2,0,P|262:375|233:392,1,34.4,0|0,3:2|0:0,0:0:0:0:
133,341,51620,6,0,P|56:359|-14:379,1,137.6,2|0,1:2|0:0,0:0:0:0:
0,374,52120,1,0,1:2:0:0:
126,255,52287,2,0,P|141:195|150:163,1,68.8,2|0,0:0|0:0,0:0:0:0:
0,115,52620,1,2,1:2:0:0:
42,10,52787,6,0,P|71:92|89:154,1,137.6,2|0,0:0|0:0,0:0:0:0:
220,215,53287,1,2,3:2:0:0:
221,201,53370,1,0,3:2:0:0:
223,187,53453,1,2,3:2:0:0:
226,174,53537,1,0,3:2:0:0:
229,160,53620,1,8,3:2:0:0:
325,94,53787,1,2,0:0:0:0:
195,78,53953,1,2,0:0:0:0:
195,78,54120,1,2,0:0:0:0:
309,184,54287,6,0,P|375:167|453:151,1,137.6,0|0,1:2|0:0,0:0:0:0:
442,152,54787,1,0,1:2:0:0:
425,15,54953,2,0,P|409:63|399:99,1,68.8,2|0,0:0|0:0,0:0:0:0:
511,214,55287,1,2,1:2:0:0:
481,384,55453,2,0,P|460:319|434:256,1,137.6,2|0,0:0|0:0,0:0:0:0:
442,152,55953,1,2,0:0:0:0:
293,269,56120,2,0,P|325:277|365:289,1,68.8,2|8,0:0|0:0,0:0:0:0:
196,182,56453,2,0,P|228:173|268:161,1,68.8,2|0,0:0|0:0,0:0:0:0:
115,264,56787,1,2,0:0:0:0:
262,163,56953,6,0,P|208:151|114:131,1,129,6|0,1:2|0:0,0:0:0:0:
264,155,57287,2,0,P|210:143|116:123,1,129,0|0,1:2|0:0,0:0:0:0:
51,111,57620,2,0,P|68:158|78:205,1,86,8|0,0:0|0:0,0:0:0:0:
202,270,57953,2,0,P|185:317|175:364,1,86,0|0,3:0|0:0,0:0:0:0:
407,291,58287,6,0,P|339:310|273:340,1,129,0|0,1:2|0:0,0:0:0:0:
410,297,58620,2,0,P|342:316|276:346,1,129,2|0,1:2|0:0,0:0:0:0:
372,383,58953,1,10,0:0:0:0:
281,237,59120,1,2,1:2:0:0:
360,133,59287,1,2,0:0:0:0:
446,135,59453,1,2,1:2:0:0:
273,233,59620,6,0,P|156:206|121:201,1,129,6|0,1:2|0:0,0:0:0:0:
147,204,59953,1,2,1:3:0:0:
240,148,60120,1,2,0:0:0:0:
42,117,60287,1,8,0:0:0:0:
189,294,60453,1,8,0:0:0:0:
301,86,60620,1,8,0:0:0:0:
42,117,60787,2,0,L|28:193,1,43,2|0,1:3|0:0,0:0:0:0:
215,374,61120,5,2,0:0:0:0:
189,294,61287,1,2,0:0:0:0:
391,352,61453,1,2,1:2:0:0:
391,352,61537,1,0,1:2:0:0:
391,352,61620,2,0,P|321:338|236:302,1,129,10|0,0:0|0:0,0:0:0:0:
267,317,61953,2,0,P|220:347|218:392,1,86,2|0,0:0|0:0,0:0:0:0:
474,313,62287,6,0,P|450:233|404:109,1,193.50000738144,6|0,1:2|0:0,0:0:0:0:
435,16,62620,2,0,B|438:-28|511:-41|545:24|518:98|446:99,1,193.50000738144,2|0,1:3|0:0,0:0:0:0:
345,167,62953,6,0,P|298:158|250:153,1,77.3999976379395,10|0,0:0|0:0,0:0:0:0:
268,167,63287,2,0,P|306:171|344:179,1,77.3999976379395,2|0,0:0|0:0,0:0:0:0:
238,245,63620,6,0,B|176:219|141:268|163:277|123:323|60:300,1,193.50000738144,2|0,1:3|0:0,0:0:0:0:
0,172,63953,2,0,B|-5:134|-5:134|61:125|113:181|83:263,1,193.50000738144,2|0,1:3|0:0,0:0:0:0:
210,309,64287,6,0,P|195:366|191:391,1,77.3999976379395,10|0,0:0|0:0,0:0:0:0:
186,382,64620,2,0,P|193:344|204:306,1,77.3999976379395,2|0,0:0|0:0,0:0:0:0:
314,265,64953,6,0,B|394:277|345:297|472:314,1,129.00000492096,2|0,1:3|0:0,0:0:0:0:
285,363,65287,1,2,1:3:0:0:
434,307,65453,1,2,0:0:0:0:
264,173,65620,2,0,B|226:181|169:170|149:100|210:58|243:88,1,193.50000738144,8|0,0:0|0:0,0:0:0:0:
264,173,65953,1,8,0:0:0:0:
69,302,66120,5,6,1:2:0:0:
186,382,66287,2,0,P|158:288|147:252,1,111.799994882202,2|0,0:3|0:0,0:0:0:0:
367,294,66620,2,0,P|273:266|237:255,1,111.799994882202,2|0,1:3|0:0,0:0:0:0:
47,193,66953,1,10,0:0:0:0:
241,86,67120,1,8,0:0:0:0:
394,139,67287,1,8,0:3:0:0:
425,237,67453,1,4,0:3:0:0:
247,77,67620,6,0,P|364:46|455:17,1,193.50000738144,6|0,1:2|0:0,0:0:0:0:
512,188,67953,2,0,B|494:141|540:100|540:100|485:130|418:69,1,193.50000738144,2|0,1:3|0:0,0:0:0:0:
347,210,68287,6,0,P|336:272|331:299,1,77.3999976379395,10|0,0:0|0:0,0:0:0:0:
341,287,68620,2,0,P|348:249|355:211,1,77.3999976379395,2|0,0:0|0:0,0:0:0:0:
229,168,68953,6,0,P|158:136|176:18,1,193.50000738144,2|0,1:3|0:0,0:0:0:0:
3,71,69287,2,0,B|-41:68|-54:-5|11:-39|85:-12|86:60,1,193.50000738144,2|0,1:3|0:0,0:0:0:0:
136,168,69620,6,0,P|122:229|118:253,1,77.3999976379395,10|0,0:0|0:0,0:0:0:0:
112,239,69953,2,0,P|119:200|128:163,1,77.3999976379395,2|0,0:0|0:0,0:0:0:0:
208,257,70287,6,0,B|274:247|295:304|272:307|298:362|365:356,1,193.50000738144,2|0,1:3|0:0,0:0:0:0:
493,258,70620,2,0,B|515:227|515:227|335:283,1,193.50000738144,2|0,1:3|0:0,0:0:0:0:
161,320,70953,1,8,0:0:0:0:
272,362,71120,2,0,P|288:284|300:226,1,111.799994882202,2|0,0:0|0:0,0:0:0:0:
327,44,71453,6,0,B|388:60|388:60|347:215,1,193.50000738144,6|0,1:2|0:0,0:0:0:0:
355,185,71787,1,2,0:0:0:0:
208,257,71953,1,2,1:2:0:0:
429,331,72120,1,10,0:0:0:0:
276,174,72287,1,10,0:0:0:0:
366,273,72453,1,8,0:3:0:0:
509,104,72620,1,10,0:0:0:0:
355,185,72787,1,4,0:3:0:0:
177,29,72953,6,0,B|189:-11|189:-11|258:-6|294:54|253:129,1,193.50000738144,6|0,1:2|0:0,0:0:0:0:
187,172,73287,2,0,P|109:146|-14:112,1,193.50000738144,2|0,1:3|0:0,0:0:0:0:
76,228,73620,6,0,P|90:276|101:313,1,77.3999976379395,10|0,0:0|0:0,0:0:0:0:
107,299,73953,2,0,P|96:261|85:224,1,77.3999976379395,2|0,0:0|0:0,0:0:0:0:
205,284,74287,6,0,B|270:288|292:237|269:234|295:179|362:185,1,193.50000738144,2|0,1:3|0:0,0:0:0:0:
474,238,74620,2,0,B|515:252|509:326|437:342|373:296|390:227,1,193.50000738144,2|0,1:3|0:0,0:0:0:0:
281,121,74953,6,0,P|292:71|303:36,1,77.3999976379395,10|0,0:0|0:0,0:0:0:0:
312,44,75287,2,0,P|362:55|397:66,1,77.3999976379395,0|0,1:2|0:0,0:0:0:0:
200,83,75620,6,0,B|122:94|149:121|65:129,1,129.00000492096,2|0,1:3|0:0,0:0:0:0:
19,9,75953,1,2,1:3:0:0:
200,83,76120,1,2,0:0:0:0:
71,209,76287,2,0,B|32:85|32:85|91:136,1,193.50000738144,10|0,0:0|0:0,0:0:0:0:
71,209,76620,1,8,0:0:0:0:
205,337,76787,5,6,1:2:0:0:
96,381,76953,2,0,P|120:301|127:262,1,111.799994882202,2|0,0:3|0:0,0:0:0:0:
307,372,77287,2,0,P|361:360|414:342,1,111.799994882202,2|0,1:3|0:0,0:0:0:0:
212,222,77620,6,0,L|250:1,1,206.4,8|0,0:0|0:0,0:0:0:0:
239,10,77953,2,0,L|227:77,1,55.8999974411012,2|0,0:0|0:0,0:0:0:0:
220,230,78120,1,2,0:0:0:0:
414,180,78287,6,0,B|459:132|444:59|374:49|338:91|368:134,1,193.50000738144,2|0,1:3|0:0,0:0:0:0:
322,275,78620,2,0,B|375:295|415:249|393:240|428:191|490:217,1,193.50000738144,2|0,1:3|0:0,0:0:0:0:
469,353,78953,5,8,0:0:0:0:
454,348,79120,2,0,P|403:360|354:374,1,103.199996850586,2|0,0:0|0:0,0:0:0:0:
247,314,79620,6,0,P|149:292|43:229,1,193.50000738144,2|0,1:3|0:0,0:0:0:0:
90,111,79953,1,8,0:3:0:0:
141,91,80036,1,8,0:3:0:0:
189,116,80119,1,4,0:3:0:0:
203,169,80202,1,4,0:3:0:0:
174,215,80287,2,0,P|139:197|143:148,1,77.3999976379395,8|0,0:0|0:0,0:0:0:0:
272,0,80620,6,0,L|236:415,1,387.000014762879,14|0,0:0|0:0,0:0:0:0:
334,296,81287,6,0,P|351:345|374:387,1,86,2|0,1:2|0:0,0:0:0:0:
174,215,81620,2,0,P|141:255|105:286,1,94.600002886963,10|0,0:0|0:0,0:0:0:0:
363,138,81953,2,0,P|413:168|464:187,1,103.199996850586,10|0,0:0|0:0,0:0:0:0:
157,22,82287,2,0,P|92:35|30:37,1,111.799994882202,14|0,0:0|0:0,0:0:0:0:
261,384,83620,6,0,P|171:364|81:349,1,154.799995275879,6|0,1:2|0:0,0:0:0:0:
232,284,84120,1,0,1:2:0:0:
350,383,84287,2,0,P|323:317|314:286,1,77.3999976379395,8|0,0:0|0:0,0:0:0:0:
488,279,84620,2,0,B|447:309|405:289|405:289|395:250|355:231,2,154.799995275879,6|2|0,1:2|0:3|1:2,0:0:0:0:
386,158,85620,2,0,P|298:143|253:133,1,116.099996456909,8|0,0:0|0:0,0:0:0:0:
271,137,85953,2,0,P|281:181|286:220,1,77.3999976379395,0|0,1:2|3:0,0:0:0:0:
100,274,86287,6,0,P|126:203|208:192,1,154.799995275879,6|0,1:2|0:0,0:0:0:0:
119,109,86787,1,0,1:2:0:0:
221,30,86953,2,0,P|205:85|196:121,1,77.3999976379395,8|0,0:0|0:0,0:0:0:0:
0,37,87287,2,0,B|16:2|58:3|58:3|92:32|135:14,1,154.799995275879,6|2,1:2|0:3,0:0:0:0:
281,93,87787,1,0,0:0:0:0:
381,40,87953,1,8,0:3:0:0:
381,40,88120,1,8,0:3:0:0:
334,159,88287,2,0,P|349:224|360:290,1,116.099996456909,10|0,0:0|0:0,0:0:0:0:
357,272,88620,2,0,P|367:214|375:179,1,77.3999976379395,2|0,1:2|3:0,0:0:0:0:
504,366,88953,6,0,P|483:273|407:259,1,154.799995275879,6|0,1:2|0:0,0:0:0:0:
317,342,89453,1,0,1:2:0:0:
357,272,89620,2,0,P|296:253|262:238,1,77.3999976379395,8|0,0:0|0:0,0:0:0:0:
162,316,89953,2,0,B|143:362|86:371|35:341|62:278|107:280,2,154.799995275879,6|2|0,1:2|0:3|1:2,0:0:0:0:
357,272,90953,2,0,B|399:237|391:169|332:146|337:175|283:150|269:83|319:48,1,270.899991732788,8|0,0:0|0:0,0:0:0:0:
392,71,91620,6,0,P|333:55|296:43,1,77.3999976379395,14|0,0:0|0:0,0:0:0:0:
239,30,91953,1,0,1:2:0:0:
398,144,92120,6,0,P|354:100|328:71,1,77.3999976379395,14|0,0:0|0:0,0:0:0:0:
244,19,92453,1,0,1:2:0:0:
366,210,92620,6,0,P|350:150|342:112,1,77.3999976379395,14|0,0:0|0:0,0:0:0:0:
249,1,92953,5,8,0:0:0:0:
465,85,93120,1,8,0:0:0:0:
249,169,93287,1,8,0:0:0:0:
465,253,93453,1,8,0:0:0:0:
357,295,93620,2,0,B|321:311|321:311|352:289,1,77.3999976379395,2|0,0:0|0:0,0:0:0:0:
197,372,94287,6,0,P|125:362|103:288,1,137.6,6|0,1:2|1:2,0:0:0:0:
190,242,94787,1,2,0:0:0:0:
190,242,94870,1,2,0:0:0:0:
190,242,94953,2,0,P|249:252|285:257,1,68.8,10|0,0:0|0:0,0:0:0:0:
125,166,95287,1,2,1:2:0:0:
321,202,95453,6,0,P|255:222|178:245,1,137.6,2|0,0:0|0:0,0:0:0:0:
125,166,95953,1,2,1:2:0:0:
233,65,96120,2,0,P|218:121|204:156,1,68.8,2|8,0:0|0:0,0:0:0:0:
125,166,96453,1,2,0:0:0:0:
46,122,96620,1,2,0:0:0:0:
46,122,96787,1,2,0:0:0:0:
214,131,96953,6,0,P|294:107|363:87,1,137.6,2|0,1:2|1:2,0:0:0:0:
455,44,97453,1,2,0:0:0:0:
455,44,97537,1,2,0:0:0:0:
455,44,97620,2,0,P|405:32|363:22,1,68.8,10|0,0:0|0:0,0:0:0:0:
440,131,97953,1,2,1:2:0:0:
314,188,98120,6,0,P|371:199|456:221,1,137.6,2|0,0:0|0:0,0:0:0:0:
336,280,98620,1,2,1:2:0:0:
436,362,98787,1,2,0:0:0:0:
436,362,98870,1,2,0:0:0:0:
436,362,98953,2,0,P|420:303|412:280,1,68.8,10|0,0:0|0:0,0:0:0:0:
269,298,99287,2,0,P|302:288|336:280,1,68.8,2|0,0:0|0:0,0:0:0:0:
191,352,99620,6,0,P|131:336|49:307,1,137.6,2|0,1:2|0:0,0:0:0:0:
177,191,100120,1,2,0:0:0:0:
177,191,100203,1,2,0:0:0:0:
177,191,100287,2,0,P|195:255|206:284,1,68.8,10|0,0:0|0:0,0:0:0:0:
87,162,100620,1,2,1:2:0:0:
232,114,100787,6,0,P|166:99|121:37,1,137.6,2|0,0:0|0:0,0:0:0:0:
87,162,101287,1,2,1:2:0:0:
264,191,101453,2,0,P|326:172|357:163,1,68.8,2|8,0:0|0:0,0:0:0:0:
232,114,101787,1,2,0:0:0:0:
177,191,101953,1,2,0:0:0:0:
177,191,102120,1,2,0:0:0:0:
396,226,102287,6,0,P|330:208|249:187,1,137.6,2|0,1:2|0:0,0:0:0:0:
411,138,102787,1,2,0:0:0:0:
411,138,102870,1,2,0:0:0:0:
411,138,102953,2,0,P|388:92|376:61,1,68.8,10|0,0:0|0:0,0:0:0:0:
485,199,103287,6,0,P|464:298|454:359,2,137.6,2|0|0,1:2|0:0|1:2,0:0:0:0:
267,41,104287,1,10,0:0:0:0:
343,11,104453,1,2,0:0:0:0:
267,41,104620,2,0,P|213:28|185:22,1,68.8,2|0,0:0|0:0,0:0:0:0:
105,184,104953,6,0,P|168:169|196:78,1,137.6,6|0,1:2|1:2,0:0:0:0:
200,108,105453,1,2,0:0:0:0:
53,42,105620,2,0,P|74:103|82:136,1,68.8,10|0,0:0|0:0,0:0:0:0:
29,223,105953,1,2,1:2:0:0:
211,239,106120,6,0,B|134:248|174:276|70:291,1,137.6,2|0,0:0|0:0,0:0:0:0:
194,347,106620,1,2,1:2:0:0:
194,347,106787,1,2,0:0:0:0:
301,228,106953,2,0,P|284:175|276:140,1,68.8,8|0,0:0|0:0,0:0:0:0:
367,39,107287,1,2,0:0:0:0:
367,39,107453,1,2,0:0:0:0:
361,131,107620,6,0,P|420:121|458:28,1,137.6,2|0,1:2|0:0,0:0:0:0:
460,59,108120,1,2,0:0:0:0:
402,210,108287,2,0,P|423:274|432:306,1,68.8,10|0,0:0|0:0,0:0:0:0:
337,380,108620,1,2,1:2:0:0:
449,370,108787,6,0,P|418:323|321:303,1,137.6,2|0,0:0|0:0,0:0:0:0:
263,250,109287,1,0,1:2:0:0:
205,363,109453,2,0,P|254:345|278:339,1,68.8,2|8,0:0|0:0,0:0:0:0:
159,215,109787,2,0,P|177:264|183:288,1,68.8,2|0,0:0|0:0,0:0:0:0:
263,251,110120,1,2,0:0:0:0:
137,122,110287,6,0,P|198:142|294:166,1,154.799995275879,6|0,1:2|0:0,0:0:0:0:
423,275,110787,1,0,1:2:0:0:
357,120,110953,2,0,P|381:183|390:214,1,77.3999976379395,8|0,0:0|0:0,0:0:0:0:
486,228,111287,2,0,P|505:172|519:142,1,77.3999976379395,0|0,3:0|0:0,0:0:0:0:
394,39,111620,6,0,P|322:24|265:9,1,116.099996456909,0|0,1:2|0:0,0:0:0:0:
280,13,111953,2,0,P|214:31|189:36,1,77.3999976379395,2|0,1:2|0:0,0:0:0:0:
0,8,112287,1,14,0:0:0:0:
137,122,112453,1,10,0:0:0:0:
117,243,112620,1,8,0:3:0:0:
41,273,112787,1,4,0:3:0:0:
137,122,112953,5,10,0:0:0:0:
239,300,113120,1,0,1:2:0:0:
239,300,113287,1,0,1:2:0:0:
459,275,113453,6,0,P|400:262|360:243,1,77.3999976379395,12|0,0:0|0:0,0:0:0:0:
325,325,113787,1,0,1:2:0:0:
512,160,113953,6,0,P|458:187|415:199,1,77.3999976379395,12|0,0:0|0:0,0:0:0:0:
384,255,114287,1,8,0:3:0:0:
467,312,114453,5,8,0:3:0:0:
467,312,114537,1,8,0:3:0:0:
467,312,114620,2,0,L|453:253,1,38.6999988189698,4|0,0:3|0:0,0:0:0:0:
356,172,114787,5,4,0:3:0:0:
359,152,114870,1,4,0:3:0:0:
363,134,114953,2,0,P|398:83|466:75,1,116.099996456909,10|0,0:0|0:0,0:0:0:0:
452,75,115287,2,0,L|357:58,1,77.3999976379395,2|0,0:0|0:0,0:0:0:0:
155,0,115620,6,0,P|179:86|210:240,1,193.50000738144,6|0,1:2|0:0,0:0:0:0:
112,305,115953,2,0,B|102:349|37:381|-29:347|-22:283|41:262,1,193.50000738144,2|0,1:3|0:0,0:0:0:0:
205,269,116287,6,0,P|185:328|177:351,1,77.3999976379395,10|0,0:0|0:0,0:0:0:0:
249,366,116620,2,0,P|261:329|273:292,1,77.3999976379395,2|0,0:0|0:0,0:0:0:0:
451,242,116953,6,0,P|442:314|316:332,1,193.50000738144,2|0,1:3|0:0,0:0:0:0:
283,205,117287,2,0,B|309:181|358:188|375:226|354:222|378:261|421:266|456:237,1,193.50000738144,2|0,1:3|0:0,0:0:0:0:
501,127,117620,6,0,P|482:81|467:46,1,77.3999976379395,10|0,0:0|0:0,0:0:0:0:
406,85,117953,2,0,P|421:120|435:156,1,77.3999976379395,2|0,0:0|0:0,0:0:0:0:
313,32,118287,6,0,B|232:60|280:66|181:100,1,129.00000492096,2|0,1:3|0:0,0:0:0:0:
81,0,118620,1,2,1:3:0:0:
313,32,118787,1,2,0:0:0:0:
146,194,118953,2,0,B|95:168|82:104|124:71|124:71|113:113|139:145,1,193.50000738144,8|0,0:0|0:0,0:0:0:0:
145,193,119287,1,8,0:0:0:0:
79,362,119453,5,6,1:2:0:0:
192,301,119620,2,0,P|126:284|72:277,1,111.799994882202,2|0,0:3|0:0,0:0:0:0:
317,363,119953,2,0,P|300:297|293:243,1,111.799994882202,2|0,1:3|0:0,0:0:0:0:
406,85,120287,1,10,0:0:0:0:
235,200,120453,1,8,0:0:0:0:
115,156,120620,1,8,0:3:0:0:
92,132,120703,1,4,0:3:0:0:
86,99,120786,1,4,0:3:0:0:
314,174,120953,6,0,B|345:157|390:176|397:218|378:208|391:252|431:268|472:249,1,193.50000738144,6|0,1:2|0:0,0:0:0:0:
512,103,121287,2,0,B|522:64|522:64|458:74|436:129|459:195,1,193.50000738144,2|0,1:3|0:0,0:0:0:0:
332,282,121620,6,0,P|348:332|357:367,1,77.3999976379395,10|0,0:0|0:0,0:0:0:0:
288,377,121953,2,0,P|277:339|265:302,1,77.3999976379395,2|0,0:0|0:0,0:0:0:0:
130,273,122287,6,0,B|199:268|211:196|181:154|126:155|110:199,1,193.50000738144,2|0,1:3|0:0,0:0:0:0:
0,318,122620,2,0,P|100:341|202:366,1,193.50000738144,2|0,1:3|0:0,0:0:0:0:
265,223,122953,6,0,P|279:162|287:138,1,77.3999976379395,10|0,0:0|0:0,0:0:0:0:
353,165,123287,2,0,P|342:202|334:240,1,77.3999976379395,2|0,0:0|0:0,0:0:0:0:
512,155,123620,6,0,B|463:159|428:116|428:116|453:173|399:233,1,193.50000738144,2|0,1:3|0:0,0:0:0:0:
356,325,123953,2,0,B|379:332|379:332|352:164,1,193.50000738144,2|0,1:3|0:0,0:0:0:0:
319,0,124287,1,8,0:0:0:0:
245,57,124453,2,0,P|312:84|355:83,1,111.799994882202,2|0,0:0|0:0,0:0:0:0:
141,0,124787,6,0,P|43:37|-5:156,1,193.50000738144,6|0,1:2|0:0,0:0:0:0:
0,109,125120,1,2,0:0:0:0:
149,263,125287,1,10,0:0:0:0:
118,72,125453,1,10,0:0:0:0:
23,300,125620,2,0,B|129:312|78:357|242:370,1,193.50000738144,10|0,0:0|0:0,0:0:0:0:
282,325,125953,1,10,0:0:0:0:
225,215,126120,1,2,0:0:0:0:
398,28,126287,6,0,P|378:122|360:217,1,193.50000738144,6|0,1:2|0:0,0:0:0:0:
482,340,126620,2,0,B|505:302|505:302|461:267|394:281|362:342,1,193.50000738144,2|0,1:3|0:0,0:0:0:0:
232,383,126953,6,0,P|223:345|214:307,1,77.3999976379395,10|0,0:0|0:0,0:0:0:0:
281,293,127288,2,0,P|289:330|298:368,1,77.3999976379395,2|0,0:0|0:0,0:0:0:0:
126,306,127620,6,0,P|60:263|86:130,1,193.50000738144,2|0,1:3|0:0,0:0:0:0:
122,8,127953,2,0,B|183:16|183:16|142:170,1,193.50000738144,2|0,1:3|0:0,0:0:0:0:
276,217,128287,6,0,P|326:235|356:249,1,77.3999976379395,10|0,0:0|0:0,0:0:0:0:
416,205,128620,2,0,P|431:169|444:132,1,77.3999976379395,2|0,1:2|0:0,0:0:0:0:
287,75,128953,6,0,B|213:91|252:109|150:131,1,129.00000492096,2|0,1:3|0:0,0:0:0:0:
122,8,129287,1,2,1:3:0:0:
287,75,129453,1,2,0:0:0:0:
113,190,129620,2,0,B|75:198|18:187|-2:117|59:75|92:105,1,193.50000738144,8|0,0:0|0:0,0:0:0:0:
113,190,129953,1,8,0:0:0:0:
67,362,130120,5,6,1:2:0:0:
187,315,130287,2,0,P|127:294|79:264,1,111.799994882202,2|0,0:3|0:0,0:0:0:0:
315,338,130620,2,0,P|286:289|269:236,1,111.799994882202,2|0,1:3|0:0,0:0:0:0:
375,29,130953,2,0,L|346:192,1,129.00000492096,10|0,0:0|1:2,0:0:0:0:
468,31,131287,1,2,0:0:0:0:
468,31,131453,1,2,0:0:0:0:
264,151,131620,6,0,P|159:169|26:199,1,193.50000738144,2|0,1:3|0:0,0:0:0:0:
16,45,131953,2,0,B|69:52|104:14|104:14|88:70|131:105,1,193.50000738144,2|0,1:3|0:0,0:0:0:0:
269,235,132287,5,8,0:0:0:0:
255,244,132453,2,0,P|232:304|216:358,1,103.199996850586,2|0,0:0|0:0,0:0:0:0:
0,361,132953,6,0,P|92:287|192:243,1,193.50000738144,2|0,1:3|0:0,0:0:0:0:
159,254,133287,1,0,1:2:0:0:
309,340,133453,1,2,0:0:0:0:
512,173,133620,1,10,0:0:0:0:
344,217,133787,1,0,1:2:0:0:
440,384,133953,6,0,L|403:-30,1,387.000014762879,14|0,0:0|0:0,0:0:0:0:
333,115,134620,6,0,P|279:101|245:80,1,86,2|0,1:2|0:0,0:0:0:0:
95,219,134953,2,0,P|140:187|165:156,1,94.600002886963,10|0,0:0|0:0,0:0:0:0:
364,346,135287,2,0,P|328:296|315:255,1,103.199996850586,10|0,0:0|0:0,0:0:0:0:
103,371,135620,2,0,P|117:317|116:277,1,55.8999974411012,10|0,0:0|0:0,0:0:0:0:
17,236,135787,5,2,1:3:0:0:
17,236,136120,5,2,1:3:0:0:
213,353,136287,1,8,0:0:0:0:
394,308,136453,1,8,0:0:0:0:
437,189,136620,1,8,0:3:0:0:
398,114,136787,1,4,0:3:0:0:
295,287,136953,6,0,P|389:328|496:378,1,206.4,6|0,1:2|0:0,0:0:0:0:
483,372,137287,1,8,0:0:0:0:
213,221,137453,6,0,P|252:302|291:384,1,180.599994488526,6|0,1:2|0:0,0:0:0:0:
292,384,137787,1,8,0:0:0:0:
192,107,137953,6,0,P|167:206|141:306,1,206.399993701172,6|0,1:2|0:0,0:0:0:0:
484,262,138620,5,8,0:0:0:0:
347,208,138787,1,8,0:0:0:0:
339,105,138953,2,0,P|375:55|417:39,1,86,8|0,0:0|1:2,0:0:0:0:
401,293,139287,6,0,P|307:277|207:264,1,172,14|0,0:0|0:0,0:0:0:0:
49,92,139953,2,0,P|105:70|145:56,1,86,0|0,1:2|0:0,0:0:0:0:
176,153,140287,2,0,P|232:175|272:189,1,86,8|0,0:0|0:0,0:0:0:0:
75,183,140620,1,8,0:3:0:0:
75,183,140787,2,0,P|98:244|108:275,1,86,4|0,0:3|0:0,0:0:0:0:
173,355,141120,5,8,0:3:0:0:
173,355,141203,1,8,0:3:0:0:
173,355,141287,1,8,0:3:0:0:
104,263,141453,1,4,0:3:0:0:
1,338,141620,2,0,P|97:272|119:240,1,129,10|0,0:0|0:0,0:0:0:0:
160,199,141953,1,2,0:0:0:0:
160,199,142120,1,2,0:0:0:0:
275,323,142287,6,0,P|367:346|495:381,1,206.4,6|0,1:2|0:0,0:0:0:0:
474,375,142620,1,8,0:0:0:0:
254,227,142787,6,0,P|339:185|459:130,1,180.599994488526,6|0,1:2|0:0,0:0:0:0:
417,149,143120,1,8,0:0:0:0:
160,198,143287,6,0,P|200:105|244:13,1,154.799995275879,6|0,1:2|0:0,0:0:0:0:
223,57,143620,1,0,1:2:0:0:
99,99,143787,6,0,P|37:93|58:-17,1,172,8|0,0:3|0:0,0:0:0:0:
99,99,144287,1,8,0:0:0:0:
57,185,144453,1,0,1:2:0:0:
140,324,144620,6,0,B|182:288|174:219|114:195|119:225|64:199|50:131|101:96,1,275.2,6|0,1:2|1:2,0:0:0:0:
57,185,145453,1,0,1:2:0:0:
244,173,145620,6,0,P|197:160|163:142,1,86,8|0,0:0|0:0,0:0:0:0:
61,188,145953,1,0,1:2:0:0:
61,188,146120,1,0,1:2:0:0:
234,250,146287,6,0,P|206:209|191:174,1,86,8|0,0:0|1:2,0:0:0:0:
57,185,146620,1,2,0:3:0:0:
140,324,146787,5,8,0:0:0:0:
175,330,146870,1,8,0:0:0:0:
210,336,146953,1,8,0:0:0:0:
245,342,147037,1,8,0:3:0:0:
281,348,147120,1,8,0:3:0:0:
316,354,147203,1,4,0:3:0:0:
351,360,147287,1,4,0:3:0:0:
234,250,147453,1,8,0:0:0:0:
464,211,147620,6,0,P|384:224|311:274,2,154.799995275879,6|0|8,1:2|0:0|0:0,0:0:0:0:
464,211,148620,2,0,P|416:200|382:174,1,77.3999976379395,2|0,1:2|0:0,0:0:0:0:
285,150,148953,2,0,P|270:102|276:60,1,77.3999976379395,2|0,1:2|0:0,0:0:0:0:
388,9,149287,2,0,P|388:47|375:83,1,77.3999976379395,2|0,0:0|0:0,0:0:0:0:
203,207,149620,2,0,P|169:226|131:233,1,77.3999976379395,10|0,0:0|0:0,0:0:0:0:
47,134,149953,2,0,L|146:150,1,77.3999976379395,2|0,1:2|0:0,0:0:0:0:
283,278,150287,6,0,P|349:295|429:364,2,154.799995275879,2|0|8,1:2|0:0|0:0,0:0:0:0:
283,278,151287,1,2,1:2:0:0:
384,270,151453,1,2,0:0:0:0:
458,200,151620,2,0,P|481:158|489:111,1,77.3999976379395,2|0,1:2|0:0,0:0:0:0:
422,51,151953,2,0,P|384:41|346:41,1,77.3999976379395,2|0,1:2|0:0,0:0:0:0:
256,175,152287,2,0,P|292:162|324:140,1,77.3999976379395,10|0,0:0|0:0,0:0:0:0:
270,4,152620,2,0,L|248:103,1,77.3999976379395,2|0,1:2|0:0,0:0:0:0:
121,209,152953,6,0,P|58:177|7:91,2,154.799995275879,2|0|8,1:2|0:0|0:0,0:0:0:0:
121,209,153953,1,2,1:2:0:0:
32,200,154120,1,2,0:0:0:0:
147,295,154287,2,0,P|188:271|222:225,1,77.3999976379395,2|0,1:2|0:0,0:0:0:0:
304,192,154620,2,0,P|303:144|280:92,1,77.3999976379395,2|0,1:2|0:0,0:0:0:0:
135,69,154953,2,0,P|141:107|158:141,1,77.3999976379395,10|0,0:0|0:0,0:0:0:0:
292,276,155287,2,0,P|330:273|366:260,1,77.3999976379395,2|0,0:0|0:0,0:0:0:0:
512,117,155620,6,0,P|444:141|364:197,2,154.799995275879,2|0|8,1:2|0:0|0:0,0:0:0:0:
512,117,156620,2,0,P|454:103|408:82,1,77.3999976379395,2|0,1:2|0:0,0:0:0:0:
303,161,156953,2,0,P|289:80|304:5,1,154.799995275879,2|0,1:2|0:0,0:0:0:0:
360,92,157453,1,8,0:0:0:0:
228,173,157620,1,8,0:0:0:0:
127,100,157787,1,8,0:0:0:0:
146,24,157953,1,8,0:3:0:0:
169,6,158120,1,4,0:3:0:0:
127,100,158287,6,0,P|102:161|77:258,1,154.799995275879,6|0,1:2|0:0,0:0:0:0:
232,384,158953,2,0,P|205:303|165:225,1,154.799995275879,10|0,0:0|0:0,0:0:0:0:
402,126,159620,2,0,P|360:151|315:167,1,77.3999976379395,2|0,1:2|0:0,0:0:0:0:
228,173,159953,2,0,P|314:204|378:231,1,154.799995275879,2|8,1:2|0:0,0:0:0:0:
460,41,160620,1,2,0:0:0:0:
333,161,160953,6,0,P|362:209|379:247,1,77.3999976379395,2|0,1:2|0:0,0:0:0:0:
509,171,161287,2,0,P|452:172|410:168,1,77.3999976379395,2|0,1:2|0:0,0:0:0:0:
413,318,161620,2,0,P|440:268|464:234,1,77.3999976379395,10|0,0:0|0:0,0:0:0:0:
323,304,161953,1,2,0:0:0:0:
323,304,162120,1,2,0:0:0:0:
377,384,162287,6,0,P|297:355|202:335,2,154.799995275879,0|0|8,1:2|1:2|0:0,0:0:0:0:
155,227,163287,1,2,0:0:0:0:
155,227,163453,1,2,0:0:0:0:
99,336,163620,6,0,P|70:258|32:174,1,154.799995275879,2|0,1:2|0:0,0:0:0:0:
150,63,164120,2,0,P|132:116|122:152,1,77.3999976379395,8|0,0:0|0:0,0:0:0:0:
62,34,164453,1,0,1:2:0:0:
216,162,164620,6,0,P|305:141|354:110,1,116.099996456909,14|0,0:0|0:0,0:0:0:0:
357,59,164953,1,2,0:0:0:0:
357,59,165287,1,0,1:2:0:0:
291,229,165620,2,0,P|358:249|440:282,1,154.799995275879,10|0,0:0|1:2,0:0:0:0:
211,321,166287,6,0,B|165:271|187:203|253:184|237:210|299:187|329:115|278:65,1,309.599990551758,2|8,1:2|0:0,0:0:0:0:
93,49,167287,1,2,1:2:0:0:
160,229,167620,2,0,P|251:197|318:164,1,154.799995275879,2|0,1:2|0:0,0:0:0:0:
372,97,168120,1,8,0:0:0:0:
217,120,168287,1,8,0:0:0:0:
128,74,168453,1,8,0:3:0:0:
128,0,168620,1,4,0:3:0:0:
460,146,168953,6,0,P|477:131|491:115,1,34.4,6|0,1:2|0:0,0:0:0:0:
452,224,169287,6,0,P|486:221|520:213,1,43,4|0,0:3|0:0,0:0:0:0:
407,289,169620,6,0,P|439:301|472:311,1,51.599998425293,4|0,0:3|0:0,0:0:0:0:
334,324,169953,6,0,P|353:353|374:380,1,60.1999981628419,4|0,0:3|0:0,0:0:0:0:
253,317,170287,6,0,P|259:362|269:404,1,68.8,8|0,0:0|0:0,0:0:0:0:
186,271,170620,6,0,P|172:314|162:357,1,77.3999976379395,8|0,0:0|0:0,0:0:0:0:
205,191,170953,6,0,P|156:196|109:206,1,86,8|0,0:0|0:0,0:0:0:0:
270,143,171287,6,0,P|222:115|172:92,1,94.600002886963,8|0,0:0|0:0,0:0:0:0:
350,149,171620,6,0,P|326:94|296:42,1,103.199996850586,8|0,0:0|0:0,0:0:0:0:
407,207,171953,6,0,P|430:152|448:94,1,111.799994882202,8|0,0:0|0:0,0:0:0:0:
328,227,172287,5,8,0:0:0:0:
512,142,172453,1,8,0:0:0:0:
347,26,172620,1,8,0:0:0:0:
328,227,172787,2,0,L|320:305,1,55.8999974411012,2|0,1:3|0:0,0:0:0:0:
7,384,174287,6,0,P|73:335|200:309,1,193.50000738144,6|0,1:2|0:0,0:0:0:0:
311,345,174620,2,0,B|320:380|320:380|251:363|225:310|277:222,1,193.50000738144,2|0,1:3|0:0,0:0:0:0:
311,151,174953,6,0,P|323:204|329:234,1,77.3999976379395,10|0,0:0|0:0,0:0:0:0:
395,208,175287,2,0,P|387:170|379:133,1,77.3999976379395,2|0,0:0|0:0,0:0:0:0:
197,200,175620,5,0,1:2:0:0:
197,200,175953,1,0,1:2:0:0:
379,133,176287,6,0,P|387:170|395:208,1,77.3999976379395,10|0,0:0|0:0,0:0:0:0:
327,226,176620,2,0,P|319:188|310:150,1,77.3999976379395,2|0,0:0|0:0,0:0:0:0:
505,149,176953,5,0,1:2:0:0:
505,149,177286,1,0,1:2:0:0:
310,150,177620,6,0,P|229:133|123:114,1,172,8|0,0:0|0:0,0:0:0:0:
23,49,178120,5,2,1:2:0:0:
38,44,178203,1,2,1:2:0:0:
53,38,178286,1,10,0:0:0:0:
257,67,178453,1,10,0:0:0:0:
68,148,178620,1,10,0:0:0:0:
257,228,178787,1,10,0:0:0:0:
68,309,178953,1,10,0:0:0:0:
147,231,179120,1,8,0:3:0:0:
321,313,179287,2,0,P|397:330|470:345,1,129,4|0,0:3|0:0,0:0:0:0:
478,231,179620,6,0,B|413:213|387:277|406:267|376:332|311:310,1,193.50000738144,6|0,1:2|0:0,0:0:0:0:
197,296,179953,2,0,B|144:298|121:238|176:188|247:202|268:242,1,193.50000738144,2|0,1:3|0:0,0:0:0:0:
386,161,180287,6,0,P|395:119|403:74,1,77.3999976379395,10|0,0:0|0:0,0:0:0:0:
334,71,180620,2,0,P|326:109|318:146,1,77.3999976379395,2|0,0:0|0:0,0:0:0:0:
229,31,180953,6,0,P|139:43|78:162,1,193.50000738144,2|0,1:3|0:0,0:0:0:0:
88,275,181287,2,0,B|70:228|116:187|116:187|61:217|-6:156,1,193.50000738144,2|0,1:3|0:0,0:0:0:0:
141,333,181620,6,0,P|194:346|223:354,1,77.3999976379395,10|0,0:0|0:0,0:0:0:0:
237,281,181953,2,0,P|199:271|161:261,1,77.3999976379395,2|0,0:0|0:0,0:0:0:0:
168,125,182287,6,0,B|234:115|255:172|232:175|258:230|325:224,1,193.50000738144,2|0,1:3|0:0,0:0:0:0:
458,139,182620,2,0,B|476:112|476:112|303:155,1,193.50000738144,2|0,1:3|0:0,0:0:0:0:
101,204,182953,1,8,0:0:0:0:
161,261,183120,2,0,P|188:201|170:141,1,111.799994882202,2|0,0:0|0:0,0:0:0:0:
14,21,183453,6,0,P|121:43|223:64,1,193.50000738144,6|0,1:2|0:0,0:0:0:0:
203,59,183787,1,0,0:0:0:0:
99,130,183953,1,2,1:2:0:0:
333,60,184120,1,10,0:0:0:0:
121,1,184287,1,10,0:0:0:0:
179,157,184453,1,8,0:3:0:0:
0,278,184620,1,8,0:0:0:0:
37,172,184787,1,4,0:3:0:0:
248,241,184953,6,0,P|358:273|479:310,1,193.50000738144,6|0,1:2|0:0,0:0:0:0:
507,184,185287,2,0,B|539:150|496:93|420:114|406:167|419:204,1,193.50000738144,2|0,1:3|0:0,0:0:0:0:
323,289,185620,6,0,P|346:339|357:368,1,77.3999976379395,10|0,0:0|0:0,0:0:0:0:
282,379,185953,2,0,P|232:356|203:345,1,77.3999976379395,2|0,1:2|0:0,0:0:0:0:
60,347,186287,6,0,B|54:379|54:379|123:373|167:309|118:250,1,193.50000738144,2|0,1:3|0:0,0:0:0:0:
73,102,186620,2,0,B|8:133|8:133|62:278,1,193.50000738144,2|0,1:3|0:0,0:0:0:0:
207,233,186953,6,0,P|250:245|289:259,1,77.3999976379395,10|0,0:0|0:0,0:0:0:0:
341,217,187287,2,0,P|353:174|367:135,1,77.3999976379395,2|0,1:2|0:0,0:0:0:0:
267,82,187620,6,0,B|192:104|221:124|108:141,1,129.00000492096,2|0,1:3|0:0,0:0:0:0:
62,20,187953,1,2,1:3:0:0:
267,82,188120,1,2,0:0:0:0:
86,177,188287,2,0,P|185:196|348:217,1,258.000009841919,10|0,0:0|0:0,0:0:0:0:
181,333,188787,5,2,1:2:0:0:
307,381,188953,2,0,P|277:315|239:272,1,111.799994882202,2|0,0:3|0:0,0:0:0:0:
428,285,189287,2,0,P|461:240|482:188,1,111.799994882202,2|0,1:3|0:0,0:0:0:0:
330,46,189620,6,0,L|109:84,1,206.4,8|0,0:0|0:0,0:0:0:0:
118,73,189953,2,0,L|185:61,1,55.8999974411012,2|0,0:0|0:0,0:0:0:0:
338,54,190120,1,2,0:0:0:0:
252,284,190287,6,0,B|249:234|192:218|192:218|259:224|300:151,1,193.50000738144,2|0,1:3|0:0,0:0:0:0:
338,341,190620,2,0,P|248:322|145:302,1,193.50000738144,2|0,1:3|0:0,0:0:0:0:
30,237,190953,5,8,0:0:0:0:
42,241,191120,2,0,P|94:225|141:201,1,103.199996850586,2|0,0:0|0:0,0:0:0:0:
223,103,191620,6,0,P|307:121|429:174,1,193.50000738144,2|0,1:3|0:0,0:0:0:0:
406,161,191953,1,2,1:3:0:0:
512,75,192120,1,2,0:0:0:0:
328,217,192287,6,0,P|335:265|368:293,1,77.3999976379395,10|0,0:0|0:0,0:0:0:0:
272,383,192620,6,0,L|236:-31,1,387.000014762879,14|0,0:0|0:0,0:0:0:0:
364,35,193287,6,0,P|350:102|330:147,1,86,2|0,1:2|0:0,0:0:0:0:
123,107,193620,2,0,P|159:165|193:200,1,94.600002886963,10|0,0:0|0:0,0:0:0:0:
427,229,193953,2,0,P|373:271|328:292,1,103.199996850586,10|0,0:0|0:0,0:0:0:0:
79,339,194287,2,0,P|144:360|192:365,1,111.799994882202,14|0,0:0|0:0,0:0:0:0:
419,305,195287,6,0,P|480:279|460:363,1,167.699992323304,2|0,0:0|0:0,0:0:0:0:
485,355,195620,6,0,P|401:333|262:308,1,189.200005773926,6|0,1:2|1:2,0:0:0:0:
156,377,196120,1,2,0:0:0:0:
156,377,196203,1,2,0:0:0:0:
156,377,196287,2,0,P|212:349|213:264,1,141.900004330444,10|0,0:0|0:0,0:0:0:0:
219,276,196620,2,0,P|237:200|254:148,1,94.600002886963,2|0,0:0|0:0,0:0:0:0:
146,58,196953,6,0,B|244:48|215:137|329:121,1,189.200005773926,2|0,1:2|1:2,0:0:0:0:
512,2,197620,2,0,P|416:22|322:38,2,189.200005773926,8|0|0,0:0|0:0|1:2,0:0:0:0:
443,117,198453,5,2,0:0:0:0:
443,117,198620,2,0,P|419:182|411:226,1,94.600002886963,2|0,1:2|0:0,0:0:0:0:
241,218,198953,2,0,P|309:206|351:191,1,94.600002886963,10|0,0:0|0:0,0:0:0:0:
430,343,199287,2,0,P|385:289|351:260,1,94.600002886963,2|0,0:0|0:0,0:0:0:0:
174,278,199620,5,2,1:2:0:0:
112,332,199787,1,2,0:0:0:0:
256,299,199953,1,2,1:2:0:0:
164,199,200120,1,2,0:0:0:0:
303,43,200287,2,0,P|282:109|274:155,1,94.600002886963,10|0,0:0|0:0,0:0:0:0:
84,248,200620,2,0,P|73:201|58:157,1,94.600002886963,2|0,0:0|0:0,0:0:0:0:
190,314,200953,6,0,P|83:325|7:390,1,189.200005773926,2|0,1:2|1:2,0:0:0:0:
355,367,201620,1,10,0:0:0:0:
273,382,201787,2,0,B|246:318|296:284|293:305|343:262|315:202,1,189.200005773926,2|0,0:0|0:0,0:0:0:0:
281,89,202287,6,0,P|262:141|236:190,1,94.600002886963,2|0,1:2|0:0,0:0:0:0:
393,207,202620,2,0,P|412:259|438:308,1,94.600002886963,2|0,1:2|0:0,0:0:0:0:
466,96,202953,2,0,P|388:117|339:134,1,94.600002886963,10|0,0:0|0:0,0:0:0:0:
274,275,203287,2,0,P|196:254|147:237,1,94.600002886963,2|0,0:0|0:0,0:0:0:0:
53,100,203620,6,0,P|128:109|157:192,1,141.900004330444,2|0,1:2|0:0,0:0:0:0:
159,161,203953,2,0,P|97:182|43:205,1,94.600002886963,2|0,1:2|0:0,0:0:0:0:
0,312,204287,2,0,B|107:295|79:386|187:374,1,189.200005773926,10|0,0:0|0:0,0:0:0:0:
255,195,204953,6,0,B|323:224|323:224|330:265|330:265|420:300,1,189.200005773926,6|0,1:2|0:0,0:0:0:0:
182,249,205453,1,8,0:0:0:0:
376,166,205620,1,8,0:0:0:0:
255,105,205787,1,0,1:2:0:0:
440,234,205953,2,0,P|485:206|479:122,1,141.900004330444,8|0,0:0|0:0,0:0:0:0:
481,124,206287,5,6,1:2:0:0:
361,242,206453,2,0,P|379:296|392:337,1,86,2|0,0:0|1:2,0:0:0:0:
469,314,206787,1,2,0:0:0:0:
293,311,206953,2,0,P|213:294|178:291,1,86,10|0,0:0|0:0,0:0:0:0:
281,223,207287,1,2,1:2:0:0:
128,359,207453,6,0,P|217:333|301:308,1,172,2|0,0:0|0:0,0:0:0:0:
391,298,207953,2,0,P|376:349|363:389,1,86,2|0,0:0|0:0,0:0:0:0:
208,293,208287,1,10,0:0:0:0:
163,182,208453,1,2,0:0:0:0:
225,116,208620,2,0,P|276:123|299:147,1,86,2|0,0:0|0:0,0:0:0:0:
414,176,208953,6,0,B|366:145|321:190|341:194|304:235|246:211,1,172,2|0,1:2|1:2,0:0:0:0:
142,102,209453,1,2,0:0:0:0:
245,32,209620,2,0,P|229:98|218:142,1,86,10|0,0:0|0:0,0:0:0:0:
113,185,209953,1,2,1:2:0:0:
142,102,210120,1,2,0:0:0:0:
0,51,210287,6,0,B|44:82|44:82|18:180,1,114.666666666667,2|0,0:0|0:0,0:0:0:0:
41,236,210620,2,0,B|2:206|2:206|26:109,1,114.666666666667,2|8,0:0|0:0,0:0:0:0:
116,270,210953,2,0,P|183:251|218:231,1,86,8|8,0:0|0:3,0:0:0:0:
334,368,211287,2,0,P|286:346|238:340,1,86,4|4,0:3|0:3,0:0:0:0:
138,186,211620,5,6,1:2:0:0:
297,263,211787,1,2,0:0:0:0:
297,263,211953,2,0,P|314:205|326:168,1,86,2|0,1:2|0:0,0:0:0:0:
210,92,212287,2,0,P|222:133|234:174,1,86,10|0,0:0|0:0,0:0:0:0:
393,247,212620,2,0,P|456:231|473:152,1,129,2|0,1:2|0:0,0:0:0:0:
478,176,212953,6,0,P|461:116|452:75,1,86,2|0,0:0|0:0,0:0:0:0:
512,13,213287,1,8,0:3:0:0:
512,13,213453,1,8,0:3:0:0:
361,56,213620,2,0,P|292:39|253:27,1,86,8|0,0:0|0:0,0:0:0:0:
89,19,213953,6,0,L|116:337,1,301,14|0,0:0|0:0,0:0:0:0:
190,356,214620,6,0,P|239:340|259:321,1,68.8,2|0,1:2|0:0,0:0:0:0:
372,259,214953,2,0,P|326:234|310:212,1,77.3999976379395,10|0,0:0|0:0,0:0:0:0:
126,205,215287,2,0,P|171:169|184:142,1,86,10|0,0:0|0:0,0:0:0:0:
367,93,215620,2,0,P|325:46|315:14,1,94.600002886963,14|0,0:0|0:0,0:0:0:0:
