osu file format v14

[General]
AudioFilename: audio.mp3
AudioLeadIn: 0
PreviewTime: 44654
Countdown: 0
SampleSet: Soft
StackLeniency: 0.7
Mode: 0
LetterboxInBreaks: 0
WidescreenStoryboard: 1

[Editor]
DistanceSpacing: 1.2
BeatDivisor: 8
GridSize: 32
TimelineZoom: 2.899999

[Metadata]
Title:Chou Jou Genki Show*Idol ch@ng!
TitleUnicode:チョー↑元気Show☆アイドルch@ng!
Artist:Matsuda Arisa (CV: Murakawa Rie)
ArtistUnicode:松田 亜利沙 (CV: 村川 梨衣)
Creator:Seolv
Version:Special
Source:アイドルマスター ミリオンライブ!
Tags:the idolmaster million live idolm@ster j-pop jpop japanese pop idols video game anime [_l_u_k_a_s_] lukas
BeatmapID:2412642
BeatmapSetID:1156070

[Difficulty]
HPDrainRate:5.5
CircleSize:4.5
OverallDifficulty:8.5
ApproachRate:9.3
SliderMultiplier:1.6
SliderTickRate:1

[Events]
//Background and Video events
0,0,"idols.jpg",0,0
//Break Periods
//Storyboard Layer 0 (Background)
//Storyboard Layer 1 (Fail)
//Storyboard Layer 2 (Pass)
//Storyboard Layer 3 (Foreground)
//Storyboard Layer 4 (Overlay)
//Storyboard Sound Samples

[TimingPoints]
9447,352.941176470588,4,2,2,60,1,0
10858,-111.111111111111,4,2,2,60,0,0
11035,-111.111111111111,4,2,1,60,0,0
22153,-105.263157894737,4,2,2,60,0,0
22329,-105.263157894737,4,2,1,60,0,0
24623,-86.9565217391306,4,2,1,60,0,0
24976,-105.263157894737,4,2,1,60,0,0
32741,-200,4,2,1,60,0,0
33446,-100,4,2,2,65,0,0
39094,-100,4,2,2,70,0,0
41917,-100,4,2,2,75,0,0
43329,-100,4,2,2,40,0,0
44035,-125,4,2,2,60,0,0
44388,-83.3333333333333,4,2,2,60,0,0
44741,-90.9090909090909,4,2,20,80,0,1
44917,-90.9090909090909,4,2,1,80,0,1
47211,-90.9090909090909,4,2,6,80,0,1
47388,-90.9090909090909,4,2,1,80,0,1
50035,-90.9090909090909,4,2,6,80,0,1
50388,-90.9090909090909,4,2,20,80,0,1
50564,-90.9090909090909,4,2,1,80,0,1
50653,-90.9090909090909,4,2,1,80,0,1
52858,-90.9090909090909,4,2,6,80,0,1
53035,-90.9090909090909,4,2,1,80,0,1
55329,-83.3333333333333,4,2,1,80,0,1
55858,-83.3333333333333,4,2,1,60,0,0
56035,-90.9090909090909,4,2,20,60,0,1
56211,-90.9090909090909,4,2,1,60,0,1
58505,-90.9090909090909,4,2,6,60,0,1
58682,-90.9090909090909,4,2,1,60,0,1
61329,-90.9090909090909,4,2,6,60,0,1
61682,-90.9090909090909,4,2,20,60,0,1
61858,-90.9090909090909,4,2,1,60,0,1
64152,-90.9090909090909,4,2,6,60,0,1
64329,-90.9090909090909,4,2,1,60,0,1
65917,-90.9090909090909,4,2,6,60,0,1
67152,-90.9090909090909,4,2,6,60,0,1
67329,-100,4,2,6,60,0,0
75976,-100,4,2,6,70,0,0
76505,-100,4,2,6,75,0,0
77211,-111.111111111111,4,2,6,50,0,0
77741,-55.5555555555556,4,2,6,50,0,0
77917,-28.5714285714286,4,2,1,60,0,0
78270,-28.5714285714286,4,2,20,60,0,0

[Colours]
Combo1 : 255,193,51
Combo2 : 9,108,168
Combo3 : 90,181,254

[HitObjects]
324,202,10858,6,0,P|359:253|356:308,1,107.999996704102,6|0,0:2|0:0,0:0:0:0:
285,322,11211,2,0,P|250:271|258:208,1,107.999996704102,2|0,3:2|0:0,0:0:0:0:
330,187,11564,6,0,L|375:193,1,35.9999989013672,2|0,3:2|0:0,0:0:0:0:
253,137,11741,1,2,1:2:0:0:
178,170,11917,1,6,0:2:0:0:
178,170,12094,1,0,1:0:0:0:
51,11,12270,6,0,P|72:91|77:136,1,107.999996704102,10|0,3:2|0:0,0:0:0:0:
268,69,12623,2,0,P|188:47|146:29,1,107.999996704102,2|0,3:2|0:0,0:0:0:0:
99,243,12976,2,0,P|157:184|194:157,1,107.999996704102,2|0,3:2|0:0,0:0:0:0:
57,112,13329,1,12,3:2:0:0:
79,366,13505,5,0,3:0:0:0:
79,366,13594,1,0,3:0:0:0:
79,366,13682,2,0,P|121:381|154:381,1,71.9999978027344,10|0,3:2|1:0,0:0:0:0:
168,258,14035,2,0,P|126:243|93:243,1,71.9999978027344,2|0,3:2|1:0,0:0:0:0:
161,384,14388,6,0,L|222:370,1,35.9999989013672,2|0,3:2|0:0,0:0:0:0:
98,242,14564,1,2,1:2:0:0:
93,328,14741,1,6,0:2:0:0:
109,160,14917,1,0,1:0:0:0:
277,289,15094,6,0,P|279:240|301:159,1,107.999996704102,10|0,3:2|0:0,0:0:0:0:
472,211,15446,2,0,P|428:233|347:255,1,107.999996704102,2|0,3:2|0:0,0:0:0:0:
294,71,15799,2,0,P|335:97|394:156,1,107.999996704102,2|0,3:2|0:0,0:0:0:0:
275,305,16152,1,12,3:2:0:0:
203,126,16329,5,0,3:0:0:0:
203,126,16417,1,0,3:0:0:0:
203,126,16505,2,0,L|89:151,1,107.999996704102,10|0,3:2|0:0,0:0:0:0:
217,217,16858,2,0,L|111:240,1,107.999996704102,2|0,3:2|0:0,0:0:0:0:
275,305,17211,6,0,L|284:251,1,35.9999989013672,2|0,3:2|0:0,0:0:0:0:
279,323,17388,1,2,1:2:0:0:
179,349,17564,1,6,0:2:0:0:
79,375,17741,1,0,1:0:0:0:
286,180,17917,6,0,P|341:181|385:234,1,107.999996704102,10|2,3:2|1:2,0:0:0:0:
393,312,18270,2,0,P|366:263|390:199,1,107.999996704102,2|0,3:2|0:0,0:0:0:0:
454,153,18623,2,0,P|425:200|357:211,1,107.999996704102,2|0,3:2|0:0,0:0:0:0:
286,180,18976,1,12,3:2:0:0:
206,363,19152,5,0,3:0:0:0:
206,363,19241,1,0,3:0:0:0:
206,363,19329,2,0,P|259:344|294:340,1,71.9999978027344,10|0,3:2|1:0,0:0:0:0:
92,226,19682,2,0,P|111:279|115:314,1,71.9999978027344,2|0,3:2|1:0,0:0:0:0:
215,170,20035,1,2,3:2:0:0:
264,111,20211,2,0,P|299:118|332:132,2,71.9999978027344,2|6|0,1:2|0:2|1:0,0:0:0:0:
45,102,20741,6,0,P|86:117|99:188,1,107.999996704102,10|0,3:2|0:0,0:0:0:0:
18,339,21094,2,0,P|76:301|131:294,1,107.999996704102,10|0,3:2|0:0,0:0:0:0:
214,232,21446,2,0,P|272:270|327:277,1,107.999996704102,10|0,3:2|0:0,0:0:0:0:
311,284,21799,1,4,3:2:0:0:
103,174,21976,2,0,L|115:219,1,35.9999989013672,0|0,3:2|3:2,0:0:0:0:
246,355,22152,5,6,0:0:0:0:
306,306,22329,1,2,1:2:0:0:
310,282,22417,1,2,0:0:0:0:
313,254,22505,1,6,3:2:0:0:
368,362,22682,1,2,1:2:0:0:
371,347,22770,1,2,0:0:0:0:
398,341,22858,6,0,L|450:333,1,37.9999989852906,2|2,3:2|0:0,0:0:0:0:
391,266,23035,2,0,L|443:258,1,37.9999989852906,2|2,1:2|0:0,0:0:0:0:
320,111,23211,6,0,L|314:198,1,75.9999979705811,6|2,3:2|1:2,0:0:0:0:
314,208,23476,1,2,0:0:0:0:
314,208,23564,1,0,3:2:0:0:
471,133,23741,5,2,1:2:0:0:
482,60,23917,1,6,3:2:0:0:
412,47,24094,1,2,1:2:0:0:
398,119,24270,1,2,3:2:0:0:
284,21,24446,5,0,1:2:0:0:
281,33,24535,1,0,1:2:0:0:
247,52,24623,2,0,L|139:37,1,92.0000017547608,14|8,3:2|3:2,0:0:0:0:
3,252,24976,6,0,P|62:226|101:185,1,113.999996955872,2|0,3:2|0:0,0:0:0:0:
111,170,25329,2,0,L|96:86,1,75.9999979705811,6|0,3:2|1:2,0:0:0:0:
225,238,25682,1,2,3:2:0:0:
151,250,25858,2,0,L|76:263,2,75.9999979705811,2|6|2,1:2|3:2|1:2,0:0:0:0:
292,376,26388,6,0,P|250:336|198:315,1,113.999996955872,10|0,3:2|0:0,0:0:0:0:
298,265,26741,2,0,P|284:320|292:376,1,113.999996955872,6|0,3:2|1:2,0:0:0:0:
198,315,27094,2,0,P|252:298|297:264,1,113.999996955872,10|0,3:2|0:0,0:0:0:0:
291,375,27446,1,14,3:2:0:0:
484,233,27623,5,10,3:2:0:0:
484,233,27711,1,0,0:0:0:0:
484,233,27799,2,0,P|498:206|502:178,1,37.9999989852906,2|0,3:2|0:0,0:0:0:0:
422,166,27976,2,0,P|408:193|404:221,1,37.9999989852906,2|0,1:2|0:0,0:0:0:0:
511,315,28152,1,6,3:2:0:0:
455,369,28329,1,2,1:2:0:0:
379,218,28505,5,2,3:0:0:0:
330,203,28594,1,0,0:0:0:0:
283,216,28682,1,2,1:2:0:0:
249,251,28770,1,2,0:0:0:0:
239,300,28858,1,6,3:2:0:0:
239,300,28946,1,2,0:0:0:0:
239,300,29035,2,0,L|247:343,1,37.9999989852906,2|2,1:2|0:0,0:0:0:0:
87,272,29211,5,2,3:2:0:0:
160,245,29388,1,2,1:2:0:0:
233,97,29564,5,6,3:2:0:0:
218,173,29741,1,2,1:2:0:0:
308,302,29917,5,2,3:2:0:0:
249,251,30094,1,2,1:2:0:0:
74,348,30270,2,0,L|-14:333,1,75.9999979705811,14|10,3:2|3:2,0:0:0:0:
182,84,30623,6,0,P|217:106|214:177,1,113.999996955872,2|0,3:2|0:0,0:0:0:0:
190,199,30976,2,0,L|105:188,1,75.9999979705811,6|0,3:2|1:2,0:0:0:0:
230,18,31329,1,2,3:2:0:0:
303,73,31505,2,0,L|340:77,1,37.9999989852906,2|0,1:2|1:2,0:0:0:0:
291,82,31682,1,4,3:2:0:0:
420,47,31858,1,2,1:2:0:0:
505,273,32035,6,0,P|469:238|399:217,1,113.999996955872,10|0,3:2|2:2,0:0:0:0:
245,132,32388,2,0,P|286:93|340:77,1,113.999996955872,14|0,3:2|0:0,0:0:0:0:
409,217,32741,2,0,P|379:244|340:256,1,80,10|14,3:2|3:2,0:0:0:0:
246,270,33270,5,2,3:2:0:0:
246,270,33358,1,2,3:2:0:0:
246,270,33446,2,0,L|241:359,1,80,6|0,3:2|0:0,0:0:0:0:
251,357,33799,1,8,0:0:0:0:
93,265,33976,2,0,P|152:251|195:233,1,80,0|8,1:1|0:0,0:0:0:0:
19,338,34329,2,0,P|78:352|121:370,1,80,0|8,1:1|0:0,0:0:0:0:
0,245,34682,1,0,1:1:0:0:
234,363,34858,6,0,P|254:290|242:201,1,160,10|8,0:0|0:0,0:0:0:0:
343,68,35388,2,0,P|390:84|410:121,1,80,0|8,1:1|0:0,0:0:0:0:
338,144,35741,1,0,1:1:0:0:
188,106,35917,2,0,L|180:66,1,40,8|0,0:0|0:0,0:0:0:0:
258,63,36094,2,0,L|265:103,1,40,0|0,1:1|3:1,0:0:0:0:
76,199,36270,6,0,P|33:181|-18:172,1,80,10|0,0:0|0:0,0:0:0:0:
188,106,36623,1,8,0:0:0:0:
279,224,36799,2,0,P|288:262|304:299,1,80,0|8,1:1|0:0,0:0:0:0:
192,376,37152,2,0,P|155:360|116:350,1,80,0|8,1:1|0:0,0:0:0:0:
178,250,37505,1,0,1:1:0:0:
352,384,37682,5,10,0:0:0:0:
408,332,37858,2,0,B|416:261|416:261|413:252|413:252|428:161,1,160,2|2,0:0|1:2,0:0:0:0:
309,21,38388,5,10,0:0:0:0:
330,162,38564,1,2,1:2:0:0:
249,102,38741,1,10,0:0:0:0:
390,79,38917,1,2,1:2:0:0:
222,215,39094,6,0,P|159:197|115:195,1,80,6|0,3:2|0:0,0:0:0:0:
4,300,39446,1,8,0:0:0:0:
115,384,39623,2,0,P|119:327|128:292,1,80,0|8,1:1|0:0,0:0:0:0:
56,123,39976,2,0,P|52:180|43:215,1,80,0|8,1:1|0:0,0:0:0:0:
4,300,40329,1,0,1:1:0:0:
260,312,40505,6,0,L|351:291,1,80,10|0,0:0|0:0,0:0:0:0:
489,182,40858,1,8,0:0:0:0:
354,110,41035,2,0,L|375:201,1,80,0|8,1:1|0:0,0:0:0:0:
427,360,41388,2,0,L|444:282,1,80,0|8,1:1|0:0,0:0:0:0:
494,29,41741,5,0,1:1:0:0:
461,36,41829,1,0,3:1:0:0:
435,42,41917,1,10,0:0:0:0:
330,9,42094,1,0,1:0:0:0:
270,153,42270,5,8,0:0:0:0:
447,112,42446,1,0,1:1:0:0:
330,9,42623,5,8,0:0:0:0:
382,212,42799,1,0,1:1:0:0:
165,29,42976,5,8,0:0:0:0:
147,256,43152,1,0,1:1:0:0:
154,187,43329,5,2,3:2:0:0:
154,187,44035,2,0,L|206:173,1,32,10|0,0:0|0:0,0:0:0:0:
79,202,44211,2,0,L|48:210,1,32,2|0,3:2|0:0,0:0:0:0:
100,280,44388,1,10,0:0:0:0:
108,129,44564,5,2,3:2:0:0:
113,84,44652,1,2,3:2:0:0:
115,37,44741,2,0,P|151:78|206:77,1,88.000002685547,4|0,3:2|1:0,0:0:0:0:
334,6,45094,2,0,L|244:18,1,88.000002685547,6|0,3:2|1:0,0:0:0:0:
257,235,45446,6,0,L|271:92,1,132.00000402832,2|0,3:2|0:0,0:0:0:0:
267,220,45799,2,0,L|277:125,1,88.000002685547,6|0,3:2|1:0,0:0:0:0:
475,279,46152,6,0,P|393:305|370:390,1,176.000005371094,2|6,3:2|3:2,0:0:0:0:
383,285,46682,1,2,1:2:0:0:
133,275,46858,5,2,3:2:0:0:
97,342,47035,1,0,1:2:0:0:
171,203,47211,5,8,0:0:0:0:
130,138,47388,1,2,2:0:0:0:
133,132,47476,1,2,2:0:0:0:
104,114,47564,2,0,P|56:122|6:142,1,88.000002685547,2|0,3:2|1:0,0:0:0:0:
279,238,47917,2,0,P|327:230|383:211,1,88.000002685547,6|0,3:2|1:0,0:0:0:0:
197,0,48270,6,0,P|186:46|189:97,1,88.000002685547,2|0,3:2|1:0,0:0:0:0:
269,324,48623,2,0,P|280:278|275:223,1,88.000002685547,10|0,3:2|1:0,0:0:0:0:
34,298,48976,6,0,L|92:282,1,44.0000013427735,2|0,3:3|0:0,0:0:0:0:
218,159,49152,2,0,L|180:203,1,44.0000013427735,2|0,0:3|0:0,0:0:0:0:
148,377,49329,2,0,L|150:317,1,44.0000013427735,2|0,3:3|0:0,0:0:0:0:
72,161,49505,2,0,L|103:209,1,44.0000013427735,2|0,0:3|0:0,0:0:0:0:
259,305,49682,2,0,L|203:286,1,44.0000013427735,2|0,3:3|0:0,0:0:0:0:
280,337,49858,1,0,0:0:0:0:
433,120,50035,6,0,P|455:164|424:204,1,88.000002685547,8|0,3:2|3:0,0:0:0:0:
422,224,50299,1,0,3:0:0:0:
388,244,50388,2,0,L|277:219,1,88.000002685547,2|0,3:2|1:0,0:0:0:0:
179,85,50741,2,0,L|288:61,1,88.000002685547,6|0,3:2|1:0,0:0:0:0:
75,271,51094,6,0,P|37:228|51:141,1,132.00000402832,2|0,3:2|0:0,0:0:0:0:
70,251,51446,2,0,P|44:222|53:173,1,88.000002685547,6|0,3:2|1:0,0:0:0:0:
223,0,51799,5,2,3:2:0:0:
407,59,51976,1,2,1:2:0:0:
149,140,52152,5,6,3:2:0:0:
50,176,52329,1,2,1:2:0:0:
285,266,52505,6,0,P|294:210|299:179,1,88.000002685547,2|0,3:2|1:2,0:0:0:0:
147,383,52858,2,0,P|138:327|129:293,1,88.000002685547,8|2,0:0|3:2,0:0:0:0:
122,275,53123,5,2,2:0:0:0:
122,275,53211,2,0,L|17:267,1,88.000002685547,2|0,3:2|1:0,0:0:0:0:
219,182,53564,2,0,L|307:188,1,88.000002685547,6|0,3:2|1:0,0:0:0:0:
397,367,53917,6,0,P|347:357|342:279,1,132.00000402832,2|0,3:2|0:0,0:0:0:0:
351,267,54270,2,0,L|441:283,1,88.000002685547,10|0,3:2|1:0,0:0:0:0:
472,59,54623,5,2,0:3:0:0:
318,13,54799,1,2,0:3:0:0:
246,86,54976,1,2,3:3:0:0:
61,13,55152,5,2,0:3:0:0:
19,213,55329,5,2,3:3:0:0:
55,253,55417,1,2,3:3:0:0:
106,230,55505,1,2,3:2:0:0:
100,174,55594,1,2,3:3:0:0:
44,163,55682,1,2,3:2:0:0:
163,335,55858,2,0,L|221:325,1,47.9999985351563,0|0,3:0|3:0,0:0:0:0:
303,144,56035,6,0,L|291:238,1,88.000002685547,4|0,3:2|1:0,0:0:0:0:
456,362,56388,2,0,L|445:273,1,88.000002685547,6|0,3:2|1:0,0:0:0:0:
152,341,56741,2,0,P|204:313|203:239,1,132.00000402832,2|0,3:2|0:0,0:0:0:0:
137,269,57094,2,0,L|48:255,1,88.000002685547,6|0,3:2|1:0,0:0:0:0:
180,27,57446,6,0,L|149:208,1,176.000005371094,2|6,3:2|3:2,0:0:0:0:
137,109,57976,1,2,1:2:0:0:
359,27,58152,5,2,3:2:0:0:
462,57,58329,1,0,1:2:0:0:
263,165,58505,5,8,0:0:0:0:
150,200,58682,1,2,3:2:0:0:
153,184,58770,1,2,2:0:0:0:
128,161,58858,2,0,L|26:176,1,88.000002685547,2|0,3:2|1:0,0:0:0:0:
267,281,59211,2,0,L|357:267,1,88.000002685547,6|0,3:2|1:0,0:0:0:0:
201,15,59564,6,0,L|186:105,1,88.000002685547,2|0,3:2|1:0,0:0:0:0:
339,354,59917,2,0,L|353:267,1,88.000002685547,10|0,3:2|1:0,0:0:0:0:
2,280,60270,6,0,L|53:266,1,44.0000013427735,2|0,3:3|0:0,0:0:0:0:
87,125,60446,2,0,L|101:176,1,44.0000013427735,2|0,0:3|0:0,0:0:0:0:
254,220,60623,2,0,L|203:234,1,44.0000013427735,2|0,3:3|0:0,0:0:0:0:
155,384,60799,2,0,L|141:333,1,44.0000013427735,2|0,0:3|0:0,0:0:0:0:
2,282,60976,2,0,L|53:268,1,44.0000013427735,2|0,3:3|0:0,0:0:0:0:
125,252,61152,1,0,0:0:0:0:
0,22,61329,6,0,P|-9:59|26:105,1,88.000002685547,8|0,0:0|3:0,0:0:0:0:
43,115,61594,1,0,3:0:0:0:
87,125,61682,2,0,L|180:102,1,88.000002685547,2|0,3:2|1:0,0:0:0:0:
334,21,62035,2,0,L|240:2,1,88.000002685547,6|0,3:2|1:0,0:0:0:0:
392,297,62388,6,0,P|430:254|413:171,1,132.00000402832,2|0,3:2|0:0,0:0:0:0:
327,149,62741,2,0,P|320:187|355:226,1,88.000002685547,6|0,3:2|1:0,0:0:0:0:
177,362,63094,6,0,P|108:329|39:330,1,132.00000402832,2|0,3:2|0:0,0:0:0:0:
195,382,63446,1,6,3:2:0:0:
296,272,63623,1,2,1:2:0:0:
132,118,63799,6,0,P|141:174|149:210,1,88.000002685547,2|0,3:2|1:2,0:0:0:0:
311,358,64152,2,0,P|302:302|294:266,1,88.000002685547,8|2,0:0|3:2,0:0:0:0:
288,251,64417,5,2,2:0:0:0:
288,251,64505,2,0,L|176:269,1,88.000002685547,2|0,3:2|1:0,0:0:0:0:
378,65,64858,2,0,L|467:51,1,88.000002685547,6|0,3:2|1:0,0:0:0:0:
145,329,65211,6,0,P|95:319|92:238,1,132.00000402832,2|0,3:2|0:0,0:0:0:0:
101,237,65564,2,0,L|117:146,1,88.000002685547,10|0,3:2|1:0,0:0:0:0:
474,53,65917,5,10,3:2:0:0:
495,144,66094,1,0,3:2:0:0:
152,0,66270,5,10,3:2:0:0:
106,163,66446,1,2,3:2:0:0:
358,292,66623,5,10,3:2:0:0:
362,233,66711,1,10,3:2:0:0:
368,174,66799,1,10,3:2:0:0:
372,117,66888,1,10,3:2:0:0:
379,59,66976,1,10,3:2:0:0:
358,292,67152,2,0,L|298:285,1,44.0000013427735,10|10,3:2|3:2,0:0:0:0:
80,128,67329,5,14,0:2:0:0:
143,350,67505,1,0,1:2:0:0:
143,350,67594,1,2,0:2:0:0:
143,350,67682,2,0,P|186:315|150:202,1,160,8|0,0:2|3:2,0:0:0:0:
121,273,68211,1,2,1:2:0:0:
277,326,68388,1,10,0:2:0:0:
339,271,68564,1,2,1:2:0:0:
181,124,68741,6,0,L|116:134,1,40,2|0,3:2|0:0,0:0:0:0:
290,15,68917,1,0,1:2:0:0:
290,15,69005,1,2,0:0:0:0:
290,15,69094,2,0,P|277:67|272:193,1,160,8|0,0:2|3:2,0:0:0:0:
286,243,69623,1,0,1:2:0:0:
190,45,69799,2,0,P|183:71|181:134,1,80,8|0,0:2|3:2,0:0:0:0:
186,153,70064,1,0,3:2:0:0:
196,184,70152,5,14,0:2:0:0:
392,95,70329,1,0,1:2:0:0:
392,95,70417,1,2,0:0:0:0:
392,95,70505,2,0,B|385:171|385:171|389:184|389:184|384:264,1,160,10|0,0:2|3:2,0:0:0:0:
129,360,71035,5,2,1:2:0:0:
217,318,71211,1,10,0:2:0:0:
280,384,71388,1,2,1:2:0:0:
50,311,71564,5,2,3:2:0:0:
224,210,71829,1,2,0:0:0:0:
280,384,72094,1,2,1:2:0:0:
102,220,72270,6,0,P|69:153|75:113,1,80,2|0,3:2|1:2,0:0:0:0:
96,77,72623,1,10,0:2:0:0:
308,10,72799,1,0,3:2:0:0:
305,22,72888,1,0,3:2:0:0:
331,36,72976,6,0,L|423:24,1,80,14|0,0:2|1:2,0:0:0:0:
277,125,73241,1,2,0:0:0:0:
264,152,73329,2,0,L|294:318,1,160,8|0,0:2|3:2,0:0:0:0:
381,199,73858,1,2,1:2:0:0:
176,143,74035,2,0,L|191:226,1,80,10|2,0:2|1:2,0:0:0:0:
77,369,74388,6,0,P|19:337|20:295,1,80,2|0,3:2|1:2,0:0:0:0:
28,210,74652,1,2,0:0:0:0:
28,210,74741,2,0,L|130:224,1,80,8|0,0:2|1:2,0:0:0:0:
282,380,75094,2,0,L|243:284,1,80,0|0,3:2|1:2,0:0:0:0:
306,84,75446,2,0,L|242:165,1,80,8|0,0:2|3:2,0:0:0:0:
230,187,75711,1,0,3:2:0:0:
201,223,75799,5,14,0:2:0:0:
75,99,75976,1,0,3:2:0:0:
68,74,76064,1,2,3:2:0:0:
61,50,76152,1,8,0:2:0:0:
92,25,76241,1,0,0:0:0:0:
128,17,76329,1,0,3:2:0:0:
168,17,76417,1,0,3:2:0:0:
203,33,76505,1,8,0:2:0:0:
230,62,76594,1,0,3:2:0:0:
242,97,76682,1,2,3:2:0:0:
256,146,76770,1,0,3:2:0:0:
280,186,76858,1,10,0:2:0:0:
331,210,76946,1,0,3:2:0:0:
385,214,77035,1,2,3:2:0:0:
433,188,77123,1,0,3:2:0:0:
466,141,77211,6,0,P|470:87|481:41,1,71.9999978027344,2|0,0:0|0:0,0:0:0:0:
418,18,77476,2,0,P|369:41|324:54,1,71.9999978027344,2|0,0:0|0:0,0:0:0:0:
334,122,77741,6,0,P|378:152|412:184,1,71.9999978027344,2|0,0:0|0:0,0:0:0:0:
336,340,77917,6,0,P|305:339|331:328,6,70.000000667572,4|4|4|4|4|4|4,0:0|0:0|0:0|0:0|0:0|0:0|0:0,0:0:0:0:
445,221,78270,1,4,3:2:0:0:
