osu file format v14

[General]
AudioFilename: audio.mp3
AudioLeadIn: 0
PreviewTime: 44654
Countdown: 0
SampleSet: Soft
StackLeniency: 0.6
Mode: 0
LetterboxInBreaks: 0
WidescreenStoryboard: 1

[Editor]
DistanceSpacing: 1.1
BeatDivisor: 4
GridSize: 32
TimelineZoom: 1.3

[Metadata]
Title:Chou Jou Genki Show*Idol ch@ng!
TitleUnicode:チョー↑元気Show☆アイドルch@ng!
Artist:Matsuda Arisa (CV: Murakawa Rie)
ArtistUnicode:松田 亜利沙 (CV: 村川 梨衣)
Creator:Seolv
Version:Normal
Source:アイドルマスター ミリオンライブ!
Tags:the idolmaster million live idolm@ster j-pop jpop japanese pop idols video game anime [_l_u_k_a_s_] lukas
BeatmapID:2412641
BeatmapSetID:1156070

[Difficulty]
HPDrainRate:4
CircleSize:3.5
OverallDifficulty:4.5
ApproachRate:5
SliderMultiplier:1
SliderTickRate:1

[Events]
//Background and Video events
0,0,"idols.jpg",0,0
//Break Periods
//Storyboard Layer 0 (Background)
//Storyboard Layer 1 (Fail)
//Storyboard Layer 2 (Pass)
//Storyboard Layer 3 (Foreground)
//Storyboard Layer 4 (Overlay)
//Storyboard Sound Samples

[TimingPoints]
9447,352.941176470588,4,2,2,60,1,0
11035,-100,4,2,1,60,0,0
22153,-100,4,2,2,60,0,0
22329,-100,4,2,1,60,0,0
33446,-100,4,2,2,65,0,0
39094,-100,4,2,2,70,0,0
41917,-100,4,2,2,75,0,0
43329,-100,4,2,2,40,0,0
44035,-100,4,2,2,60,0,0
44741,-100,4,2,20,80,0,1
44917,-100,4,2,1,80,0,1
47211,-100,4,2,6,80,0,1
47388,-100,4,2,1,80,0,1
50035,-100,4,2,6,80,0,1
50388,-100,4,2,20,80,0,1
50564,-100,4,2,1,80,0,1
52858,-100,4,2,6,80,0,1
53035,-100,4,2,1,80,0,1
55858,-100,4,2,1,60,0,1
56035,-100,4,2,20,60,0,1
56211,-100,4,2,1,60,0,1
58505,-100,4,2,6,60,0,1
58682,-100,4,2,1,60,0,1
61329,-100,4,2,6,60,0,1
61682,-100,4,2,20,60,0,1
61858,-100,4,2,1,60,0,1
64152,-100,4,2,6,60,0,1
64329,-100,4,2,1,60,0,1
65917,-100,4,2,6,60,0,1
67329,-100,4,2,6,60,0,0
75976,-100,4,2,6,70,0,0
76505,-100,4,2,6,75,0,0
77211,-100,4,2,6,50,0,0
77917,-100,4,2,1,60,0,0
78270,-100,4,2,20,60,0,0

[Colours]
Combo1 : 255,193,51
Combo2 : 9,108,168
Combo3 : 90,181,254

[HitObjects]
326,178,10858,6,0,P|306:125|307:61,2,100,6|2|2,0:2|3:2|3:2,0:0:0:0:
355,224,11741,1,2,1:2:0:0:
355,224,11917,1,6,0:2:0:0:
440,154,12270,2,0,P|436:104|417:58,2,100,10|2|2,3:2|3:2|3:2,0:0:0:0:
382,248,13329,1,12,3:2:0:0:
281,293,13682,6,0,P|214:258|186:257,2,100,10|2|2,3:2|3:2|3:2,0:0:0:0:
315,342,14564,1,2,1:2:0:0:
315,342,14741,1,6,0:2:0:0:
424,344,15094,1,10,3:2:0:0:
471,244,15446,2,0,P|465:190|446:148,1,100,2|2,3:2|3:2,0:0:0:0:
379,61,16152,1,12,3:2:0:0:
336,162,16505,6,0,B|293:169|293:169|287:167|287:167|224:174,2,100,10|2|2,3:2|3:2|3:2,0:0:0:0:
446,148,17564,1,6,0:2:0:0:
507,239,17917,2,0,P|514:287|490:330,2,100,10|2|2,3:2|3:2|3:2,0:0:0:0:
446,148,18976,1,12,3:2:0:0:
358,214,19329,6,0,P|294:193|250:191,1,100,10|2,3:2|3:2,0:0:0:0:
309,91,20035,2,0,P|333:93|357:102,2,50,2|2|6,3:2|1:2|0:2,0:0:0:0:
208,135,20741,1,10,3:2:0:0:
98,127,21094,1,10,3:2:0:0:
58,24,21446,1,10,3:2:0:0:
280,34,22152,6,0,P|215:63|210:139,1,150,6|2,0:0|1:2,0:0:0:0:
229,185,22858,2,0,L|293:173,2,50,2|2|6,3:2|1:2|3:2,0:0:0:0:
66,213,23741,2,0,L|55:327,1,100,2|2,1:2|1:2,0:0:0:0:
52,368,24270,1,2,3:2:0:0:
158,351,24623,1,14,3:2:0:0:
263,382,24976,6,0,L|379:362,2,100,2|6|2,3:2|3:2|3:2,0:0:0:0:
208,372,25858,1,2,1:2:0:0:
208,372,26035,1,6,3:2:0:0:
239,266,26388,2,0,L|355:246,2,100,10|6|10,3:2|3:2|3:2,0:0:0:0:
131,289,27446,1,14,3:2:0:0:
34,236,27799,6,0,P|3:185|38:104,1,150,2|2,3:2|1:2,0:0:0:0:
78,74,28505,2,0,L|199:88,1,100,2|6,3:0|3:2,0:0:0:0:
287,93,29211,2,0,P|315:65|315:1,2,100,2|6|2,3:2|3:2|3:2,0:0:0:0:
237,118,30094,1,2,1:2:0:0:
237,118,30270,1,14,3:2:0:0:
146,180,30623,6,0,L|138:295,1,100,2|6,3:2|3:2,0:0:0:0:
222,351,31329,1,2,3:2:0:0:
222,351,31505,2,0,L|228:251,1,100,2|2,1:2|1:2,0:0:0:0:
234,196,32035,2,0,P|276:218|330:202,2,100,10|14|10,3:2|3:2|3:2,0:0:0:0:
82,36,33446,6,0,P|70:94|172:25,1,300,6|8,3:2|0:0,0:0:0:0:
284,1,34858,2,0,B|370:44|370:44|381:119|381:119|504:163,1,300,10|8,0:0|0:0,0:0:0:0:
499,272,36270,2,0,P|457:245|304:396,1,300,10|8,0:0|0:0,0:0:0:0:
196,351,37682,5,10,0:0:0:0:
196,351,37858,2,0,L|80:342,1,100,2|2,0:0|1:2,0:0:0:0:
41,337,38388,2,0,P|10:308|31:241,1,100,10|10,0:0|0:0,0:0:0:0:
95,177,39094,6,0,P|142:114|-1:103,1,300,6|8,3:2|0:0,0:0:0:0:
11,206,40505,2,0,B|51:173|132:186|160:260|160:260|223:275|270:229,1,300,10|8,0:0|0:0,0:0:0:0:
351,159,41917,5,10,0:0:0:0:
351,159,42094,2,0,P|357:66|366:46,2,100,0|0|0,1:0|1:1|1:1,0:0:0:0:
404,260,43152,1,0,1:1:0:0:
404,260,43329,1,2,3:2:0:0:
194,339,44035,6,0,L|124:324,2,50,10|2|10,0:0|3:2|0:0,0:0:0:0:
251,353,44564,1,2,3:2:0:0:
251,353,44741,6,0,P|226:281|231:242,1,100,4|6,3:2|3:2,0:0:0:0:
298,173,45446,2,0,P|295:123|274:78,1,100,2|6,3:2|3:2,0:0:0:0:
171,43,46152,2,0,L|66:62,1,100,2|6,3:2|3:2,0:0:0:0:
18,72,46682,1,2,1:2:0:0:
18,72,46858,2,0,P|6:118|47:167,1,100,2|8,3:2|0:0,0:0:0:0:
138,190,47564,6,0,L|250:169,2,100,2|6|2,3:2|3:2|3:2,0:0:0:0:
56,264,48623,1,10,3:2:0:0:
113,357,48976,2,0,L|170:346,1,50,2|2,3:3|0:3,0:0:0:0:
195,303,49329,2,0,L|252:292,1,50,2|2,3:3|0:3,0:0:0:0:
290,323,49682,1,2,3:3:0:0:
367,245,50035,1,8,3:2:0:0:
295,161,50388,6,0,P|272:116|279:60,1,100,2|6,3:2|3:2,0:0:0:0:
384,51,51094,2,0,P|407:96|400:152,1,100,2|6,3:2|3:2,0:0:0:0:
367,245,51799,2,0,L|306:255,2,50,2|2|6,3:2|1:2|3:2,0:0:0:0:
421,238,52329,1,2,1:2:0:0:
421,238,52505,1,2,3:2:0:0:
383,341,52858,1,8,0:0:0:0:
273,333,53211,6,0,L|170:321,1,100,2|6,3:2|3:2,0:0:0:0:
98,241,53917,2,0,L|201:229,1,100,2|10,3:2|3:2,0:0:0:0:
305,208,54623,2,0,L|311:149,2,50,2|2|2,0:3|0:3|3:3,0:0:0:0:
306,263,55152,1,2,0:3:0:0:
306,263,55329,2,0,L|354:297,2,50,2|2|2,3:3|3:2|3:2,0:0:0:0:
197,229,56035,6,0,P|168:178|177:118,1,100,4|6,3:2|3:2,0:0:0:0:
109,45,56741,2,0,P|79:95|22:117,1,100,2|6,3:2|3:2,0:0:0:0:
0,215,57446,2,0,P|58:215|106:253,1,100,2|6,3:2|3:2,0:0:0:0:
127,279,57976,1,2,1:2:0:0:
127,279,58152,2,0,P|170:302|219:300,1,100,2|8,3:2|0:0,0:0:0:0:
299,224,58858,6,0,L|411:203,2,100,2|6|2,3:2|3:2|3:2,0:0:0:0:
209,159,59917,1,10,3:2:0:0:
266,65,60270,2,0,L|315:55,1,50,2|2,3:3|0:3,0:0:0:0:
354,17,60623,2,0,L|403:26,1,50,2|2,3:3|0:3,0:0:0:0:
458,26,60976,1,2,3:3:0:0:
475,134,61329,1,8,0:0:0:0:
486,243,61682,6,0,P|436:239|392:262,1,100,2|6,3:2|3:2,0:0:0:0:
302,199,62388,2,0,P|274:239|272:289,1,100,2|6,3:2|3:2,0:0:0:0:
208,379,63094,2,0,L|98:362,1,100,2|6,3:2|3:2,0:0:0:0:
59,354,63623,1,2,1:2:0:0:
59,354,63799,1,2,3:2:0:0:
115,259,64152,1,8,0:0:0:0:
24,196,64505,6,0,L|12:93,1,100,2|6,3:2|3:2,0:0:0:0:
85,14,65211,2,0,L|188:2,1,100,2|10,3:2|3:2,0:0:0:0:
284,47,65917,2,0,P|310:91|294:144,1,100,10|10,3:2|3:2,0:0:0:0:
268,181,66446,1,2,3:2:0:0:
268,181,66623,2,0,L|204:187,2,50,10|10|10,3:2|3:2|3:2,0:0:0:0:
378,184,67329,6,0,P|431:233|383:354,1,200,14|0,0:2|3:2,0:0:0:0:
295,380,68388,2,0,L|271:314,1,50,10|2,0:0|0:0,0:0:0:0:
256,284,68741,2,0,L|373:263,2,100,2|8|0,3:2|0:2|3:2,0:0:0:0:
159,336,69799,1,8,0:2:0:0:
57,293,70152,6,0,B|39:205|39:205|45:199|45:199|26:93,1,200,14|0,0:2|3:2,0:0:0:0:
104,20,71211,2,0,L|166:33,1,50,8|2,1:2|0:2,0:0:0:0:
191,69,71564,2,0,L|276:52,2,75,2|2|2,3:2|0:0|1:2,0:0:0:0:
162,116,72270,2,0,P|146:163|175:208,1,100,2|10,3:2|0:2,0:0:0:0:
258,269,72976,5,14,0:2:0:0:
315,175,73329,2,0,P|364:162|434:234,1,150,8|2,0:2|1:2,0:0:0:0:
430,277,74035,2,0,L|421:338,1,50,10|2,0:2|1:2,0:0:0:0:
413,380,74388,1,2,3:2:0:0:
303,375,74741,2,0,L|186:366,1,100,8|0,0:2|3:2,0:0:0:0:
93,360,75446,6,0,L|84:298,1,50,8|0,0:2|3:2,0:0:0:0:
78,255,75799,1,14,0:2:0:0:
90,145,76152,2,0,L|204:153,1,100,8|8,0:2|0:2,0:0:0:0:
241,183,76682,1,2,3:2:0:0:
241,183,76858,2,0,L|297:171,1,50,10|2,0:2|3:2,0:0:0:0:
344,164,77211,1,2,0:0:0:0:
177,307,77917,6,0,L|121:295,1,50,4|4,0:0|0:0,0:0:0:0:
69,286,78270,1,4,3:2:0:0:
