osu file format v14

[General]
AudioFilename: audio.mp3
AudioLeadIn: 0
PreviewTime: 44654
Countdown: 0
SampleSet: Soft
StackLeniency: 0.7
Mode: 0
LetterboxInBreaks: 0
WidescreenStoryboard: 1

[Editor]
Bookmarks: 50389
DistanceSpacing: 1.2
BeatDivisor: 4
GridSize: 32
TimelineZoom: 1.6

[Metadata]
Title:Chou Jou Genki Show*Idol ch@ng!
TitleUnicode:チョー↑元気Show☆アイドルch@ng!
Artist:Matsuda Arisa (CV: Murakawa Rie)
ArtistUnicode:松田 亜利沙 (CV: 村川 梨衣)
Creator:Seolv
Version:Insane
Source:アイドルマスター ミリオンライブ!
Tags:the idolmaster million live idolm@ster j-pop jpop japanese pop idols video game anime [_l_u_k_a_s_] lukas
BeatmapID:2412640
BeatmapSetID:1156070

[Difficulty]
HPDrainRate:5
CircleSize:3.9
OverallDifficulty:7
ApproachRate:9
SliderMultiplier:1.6
SliderTickRate:1

[Events]
//Background and Video events
0,0,"idols.jpg",0,0
//Break Periods
//Storyboard Layer 0 (Background)
//Storyboard Layer 1 (Fail)
//Storyboard Layer 2 (Pass)
//Storyboard Layer 3 (Foreground)
//Storyboard Layer 4 (Overlay)
//Storyboard Sound Samples

[TimingPoints]
9447,352.941176470588,4,2,2,60,1,0
10858,-111.111111111111,4,2,2,60,0,0
11035,-111.111111111111,4,2,1,60,0,0
13681,-111.111111111111,4,2,1,60,0,0
22152,-105.263157894737,4,2,1,60,0,0
22153,-105.263157894737,4,2,2,60,0,0
22329,-105.263157894737,4,2,1,60,0,0
33093,-200,4,2,1,60,0,0
33446,-100,4,2,2,65,0,0
39094,-100,4,2,2,70,0,0
41917,-100,4,2,2,75,0,0
43329,-100,4,2,2,40,0,0
44034,-125,4,2,2,40,0,0
44035,-125,4,2,2,60,0,0
44387,-83.3333333333333,4,2,2,60,0,0
44741,-90.9090909090909,4,2,20,80,0,1
44917,-90.9090909090909,4,2,1,80,0,1
47211,-90.9090909090909,4,2,6,80,0,1
47388,-90.9090909090909,4,2,1,80,0,1
50035,-90.9090909090909,4,2,6,80,0,1
50388,-90.9090909090909,4,2,20,80,0,1
50564,-90.9090909090909,4,2,1,80,0,1
52858,-90.9090909090909,4,2,6,80,0,1
53035,-90.9090909090909,4,2,1,80,0,1
55328,-83.3333333333333,4,2,1,80,0,1
55858,-83.3333333333333,4,2,1,60,0,1
56035,-90.9090909090909,4,2,20,60,0,1
56211,-90.9090909090909,4,2,1,60,0,1
58505,-90.9090909090909,4,2,6,60,0,1
58682,-90.9090909090909,4,2,1,60,0,1
61329,-90.9090909090909,4,2,6,60,0,1
61682,-90.9090909090909,4,2,20,60,0,1
61858,-90.9090909090909,4,2,1,60,0,1
64152,-90.9090909090909,4,2,6,60,0,1
64329,-90.9090909090909,4,2,1,60,0,1
65917,-90.9090909090909,4,2,6,60,0,1
67329,-111.111111111111,4,2,6,60,0,0
74740,-100,4,2,6,60,0,0
75976,-100,4,2,6,70,0,0
76505,-100,4,2,6,75,0,0
77211,-111.111111111111,4,2,6,50,0,0
77916,-50,4,2,6,50,0,0
77917,-50,4,2,1,60,0,0
78269,-40,4,2,1,60,0,0
78270,-40,4,2,20,60,0,0

[Colours]
Combo1 : 255,193,51
Combo2 : 9,108,168
Combo3 : 90,181,254

[HitObjects]
207,261,10858,6,0,P|277:228|314:224,1,107.999996704102,6|0,0:2|0:0,0:0:0:0:
330,204,11211,2,0,P|357:212|328:228,1,71.9999978027344,2|0,3:2|1:0,0:0:0:0:
220,135,11564,1,2,3:2:0:0:
186,69,11741,1,2,1:2:0:0:
208,0,11917,1,6,0:2:0:0:
220,135,12094,1,0,1:0:0:0:
115,212,12270,6,0,P|54:204|0:189,1,107.999996704102,10|0,3:2|0:0,0:0:0:0:
0,164,12623,2,0,P|16:141|21:174,1,71.9999978027344,2|0,3:2|1:0,0:0:0:0:
29,325,12976,1,2,3:2:0:0:
220,135,13329,1,12,3:2:0:0:
240,275,13505,5,0,3:0:0:0:
240,275,13594,1,0,3:0:0:0:
240,275,13682,2,0,B|192:291|192:291|190:295|190:295|134:315,1,107.999996704102,10|0,3:2|0:0,0:0:0:0:
93,318,14035,2,0,B|79:284|79:284|114:272,1,71.9999978027344,2|0,3:2|1:0,0:0:0:0:
278,356,14388,1,2,3:2:0:0:
354,345,14564,1,2,1:2:0:0:
430,334,14741,1,6,0:2:0:0:
278,356,14917,1,0,1:0:0:0:
332,212,15094,6,0,P|382:206|413:260,1,107.999996704102,10|0,3:2|0:0,0:0:0:0:
431,266,15446,2,0,L|508:249,1,71.9999978027344,2|0,3:2|1:0,0:0:0:0:
398,161,15799,1,2,3:2:0:0:
278,356,16152,1,12,3:2:0:0:
205,320,16329,5,0,3:0:0:0:
205,320,16417,1,0,3:0:0:0:
205,320,16505,2,0,B|132:342|132:342|118:342|101:324,1,107.999996704102,10|0,3:2|0:0,0:0:0:0:
90,304,16858,2,0,P|101:279|103:309,1,71.9999978027344,2|0,3:2|1:0,0:0:0:0:
23,189,17211,1,2,3:2:0:0:
58,119,17388,1,2,1:2:0:0:
132,103,17564,1,6,0:2:0:0:
23,189,17741,1,0,1:0:0:0:
208,204,17917,6,0,P|264:177|328:160,1,107.999996704102,10|2,3:2|1:2,0:0:0:0:
338,178,18270,2,0,P|282:187|266:196,1,71.9999978027344,2|0,3:2|1:0,0:0:0:0:
132,103,18623,2,0,P|122:47|113:31,1,71.9999978027344,2|0,3:2|1:0,0:0:0:0:
85,230,18976,1,12,3:2:0:0:
174,323,19152,5,0,3:0:0:0:
174,323,19241,1,0,3:0:0:0:
173,323,19329,2,0,P|221:302|255:297,1,71.9999978027344,10|0,3:2|1:0,0:0:0:0:
402,175,19682,2,0,P|367:166|334:150,1,71.9999978027344,2|0,3:2|1:0,0:0:0:0:
417,335,20035,1,2,3:2:0:0:
495,308,20211,1,2,1:2:0:0:
468,230,20388,1,6,0:2:0:0:
390,257,20564,1,0,1:0:0:0:
207,374,20741,6,0,L|294:352,1,71.9999978027344,10|0,3:2|0:0,0:0:0:0:
102,286,21094,2,0,L|15:264,1,71.9999978027344,10|0,3:2|1:0,0:0:0:0:
196,148,21446,2,0,P|214:210|215:255,1,107.999996704102,10|0,3:2|0:0,0:0:0:0:
211,274,21799,1,4,3:2:0:0:
277,154,21976,2,0,P|286:185|286:207,1,35.9999989013672,0|0,3:2|3:2,0:0:0:0:
350,266,22152,6,0,L|437:244,1,75.9999979705811,6|2,0:0|1:2,0:0:0:0:
436,257,22417,1,2,0:0:0:0:
436,257,22505,2,0,L|414:170,1,75.9999979705811,6|2,3:2|1:2,0:0:0:0:
427,171,22770,1,2,0:0:0:0:
427,171,22858,2,0,L|430:117,1,37.9999989852906,2|2,3:2|0:0,0:0:0:0:
436,52,23035,1,2,1:2:0:0:
328,18,23211,2,0,P|271:34|234:40,1,75.9999979705811,6|2,3:2|1:2,0:0:0:0:
225,37,23476,1,2,0:0:0:0:
225,37,23564,1,0,3:2:0:0:
132,69,23741,6,0,P|221:87|239:141,1,151.999995941162,2|2,1:2|1:2,0:0:0:0:
254,212,24270,2,0,P|247:244|243:289,1,75.9999979705811,2|0,3:2|1:2,0:0:0:0:
56,159,24623,1,14,3:2:0:0:
243,287,24976,6,0,P|303:267|324:179,2,151.999995941162,2|6|2,3:2|3:2|3:2,0:0:0:0:
174,248,25858,1,2,1:2:0:0:
85,339,26035,2,0,P|35:326|-4:327,1,75.9999979705811,6|2,3:2|1:2,0:0:0:0:
185,173,26388,6,0,P|174:231|177:282,1,75.9999979705811,10|0,3:2|1:2,0:0:0:0:
228,68,26741,2,0,P|172:87|129:115,1,75.9999979705811,6|0,3:2|1:2,0:0:0:0:
262,358,27094,6,0,P|298:348|332:331,1,75.9999979705811,10|0,3:2|1:2,0:0:0:0:
316,179,27446,2,0,P|313:217|305:253,1,75.9999979705811,14|10,3:2|3:2,0:0:0:0:
102,157,27799,5,2,3:2:0:0:
21,139,27976,1,2,1:2:0:0:
75,76,28152,1,6,3:2:0:0:
75,76,28329,1,2,1:2:0:0:
175,215,28505,1,2,3:0:0:0:
167,252,28594,1,0,0:0:0:0:
163,290,28682,1,2,1:2:0:0:
163,328,28770,1,2,0:0:0:0:
167,365,28858,2,0,L|214:346,2,37.9999989852906,6|2|2,3:2|0:0|1:2,0:0:0:0:
254,248,29211,6,0,B|319:259|319:259|321:265|321:265|407:282,2,151.999995941162,2|6|2,3:2|3:2|3:2,0:0:0:0:
325,304,30094,1,2,1:2:0:0:
433,206,30270,2,0,L|448:128,1,75.9999979705811,14|10,3:2|3:2,0:0:0:0:
235,66,30623,6,0,P|235:134|325:143,2,151.999995941162,2|6|2,3:2|3:2|3:2,0:0:0:0:
348,36,31505,1,2,1:2:0:0:
440,122,31682,2,0,L|432:218,1,75.9999979705811,4|2,3:2|1:2,0:0:0:0:
255,312,32035,5,10,3:2:0:0:
72,86,32388,1,14,3:2:0:0:
348,36,32741,1,10,3:2:0:0:
252,164,33094,6,0,L|202:155,1,40,14|2,3:2|3:2,0:0:0:0:
195,172,33358,1,2,3:2:0:0:
195,172,33446,1,6,3:2:0:0:
51,336,33799,5,8,0:0:0:0:
52,256,33976,2,0,P|53:309|44:368,1,80,0|8,1:1|0:0,0:0:0:0:
135,257,34329,2,0,P|136:310|127:369,1,80,0|8,1:1|0:0,0:0:0:0:
123,344,34682,1,0,1:1:0:0:
328,306,34858,5,10,0:0:0:0:
328,306,35211,1,8,0:0:0:0:
452,203,35388,2,0,P|435:239|431:291,1,80,0|8,1:1|0:0,0:0:0:0:
262,218,35741,2,0,P|301:214|348:192,1,80,0|8,1:1|0:0,0:0:0:0:
403,375,36094,1,0,1:1:0:0:
403,375,36182,1,0,3:1:0:0:
403,375,36270,1,10,0:0:0:0:
83,322,36623,5,8,0:0:0:0:
83,236,36799,2,0,L|172:240,1,80,0|8,1:1|0:0,0:0:0:0:
83,322,37152,2,0,L|172:326,1,80,0|8,1:1|0:0,0:0:0:0:
83,236,37505,1,0,1:1:0:0:
240,283,37682,5,10,0:0:0:0:
308,249,37858,2,0,P|357:200|335:106,1,160,2|2,0:0|1:2,0:0:0:0:
181,56,38388,1,10,0:0:0:0:
256,101,38564,1,2,1:2:0:0:
257,19,38741,1,10,0:0:0:0:
257,19,38917,1,2,1:2:0:0:
175,151,39094,6,0,P|100:129|44:123,1,120,6|0,3:2|0:0,0:0:0:0:
32,136,39446,1,8,0:0:0:0:
140,232,39623,2,0,P|80:214|35:209,1,80,0|8,1:1|0:0,0:0:0:0:
244,298,39976,2,0,P|229:237|211:196,1,80,0|8,1:1|0:0,0:0:0:0:
140,232,40329,1,0,1:1:0:0:
267,377,40505,6,0,B|325:363|325:363|330:358|330:358|401:340,1,120,10|0,0:0|0:0,0:0:0:0:
405,342,40858,1,8,0:0:0:0:
487,218,41035,2,0,L|473:307,1,80,0|8,1:1|0:0,0:0:0:0:
365,155,41388,2,0,L|379:244,1,80,0|8,1:1|0:0,0:0:0:0:
468,87,41741,5,0,1:1:0:0:
468,87,41829,1,0,3:1:0:0:
468,87,41917,1,10,0:0:0:0:
369,39,42094,1,0,1:0:0:0:
284,123,42270,5,8,0:0:0:0:
179,61,42446,1,0,1:1:0:0:
68,161,42623,5,8,0:0:0:0:
182,86,42799,1,0,1:1:0:0:
42,0,42976,2,0,P|45:40|75:73,1,80,8|0,0:0|1:1,0:0:0:0:
284,123,43329,5,2,3:2:0:0:
284,123,44035,2,0,P|269:189|279:276,1,128,10|10,0:0|0:0,0:0:0:0:
340,318,44564,2,0,P|349:295|343:267,1,47.9999985351563,2|2,3:2|3:2,0:0:0:0:
223,178,44741,6,0,L|91:200,1,132.00000402832,4|0,3:2|0:0,0:0:0:0:
80,201,45094,2,0,P|63:244|90:289,1,88.000002685547,6|0,3:2|1:0,0:0:0:0:
257,335,45446,2,0,L|271:248,1,88.000002685547,2|0,3:2|1:0,0:0:0:0:
208,91,45799,2,0,L|224:186,1,88.000002685547,6|0,3:2|1:0,0:0:0:0:
350,336,46152,6,0,P|392:280|501:293,1,176.000005371094,2|6,3:2|3:2,0:0:0:0:
432,348,46682,1,2,1:2:0:0:
442,159,46858,2,0,P|480:164|498:208,1,88.000002685547,2|0,3:2|1:2,0:0:0:0:
432,348,47211,1,8,0:0:0:0:
302,261,47388,5,2,2:0:0:0:
302,261,47476,1,2,2:0:0:0:
302,261,47564,2,0,B|267:271|267:271|263:277|263:277|207:295,1,88.000002685547,2|0,3:2|1:0,0:0:0:0:
157,384,47917,2,0,B|147:349|147:349|141:345|141:345|123:289,1,88.000002685547,6|0,3:2|1:0,0:0:0:0:
16,247,48270,2,0,B|51:237|51:237|55:231|55:231|111:213,1,88.000002685547,2|0,3:2|1:0,0:0:0:0:
153,103,48623,2,0,B|163:138|163:138|169:142|169:142|187:198,1,88.000002685547,10|0,3:2|1:0,0:0:0:0:
69,132,48976,5,2,3:3:0:0:
214,49,49152,1,2,0:3:0:0:
303,123,49329,1,2,3:3:0:0:
182,184,49505,1,2,0:3:0:0:
84,50,49682,1,2,3:3:0:0:
300,258,50035,5,8,3:2:0:0:
245,332,50211,1,0,3:0:0:0:
245,332,50299,1,0,3:0:0:0:
245,332,50388,2,0,L|103:356,1,132.00000402832,2|0,3:2|0:0,0:0:0:0:
96,355,50741,2,0,P|84:317|103:275,1,88.000002685547,6|0,3:2|1:0,0:0:0:0:
224,134,51094,2,0,L|213:247,1,88.000002685547,2|0,3:2|1:0,0:0:0:0:
106,149,51446,2,0,L|95:58,1,88.000002685547,6|0,3:2|1:0,0:0:0:0:
285,5,51799,5,2,3:2:0:0:
362,3,51976,1,2,1:2:0:0:
432,37,52152,1,6,3:2:0:0:
468,109,52329,1,2,1:2:0:0:
446,182,52505,2,0,L|350:171,1,88.000002685547,2|0,3:2|1:2,0:0:0:0:
216,320,52858,1,8,0:0:0:0:
297,369,53035,5,2,3:2:0:0:
297,368,53123,1,2,2:0:0:0:
297,368,53211,2,0,B|299:293|299:293|303:288|303:288|308:178,2,176.000005371094,2|6|2,3:2|3:2|3:2,0:0:0:0:
307,193,54270,1,10,3:2:0:0:
47,307,54623,5,2,0:3:0:0:
124,297,54799,1,2,0:3:0:0:
201,282,54976,1,2,3:3:0:0:
47,307,55152,1,2,0:3:0:0:
212,202,55329,6,0,L|165:191,1,47.9999985351563,2|2,3:3|3:3,0:0:0:0:
39,167,55505,2,0,L|85:177,1,47.9999985351563,2|2,3:2|3:3,0:0:0:0:
224,206,55682,1,2,3:2:0:0:
116,55,55858,2,0,L|126:101,1,47.9999985351563,0|0,3:0|3:0,0:0:0:0:
163,271,56035,6,0,B|214:284|214:284|219:290|219:290|294:304,1,132.00000402832,4|0,3:2|0:0,0:0:0:0:
303,305,56388,2,0,P|314:342|285:382,1,88.000002685547,6|0,3:2|1:0,0:0:0:0:
163,271,56741,2,0,L|150:161,1,88.000002685547,2|0,3:2|1:0,0:0:0:0:
283,93,57094,2,0,L|274:189,1,88.000002685547,6|0,3:2|1:0,0:0:0:0:
27,44,57446,6,0,B|98:59|98:59|100:63|100:63|208:85,1,176.000005371094,2|6,3:2|3:2,0:0:0:0:
283,93,57976,1,2,1:2:0:0:
408,216,58152,2,0,L|315:232,1,88.000002685547,2|0,3:2|1:2,0:0:0:0:
163,271,58505,1,8,0:0:0:0:
144,356,58682,5,2,3:2:0:0:
144,355,58770,1,2,2:0:0:0:
144,356,58858,2,0,B|151:321|151:321|156:315|156:315|164:259,1,88.000002685547,2|0,3:2|1:0,0:0:0:0:
196,68,59211,2,0,B|191:104|191:104|186:110|186:110|175:160,1,88.000002685547,6|0,3:2|1:0,0:0:0:0:
24,187,59564,2,0,B|59:194|59:194|65:199|65:199|121:207,1,88.000002685547,2|0,3:2|1:0,0:0:0:0:
317,239,59917,2,0,B|281:234|281:234|275:229|275:229|225:218,1,88.000002685547,10|0,3:2|1:0,0:0:0:0:
24,187,60270,5,2,3:3:0:0:
196,68,60446,1,2,0:3:0:0:
74,23,60623,1,2,3:3:0:0:
104,135,60799,1,2,0:3:0:0:
201,55,60976,2,0,P|263:65|303:67,1,88.000002685547,2|0,3:3|0:0,0:0:0:0:
439,138,61329,5,8,0:0:0:0:
341,221,61505,1,0,3:0:0:0:
341,221,61594,1,0,3:0:0:0:
341,221,61682,2,0,L|363:79,1,132.00000402832,2|0,3:2|0:0,0:0:0:0:
365,72,62035,2,0,P|327:60|279:79,1,88.000002685547,6|0,3:2|1:0,0:0:0:0:
137,249,62388,2,0,L|227:233,1,88.000002685547,2|0,3:2|1:0,0:0:0:0:
136,53,62741,2,0,L|155:146,1,88.000002685547,6|0,3:2|1:0,0:0:0:0:
244,321,63094,6,0,P|292:296|298:180,1,176.000005371094,2|6,3:2|3:2,0:0:0:0:
431,119,63623,1,2,1:2:0:0:
495,239,63799,2,0,P|443:220|392:216,1,88.000002685547,2|0,3:2|1:2,0:0:0:0:
244,321,64152,1,8,0:0:0:0:
321,370,64329,5,2,3:2:0:0:
321,369,64417,1,2,2:0:0:0:
321,369,64505,2,0,B|334:255|334:255|333:290|354:315,2,176.000005371094,2|6|2,3:2|3:2|3:2,0:0:0:0:
450,243,65564,1,10,3:2:0:0:
208,189,65917,5,10,3:2:0:0:
199,268,66094,1,0,3:2:0:0:
86,194,66270,5,10,3:2:0:0:
56,122,66446,1,2,3:2:0:0:
255,35,66623,6,0,L|297:46,1,44.0000013427735,10|10,3:2|3:2,0:0:0:0:
185,83,66799,2,0,L|134:71,1,44.0000013427735,10|10,3:2|3:2,0:0:0:0:
189,7,66976,1,10,3:2:0:0:
270,135,67152,5,10,3:2:0:0:
270,135,67241,1,10,3:2:0:0:
270,135,67329,2,0,P|246:188|294:265,2,143.999995605469,14|8|0,0:2|0:2|3:2,0:0:0:0:
335,188,68211,1,2,1:2:0:0:
283,259,68388,2,0,L|207:251,1,71.9999978027344,10|2,0:2|1:2,0:0:0:0:
47,148,68741,6,0,P|66:201|79:259,1,107.999996704102,2|2,3:2|0:0,0:0:0:0:
70,276,69094,2,0,P|54:251|123:186,1,143.999995605469,8|0,0:2|3:2,0:0:0:0:
185,226,69623,1,0,1:2:0:0:
274,95,69799,2,0,P|255:148|254:191,1,71.9999978027344,8|0,0:2|3:2,0:0:0:0:
267,179,70064,1,0,3:2:0:0:
286,198,70152,6,0,L|380:185,1,71.9999978027344,14|0,0:2|1:2,0:0:0:0:
208,310,70505,2,0,L|49:289,1,143.999995605469,10|0,0:2|3:2,0:0:0:0:
132,348,71035,1,2,1:2:0:0:
298,268,71211,2,0,L|283:182,1,71.9999978027344,10|2,0:2|1:2,0:0:0:0:
113,74,71564,6,0,P|121:124|177:153,1,107.999996704102,2|2,3:2|0:0,0:0:0:0:
194,154,71917,1,8,0:2:0:0:
303,80,72094,1,2,1:2:0:0:
420,123,72270,2,0,P|415:167|424:214,1,71.9999978027344,2|0,3:2|1:2,0:0:0:0:
473,248,72623,1,10,0:2:0:0:
397,335,72799,5,0,3:2:0:0:
397,335,72888,1,0,3:2:0:0:
397,335,72976,2,0,P|346:323|310:322,1,71.9999978027344,14|0,0:2|1:2,0:0:0:0:
117,335,73329,2,0,P|158:327|208:235,1,143.999995605469,8|0,0:2|3:2,0:0:0:0:
184,171,73858,1,2,1:2:0:0:
108,141,74035,2,0,L|27:158,1,71.9999978027344,10|2,0:2|1:2,0:0:0:0:
208,245,74388,6,0,P|287:249|324:267,1,107.999996704102,2|2,3:2|0:0,0:0:0:0:
351,272,74741,2,0,P|380:230|343:132,1,160,8|0,0:2|3:2,0:0:0:0:
277,103,75270,1,0,1:2:0:0:
160,18,75446,2,0,P|207:35|240:32,1,80,8|0,0:2|3:2,0:0:0:0:
254,28,75711,1,0,3:2:0:0:
269,19,75799,1,14,0:2:0:0:
431,55,75976,5,0,3:2:0:0:
431,55,76064,1,2,3:2:0:0:
431,55,76152,2,0,L|421:109,1,40,8|0,0:2|0:0,0:0:0:0:
357,162,76329,1,0,3:2:0:0:
357,162,76417,1,0,3:2:0:0:
357,162,76505,2,0,L|367:216,1,40,8|0,0:2|3:2,0:0:0:0:
436,265,76682,1,2,3:2:0:0:
428,348,76858,1,10,0:2:0:0:
436,265,77035,1,2,3:2:0:0:
293,245,77211,6,0,B|248:258|248:258|242:263|242:263|189:280,2,107.999996704102,2|2|2,0:0|0:0|0:0,0:0:0:0:
432,182,77917,6,0,P|443:160|428:148,6,40,4|4|4|4|4|4|4,0:0|0:0|0:0|0:0|0:0|0:0|0:0,0:0:0:0:
336,144,78270,1,4,3:2:0:0:
