osu file format v14

[General]
AudioFilename: audio.mp3
AudioLeadIn: 0
PreviewTime: 44654
Countdown: 0
SampleSet: Soft
StackLeniency: 0.7
Mode: 0
LetterboxInBreaks: 0
WidescreenStoryboard: 1

[Editor]
DistanceSpacing: 1.2
BeatDivisor: 4
GridSize: 32
TimelineZoom: 1.6

[Metadata]
Title:Chou Jou Genki Show*Idol ch@ng!
TitleUnicode:チョー↑元気Show☆アイドルch@ng!
Artist:Matsuda Arisa (CV: Murakawa Rie)
ArtistUnicode:松田 亜利沙 (CV: 村川 梨衣)
Creator:Seolv
Version:Hard
Source:アイドルマスター ミリオンライブ!
Tags:the idolmaster million live idolm@ster j-pop jpop japanese pop idols video game anime [_l_u_k_a_s_] lukas
BeatmapID:2412639
BeatmapSetID:1156070

[Difficulty]
HPDrainRate:4.5
CircleSize:4
OverallDifficulty:6
ApproachRate:7.7
SliderMultiplier:1.45
SliderTickRate:1

[Events]
//Background and Video events
0,0,"idols.jpg",0,0
//Break Periods
//Storyboard Layer 0 (Background)
//Storyboard Layer 1 (Fail)
//Storyboard Layer 2 (Pass)
//Storyboard Layer 3 (Foreground)
//Storyboard Layer 4 (Overlay)
//Storyboard Sound Samples

[TimingPoints]
9447,352.941176470588,4,2,2,60,1,0
11035,-100,4,2,1,60,0,0
22153,-100,4,2,2,60,0,0
22329,-100,4,2,1,60,0,0
33446,-100,4,2,2,65,0,0
39094,-100,4,2,2,70,0,0
41917,-100,4,2,2,75,0,0
43329,-100,4,2,2,40,0,0
44035,-100,4,2,2,60,0,0
44741,-90.9090909090909,4,2,20,80,0,1
44917,-90.9090909090909,4,2,1,80,0,1
47211,-90.9090909090909,4,2,6,80,0,1
47388,-90.9090909090909,4,2,1,80,0,1
50035,-90.9090909090909,4,2,6,80,0,1
50388,-90.9090909090909,4,2,20,80,0,1
50564,-90.9090909090909,4,2,1,80,0,1
52858,-90.9090909090909,4,2,6,80,0,1
53035,-90.9090909090909,4,2,1,80,0,1
55858,-90.9090909090909,4,2,1,60,0,1
56035,-90.9090909090909,4,2,20,60,0,1
56211,-90.9090909090909,4,2,1,60,0,1
58505,-90.9090909090909,4,2,6,60,0,1
58682,-90.9090909090909,4,2,1,60,0,1
61329,-90.9090909090909,4,2,6,60,0,1
61682,-90.9090909090909,4,2,20,60,0,1
61858,-90.9090909090909,4,2,1,60,0,1
64152,-90.9090909090909,4,2,6,60,0,1
64329,-90.9090909090909,4,2,1,60,0,1
65917,-90.9090909090909,4,2,6,60,0,1
67329,-100,4,2,6,60,0,0
75976,-100,4,2,6,70,0,0
76505,-100,4,2,6,75,0,0
77211,-100,4,2,6,50,0,0
77917,-83.3333333333333,4,2,1,60,0,0
78270,-83.3333333333333,4,2,20,60,0,0

[Colours]
Combo1 : 255,193,51
Combo2 : 9,108,168
Combo3 : 90,181,254

[HitObjects]
362,189,10858,6,0,P|346:111|337:19,2,145,6|2|2,0:2|3:2|3:2,0:0:0:0:
434,139,11741,2,0,P|426:100|421:54,2,72.5,2|6|0,1:2|0:2|1:0,0:0:0:0:
443,223,12270,2,0,P|417:262|312:263,2,145,10|2|2,3:2|3:2|3:2,0:0:0:0:
281,194,13329,1,12,3:2:0:0:
243,258,13505,5,0,3:0:0:0:
243,258,13594,1,0,3:0:0:0:
243,258,13682,2,0,P|239:303|232:346,1,72.5,10|0,3:2|1:0,0:0:0:0:
167,384,14035,2,0,P|129:378|92:375,1,72.5,2|0,3:2|1:0,0:0:0:0:
23,327,14388,1,2,3:2:0:0:
23,327,14564,1,2,1:2:0:0:
94,278,14741,2,0,P|99:240|102:203,1,72.5,6|0,0:2|1:0,0:0:0:0:
56,141,15094,5,10,3:2:0:0:
245,95,15446,1,2,3:2:0:0:
291,284,15799,1,2,3:2:0:0:
102,330,16152,1,12,3:2:0:0:
148,254,16329,5,0,3:0:0:0:
148,254,16417,1,0,3:0:0:0:
148,254,16505,2,0,B|210:261|210:261|225:276|225:276|308:286,2,145,10|2|2,3:2|3:2|3:2,0:0:0:0:
58,237,17388,2,0,L|43:159,2,72.5,2|6|0,1:2|0:2|1:0,0:0:0:0:
148,254,17917,2,0,L|115:83,2,145,10|2|2,3:2|3:2|3:2,0:0:0:0:
358,357,18976,1,12,3:2:0:0:
442,320,19152,5,0,3:0:0:0:
442,320,19241,1,0,3:0:0:0:
442,320,19329,2,0,P|399:282|409:183,2,145,10|2|2,3:2|3:2|3:2,0:0:0:0:
478,234,20211,1,2,1:2:0:0:
396,183,20388,2,0,P|347:205|318:213,1,72.5,6|0,0:2|1:0,0:0:0:0:
306,300,20741,5,10,3:2:0:0:
479,132,21094,1,10,3:2:0:0:
260,47,21446,1,10,3:2:0:0:
210,350,21799,6,0,P|198:278|189:235,1,108.75,4|0,3:2|3:2,0:0:0:0:
176,224,22152,1,6,0:0:0:0:
147,146,22329,5,2,1:2:0:0:
147,146,22417,1,2,0:0:0:0:
147,146,22505,2,0,P|194:146|233:170,1,72.5,6|2,3:2|1:2,0:0:0:0:
320,219,22858,2,0,P|296:178|297:132,1,72.5,2|2,3:2|1:2,0:0:0:0:
293,29,23211,2,0,P|269:69|229:91,1,72.5,6|2,3:2|1:2,0:0:0:0:
233,85,23476,1,2,0:0:0:0:
219,81,23564,1,0,3:2:0:0:
119,54,23741,6,0,P|182:92|218:157,1,145,2|2,1:2|1:2,0:0:0:0:
202,237,24270,2,0,L|128:251,1,72.5,2|0,3:2|1:2,0:0:0:0:
16,273,24623,1,14,3:2:0:0:
262,337,24976,6,0,P|296:319|300:216,2,145,2|6|2,3:2|3:2|3:2,0:0:0:0:
221,259,25858,2,0,L|146:252,2,72.5,2|6|2,1:2|3:2|1:2,0:0:0:0:
262,337,26388,2,0,L|112:324,2,145,10|6|10,3:2|3:2|3:2,0:0:0:0:
328,140,27446,1,14,3:2:0:0:
80,47,27799,6,0,L|0:60,2,72.5,2|2|6,3:2|1:2|3:2,0:0:0:0:
163,80,28329,1,2,1:2:0:0:
112,150,28505,2,0,L|109:197,4,36.25,2|0|2|2|6,3:0|0:0|1:2|0:0|3:2,0:0:0:0:
244,13,29211,6,0,L|373:22,1,108.75,2|0,3:2|0:0,0:0:0:0:
374,24,29564,2,0,P|399:61|388:105,1,72.5,6|2,3:2|1:2,0:0:0:0:
346,149,29917,1,2,3:2:0:0:
346,149,30094,1,2,1:2:0:0:
272,97,30270,2,0,L|197:91,1,72.5,14|10,3:2|3:2,0:0:0:0:
58,126,30623,6,0,L|86:278,2,145,2|6|2,3:2|3:2|3:2,0:0:0:0:
146,156,31505,2,0,L|160:232,1,72.5,2|4,1:2|3:2,0:0:0:0:
178,309,31858,1,2,1:2:0:0:
298,250,32035,6,0,P|346:257|376:353,2,145,10|14|10,3:2|3:2|3:2,0:0:0:0:
298,250,33094,1,14,3:2:0:0:
29,362,33446,6,0,P|55:309|63:219,1,145,6|8,3:2|0:0,0:0:0:0:
24,137,33976,2,0,P|64:128|151:193,1,145,0|0,1:1|1:1,0:0:0:0:
146,181,34682,1,0,1:1:0:0:
207,244,34858,6,0,P|276:220|361:209,1,145,10|8,0:0|0:0,0:0:0:0:
429,255,35388,2,0,P|387:209|407:127,1,145,0|0,1:1|1:1,0:0:0:0:
367,60,35917,2,0,P|343:89|315:114,1,72.5,8|0,0:0|1:1,0:0:0:0:
293,118,36182,1,0,3:1:0:0:
293,118,36270,6,0,L|130:99,1,145,10|8,0:0|0:0,0:0:0:0:
59,69,36799,2,0,B|71:136|71:136|67:149|67:149|84:224,2,145,0|0|0,1:1|1:1|1:1,0:0:0:0:
129,15,37682,5,10,0:0:0:0:
129,15,37858,2,0,P|185:9|225:91,1,145,2|2,0:0|1:2,0:0:0:0:
203,162,38388,2,0,L|279:145,1,72.5,10|2,0:0|1:2,0:0:0:0:
328,89,38741,2,0,L|404:106,1,72.5,10|2,0:0|1:2,0:0:0:0:
472,149,39094,6,0,B|449:195|449:195|471:309,1,145,6|8,3:2|0:0,0:0:0:0:
505,384,39623,2,0,P|455:334|364:358,1,145,0|0,1:1|1:1,0:0:0:0:
385,340,40329,1,0,1:1:0:0:
316,296,40505,6,0,P|266:346|175:322,1,145,10|8,0:0|0:0,0:0:0:0:
128,293,41035,2,0,P|138:228|142:127,1,145,0|0,1:1|1:1,0:0:0:0:
99,76,41564,2,0,P|130:62|175:70,1,72.5,8|0,0:0|1:1,0:0:0:0:
186,75,41829,1,0,3:1:0:0:
186,75,41917,1,10,0:0:0:0:
261,115,42094,6,0,P|301:81|409:75,2,145,0|0|0,1:0|1:1|1:1,0:0:0:0:
248,193,42976,1,8,0:0:0:0:
242,270,43152,1,0,1:1:0:0:
235,348,43329,1,2,3:2:0:0:
235,348,44035,2,0,P|221:295|118:287,1,145,10|10,0:0|0:0,0:0:0:0:
54,324,44564,5,2,3:2:0:0:
54,324,44652,1,2,3:2:0:0:
54,324,44741,2,0,P|43:249|18:191,1,119.625003650665,4|0,3:2|0:0,0:0:0:0:
19,191,45094,2,0,P|38:165|86:156,1,79.7500024337769,6|0,3:2|1:0,0:0:0:0:
157,210,45446,2,0,P|199:232|279:168,1,159.500004867554,2|6,3:2|3:2,0:0:0:0:
415,24,46152,6,0,P|401:93|399:204,1,159.500004867554,2|6,3:2|3:2,0:0:0:0:
470,264,46682,1,2,1:2:0:0:
401,344,46858,2,0,P|366:295|280:322,1,159.500004867554,2|8,3:2|0:0,0:0:0:0:
185,374,47388,5,2,2:0:0:0:
185,374,47476,1,2,2:0:0:0:
185,374,47564,2,0,P|142:362|95:360,1,79.7500024337769,2|0,3:2|1:0,0:0:0:0:
39,298,47917,2,0,P|51:255|53:208,1,79.7500024337769,6|0,3:2|1:0,0:0:0:0:
100,141,48270,2,0,P|186:165|280:169,1,159.500004867554,2|10,3:2|3:2,0:0:0:0:
474,72,48976,5,2,3:3:0:0:
412,0,49152,1,2,0:3:0:0:
325,37,49329,1,2,3:3:0:0:
333,131,49505,1,2,0:3:0:0:
425,153,49682,2,0,P|359:152|317:242,1,159.500004867554,2|8,3:3|3:2,0:0:0:0:
334,318,50211,5,0,3:0:0:0:
334,318,50299,1,0,3:0:0:0:
334,318,50388,2,0,P|374:309|413:284,1,79.7500024337769,2|0,3:2|1:0,0:0:0:0:
314,225,50741,2,0,P|274:234|235:259,1,79.7500024337769,6|0,3:2|1:0,0:0:0:0:
168,318,51094,2,0,P|195:258|200:144,1,159.500004867554,2|6,3:2|3:2,0:0:0:0:
6,27,51799,5,2,3:2:0:0:
25,102,51976,1,2,1:2:0:0:
100,83,52152,1,6,3:2:0:0:
81,8,52329,1,2,1:2:0:0:
6,27,52505,1,2,3:2:0:0:
83,169,52858,1,8,0:0:0:0:
150,224,53035,5,2,3:2:0:0:
150,224,53123,1,2,2:0:0:0:
150,224,53211,2,0,P|186:201|236:206,1,79.7500024337769,2|0,3:2|1:0,0:0:0:0:
292,245,53564,2,0,P|330:243|375:218,1,79.7500024337769,6|0,3:2|1:0,0:0:0:0:
424,153,53917,2,0,P|405:232|410:314,1,159.500004867554,2|10,3:2|3:2,0:0:0:0:
248,364,54623,6,0,P|203:360|158:349,2,79.7500024337769,2|2|2,0:3|0:3|3:3,0:0:0:0:
330,293,55152,1,2,0:3:0:0:
260,222,55329,1,2,3:3:0:0:
260,222,55417,1,2,3:3:0:0:
260,222,55505,2,0,L|253:177,2,39.8750012168885,2|2|2,3:2|3:3|3:2,0:0:0:0:
330,293,55858,1,0,3:0:0:0:
435,206,56035,6,0,P|451:126|450:90,1,79.7500024337769,4|0,3:2|1:0,0:0:0:0:
450,49,56388,2,0,P|411:55|387:85,1,79.7500024337769,6|0,3:2|1:0,0:0:0:0:
310,190,56741,2,0,P|254:208|179:135,1,159.500004867554,2|6,3:2|3:2,0:0:0:0:
12,10,57446,6,0,P|26:79|28:190,1,159.500004867554,2|6,3:2|3:2,0:0:0:0:
0,256,57976,1,2,1:2:0:0:
66,319,58152,2,0,B|137:295|137:295|141:288|141:288|225:259,1,159.500004867554,2|8,3:2|0:0,0:0:0:0:
298,254,58682,5,2,3:2:0:0:
298,254,58770,1,2,2:0:0:0:
298,254,58858,2,0,P|320:214|312:164,1,79.7500024337769,2|0,3:2|1:0,0:0:0:0:
307,107,59211,2,0,P|283:67|236:49,1,79.7500024337769,6|0,3:2|1:0,0:0:0:0:
197,101,59564,2,0,L|24:82,1,159.500004867554,2|10,3:2|3:2,0:0:0:0:
101,268,60270,5,2,3:3:0:0:
157,332,60446,1,2,0:3:0:0:
246,362,60623,1,2,3:3:0:0:
335,335,60799,1,2,0:3:0:0:
401,279,60976,2,0,P|416:214|395:102,1,159.500004867554,2|8,3:3|0:0,0:0:0:0:
345,47,61505,5,0,3:0:0:0:
345,47,61594,1,0,3:0:0:0:
345,47,61682,2,0,L|254:64,1,79.7500024337769,2|0,3:2|1:0,0:0:0:0:
240,156,62035,2,0,L|325:139,1,79.7500024337769,6|0,3:2|1:0,0:0:0:0:
382,22,62388,2,0,L|224:51,1,159.500004867554,2|6,3:2|3:2,0:0:0:0:
41,214,63094,6,0,P|22:269|113:314,1,159.500004867554,2|6,3:2|3:2,0:0:0:0:
156,280,63623,1,2,1:2:0:0:
223,348,63799,2,0,P|276:328|327:328,1,79.7500024337769,2|0,3:2|1:2,0:0:0:0:
361,374,64152,1,8,0:0:0:0:
446,301,64329,5,2,3:2:0:0:
446,301,64417,1,2,2:0:0:0:
446,301,64505,2,0,L|428:215,1,79.7500024337769,2|0,3:2|1:0,0:0:0:0:
408,130,64858,2,0,L|330:146,1,79.7500024337769,6|0,3:2|1:0,0:0:0:0:
223,185,65211,2,0,P|290:171|346:245,1,159.500004867554,2|10,3:2|3:2,0:0:0:0:
144,366,65917,6,0,P|99:362|54:351,1,79.7500024337769,10|0,3:2|3:2,0:0:0:0:
78,259,66270,2,0,P|123:263|168:274,1,79.7500024337769,10|2,3:2|3:2,0:0:0:0:
241,345,66623,1,10,3:2:0:0:
241,345,66711,1,10,3:2:0:0:
241,345,66799,2,0,L|248:390,2,39.8750012168885,10|10|10,3:2|3:2|3:2,0:0:0:0:
294,276,67152,2,0,L|345:263,1,39.8750012168885,10|10,3:2|3:2,0:0:0:0:
361,268,67329,6,0,P|356:187|375:105,2,145,14|8|0,0:2|0:2|3:2,0:0:0:0:
438,235,68211,2,0,P|435:194|445:153,2,72.5,2|10|2,1:2|0:2|1:2,0:0:0:0:
424,318,68741,6,0,L|299:333,1,108.75,2|2,3:2|0:0,0:0:0:0:
294,346,69094,2,0,L|201:336,1,72.5,8|0,0:2|1:2,0:0:0:0:
131,332,69446,2,0,P|114:297|120:256,1,72.5,0|0,3:2|1:2,0:0:0:0:
164,192,69799,1,8,0:2:0:0:
96,112,69976,5,0,3:2:0:0:
96,112,70064,1,0,3:2:0:0:
96,112,70152,2,0,P|50:102|14:192,2,145,14|10|0,0:2|0:2|3:2,0:0:0:0:
164,192,71035,1,2,1:2:0:0:
254,161,71211,2,0,P|289:168|331:180,1,72.5,10|2,0:2|1:2,0:0:0:0:
384,245,71564,6,0,P|380:184|394:119,2,108.75,2|2|2,3:2|0:0|1:2,0:0:0:0:
406,337,72270,2,0,P|361:274|270:287,1,145,2|10,3:2|0:2,0:0:0:0:
231,329,72799,5,0,3:2:0:0:
231,329,72888,1,0,3:2:0:0:
231,329,72976,2,0,P|170:315|108:312,1,108.75,14|2,0:2|0:0,0:0:0:0:
84,325,73329,2,0,P|110:280|109:183,1,145,8|0,0:2|3:2,0:0:0:0:
36,123,73858,1,2,1:2:0:0:
27,215,74035,2,0,L|120:190,1,72.5,10|2,0:2|1:2,0:0:0:0:
175,92,74388,6,0,L|301:111,1,108.75,2|2,3:2|0:0,0:0:0:0:
306,131,74741,2,0,L|390:119,1,72.5,8|0,0:2|1:2,0:0:0:0:
454,61,75094,2,0,P|425:130|447:208,1,145,0|8,3:2|0:2,0:0:0:0:
429,307,75623,5,0,3:2:0:0:
429,307,75711,1,0,3:2:0:0:
429,307,75799,2,0,P|370:282|336:280,1,72.5,14|0,0:2|3:2,0:0:0:0:
288,353,76152,1,8,0:2:0:0:
205,292,76329,1,0,3:2:0:0:
205,292,76417,1,0,3:2:0:0:
205,292,76505,2,0,L|167:286,3,36.25,8|0|2|0,0:2|3:2|3:2|3:2,0:0:0:0:
138,320,76858,2,0,L|100:326,3,36.25,10|0|2|0,0:2|3:2|3:2|3:2,0:0:0:0:
81,342,77211,5,2,0:0:0:0:
59,236,77476,5,2,0:0:0:0:
37,130,77741,5,2,0:0:0:0:
37,130,77917,2,0,L|139:148,1,86.9999973449708,4|4,0:0|0:0,0:0:0:0:
240,166,78270,1,4,3:2:0:0:
