osu file format v14

[General]
AudioFilename: Akito Matsuda - After After.mp3
AudioLeadIn: 0
PreviewTime: 10947
Countdown: 0
SampleSet: Normal
StackLeniency: 0.7
Mode: 3
LetterboxInBreaks: 0
SpecialStyle: 0
WidescreenStoryboard: 0

[Editor]
Bookmarks: 569
DistanceSpacing: 0.5
BeatDivisor: 4
GridSize: 16
TimelineZoom: 1.199999

[Metadata]
Title:After After
TitleUnicode:アフターアフター
Artist:Matsuda Akito
ArtistUnicode:松田彬人
Creator:Zenobian
Version:Grun's 4K HD
Source:ディーふらぐ!
Tags:ゲーム製作部CD(仮)~サントラ② game seisakubu cd (kari) ~ sound track 2 d-fragments d-frag! bgm schwarzvgrune
BeatmapID:637747
BeatmapSetID:277353

[Difficulty]
HPDrainRate:7.5
CircleSize:4
OverallDifficulty:7.5
ApproachRate:5
SliderMultiplier:1.4
SliderTickRate:1

[Events]
//Background and Video events
0,0,"d-frag.png",0,0
//Break Periods
//Storyboard Layer 0 (Background)
//Storyboard Layer 1 (Fail)
//Storyboard Layer 2 (Pass)
//Storyboard Layer 3 (Foreground)
//Storyboard Sound Samples

[TimingPoints]
569,324.324324324324,4,1,1,40,1,0
62839,-100,4,1,1,40,0,1
83596,-100,4,1,1,40,0,0

[HitObjects]
192,192,569,5,2,0:0:0:0:
448,192,569,1,0,0:0:0:0:
320,192,731,1,0,0:0:0:0:
192,192,812,1,0,0:0:0:0:
109,192,893,1,0,0:0:0:0:
402,192,893,1,8,0:0:0:0:
192,192,1055,1,0,0:0:0:0:
320,192,1217,1,2,0:0:0:0:
448,192,1217,1,0,0:0:0:0:
192,192,1379,1,0,0:0:0:0:
36,192,1541,1,0,0:0:0:0:
475,192,1541,1,8,0:0:0:0:
320,192,1704,1,0,0:0:0:0:
192,192,1866,1,2,0:0:0:0:
64,192,1866,1,0,0:0:0:0:
320,192,2028,1,0,0:0:0:0:
109,192,2190,1,8,0:0:0:0:
402,192,2190,1,0,0:0:0:0:
192,192,2352,1,0,0:0:0:0:
256,192,2514,1,2,0:0:0:0:
448,192,2514,1,0,0:0:0:0:
192,192,2677,1,0,0:0:0:0:
64,192,2839,1,8,0:0:0:0:
448,192,2839,1,0,0:0:0:0:
320,192,3001,1,0,0:0:0:0:
192,192,3163,1,2,0:0:0:0:
64,192,3163,1,0,0:0:0:0:
320,192,3325,1,0,0:0:0:0:
64,192,3487,1,0,0:0:0:0:
448,192,3487,1,8,0:0:0:0:
192,192,3650,1,0,0:0:0:0:
320,192,3812,1,2,0:0:0:0:
448,192,3812,1,0,0:0:0:0:
192,192,3974,1,0,0:0:0:0:
64,192,4136,1,8,0:0:0:0:
448,192,4136,1,0,0:0:0:0:
320,192,4298,1,0,0:0:0:0:
448,192,4460,1,0,0:0:0:0:
192,192,4460,1,2,0:0:0:0:
64,192,4623,1,0,0:0:0:0:
192,192,4704,1,0,0:0:0:0:
448,192,4785,1,0,0:0:0:0:
320,192,4785,1,8,0:0:0:0:
256,192,5758,1,2,0:0:0:0:
192,192,5758,1,0,0:0:0:0:
64,192,5920,1,0,0:0:0:0:
192,192,6001,1,0,0:0:0:0:
448,192,6082,1,8,0:0:0:0:
320,192,6082,1,0,0:0:0:0:
192,192,6244,1,0,0:0:0:0:
320,192,6406,1,2,0:0:0:0:
64,192,6406,1,0,0:0:0:0:
448,192,6568,1,0,0:0:0:0:
64,192,6731,1,0,0:0:0:0:
192,192,6731,1,8,0:0:0:0:
320,192,6893,1,0,0:0:0:0:
192,192,7055,1,2,0:0:0:0:
448,192,7055,1,0,0:0:0:0:
64,192,7217,1,0,0:0:0:0:
448,192,7379,1,8,0:0:0:0:
329,192,7379,1,0,0:0:0:0:
192,192,7541,1,0,0:0:0:0:
256,192,7704,1,2,0:0:0:0:
64,192,7704,1,0,0:0:0:0:
448,192,7866,1,0,0:0:0:0:
109,192,8028,1,0,0:0:0:0:
192,192,8028,1,8,0:0:0:0:
329,192,8190,1,0,0:0:0:0:
192,192,8352,1,2,0:0:0:0:
448,192,8352,1,0,0:0:0:0:
109,192,8514,1,0,0:0:0:0:
329,192,8677,1,8,0:0:0:0:
402,192,8677,1,0,0:0:0:0:
182,192,8839,1,0,0:0:0:0:
256,192,9001,1,2,0:0:0:0:
64,192,9001,1,0,0:0:0:0:
448,192,9163,1,0,0:0:0:0:
109,192,9325,1,0,0:0:0:0:
182,192,9325,1,8,0:0:0:0:
448,192,9487,1,0,0:0:0:0:
320,192,9650,1,2,0:0:0:0:
64,192,9650,1,0,0:0:0:0:
192,192,9812,1,0,0:0:0:0:
320,192,9893,1,0,0:0:0:0:
448,192,9974,1,8,0:0:0:0:
64,192,9974,1,0,0:0:0:0:
320,192,10623,1,8,2:0:0:0:
64,192,10623,1,0,0:0:0:0:
192,192,10704,1,8,2:0:0:0:
448,192,10704,1,0,0:0:0:0:
320,192,10785,1,8,2:0:0:0:
64,192,10785,1,0,0:0:0:0:
36,192,10947,1,0,0:0:0:0:
475,192,10947,1,2,0:0:0:0:
256,192,10947,1,4,0:0:0:0:
192,192,11109,1,0,1:0:0:0:
320,192,11190,1,0,0:0:0:0:
402,192,11271,1,0,0:0:0:0:
109,192,11271,1,8,0:0:0:0:
182,192,11433,1,0,0:0:0:0:
109,192,11596,1,0,0:0:0:0:
402,192,11596,1,2,1:0:0:0:
256,192,11758,1,0,0:0:0:0:
182,192,11920,1,0,0:0:0:0:
448,192,11920,1,8,0:0:0:0:
109,192,12082,1,0,0:0:0:0:
192,192,12244,1,0,1:0:0:0:
320,192,12244,1,2,0:0:0:0:
448,192,12406,1,0,0:0:0:0:
256,192,12568,1,8,0:0:0:0:
109,192,12568,1,0,0:0:0:0:
192,192,12731,1,0,0:0:0:0:
448,192,12893,1,2,0:0:0:0:
329,192,12893,1,0,0:0:0:0:
64,192,13055,1,0,0:0:0:0:
182,192,13217,1,0,0:0:0:0:
329,192,13217,1,8,0:0:0:0:
448,192,13379,1,0,0:0:0:0:
192,192,13541,1,2,0:0:0:0:
36,192,13541,1,0,0:0:0:0:
320,192,13704,1,0,0:0:0:0:
109,192,13866,1,0,0:0:0:0:
448,192,13866,1,8,0:0:0:0:
256,192,14028,1,0,0:0:0:0:
182,192,14190,1,0,0:0:0:0:
475,192,14190,1,2,1:0:0:0:
64,192,14352,1,0,0:0:0:0:
192,192,14514,1,0,0:0:0:0:
329,192,14514,1,8,0:0:0:0:
448,192,14677,1,0,0:0:0:0:
182,192,14839,1,0,0:0:0:0:
36,192,14839,1,2,0:0:0:0:
256,192,15001,1,0,0:0:0:0:
448,192,15163,1,0,0:0:0:0:
182,192,15163,1,8,0:0:0:0:
64,192,15325,128,0,15487:0:0:0:0:
320,192,15325,1,0,0:0:0:0:
448,192,15487,1,2,0:0:0:0:
109,192,15650,128,0,15974:0:0:0:0:
192,192,15650,1,0,0:0:0:0:
475,192,15812,1,8,0:0:0:0:
329,192,15974,1,0,0:0:0:0:
182,192,16136,1,0,0:0:0:0:
475,192,16136,1,2,1:0:0:0:
329,192,16298,1,0,1:0:0:0:
64,192,16379,1,0,0:0:0:0:
182,192,16460,1,0,0:0:0:0:
402,192,16460,1,8,0:0:0:0:
36,192,16623,1,0,0:0:0:0:
448,192,16785,1,2,0:0:0:0:
320,192,16785,1,0,0:0:0:0:
182,192,16947,1,0,0:0:0:0:
402,192,17109,1,8,0:0:0:0:
109,192,17109,1,0,0:0:0:0:
320,192,17271,1,0,0:0:0:0:
448,192,17433,1,2,0:0:0:0:
192,192,17433,1,0,0:0:0:0:
192,192,17596,1,0,0:0:0:0:
329,192,17758,1,0,0:0:0:0:
36,192,17758,1,8,0:0:0:0:
192,192,17920,1,0,0:0:0:0:
109,192,18082,1,2,0:0:0:0:
402,192,18082,1,0,0:0:0:0:
256,192,18244,1,0,0:0:0:0:
475,192,18406,1,0,0:0:0:0:
182,192,18406,1,8,0:0:0:0:
109,192,18568,1,0,0:0:0:0:
182,192,18731,1,0,0:0:0:0:
329,192,18731,1,2,1:0:0:0:
448,192,18893,1,0,0:0:0:0:
36,192,19055,1,8,0:0:0:0:
329,192,19055,1,0,0:0:0:0:
64,192,19217,1,0,0:0:0:0:
182,192,19379,1,0,0:0:0:0:
402,192,19379,1,2,1:0:0:0:
256,192,19541,1,0,0:0:0:0:
109,192,19704,1,8,0:0:0:0:
329,192,19704,1,0,0:0:0:0:
402,192,19866,1,0,0:0:0:0:
475,192,20028,1,0,0:0:0:0:
192,192,20028,1,2,0:0:0:0:
64,192,20190,1,0,0:0:0:0:
320,192,20352,1,0,0:0:0:0:
448,192,20352,1,8,0:0:0:0:
192,192,20514,128,0,20677:0:0:0:0:
64,192,20514,1,0,0:0:0:0:
320,192,20677,1,2,0:0:0:0:
448,192,20839,1,8,2:0:0:0:
182,192,20839,128,0,21163:0:0:0:0:
320,192,20920,1,8,2:0:0:0:
475,192,21001,1,8,2:0:0:0:
329,192,21163,1,8,2:0:0:0:
109,192,21163,1,0,0:0:0:0:
36,192,21325,1,4,0:0:0:0:
402,192,21325,1,2,0:0:0:0:
192,192,21406,1,2,2:0:0:0:
320,192,21487,1,2,2:0:0:0:
448,192,21568,1,2,2:0:0:0:
329,192,21650,1,2,2:0:0:0:
402,192,21731,1,2,2:0:0:0:
329,192,21812,1,2,2:0:0:0:
192,192,21893,1,2,2:0:0:0:
64,192,21974,1,2,2:0:0:0:
192,192,22055,1,2,2:0:0:0:
320,192,22136,1,2,2:0:0:0:
192,192,22217,1,2,2:0:0:0:
320,192,22298,1,2,2:0:0:0:
448,192,22379,1,2,2:0:0:0:
320,192,22460,1,2,2:0:0:0:
192,192,22541,1,2,2:0:0:0:
36,192,22623,1,0,0:0:0:0:
448,192,22623,1,2,0:0:0:0:
320,192,22785,1,0,0:0:0:0:
182,192,22947,1,0,0:0:0:0:
448,192,22947,1,8,0:0:0:0:
320,192,23109,1,0,0:0:0:0:
64,192,23271,1,0,0:0:0:0:
182,192,23271,1,2,0:0:0:0:
320,192,23433,1,0,0:0:0:0:
182,192,23596,1,8,0:0:0:0:
475,192,23596,1,0,0:0:0:0:
109,192,23758,1,2,0:0:0:0:
320,192,23758,1,0,0:0:0:0:
64,192,23920,1,2,0:0:0:0:
448,192,23920,1,4,0:0:0:0:
192,192,23920,1,0,0:0:0:0:
320,192,24001,1,2,2:0:0:0:
192,192,24082,1,2,2:0:0:0:
64,192,24163,1,2,2:0:0:0:
192,192,24244,1,2,2:0:0:0:
64,192,24325,1,2,2:0:0:0:
192,192,24406,1,2,2:0:0:0:
320,192,24487,1,2,2:0:0:0:
448,192,24568,1,2,2:0:0:0:
320,192,24650,1,2,2:0:0:0:
192,192,24731,1,2,2:0:0:0:
320,192,24812,1,2,2:0:0:0:
192,192,24893,1,2,2:0:0:0:
64,192,24974,1,2,2:0:0:0:
192,192,25055,1,2,2:0:0:0:
320,192,25136,1,2,2:0:0:0:
64,192,25217,1,0,0:0:0:0:
448,192,25217,1,2,0:0:0:0:
329,192,25379,1,0,0:0:0:0:
109,192,25541,1,8,0:0:0:0:
402,192,25541,1,0,0:0:0:0:
182,192,25704,1,0,0:0:0:0:
109,192,25866,1,2,0:0:0:0:
402,192,25866,1,0,0:0:0:0:
329,192,26028,1,0,0:0:0:0:
36,192,26190,1,0,0:0:0:0:
475,192,26190,1,8,0:0:0:0:
182,192,26352,1,2,0:0:0:0:
329,192,26352,1,0,0:0:0:0:
402,192,26514,1,2,0:0:0:0:
36,192,26514,1,4,0:0:0:0:
320,192,26514,1,0,0:0:0:0:
192,192,26596,1,2,2:0:0:0:
320,192,26677,1,2,2:0:0:0:
448,192,26758,1,2,2:0:0:0:
320,192,26839,1,2,2:0:0:0:
402,192,26920,1,2,2:0:0:0:
329,192,27001,1,2,2:0:0:0:
192,192,27082,1,2,2:0:0:0:
64,192,27163,1,2,2:0:0:0:
192,192,27244,1,2,2:0:0:0:
320,192,27325,1,2,2:0:0:0:
192,192,27406,1,2,2:0:0:0:
320,192,27487,1,2,2:0:0:0:
448,192,27568,1,2,2:0:0:0:
320,192,27650,1,2,2:0:0:0:
192,192,27731,1,2,2:0:0:0:
448,192,27812,1,0,0:0:0:0:
36,192,27812,1,2,0:0:0:0:
192,192,27974,1,0,0:0:0:0:
109,192,28136,1,8,0:0:0:0:
329,192,28136,1,0,0:0:0:0:
182,192,28298,1,0,0:0:0:0:
320,192,28460,1,2,0:0:0:0:
402,192,28460,1,0,0:0:0:0:
182,192,28623,1,0,0:0:0:0:
36,192,28785,1,2,0:0:0:0:
320,192,28785,1,8,0:0:0:0:
192,192,28947,1,2,0:0:0:0:
402,192,28947,1,0,0:0:0:0:
448,192,29109,1,4,0:0:0:0:
64,192,29109,1,2,0:0:0:0:
192,192,29109,1,0,0:0:0:0:
320,192,29190,1,2,2:0:0:0:
192,192,29271,1,2,2:0:0:0:
64,192,29352,1,2,2:0:0:0:
192,192,29433,1,2,2:0:0:0:
64,192,29514,1,2,2:0:0:0:
192,192,29596,1,2,2:0:0:0:
320,192,29677,1,2,2:0:0:0:
448,192,29758,1,2,2:0:0:0:
320,192,29839,1,2,2:0:0:0:
192,192,29920,1,2,2:0:0:0:
320,192,30001,1,2,2:0:0:0:
192,192,30082,1,2,2:0:0:0:
64,192,30163,1,2,2:0:0:0:
192,192,30244,1,2,2:0:0:0:
320,192,30325,1,2,2:0:0:0:
448,192,30406,1,2,0:0:0:0:
64,192,30406,1,0,0:0:0:0:
256,192,30568,1,0,0:0:0:0:
402,192,30731,1,8,0:0:0:0:
192,192,30731,1,2,0:0:0:0:
320,192,31055,1,2,2:0:0:0:
192,192,31136,1,2,2:0:0:0:
320,192,31217,1,2,2:0:0:0:
192,192,31298,1,2,2:0:0:0:
448,192,31379,128,0,31704:0:0:0:0:
64,192,31379,128,0,31704:0:0:0:0:
320,192,31704,1,2,0:0:0:0:
192,192,31704,1,4,0:0:0:0:
64,192,31866,1,0,1:0:0:0:
320,192,31947,1,2,2:0:0:0:
402,192,32028,1,10,1:0:0:0:
36,192,32028,1,0,0:0:0:0:
192,192,32190,1,0,0:0:0:0:
36,192,32352,1,2,0:0:0:0:
475,192,32352,1,0,1:0:0:0:
320,192,32514,1,0,0:0:0:0:
402,192,32677,1,8,0:0:0:0:
109,192,32677,1,0,0:0:0:0:
192,192,32839,1,0,0:0:0:0:
36,192,33001,1,2,0:0:0:0:
329,192,33001,1,0,1:0:0:0:
402,192,33163,1,0,0:0:0:0:
182,192,33325,1,8,0:0:0:0:
329,192,33325,1,0,0:0:0:0:
64,192,33487,1,0,0:0:0:0:
192,192,33650,1,0,0:0:0:0:
402,192,33650,1,2,1:0:0:0:
256,192,33812,1,0,0:0:0:0:
36,192,33974,1,8,0:0:0:0:
475,192,33974,1,0,0:0:0:0:
182,192,34136,1,0,0:0:0:0:
402,192,34298,1,0,1:0:0:0:
109,192,34298,1,2,0:0:0:0:
182,192,34460,1,0,0:0:0:0:
329,192,34623,1,8,0:0:0:0:
402,192,34623,1,0,0:0:0:0:
192,192,34785,1,0,0:0:0:0:
36,192,34947,1,2,0:0:0:0:
320,192,34947,1,0,0:0:0:0:
448,192,35109,1,0,0:0:0:0:
109,192,35271,1,0,0:0:0:0:
182,192,35271,1,8,0:0:0:0:
320,192,35433,1,0,0:0:0:0:
192,192,35596,1,2,0:0:0:0:
402,192,35596,1,0,0:0:0:0:
329,192,35758,1,0,0:0:0:0:
192,192,35920,1,8,0:0:0:0:
448,192,35920,1,0,0:0:0:0:
36,192,36082,128,0,36244:0:0:0:0:
320,192,36082,1,0,0:0:0:0:
475,192,36244,1,2,0:0:0:0:
36,192,36406,128,0,36731:0:0:0:0:
192,192,36406,1,0,0:0:0:0:
448,192,36568,1,8,0:0:0:0:
329,192,36731,1,0,0:0:0:0:
192,192,36893,1,2,0:0:0:0:
64,192,36893,1,0,1:0:0:0:
329,192,37055,1,0,1:0:0:0:
192,192,37136,1,0,0:0:0:0:
475,192,37217,1,2,1:0:0:0:
109,192,37217,1,8,0:0:0:0:
192,192,37379,1,0,0:0:0:0:
109,192,37541,1,2,1:0:0:0:
320,192,37541,1,0,0:0:0:0:
448,192,37704,1,0,0:0:0:0:
320,192,37866,1,0,0:0:0:0:
192,192,37866,1,8,0:0:0:0:
64,192,38028,1,0,0:0:0:0:
256,192,38190,1,2,0:0:0:0:
448,192,38190,1,0,0:0:0:0:
109,192,38352,1,0,0:0:0:0:
182,192,38514,1,8,0:0:0:0:
329,192,38514,1,0,0:0:0:0:
402,192,38677,1,0,0:0:0:0:
256,192,38839,1,2,0:0:0:0:
64,192,38839,1,0,0:0:0:0:
192,192,39001,1,0,0:0:0:0:
448,192,39163,1,0,0:0:0:0:
329,192,39163,1,8,0:0:0:0:
192,192,39325,1,0,0:0:0:0:
36,192,39487,1,2,0:0:0:0:
320,192,39487,1,0,0:0:0:0:
192,192,39650,1,0,0:0:0:0:
64,192,39812,1,8,0:0:0:0:
402,192,39812,1,0,0:0:0:0:
192,192,39974,1,0,0:0:0:0:
109,192,40136,1,2,0:0:0:0:
320,192,40136,1,0,0:0:0:0:
448,192,40298,1,0,0:0:0:0:
329,192,40460,1,8,0:0:0:0:
192,192,40460,1,0,0:0:0:0:
402,192,40623,1,0,0:0:0:0:
64,192,40785,1,2,0:0:0:0:
320,192,40785,1,0,0:0:0:0:
402,192,40947,1,0,0:0:0:0:
64,192,41109,1,0,0:0:0:0:
329,192,41109,1,8,0:0:0:0:
192,192,41271,1,0,0:0:0:0:
448,192,41433,1,8,2:0:0:0:
192,192,41514,1,8,2:0:0:0:
448,192,41596,1,8,2:0:0:0:
192,192,41677,1,8,2:0:0:0:
448,192,41758,1,8,2:0:0:0:
320,192,41758,1,8,0:0:0:0:
64,192,41839,1,8,2:0:0:0:
320,192,41920,1,8,2:0:0:0:
64,192,42001,1,8,2:0:0:0:
192,192,42082,1,4,0:0:0:0:
448,192,42082,1,2,0:0:0:0:
329,192,42244,1,0,0:0:0:0:
109,192,42244,1,0,0:0:0:50:ponpon.wav
448,192,42406,1,8,0:0:0:0:
192,192,42406,1,0,0:0:0:0:
320,192,42731,1,4,0:0:0:0:
64,192,42731,1,2,0:0:0:0:
192,192,42893,1,0,0:0:0:0:
448,192,42893,1,0,0:0:0:50:ponpon.wav
64,192,43055,1,8,0:0:0:0:
320,192,43055,1,0,0:0:0:0:
448,192,43379,1,2,0:0:0:0:
192,192,43379,1,4,0:0:0:0:
109,192,43541,1,0,0:0:0:50:ponpon.wav
329,192,43541,1,0,0:0:0:0:
192,192,43704,1,0,0:0:0:0:
448,192,43704,1,8,0:0:0:0:
448,192,44028,1,2,0:0:0:15:
192,192,44028,1,2,0:0:0:15:
320,192,44109,1,2,0:0:0:15:
64,192,44109,1,2,0:0:0:15:
448,192,44190,1,2,0:0:0:15:
192,192,44190,1,2,0:0:0:15:
320,192,44271,1,2,0:0:0:15:
64,192,44271,1,2,0:0:0:15:
192,192,44352,128,8,44677:2:0:0:15:
448,192,44352,128,8,44677:2:0:0:15:
320,192,44677,1,4,0:0:0:0:
64,192,44677,1,2,0:0:0:0:
192,192,44839,1,0,0:0:0:0:
448,192,44839,1,0,0:0:0:50:ponpon.wav
64,192,45001,1,8,0:0:0:0:
320,192,45001,1,0,0:0:0:0:
448,192,45325,1,2,0:0:0:0:
192,192,45325,1,4,0:0:0:0:
64,192,45487,1,0,0:0:0:50:ponpon.wav
320,192,45487,1,0,0:0:0:0:
192,192,45650,1,0,0:0:0:0:
448,192,45650,1,8,0:0:0:0:
320,192,45974,1,4,0:0:0:0:
64,192,45974,1,2,0:0:0:0:
192,192,46136,1,0,0:0:0:0:
448,192,46136,1,0,0:0:0:50:ponpon.wav
64,192,46298,1,8,0:0:0:0:
320,192,46298,1,0,0:0:0:0:
320,192,46623,1,2,0:0:0:15:
192,192,46623,1,2,0:0:0:15:
64,192,46704,1,2,0:0:0:15:
448,192,46704,1,2,0:0:0:15:
192,192,46785,1,2,0:0:0:15:
320,192,46785,1,2,0:0:0:15:
448,192,46866,1,2,0:0:0:15:
64,192,46866,1,2,0:0:0:15:
320,192,46947,128,8,47271:2:0:0:15:
192,192,46947,128,8,47271:2:0:0:15:
64,192,47271,1,4,0:0:0:0:
448,192,47271,1,2,0:0:0:0:
192,192,47433,1,0,0:0:0:50:ponpon.wav
329,192,47433,1,0,0:0:0:0:
448,192,47596,1,8,0:0:0:0:
64,192,47596,1,0,0:0:0:0:
320,192,47920,1,4,0:0:0:0:
192,192,47920,1,2,0:0:0:0:
64,192,48082,1,0,0:0:0:0:
448,192,48082,1,0,0:0:0:50:ponpon.wav
192,192,48244,1,8,0:0:0:0:
320,192,48244,1,0,0:0:0:0:
448,192,48568,1,2,0:0:0:0:
64,192,48568,1,4,0:0:0:0:
329,192,48731,1,0,0:0:0:0:
192,192,48731,1,0,0:0:0:50:ponpon.wav
64,192,48893,1,0,0:0:0:0:
448,192,48893,1,8,0:0:0:0:
448,192,49217,1,2,0:0:0:15:
64,192,49217,1,2,0:0:0:15:
320,192,49298,1,2,0:0:0:15:
192,192,49298,1,2,0:0:0:15:
448,192,49379,1,2,0:0:0:15:
64,192,49379,1,2,0:0:0:15:
320,192,49460,1,2,0:0:0:15:
192,192,49460,1,2,0:0:0:15:
64,192,49541,128,8,49866:2:0:0:15:
448,192,49541,128,8,49866:2:0:0:15:
320,192,49866,1,2,0:0:0:0:
192,192,49866,1,4,0:0:0:0:
64,192,50028,1,0,0:0:0:50:ponpon.wav
448,192,50028,1,0,0:0:0:0:
192,192,50190,1,0,0:0:0:0:
320,192,50190,1,8,0:0:0:0:
64,192,50514,1,4,0:0:0:0:
448,192,50514,1,2,0:0:0:0:
192,192,50677,1,0,0:0:0:50:ponpon.wav
329,192,50677,1,0,0:0:0:0:
448,192,50839,1,8,0:0:0:0:
64,192,50839,1,0,0:0:0:0:
192,192,51163,1,4,0:0:0:0:
320,192,51163,1,2,0:0:0:0:
64,192,51325,1,0,0:0:0:50:ponpon.wav
448,192,51325,1,0,0:0:0:0:
320,192,51487,1,8,0:0:0:0:
192,192,51487,1,0,0:0:0:0:
448,192,51812,1,2,0:0:0:15:
192,192,51812,1,2,0:0:0:15:
64,192,51893,1,2,0:0:0:15:
320,192,51893,1,2,0:0:0:15:
192,192,51974,1,2,0:0:0:15:
448,192,51974,1,2,0:0:0:15:
320,192,52055,1,2,0:0:0:15:
64,192,52055,1,2,0:0:0:15:
448,192,52136,128,8,52460:2:0:0:15:
192,192,52136,128,8,52460:2:0:0:15:
320,192,52460,1,4,0:0:0:0:
64,192,52460,1,2,0:0:0:0:
448,192,52623,1,0,0:0:0:50:ponpon.wav
192,192,52623,1,0,0:0:0:0:
64,192,52785,1,8,0:0:0:0:
320,192,52785,1,0,0:0:0:0:
192,192,53109,1,4,0:0:0:0:
448,192,53109,1,2,0:0:0:0:
320,192,53271,1,0,0:0:0:0:
64,192,53271,1,0,0:0:0:50:ponpon.wav
448,192,53433,1,8,0:0:0:0:
192,192,53433,1,0,0:0:0:0:
64,192,53758,1,2,0:0:0:0:
320,192,53758,1,4,0:0:0:0:
192,192,53920,1,0,0:0:0:0:
448,192,53920,1,0,0:0:0:50:ponpon.wav
320,192,54082,1,0,0:0:0:0:
64,192,54082,1,8,0:0:0:0:
320,192,54406,1,2,0:0:0:15:
64,192,54406,1,2,0:0:0:15:
448,192,54487,1,2,0:0:0:15:
192,192,54487,1,2,0:0:0:15:
64,192,54568,1,2,0:0:0:15:
320,192,54568,1,2,0:0:0:15:
448,192,54650,1,2,0:0:0:15:
192,192,54650,1,2,0:0:0:15:
64,192,54731,128,8,55055:2:0:0:15:
320,192,54731,128,8,55055:2:0:0:15:
448,192,55055,1,2,0:0:0:0:
192,192,55055,1,4,0:0:0:0:
320,192,55217,1,0,0:0:0:0:
64,192,55217,1,0,0:0:0:50:ponpon.wav
192,192,55379,1,0,0:0:0:0:
448,192,55379,1,8,0:0:0:0:
64,192,55704,1,2,0:0:0:0:
320,192,55704,1,4,0:0:0:0:
448,192,55866,1,0,0:0:0:50:ponpon.wav
192,192,55866,1,0,0:0:0:0:
320,192,56028,1,0,0:0:0:0:
64,192,56028,1,8,0:0:0:0:
192,192,56352,1,4,0:0:0:0:
448,192,56352,1,2,0:0:0:0:
64,192,56514,1,0,0:0:0:50:ponpon.wav
320,192,56514,1,0,0:0:0:0:
448,192,56677,1,8,0:0:0:0:
192,192,56677,1,0,0:0:0:0:
320,192,57001,1,2,0:0:0:15:
192,192,57001,1,2,0:0:0:15:
64,192,57082,1,2,0:0:0:15:
448,192,57082,1,2,0:0:0:15:
192,192,57163,1,2,0:0:0:15:
320,192,57163,1,2,0:0:0:15:
64,192,57244,1,2,0:0:0:15:
448,192,57244,1,2,0:0:0:15:
320,192,57325,128,8,57650:2:0:0:15:
192,192,57325,128,8,57650:2:0:0:15:
448,192,57650,1,2,0:0:0:0:
64,192,57650,1,4,0:0:0:0:
192,192,57812,1,0,0:0:0:50:ponpon.wav
329,192,57812,1,0,0:0:0:0:
64,192,57974,1,0,0:0:0:0:
448,192,57974,1,8,0:0:0:0:
320,192,58298,1,4,0:0:0:0:
192,192,58298,1,2,0:0:0:0:
64,192,58460,1,0,0:0:0:0:
448,192,58460,1,0,0:0:0:50:ponpon.wav
192,192,58623,1,8,0:0:0:0:
320,192,58623,1,0,0:0:0:0:
64,192,58947,1,4,0:0:0:0:
448,192,58947,1,2,0:0:0:0:
192,192,59109,1,0,0:0:0:50:ponpon.wav
329,192,59109,1,0,0:0:0:0:
448,192,59271,1,8,0:0:0:0:
64,192,59271,1,0,0:0:0:0:
448,192,59596,1,2,0:0:0:15:
64,192,59596,1,2,0:0:0:15:
320,192,59677,1,2,0:0:0:15:
192,192,59677,1,2,0:0:0:15:
64,192,59758,1,2,0:0:0:15:
448,192,59758,1,2,0:0:0:15:
192,192,59839,1,2,0:0:0:15:
320,192,59839,1,2,0:0:0:15:
64,192,59920,128,8,60244:2:0:0:15:
448,192,59920,128,8,60244:2:0:0:15:
192,192,60244,1,4,0:0:0:0:
320,192,60244,1,2,0:0:0:0:
64,192,60406,1,0,0:0:0:50:ponpon.wav
192,192,60406,1,0,0:0:0:0:
320,192,60568,1,8,0:0:0:0:
448,192,60568,1,0,0:0:0:0:
320,192,60893,1,4,0:0:0:0:
192,192,60893,1,2,0:0:0:0:
320,192,61055,1,0,0:0:0:0:
448,192,61055,1,0,0:0:0:50:ponpon.wav
64,192,61217,1,0,0:0:0:0:
192,192,61217,1,8,0:0:0:0:
320,192,61541,1,2,0:0:0:0:
192,192,61541,1,4,0:0:0:0:
64,192,61704,1,0,0:0:0:50:ponpon.wav
192,192,61704,1,0,0:0:0:0:
448,192,61866,1,8,0:0:0:0:
320,192,61866,1,0,0:0:0:0:
64,192,62190,1,8,2:0:0:0:
192,192,62190,1,0,0:0:0:0:
329,192,62271,1,8,2:0:0:0:
448,192,62271,1,0,0:0:0:0:
182,192,62352,1,8,2:0:0:0:
64,192,62352,1,0,0:0:0:0:
192,192,62514,1,8,2:0:0:0:
448,192,62514,1,0,0:0:0:0:
64,192,62677,1,8,2:0:0:0:
320,192,62677,1,0,0:0:0:0:
109,192,62839,1,4,0:0:0:0:
402,192,62839,1,0,0:0:0:0:
256,192,62839,1,2,0:0:0:0:
192,192,63001,1,0,0:0:0:0:
36,192,63163,1,8,0:0:0:0:
320,192,63163,1,0,0:0:0:0:
448,192,63244,1,0,0:0:0:0:
320,192,63325,1,0,0:0:0:0:
192,192,63406,1,0,0:0:0:0:
109,192,63487,1,2,0:0:0:0:
320,192,63487,1,0,0:0:0:0:
192,192,63650,1,0,0:0:0:0:
64,192,63812,1,8,0:0:0:0:
448,192,63812,1,0,0:0:0:0:
320,192,63974,1,0,0:0:0:0:
64,192,64136,1,2,0:0:0:0:
448,192,64136,1,0,0:0:0:0:
192,192,64298,1,0,0:0:0:0:
448,192,64460,1,8,0:0:0:0:
320,192,64460,1,0,0:0:0:0:
64,192,64541,1,0,0:0:0:0:
192,192,64623,1,0,0:0:0:0:
109,192,64785,1,2,0:0:0:0:
448,192,64785,1,0,0:0:0:0:
182,192,64947,1,0,0:0:0:0:
36,192,65109,1,0,0:0:0:0:
320,192,65109,1,8,0:0:0:0:
192,192,65271,1,0,0:0:0:0:
320,192,65352,1,0,0:0:0:0:
64,192,65433,1,2,0:0:0:0:
448,192,65433,1,0,0:0:0:0:
320,192,65596,1,0,0:0:0:0:
36,192,65758,1,0,0:0:0:0:
192,192,65758,1,8,0:0:0:0:
256,192,65920,1,0,0:0:0:0:
182,192,66082,1,2,0:0:0:0:
448,192,66082,1,0,0:0:0:0:
329,192,66244,1,0,0:0:0:0:
36,192,66406,1,0,0:0:0:0:
448,192,66406,1,8,0:0:0:0:
192,192,66568,1,0,0:0:0:0:
109,192,66731,1,2,0:0:0:0:
320,192,66731,1,0,0:0:0:0:
448,192,66893,1,0,0:0:0:0:
182,192,67055,1,0,0:0:0:0:
329,192,67055,1,8,0:0:0:0:
64,192,67217,1,0,0:0:0:0:
475,192,67379,128,2,67866:0:0:0:0:
192,192,67379,1,0,0:0:0:0:
256,192,67541,1,0,0:0:0:0:
109,192,67704,1,8,0:0:0:0:
320,192,67866,1,0,0:0:0:0:
192,192,67947,1,0,0:0:0:0:
475,192,68028,1,2,1:0:0:0:
64,192,68028,1,0,0:0:0:0:
192,192,68190,1,0,0:0:0:0:
320,192,68271,1,0,0:0:0:0:
475,192,68352,1,0,0:0:0:0:
36,192,68352,1,8,0:0:0:0:
192,192,68514,1,0,0:0:0:0:
64,192,68677,1,2,0:0:0:0:
320,192,68677,1,0,0:0:0:0:
448,192,68839,1,0,1:0:0:0:
320,192,68920,1,0,0:0:0:0:
36,192,69001,1,0,0:0:0:0:
182,192,69001,1,8,0:0:0:0:
475,192,69163,1,0,0:0:0:0:
320,192,69325,1,2,0:0:0:0:
192,192,69325,1,0,0:0:0:0:
64,192,69487,1,0,0:0:0:0:
448,192,69650,1,8,0:0:0:0:
192,192,69650,1,0,0:0:0:0:
320,192,69812,1,0,0:0:0:0:
192,192,69974,128,0,70136:0:0:0:0:
64,192,69974,1,2,0:0:0:0:
329,192,70136,1,0,0:0:0:0:
109,192,70298,1,0,0:0:0:0:
402,192,70298,1,8,0:0:0:0:
329,192,70460,1,0,0:0:0:0:
402,192,70623,128,2,71271:0:0:0:0:
64,192,70623,1,0,0:0:0:0:
182,192,70785,1,0,0:0:0:0:
109,192,70947,1,0,0:0:0:0:
256,192,70947,1,8,0:0:0:0:
182,192,71109,1,0,0:0:0:0:
256,192,71271,1,2,0:0:0:0:
192,192,71433,1,0,0:0:0:0:
448,192,71596,1,8,0:0:0:0:
36,192,71596,1,0,0:0:0:0:
320,192,71758,1,0,0:0:0:0:
320,192,71920,128,0,72568:0:0:0:0:
192,192,71920,1,2,1:0:0:0:
109,192,72082,1,0,0:0:0:0:
448,192,72244,1,8,0:0:0:0:
192,192,72244,1,0,0:0:0:0:
64,192,72406,1,0,0:0:0:0:
192,192,72487,1,0,0:0:0:0:
448,192,72568,128,2,73217:0:0:0:0:
320,192,72731,1,8,2:0:0:0:
192,192,72731,1,0,2:0:0:0:
320,192,72893,1,8,2:0:0:0:
109,192,72893,1,0,2:0:0:0:
64,192,73055,1,0,2:0:0:0:
192,192,73055,1,8,2:0:0:0:
36,192,73217,1,2,0:0:0:0:
192,192,73217,1,4,0:0:0:0:
320,192,73217,1,0,0:0:0:0:
448,192,73379,1,0,0:0:0:0:
320,192,73541,1,8,0:0:0:0:
192,192,73541,1,0,0:0:0:0:
64,192,73623,1,0,0:0:0:0:
192,192,73704,1,0,0:0:0:0:
320,192,73785,1,0,0:0:0:0:
192,192,73866,1,2,0:0:0:0:
448,192,73866,1,0,0:0:0:0:
320,192,74028,1,0,0:0:0:0:
109,192,74190,1,8,0:0:0:0:
192,192,74190,1,0,0:0:0:0:
320,192,74352,1,0,0:0:0:0:
192,192,74514,1,2,0:0:0:0:
448,192,74514,1,0,0:0:0:0:
64,192,74677,1,0,0:0:0:0:
448,192,74839,1,8,0:0:0:0:
192,192,74839,1,0,0:0:0:0:
320,192,74920,1,0,0:0:0:0:
192,192,75001,1,0,0:0:0:0:
402,192,75163,128,0,75650:1:0:0:0:
109,192,75163,1,2,0:0:0:0:
192,192,75325,1,0,0:0:0:0:
36,192,75487,1,0,0:0:0:0:
329,192,75487,1,8,0:0:0:0:
192,192,75650,1,0,0:0:0:0:
320,192,75731,1,0,0:0:0:0:
64,192,75812,1,2,0:0:0:0:
448,192,75812,1,0,0:0:0:0:
329,192,75974,1,0,0:0:0:0:
192,192,76136,1,8,0:0:0:0:
402,192,76136,1,0,0:0:0:0:
320,192,76298,1,0,0:0:0:0:
182,192,76460,1,2,0:0:0:0:
64,192,76460,1,0,0:0:0:0:
448,192,76623,1,0,0:0:0:0:
320,192,76785,1,8,0:0:0:0:
64,192,76785,1,0,0:0:0:0:
192,192,76947,1,0,0:0:0:0:
448,192,77109,1,2,0:0:0:0:
320,192,77109,1,0,0:0:0:0:
64,192,77271,1,0,0:0:0:0:
192,192,77433,1,8,0:0:0:0:
320,192,77433,1,0,0:0:0:0:
402,192,77596,1,0,0:0:0:0:
64,192,77758,128,2,78406:1:0:0:0:
192,192,77758,1,0,0:0:0:0:
448,192,77920,1,0,0:0:0:0:
192,192,78082,1,8,0:0:0:0:
320,192,78082,1,0,0:0:0:0:
448,192,78244,1,0,0:0:0:0:
320,192,78325,1,0,0:0:0:0:
192,192,78406,1,0,0:0:0:0:
448,192,78406,1,2,0:0:0:0:
64,192,78568,1,0,0:0:0:0:
192,192,78650,1,0,0:0:0:0:
320,192,78731,1,0,0:0:0:0:
109,192,78731,1,8,0:0:0:0:
448,192,78893,1,0,0:0:0:0:
182,192,79055,1,2,0:0:0:0:
64,192,79055,1,0,0:0:0:0:
320,192,79217,1,0,0:0:0:0:
64,192,79298,1,0,0:0:0:0:
182,192,79379,1,0,0:0:0:0:
402,192,79379,1,8,0:0:0:0:
256,192,79541,1,0,0:0:0:0:
182,192,79704,1,2,0:0:0:0:
448,192,79704,1,0,0:0:0:0:
109,192,79866,1,0,0:0:0:0:
182,192,80028,1,8,0:0:0:0:
320,192,80028,1,0,0:0:0:0:
36,192,80190,1,0,0:0:0:0:
192,192,80352,1,2,0:0:0:0:
448,192,80352,1,0,0:0:0:0:
329,192,80514,1,0,0:0:0:0:
402,192,80677,1,8,0:0:0:0:
64,192,80677,1,0,0:0:0:0:
329,192,80839,1,0,0:0:0:0:
402,192,81001,128,2,81650:1:0:0:0:
64,192,81001,1,2,0:0:0:0:
256,192,81163,1,0,0:0:0:0:
182,192,81325,1,8,0:0:0:0:
64,192,81325,1,0,0:0:0:0:
256,192,81487,1,0,0:0:0:0:
36,192,81650,1,2,0:0:0:0:
182,192,81812,1,0,0:0:0:0:
256,192,81974,1,8,0:0:0:0:
64,192,81974,1,0,0:0:0:0:
192,192,82136,1,0,0:0:0:0:
448,192,82298,128,2,82785:0:0:0:0:
64,192,82298,1,8,2:0:0:0:
320,192,82460,1,0,0:0:0:0:
192,192,82623,1,8,0:0:0:0:
64,192,82623,1,0,0:0:0:0:
320,192,82785,1,2,2:0:0:0:
192,192,82866,1,2,2:0:0:0:
64,192,82947,128,2,83271:0:0:0:0:
448,192,82947,1,8,2:0:0:0:
320,192,83028,1,8,2:0:0:0:
448,192,83109,1,8,2:0:0:0:
192,192,83271,128,8,83596:0:0:0:0:
320,192,83271,1,8,2:0:0:0:
448,192,83433,1,8,2:0:0:0:
36,192,83596,1,2,0:0:0:0:
475,192,83596,1,0,0:0:0:0:
320,192,83596,1,4,0:0:0:0:
192,192,83758,1,8,0:0:0:0:
109,192,83758,1,0,0:0:0:50:ponpon.wav
402,192,83758,1,0,0:0:0:0:
182,192,83920,1,0,0:0:0:0:
448,192,83920,1,8,0:0:0:0:
320,192,83920,1,0,0:0:0:50:ponpon.wav
320,192,84244,1,8,2:0:0:0:
448,192,84244,1,0,0:0:0:0:
192,192,84325,1,8,2:0:0:0:
64,192,84325,1,0,0:0:0:0:
320,192,84406,1,2,0:0:0:0:
402,192,84406,1,0,0:0:0:0:
64,192,84568,1,0,0:0:0:0:
192,192,84568,1,8,2:0:0:0:
329,192,84650,1,8,2:0:0:0:
448,192,84650,1,0,0:0:0:0:
182,192,84731,1,8,2:0:0:0:
64,192,84731,1,0,0:0:0:0:
109,192,84893,1,4,0:0:0:0:
256,192,84893,1,2,0:0:0:0:
475,192,84893,1,0,0:0:0:0:
182,192,85055,1,0,0:0:0:50:ponpon.wav
36,192,85055,1,0,0:0:0:0:
329,192,85055,1,0,0:0:0:0:
192,192,85217,1,2,0:0:0:0:
475,192,85217,1,12,1:0:0:0:
320,192,85217,1,0,0:0:0:50:ponpon.wav
