osu file format v14

[General]
AudioFilename: Akito Matsuda - After After.mp3
AudioLeadIn: 0
PreviewTime: 10947
Countdown: 0
SampleSet: Normal
StackLeniency: 0.7
Mode: 3
LetterboxInBreaks: 0
SpecialStyle: 0
WidescreenStoryboard: 0

[Editor]
Bookmarks: 569
DistanceSpacing: 0.5
BeatDivisor: 4
GridSize: 16
TimelineZoom: 1.2

[Metadata]
Title:After After
TitleUnicode:アフターアフター
Artist:Matsuda Akito
ArtistUnicode:松田彬人
Creator:Zenobian
Version:7K EZ
Source:ディーふらぐ!
Tags:ゲーム製作部CD(仮)~サントラ② game seisakubu cd (kari) ~ sound track 2 d-fragments d-frag! bgm schwarzvgrune
BeatmapID:628499
BeatmapSetID:277353

[Difficulty]
HPDrainRate:6.5
CircleSize:7
OverallDifficulty:6.5
ApproachRate:5
SliderMultiplier:1.4
SliderTickRate:1

[Events]
//Background and Video events
0,0,"d-frag.png",0,0
//Break Periods
//Storyboard Layer 0 (Background)
//Storyboard Layer 1 (Fail)
//Storyboard Layer 2 (Pass)
//Storyboard Layer 3 (Foreground)
//Storyboard Sound Samples

[TimingPoints]
569,324.324324324324,4,1,1,40,1,0
62839,-100,4,1,1,40,0,1
83596,-100,4,1,1,40,0,0

[HitObjects]
182,192,569,5,2,0:0:0:0:
402,192,893,1,8,0:0:0:0:
109,192,1217,1,2,0:0:0:0:
329,192,1541,1,8,0:0:0:0:
182,192,1866,1,2,0:0:0:0:
475,192,2190,1,8,0:0:0:0:
36,192,2514,1,2,0:0:0:0:
329,192,2839,1,8,0:0:0:0:
402,192,3163,1,2,0:0:0:0:
109,192,3487,1,8,0:0:0:0:
182,192,3812,1,2,0:0:0:0:
329,192,4136,1,8,0:0:0:0:
475,192,4460,1,2,0:0:0:0:
256,192,4785,128,0,5758:0:0:0:0:
36,192,4785,1,8,0:0:0:0:
109,192,5758,1,2,0:0:0:0:
402,192,6082,1,8,0:0:0:0:
182,192,6406,1,2,0:0:0:0:
329,192,6731,1,8,0:0:0:0:
109,192,7055,1,2,0:0:0:0:
36,192,7379,1,8,0:0:0:0:
475,192,7704,1,2,0:0:0:0:
402,192,8028,1,8,0:0:0:0:
182,192,8352,1,2,0:0:0:0:
329,192,8677,1,8,0:0:0:0:
36,192,9001,1,2,0:0:0:0:
475,192,9325,1,8,0:0:0:0:
402,192,9650,1,2,0:0:0:0:
256,192,9974,128,0,10623:0:0:0:0:
182,192,9974,1,8,0:0:0:0:
36,192,10623,1,8,2:0:0:0:
182,192,10947,1,2,0:0:0:0:
329,192,10947,1,4,0:0:0:0:
402,192,11271,1,8,0:0:0:0:
109,192,11596,1,2,0:0:0:0:
36,192,11920,1,8,0:0:0:0:
256,192,12244,1,2,0:0:0:0:
475,192,12568,1,8,0:0:0:0:
109,192,12893,1,2,0:0:0:0:
256,192,13217,1,8,0:0:0:0:
329,192,13541,1,2,0:0:0:0:
109,192,13866,1,8,0:0:0:0:
256,192,14190,1,2,0:0:0:0:
402,192,14514,1,8,0:0:0:0:
182,192,14839,1,2,0:0:0:0:
329,192,15163,1,8,0:0:0:0:
182,192,15487,1,2,0:0:0:0:
36,192,15812,1,8,0:0:0:0:
402,192,16136,1,2,0:0:0:0:
329,192,16460,1,8,0:0:0:0:
182,192,16785,1,2,0:0:0:0:
256,192,17109,1,8,0:0:0:0:
36,192,17433,1,2,0:0:0:0:
475,192,17758,1,8,0:0:0:0:
402,192,18082,1,2,0:0:0:0:
329,192,18406,1,8,0:0:0:0:
475,192,18731,1,2,0:0:0:0:
182,192,19055,1,8,0:0:0:0:
329,192,19379,1,2,0:0:0:0:
36,192,19704,1,8,0:0:0:0:
256,192,20028,1,2,0:0:0:0:
36,192,20352,1,8,0:0:0:0:
329,192,20677,1,2,0:0:0:0:
402,192,21001,1,8,2:0:0:0:
109,192,21001,1,0,0:0:0:0:
329,192,21325,1,2,0:0:0:0:
182,192,21325,1,4,0:0:0:0:
109,192,21650,1,8,0:0:0:0:
182,192,21974,1,2,0:0:0:0:
256,192,22298,1,8,0:0:0:0:
182,192,22623,1,2,0:0:0:0:
329,192,22947,1,8,0:0:0:0:
402,192,23271,1,2,0:0:0:0:
329,192,23596,1,8,0:0:0:0:
475,192,23920,1,2,0:0:0:0:
402,192,24244,1,8,0:0:0:0:
329,192,24568,1,2,0:0:0:0:
256,192,24893,1,8,0:0:0:0:
329,192,25217,1,2,0:0:0:0:
182,192,25541,1,8,0:0:0:0:
109,192,25866,1,2,0:0:0:0:
182,192,26190,1,8,0:0:0:0:
36,192,26514,1,2,0:0:0:0:
182,192,26839,1,8,0:0:0:0:
329,192,27163,1,2,0:0:0:0:
475,192,27487,1,8,0:0:0:0:
402,192,27812,1,2,0:0:0:0:
36,192,28136,1,8,0:0:0:0:
256,192,28460,1,2,0:0:0:0:
182,192,28785,1,8,0:0:0:0:
402,192,29109,1,2,0:0:0:0:
329,192,29433,1,8,0:0:0:0:
256,192,29758,1,2,0:0:0:0:
182,192,30082,1,8,0:0:0:0:
256,192,30406,1,2,0:0:0:0:
329,192,30731,1,8,0:0:0:0:
109,192,31055,128,2,31379:2:0:0:0:
256,192,31379,128,2,31704:2:0:0:0:
475,192,31704,1,4,0:0:0:0:
36,192,31704,1,2,0:0:0:0:
109,192,32028,1,8,0:0:0:0:
402,192,32352,1,2,0:0:0:0:
256,192,32677,1,8,0:0:0:0:
182,192,33001,1,2,0:0:0:0:
36,192,33325,1,8,0:0:0:0:
475,192,33650,1,2,0:0:0:0:
256,192,33974,1,8,0:0:0:0:
329,192,34298,1,2,0:0:0:0:
109,192,34623,1,8,0:0:0:0:
182,192,34947,1,2,0:0:0:0:
402,192,35271,1,8,0:0:0:0:
329,192,35596,1,2,0:0:0:0:
182,192,35920,1,8,0:0:0:0:
256,192,36244,1,2,0:0:0:0:
36,192,36568,1,8,0:0:0:0:
402,192,36893,1,2,0:0:0:0:
182,192,37217,1,8,0:0:0:0:
256,192,37541,1,2,0:0:0:0:
329,192,37866,1,8,0:0:0:0:
109,192,38190,1,2,0:0:0:0:
329,192,38514,1,8,0:0:0:0:
256,192,38839,1,2,0:0:0:0:
182,192,39163,1,8,0:0:0:0:
402,192,39487,1,2,0:0:0:0:
182,192,39812,1,8,0:0:0:0:
256,192,40136,1,2,0:0:0:0:
36,192,40460,1,8,0:0:0:0:
475,192,40785,1,2,0:0:0:0:
402,192,41109,1,8,0:0:0:0:
329,192,41433,1,8,2:0:0:0:
256,192,41758,1,8,2:0:0:0:
109,192,42082,1,4,0:0:0:0:
402,192,42082,1,4,0:0:0:0:
109,192,42406,1,0,0:0:0:50:ponpon.wav
402,192,42731,1,0,0:0:0:0:
402,192,43055,1,0,0:0:0:50:ponpon.wav
256,192,43379,1,0,0:0:0:0:
256,192,43704,1,0,0:0:0:50:ponpon.wav
36,192,44028,1,2,0:0:0:0:
182,192,44352,1,8,2:0:0:0:
329,192,44677,1,4,0:0:0:0:
109,192,44677,1,4,0:0:0:0:
329,192,45001,1,0,0:0:0:50:ponpon.wav
182,192,45325,1,2,0:0:0:0:
182,192,45650,1,0,0:0:0:50:ponpon.wav
256,192,45974,1,2,0:0:0:0:
256,192,46298,1,0,0:0:0:50:ponpon.wav
109,192,46623,1,2,0:0:0:0:
402,192,46947,1,8,2:0:0:0:
36,192,47271,1,4,0:0:0:0:
329,192,47271,1,4,0:0:0:0:
36,192,47596,1,0,0:0:0:50:ponpon.wav
475,192,47920,1,2,0:0:0:0:
475,192,48244,1,0,0:0:0:50:ponpon.wav
256,192,48568,1,2,0:0:0:0:
256,192,48893,1,0,0:0:0:50:ponpon.wav
182,192,49217,1,2,0:0:0:0:
36,192,49541,1,8,2:0:0:0:
329,192,49866,1,4,0:0:0:0:
109,192,49866,1,4,0:0:0:0:
402,192,50190,1,0,0:0:0:50:ponpon.wav
182,192,50514,1,2,0:0:0:0:
109,192,50839,1,0,0:0:0:50:ponpon.wav
256,192,51163,1,2,0:0:0:0:
256,192,51487,1,0,0:0:0:50:ponpon.wav
402,192,51812,1,8,2:0:0:0:
109,192,52136,1,8,2:0:0:0:
36,192,52460,1,4,0:0:0:0:
329,192,52460,1,4,0:0:0:0:
256,192,52785,1,0,0:0:0:50:ponpon.wav
475,192,53109,1,2,0:0:0:0:
256,192,53433,1,0,0:0:0:50:ponpon.wav
109,192,53758,1,2,0:0:0:0:
182,192,54082,1,0,0:0:0:50:ponpon.wav
402,192,54406,1,8,2:0:0:0:
329,192,54731,1,8,2:0:0:0:
402,192,55055,1,4,0:0:0:0:
182,192,55055,1,4,0:0:0:0:
36,192,55379,1,0,0:0:0:50:ponpon.wav
109,192,55704,1,2,0:0:0:0:
475,192,56028,1,0,0:0:0:50:ponpon.wav
329,192,56352,1,2,0:0:0:0:
109,192,56677,1,0,0:0:0:50:ponpon.wav
182,192,57001,1,8,2:0:0:0:
402,192,57325,1,8,2:0:0:0:
109,192,57650,1,4,0:0:0:0:
329,192,57650,1,4,0:0:0:0:
36,192,57974,1,0,0:0:0:50:ponpon.wav
402,192,58298,1,2,0:0:0:0:
475,192,58623,1,0,0:0:0:50:ponpon.wav
182,192,58947,1,2,0:0:0:0:
329,192,59271,1,0,0:0:0:50:ponpon.wav
182,192,59596,1,8,2:0:0:0:
256,192,59920,1,8,2:0:0:0:
109,192,60244,1,4,0:0:0:0:
329,192,60244,1,4,0:0:0:0:
109,192,60568,1,0,0:0:0:50:ponpon.wav
402,192,60893,1,2,0:0:0:0:
402,192,61217,1,0,0:0:0:50:ponpon.wav
36,192,61541,1,2,0:0:0:0:
475,192,61866,1,0,0:0:0:50:ponpon.wav
256,192,62190,1,8,2:0:0:0:
256,192,62514,1,8,2:0:0:0:
182,192,62839,1,4,0:0:0:0:
329,192,62839,1,2,0:0:0:0:
402,192,63163,1,8,0:0:0:0:
109,192,63487,1,2,0:0:0:0:
402,192,63812,1,8,0:0:0:0:
182,192,64136,1,2,0:0:0:0:
475,192,64460,1,8,0:0:0:0:
329,192,64785,1,2,0:0:0:0:
256,192,65109,1,8,0:0:0:0:
402,192,65433,1,2,0:0:0:0:
36,192,65758,1,8,0:0:0:0:
475,192,66082,1,2,0:0:0:0:
182,192,66406,1,8,0:0:0:0:
256,192,66731,1,2,0:0:0:0:
329,192,67055,1,8,0:0:0:0:
475,192,67379,1,2,0:0:0:0:
36,192,67704,1,8,0:0:0:0:
256,192,68028,1,2,0:0:0:0:
182,192,68352,1,8,0:0:0:0:
256,192,68677,1,2,0:0:0:0:
329,192,69001,1,8,0:0:0:0:
109,192,69325,1,2,0:0:0:0:
182,192,69650,1,8,0:0:0:0:
402,192,69974,1,2,0:0:0:0:
329,192,70298,1,8,0:0:0:0:
36,192,70623,1,2,0:0:0:0:
109,192,70947,1,8,0:0:0:0:
475,192,71271,1,2,0:0:0:0:
402,192,71596,1,8,0:0:0:0:
256,192,71920,1,2,0:0:0:0:
256,192,72244,1,8,0:0:0:0:
109,192,72568,1,2,0:0:0:0:
402,192,72893,1,8,2:0:0:0:
36,192,73217,1,4,0:0:0:0:
475,192,73217,1,2,0:0:0:0:
109,192,73541,1,8,0:0:0:0:
475,192,73866,1,2,0:0:0:0:
329,192,74190,1,8,0:0:0:0:
182,192,74514,1,2,0:0:0:0:
36,192,74839,1,8,0:0:0:0:
402,192,75163,1,2,0:0:0:0:
256,192,75487,1,8,0:0:0:0:
109,192,75812,1,2,0:0:0:0:
329,192,76136,1,8,0:0:0:0:
109,192,76460,1,2,0:0:0:0:
36,192,76785,1,8,0:0:0:0:
402,192,77109,1,2,0:0:0:0:
182,192,77433,1,8,0:0:0:0:
109,192,77758,1,2,0:0:0:0:
256,192,78082,1,8,0:0:0:0:
475,192,78406,1,2,0:0:0:0:
402,192,78731,1,8,0:0:0:0:
36,192,79055,1,2,0:0:0:0:
182,192,79379,1,8,0:0:0:0:
329,192,79704,1,2,0:0:0:0:
475,192,80028,1,8,0:0:0:0:
109,192,80352,1,2,0:0:0:0:
256,192,80677,1,8,0:0:0:0:
402,192,81001,1,2,0:0:0:0:
182,192,81325,1,8,0:0:0:0:
402,192,81650,1,2,0:0:0:0:
475,192,81974,1,8,0:0:0:0:
109,192,82298,1,8,2:0:0:0:
329,192,82623,1,8,0:0:0:0:
402,192,82947,1,8,2:0:0:0:
36,192,83271,1,8,2:0:0:0:
329,192,83596,1,4,0:0:0:0:
109,192,83596,1,4,0:0:0:0:
329,192,83920,1,0,0:0:0:50:ponpon.wav
182,192,84244,1,2,0:0:0:0:
182,192,84568,1,0,0:0:0:50:ponpon.wav
402,192,84893,1,4,0:0:0:0:
109,192,84893,1,0,0:0:0:0:
256,192,85217,128,4,86190:0:0:0:0:
475,192,85217,1,2,0:0:0:0:
