osu file format v14

[General]
AudioFilename: audio.mp3
AudioLeadIn: 0
PreviewTime: 236813
Countdown: 1
SampleSet: Soft
StackLeniency: 0.3
Mode: 0
LetterboxInBreaks: 0
WidescreenStoryboard: 0

[Editor]
Bookmarks: 19490,38538,91871,122347,129966,145204,190919,229014,251871
DistanceSpacing: 1.6
BeatDivisor: 8
GridSize: 8
TimelineZoom: 1.3

[Metadata]
Title:Rusty Sky
TitleUnicode:Rusty Sky
Artist:Matryoshka
ArtistUnicode:Matryoshka
Creator:Gust
Version:Dusk
Source:シャリーのアトリエ 〜黄昏の海の錬金術士〜
Tags:Atelier Shallie: Alchemists of the Dusk Sea tasogare no sora no renkinjutsushi gust video game
BeatmapID:1770051
BeatmapSetID:846312

[Difficulty]
HPDrainRate:6
CircleSize:6
OverallDifficulty:6
ApproachRate:8
SliderMultiplier:1.8
SliderTickRate:2

[Events]
//Background and Video events
0,0,"628621.jpg",0,0
//Break Periods
//Storyboard Layer 0 (Background)
//Storyboard Layer 1 (Fail)
//Storyboard Layer 2 (Pass)
//Storyboard Layer 3 (Foreground)
//Storyboard Sound Samples

[TimingPoints]
490,952.380952380952,4,2,1,20,1,0
5966,-100,4,2,1,5,0,0
6204,-100,4,2,1,20,0,0
6918,-100,4,2,1,5,0,0
7156,-100,4,2,1,20,0,0
15728,956.175298804781,4,2,1,20,1,0
23377,952.380952380952,4,2,1,20,1,0
26710,-100,4,2,1,5,0,0
27186,-100,4,2,1,20,0,0
28615,-100,4,2,1,5,0,0
29091,-100,4,2,1,20,0,0
38560,952.380952380952,4,2,2,20,1,0
41179,-100,4,2,2,5,0,0
41417,-100,4,2,2,20,0,0
43084,-100,4,2,2,5,0,0
43322,-100,4,2,2,20,0,0
44274,-100,4,2,1,20,0,0
44988,-100,4,2,1,5,0,0
45226,-100,4,2,1,20,0,0
46179,-100,4,2,2,20,0,0
48084,-100,4,2,1,20,0,0
48798,-100,4,2,1,10,0,0
49512,-100,4,2,1,20,0,0
52845,-100,4,2,1,20,0,0
53798,-100,4,2,1,20,0,0
54036,-100,4,2,1,5,0,0
54274,-100,4,2,1,20,0,0
54512,-100,4,2,1,5,0,0
54750,-100,4,2,1,20,0,0
56893,-100,4,2,1,5,0,0
57131,-100,4,2,1,8,0,0
57607,-100,4,2,1,13,0,0
57845,-100,4,2,1,20,0,0
58084,-100,4,2,1,5,0,0
58322,-100,4,2,1,20,0,0
58798,-100,4,2,1,5,0,0
59036,-100,4,2,1,20,0,0
60703,-100,4,2,1,5,0,0
60941,-100,4,2,1,20,0,0
61417,-100,4,2,2,20,0,0
64036,-100,4,2,2,5,0,0
64274,-100,4,2,2,20,0,0
64512,-100,4,2,2,5,0,0
64750,-100,4,2,2,20,0,0
65941,-100,4,2,2,5,0,0
66179,-100,4,2,2,13,0,0
66417,-100,4,2,2,5,0,0
66655,-100,4,2,2,20,0,0
67845,-100,4,2,2,5,0,0
68084,-100,4,2,2,20,0,0
69036,-100,4,2,2,10,0,0
69512,-100,4,2,2,13,0,0
70703,-100,4,2,2,5,0,0
70941,-100,4,2,2,20,0,0
71655,-100,4,2,2,5,0,0
71893,-100,4,2,2,20,0,0
72131,-100,4,2,2,5,0,0
72369,-100,4,2,2,20,0,0
72845,-100,4,2,1,20,0,0
75464,-100,4,2,1,5,0,0
75703,-100,4,2,1,20,0,0
76417,-100,4,2,1,5,0,0
76655,-100,4,2,2,20,0,0
77369,-100,4,2,2,5,0,0
77607,-100,4,2,2,20,0,0
77845,-100,4,2,2,5,0,0
78084,-100,4,2,2,13,0,0
78560,-100,4,2,2,20,0,0
81179,-100,4,2,2,5,0,0
81417,-100,4,2,2,10,0,0
81893,-100,4,2,2,13,0,0
82369,-100,4,2,1,20,0,0
83084,-100,4,2,1,5,0,0
83322,-100,4,2,1,20,0,0
83560,-100,4,2,1,5,0,0
83798,-100,4,2,1,20,0,0
84036,-100,4,2,1,5,0,0
84274,-100,4,2,2,20,0,0
89988,-100,4,2,1,20,0,0
91893,-66.6666666666667,4,2,2,40,0,1
92250,-66.6666666666667,4,2,2,5,0,1
92369,-50,4,2,2,20,0,1
92845,-33.3333333333333,4,2,2,20,0,1
93163,-33.3333333333333,4,2,2,30,0,1
93480,-33.3333333333333,4,2,2,40,0,1
93798,-80,4,2,2,40,0,1
94631,-80,4,2,2,5,0,1
94750,-28.5714285714286,4,2,2,40,0,1
95584,-28.5714285714286,4,2,2,5,0,1
95703,-54.054054054054,4,2,2,40,0,1
96417,-54.054054054054,4,2,2,5,0,1
96655,-100,4,2,2,20,0,1
97131,-66.6666666666667,4,2,2,30,0,1
97607,-50,4,2,2,40,0,1
97964,-50,4,2,2,5,0,1
98084,-50,4,2,2,20,0,1
98560,-66.6666666666667,4,2,2,30,0,1
99512,-40,4,2,2,30,0,1
99869,-40,4,2,2,5,0,1
99988,-40,4,2,2,20,0,1
100345,-40,4,2,2,5,0,1
100464,-40,4,2,2,30,0,1
101416,-66.6666666666667,4,2,2,40,0,1
102250,-66.6666666666667,4,2,2,5,0,1
102369,-28.5714285714286,4,2,2,40,0,1
103203,-28.5714285714286,4,2,2,5,0,1
103322,-54.054054054054,4,2,2,40,0,1
104274,-100,4,2,2,20,0,1
104750,-66.6666666666667,4,2,2,20,0,1
104869,-66.6666666666667,4,2,2,5,0,1
104988,-66.6666666666667,4,2,2,20,0,1
105107,-66.6666666666667,4,2,2,5,0,1
105226,-50,4,2,2,40,0,1
105584,-50,4,2,2,5,0,1
105703,-50,4,2,2,30,0,1
105822,-50,4,2,2,5,0,1
105941,-50,4,2,2,30,0,1
106060,-50,4,2,2,5,0,1
106179,-66.6666666666667,4,2,2,30,0,1
106893,-66.6666666666667,4,2,2,5,0,1
107131,-33.3333333333333,4,2,2,40,0,1
107488,-33.3333333333333,4,2,2,5,0,1
107607,-33.3333333333333,4,2,2,40,0,1
107964,-33.3333333333333,4,2,2,5,0,1
108084,-33.3333333333333,4,2,2,40,0,1
109036,-66.6666666666667,4,2,2,40,0,1
109869,-66.6666666666667,4,2,2,5,0,1
109988,-28.5714285714286,4,2,2,40,0,1
110822,-54.054054054054,4,2,2,5,0,1
110941,-54.054054054054,4,2,2,40,0,1
111893,-100,4,2,2,20,0,1
112250,-100,4,2,2,5,0,1
112369,-66.6666666666667,4,2,2,30,0,1
112726,-66.6666666666667,4,2,2,5,0,1
112845,-40,4,2,2,40,0,1
113203,-40,4,2,2,5,0,1
113322,-40,4,2,2,20,0,1
113798,-66.6666666666667,4,2,2,30,0,1
114512,-66.6666666666667,4,2,2,5,0,1
114750,-40,4,2,2,30,0,1
115107,-40,4,2,2,5,0,1
115226,-40,4,2,2,30,0,1
115584,-40,4,2,2,5,0,1
115703,-40,4,2,2,30,0,1
116655,-66.6666666666667,4,2,2,40,0,1
117488,-66.6666666666667,4,2,2,5,0,1
117607,-28.5714285714286,4,2,2,40,0,1
118441,-28.5714285714286,4,2,2,5,0,1
118560,-54.054054054054,4,2,2,40,0,1
119274,-54.054054054054,4,2,2,5,0,1
119512,-100,4,2,2,20,0,1
119869,-100,4,2,2,15,0,1
120226,-66.6666666666667,4,2,2,30,0,1
120464,-40,4,2,2,40,0,1
120821,-40,4,2,2,5,0,1
120941,-40,4,2,2,20,0,1
121059,-40,4,2,2,5,0,1
121179,-40,4,2,2,30,0,1
121298,-40,4,2,2,5,0,1
121417,-66.6666666666667,4,2,2,30,0,1
122369,-33.3333333333333,4,2,1,40,0,0
122726,-33.3333333333333,4,2,1,5,0,0
122845,-37.037037037037,4,2,1,10,0,0
123203,-37.037037037037,4,2,1,5,0,0
123322,-41.6666666666667,4,2,1,20,0,0
123679,-41.6666666666667,4,2,1,5,0,0
123798,-47.6190476190476,4,2,1,20,0,0
124155,-47.6190476190476,4,2,1,5,0,0
124274,-55.5555555555556,4,2,1,20,0,0
124631,-55.5555555555556,4,2,1,5,0,0
124750,-66.6666666666667,4,2,1,10,0,0
125107,-66.6666666666667,4,2,1,5,0,0
125226,-83.3333333333333,4,2,1,20,0,0
125584,-83.3333333333333,4,2,1,5,0,0
125703,-100,4,2,1,20,0,0
125940,-100,4,2,1,5,0,0
126179,-83.3333333333333,4,2,1,20,0,0
126536,-83.3333333333333,4,2,1,5,0,0
126655,-66.6666666666667,4,2,1,10,0,0
127012,-66.6666666666667,4,2,1,5,0,0
127131,-55.5555555555556,4,2,1,20,0,0
127488,-55.5555555555556,4,2,1,5,0,0
127607,-55.5555555555556,4,2,1,10,0,0
127964,-55.5555555555556,4,2,1,5,0,0
128084,-47.6190476190476,4,2,1,20,0,0
128441,-47.6190476190476,4,2,1,5,0,0
128556,-41.6666666666667,4,2,1,10,0,0
128917,-41.6666666666667,4,2,1,5,0,0
129032,-37.037037037037,4,2,1,10,0,0
129393,-37.037037037037,4,2,1,5,0,0
129512,-33.3333333333333,4,2,1,20,0,0
129750,-33.3333333333333,4,2,1,5,0,0
129988,-28.5714285714286,4,2,1,50,0,1
130703,-28.5714285714286,4,2,1,5,0,1
130941,-54.054054054054,4,2,1,20,0,1
131893,-80,4,2,2,35,0,1
133798,-66.6666666666667,4,2,2,50,0,1
134512,-66.6666666666667,4,2,2,5,0,1
134750,-66.6666666666667,4,2,2,20,0,1
135703,-50,4,2,1,40,0,1
136417,-50,4,2,1,5,0,1
136655,-40,4,2,2,40,0,1
137369,-40,4,2,2,5,0,1
137607,-33.3333333333333,4,2,1,30,0,1
138322,-33.3333333333333,4,2,1,5,0,1
138560,-28.5714285714286,4,2,1,50,0,1
139274,-28.5714285714286,4,2,1,5,0,1
139512,-54.054054054054,4,2,1,30,0,1
140703,-54.054054054054,4,2,1,5,0,1
140941,-54.054054054054,4,2,1,20,0,1
141417,-100,4,2,2,30,0,1
143322,-66.6666666666667,4,2,1,30,0,1
144274,-50,4,2,2,20,0,1
145226,-100,4,2,1,20,0,0
146179,-100,4,2,1,13,0,0
146655,-100,4,2,1,20,0,0
146893,-100,4,2,1,5,0,0
147131,-100,4,2,1,20,0,0
148322,-100,4,2,2,5,0,0
148560,-100,4,2,2,20,0,0
148798,-100,4,2,2,5,0,0
149036,-100,4,2,2,20,0,0
150940,-100,4,2,1,20,0,0
151654,-100,4,2,1,5,0,0
151892,-100,4,2,1,20,0,0
152845,-100,4,2,2,20,0,0
154750,-100,4,2,1,20,0,0
155464,-100,4,2,1,5,0,0
155703,-100,4,2,1,13,0,0
156178,-100,4,2,1,20,0,0
159511,-100,4,2,1,20,0,0
160464,-100,4,2,1,20,0,0
160702,-100,4,2,1,5,0,0
160940,-100,4,2,1,20,0,0
161178,-100,4,2,1,5,0,0
161416,-100,4,2,1,20,0,0
163559,-100,4,2,1,5,0,0
163797,-100,4,2,1,8,0,0
164273,-100,4,2,1,13,0,0
164511,-100,4,2,1,20,0,0
164750,-100,4,2,1,5,0,0
164988,-100,4,2,1,20,0,0
165464,-100,4,2,1,5,0,0
165702,-100,4,2,1,20,0,0
167369,-100,4,2,1,5,0,0
167607,-100,4,2,1,20,0,0
168083,-100,4,2,2,20,0,0
169988,-100,4,2,1,20,0,0
170940,-100,4,2,2,20,0,0
171178,-100,4,2,2,10,0,0
171416,-100,4,2,2,20,0,0
172845,-100,4,2,2,13,0,0
173321,-100,4,2,2,20,0,0
174511,-100,4,2,2,5,0,0
174750,-100,4,2,2,20,0,0
175703,-100,4,2,2,20,0,0
176655,-100,4,2,2,10,0,0
177131,-100,4,2,2,13,0,0
177369,-100,4,2,2,5,0,0
177607,-100,4,2,2,20,0,0
178321,-100,4,2,2,5,0,0
178559,-100,4,2,2,20,0,0
178560,-100,4,2,2,10,0,0
178797,-100,4,2,2,5,0,0
179035,-100,4,2,2,20,0,0
180226,-100,4,2,2,5,0,0
180464,-100,4,2,2,10,0,0
180941,-100,4,2,2,13,0,0
181417,-100,4,2,1,20,0,0
182130,-100,4,2,1,5,0,0
182369,-100,4,2,1,20,0,0
183083,-100,4,2,1,5,0,0
183321,-100,4,2,2,20,0,0
184035,-100,4,2,2,5,0,0
184273,-100,4,2,2,20,0,0
184511,-100,4,2,2,5,0,0
184750,-100,4,2,2,13,0,0
185226,-100,4,2,2,20,0,0
187845,-100,4,2,2,5,0,0
188083,-100,4,2,2,10,0,0
188559,-100,4,2,2,13,0,0
189035,-100,4,2,1,20,0,0
189750,-100,4,2,1,5,0,0
189988,-100,4,2,1,20,0,0
190226,-100,4,2,1,5,0,0
190464,-100,4,2,1,13,0,0
190702,-100,4,2,1,5,0,0
190940,-100,4,2,2,20,0,0
196655,-100,4,2,1,20,0,0
198559,-66.6666666666667,4,2,2,40,0,1
198917,-66.6666666666667,4,2,2,5,0,1
199036,-50,4,2,2,20,0,1
199512,-33.3333333333333,4,2,2,20,0,1
199829,-33.3333333333333,4,2,2,30,0,1
200147,-33.3333333333333,4,2,2,40,0,1
200464,-80,4,2,2,40,0,1
201298,-80,4,2,2,5,0,1
201416,-28.5714285714286,4,2,2,40,0,1
202250,-28.5714285714286,4,2,2,5,0,1
202369,-54.054054054054,4,2,2,40,0,1
203084,-54.054054054054,4,2,2,5,0,1
203321,-100,4,2,2,20,0,1
203797,-66.6666666666667,4,2,2,30,0,1
204273,-50,4,2,2,40,0,1
204631,-50,4,2,2,5,0,1
204750,-50,4,2,2,20,0,1
205226,-66.6666666666667,4,2,2,30,0,1
206178,-40,4,2,2,30,0,1
206536,-40,4,2,2,5,0,1
206655,-40,4,2,2,20,0,1
207012,-40,4,2,2,5,0,1
207131,-40,4,2,2,30,0,1
208082,-66.6666666666667,4,2,2,40,0,1
208917,-66.6666666666667,4,2,2,5,0,1
209035,-28.5714285714286,4,2,2,40,0,1
209869,-28.5714285714286,4,2,2,5,0,1
209988,-54.054054054054,4,2,2,40,0,1
210703,-54.054054054054,4,2,2,5,0,1
210940,-100,4,2,2,20,0,1
211416,-66.6666666666667,4,2,2,20,0,1
211536,-66.6666666666667,4,2,2,5,0,1
211655,-66.6666666666667,4,2,2,20,0,1
211774,-66.6666666666667,4,2,2,5,0,1
211892,-50,4,2,2,40,0,1
212250,-50,4,2,2,5,0,1
212369,-50,4,2,2,30,0,1
212488,-50,4,2,2,5,0,1
212607,-50,4,2,2,30,0,1
212726,-50,4,2,2,5,0,1
212845,-66.6666666666667,4,2,2,30,0,1
213560,-66.6666666666667,4,2,2,5,0,1
213797,-33.3333333333333,4,2,2,30,0,1
214155,-33.3333333333333,4,2,2,5,0,1
214274,-33.3333333333333,4,2,2,20,0,1
214631,-33.3333333333333,4,2,2,5,0,1
214750,-33.3333333333333,4,2,2,30,0,1
215702,-66.6666666666667,4,2,2,40,0,1
216536,-66.6666666666667,4,2,2,5,0,1
216654,-28.5714285714286,4,2,2,40,0,1
217488,-28.5714285714286,4,2,2,5,0,1
217607,-54.054054054054,4,2,2,40,0,1
218322,-54.054054054054,4,2,2,5,0,1
218559,-100,4,2,2,20,0,1
218917,-100,4,2,2,5,0,1
219035,-66.6666666666667,4,2,2,20,0,1
219155,-66.6666666666667,4,2,2,5,0,1
219274,-66.6666666666667,4,2,2,20,0,1
219393,-66.6666666666667,4,2,2,5,0,1
219511,-40,4,2,2,40,0,1
219869,-40,4,2,2,5,0,1
219988,-40,4,2,2,30,0,1
220107,-40,4,2,2,5,0,1
220226,-40,4,2,2,30,0,1
220345,-40,4,2,2,5,0,1
220464,-66.6666666666667,4,2,2,30,0,1
221179,-66.6666666666667,4,2,2,5,0,1
221416,-40,4,2,2,30,0,1
221774,-40,4,2,2,5,0,1
221893,-40,4,2,2,20,0,1
222250,-40,4,2,2,5,0,1
222369,-40,4,2,2,30,0,1
223321,-66.6666666666667,4,2,2,40,0,1
224155,-66.6666666666667,4,2,2,5,0,1
224273,-28.5714285714286,4,2,2,40,0,1
225107,-28.5714285714286,4,2,2,5,0,1
225226,-54.054054054054,4,2,2,40,0,1
225941,-54.054054054054,4,2,2,5,0,1
226178,-100,4,2,2,20,0,1
226536,-100,4,2,2,15,0,1
226893,-66.6666666666667,4,2,2,30,0,1
227130,-40,4,2,2,40,0,1
227488,-40,4,2,2,5,0,1
227607,-40,4,2,2,20,0,1
227726,-40,4,2,2,5,0,1
227845,-40,4,2,2,20,0,1
227964,-40,4,2,2,5,0,1
228083,-66.6666666666667,4,2,2,30,0,1
229036,-33.3333333333333,4,2,2,40,0,0
229393,-33.3333333333333,4,2,2,5,0,0
229512,-37.037037037037,4,2,2,10,0,0
229869,-37.037037037037,4,2,2,5,0,0
229988,-41.6666666666667,4,2,2,20,0,0
230345,-41.6666666666667,4,2,2,5,0,0
230464,-47.6190476190476,4,2,2,20,0,0
230821,-47.6190476190476,4,2,2,5,0,0
230940,-55.5555555555556,4,2,2,20,0,0
231298,-55.5555555555556,4,2,2,5,0,0
231417,-66.6666666666667,4,2,2,10,0,0
231774,-66.6666666666667,4,2,2,5,0,0
231893,-83.3333333333333,4,2,2,20,0,0
232250,-83.3333333333333,4,2,2,5,0,0
232369,-100,4,2,2,20,0,0
232607,-100,4,2,2,10,0,0
232845,-83.3333333333333,4,2,2,20,0,0
233202,-83.3333333333333,4,2,2,5,0,0
233321,-66.6666666666667,4,2,2,10,0,0
233679,-66.6666666666667,4,2,2,5,0,0
233798,-55.5555555555556,4,2,2,20,0,0
234155,-55.5555555555556,4,2,2,5,0,0
234274,-47.6190476190476,4,2,2,10,0,0
234631,-47.6190476190476,4,2,2,5,0,0
234750,-41.6666666666667,4,2,2,20,0,0
235107,-41.6666666666667,4,2,2,5,0,0
235226,-37.037037037037,4,2,2,10,0,0
235583,-37.037037037037,4,2,2,5,0,0
235702,-33.3333333333333,4,2,2,10,0,0
236655,-166.666666666667,4,2,2,13,0,0
236893,-166.666666666667,4,2,2,5,0,0
237369,-166.666666666667,4,2,2,10,0,0
238084,-166.666666666667,4,2,2,13,0,0
238798,-166.666666666667,4,2,2,5,0,0
239274,-166.666666666667,4,2,2,10,0,0
239988,-166.666666666667,4,2,2,13,0,0
242607,-166.666666666667,4,2,2,5,0,0
243084,-166.666666666667,4,2,2,10,0,0
243798,-166.666666666667,4,2,2,13,0,0
244274,956.175298804781,4,2,2,13,1,0
244274,-166.666666666667,4,2,2,13,0,0
245947,-166.666666666667,4,2,2,5,0,0
246186,-166.666666666667,4,2,2,13,0,0
248576,-166.666666666667,4,2,2,5,0,0
248815,-166.666666666667,4,2,2,13,0,0
249778,-166.666666666667,4,2,2,10,0,0
251445,-166.666666666667,4,2,2,20,0,0
251923,952.380952380952,4,2,1,60,1,1
251923,-50,4,2,1,60,0,1
252755,-50,4,2,1,5,0,1
252874,-80,4,2,1,40,0,1
253827,-33.3333333333333,4,2,1,30,0,1
254660,-33.3333333333333,4,2,1,5,0,1
254779,-100,4,2,1,20,0,1
255732,-57.1428571428571,4,2,1,30,0,1
256565,-57.1428571428571,4,2,1,5,0,1
256684,-66.6666666666667,4,2,1,20,0,1
258470,-66.6666666666667,4,2,1,5,0,1
258589,-50,4,2,1,40,0,1
259541,-33.3333333333333,4,2,1,60,0,1
260374,-33.3333333333333,4,2,1,5,0,1
260493,-80,4,2,1,30,0,1
260851,-80,4,2,1,5,0,1
260970,-50,4,2,1,40,0,1
261208,-50,4,2,1,5,0,1
261446,-33.3333333333333,4,2,1,40,0,1
261803,-33.3333333333333,4,2,1,5,0,1
261922,-25,4,2,1,30,0,1
262398,-50,4,2,1,20,0,1
262755,-50,4,2,1,5,0,1
262874,-50,4,2,1,30,0,1
263113,-50,4,2,1,5,0,1
263351,-33.3333333333333,4,2,1,50,0,1
264184,-33.3333333333333,4,2,1,5,0,1
264303,-66.6666666666667,4,2,1,20,0,1
264661,-66.6666666666667,4,2,1,5,0,1
264779,-57.1428571428571,4,2,1,30,0,1
265255,-66.6666666666667,4,2,1,40,0,1
266089,-66.6666666666667,4,2,1,5,0,1
266208,-40,4,2,1,40,0,1
266565,-40,4,2,1,5,0,1
266684,-57.1428571428571,4,2,1,20,0,1
267160,-33.3333333333333,4,2,1,60,0,1
267993,-33.3333333333333,4,2,1,5,0,1
268113,-57.1428571428571,4,2,1,40,0,1
269065,-40,4,2,1,30,0,1
269898,-40,4,2,1,5,0,1
270017,-66.6666666666667,4,2,1,20,0,1
270970,-33.3333333333333,4,2,1,30,0,1
271803,-33.3333333333333,4,2,1,5,0,1
271922,-57.1428571428571,4,2,1,20,0,1
272874,-100,4,2,1,20,0,1
273827,-50,4,2,1,40,0,1
274779,-33.3333333333333,4,2,1,60,0,1
275613,-33.3333333333333,4,2,1,5,0,1
275732,-100,4,2,1,30,0,1
276089,-100,4,2,1,5,0,1
276208,-50,4,2,1,40,0,1
276446,-50,4,2,1,5,0,1
276684,-33.3333333333333,4,2,1,40,0,1
277041,-33.3333333333333,4,2,1,5,0,1
277160,-25,4,2,1,30,0,1
277636,-50,4,2,1,20,0,1
277993,-50,4,2,1,5,0,1
278113,-50,4,2,1,30,0,1
278351,-50,4,2,1,5,0,1
278589,-33.3333333333333,4,2,1,50,0,1
279422,-33.3333333333333,4,2,1,5,0,1
279541,-66.6666666666667,4,2,1,20,0,1
279898,-66.6666666666667,4,2,1,5,0,1
280017,-57.1428571428571,4,2,1,30,0,1
280493,-66.6666666666667,4,2,1,40,0,1
281327,-66.6666666666667,4,2,1,5,0,1
281446,-40,4,2,1,40,0,1
281803,-40,4,2,1,5,0,1
281922,-57.1428571428571,4,2,1,20,0,1
282398,-33.3333333333333,4,2,1,60,0,1
283232,-33.3333333333333,4,2,1,5,0,1
283351,-57.1428571428571,4,2,1,40,0,1
284184,-57.1428571428571,4,2,1,5,0,1
284303,-40,4,2,1,30,0,1
285136,-40,4,2,1,5,0,1
285255,-66.6666666666667,4,2,1,20,0,1
286208,-33.3333333333333,4,2,1,30,0,1
287041,-33.3333333333333,4,2,1,5,0,1
287160,-57.1428571428571,4,2,1,20,0,1
288112,-100,4,2,1,20,0,1
289065,-50,4,2,1,40,0,1
290017,-33.3333333333333,4,2,1,60,0,1
290851,-33.3333333333333,4,2,1,5,0,1
290970,-100,4,2,1,30,0,1
291327,-100,4,2,1,5,0,1
291446,-50,4,2,1,40,0,1
291684,-50,4,2,1,5,0,1
291922,-33.3333333333333,4,2,1,40,0,1
292279,-33.3333333333333,4,2,1,5,0,1
292398,-25,4,2,1,20,0,1
292874,-50,4,2,1,20,0,1
293232,-50,4,2,1,5,0,1
293351,-50,4,2,1,30,0,1
293827,-33.3333333333333,4,2,1,50,0,1
294660,-33.3333333333333,4,2,1,5,0,1
294779,-66.6666666666667,4,2,1,20,0,1
295136,-66.6666666666667,4,2,1,5,0,1
295255,-57.1428571428571,4,2,1,20,0,1
295731,-66.6666666666667,4,2,1,20,0,1
295732,-40,4,2,1,40,0,1
296565,-40,4,2,1,5,0,1
296684,-33.3333333333333,4,2,1,60,0,1
297637,-33.3333333333333,4,2,1,20,0,0

[Colours]
Combo1 : 255,255,0
Combo2 : 255,255,170
Combo3 : 255,157,111
Combo4 : 238,119,0
Combo5 : 60,255,60
Combo6 : 119,255,255
Combo7 : 255,72,255
Combo8 : 255,21,21

[HitObjects]
47,107,490,6,0,P|101:131|157:119,1,90,6|0,0:0|0:0,0:0:0:0:
252,60,1442,2,0,P|198:36|142:48,1,90,2|0,0:0|0:0,0:0:0:0:
357,179,2394,2,0,B|445:129|320:60|441:14,2,180,2|2|0,0:0|0:0|0:0,0:0:0:0:
87,88,5251,6,0,P|137:43|203:35,1,135,2|0,0:0|0:0,0:0:0:0:
172,120,6204,2,0,P|130:172|127:238,1,135,6|0,0:0|0:0,0:0:0:0:
107,327,7156,2,0,P|80:292|41:271,1,90,2|0,0:0|0:0,0:0:0:0:
465,108,8109,6,0,P|411:132|355:120,1,90,6|0,0:0|0:0,0:0:0:0:
260,60,9061,2,0,P|314:36|370:48,1,90,2|0,0:0|0:0,0:0:0:0:
168,176,10013,2,0,B|155:116|44:124|43:54,1,180,2|2,0:0|0:0,0:0:0:0:
468,57,11918,86,0,B|468:124|357:116|344:176,2,180,2|2|2,0:0|0:0|0:0,0:0:0:0:
466,192,14299,2,0,P|449:238|462:288,2,90,2|2|0,0:0|0:0|0:0,0:0:0:0:
88,180,15728,6,0,B|300:188|412:32|412:32|380:136|384:204|440:229|467:232|487:219|488:200|478:185|435:191,1,630,4|0,0:0|0:0,0:0:0:0:
281,320,19552,2,0,B|-20:249|-46:-85|187:0|220:-19|230:54|225:105|200:129|155:143|137:88|146:94,1,630,2|0,0:0|0:0,0:0:0:0:
146,94,23377,6,0,B|141:111|181:127|193:119|206:101|210:83|220:54|226:17|164:-4|117:4|87:34|79:62|70:96,1,270,2|0,0:0|0:0,0:0:0:0:
28,135,25281,2,0,B|98:167|70:250|70:250|155:206|209:275,1,270,2|0,0:0|0:0,0:0:0:0:
484,135,27186,2,0,B|414:167|442:250|442:250|357:206|303:275,1,270,2|0,0:0|0:0,0:0:0:0:
436,71,29091,2,0,B|421:51|425:34|382:8|350:-8|287:19|284:59|301:86|308:107|319:120|333:130|373:114|370:97|364:88,1,270,2|0,0:0|0:0,0:0:0:0:
320,339,30996,86,0,B|378:239|496:256|496:256|486:287|445:289,1,270,2|0,0:0|0:0,0:0:0:0:
270,187,32900,2,0,P|329:252|320:339,1,180,2|0,0:0|0:0,0:0:0:0:
320,338,34329,2,0,P|301:324|268:319,1,45,2|0,0:0|0:0,0:0:0:0:
192,339,34805,6,0,B|134:239|16:256|16:256|26:287|67:289,1,270,2|0,0:0|0:0,0:0:0:0:
241,187,36710,2,0,P|182:252|192:339,1,180,0|2,0:0|0:0,0:0:0:0:
458,44,38560,6,0,P|399:44|388:153,1,180,6|0,0:0|0:0,0:0:0:0:
379,145,39988,2,0,L|438:142,1,45,2|0,0:0|0:0,0:0:0:0:
256,24,40464,2,0,P|217:70|134:54,1,135,2|0,0:0|0:0,0:0:0:0:
147,65,41417,2,0,P|120:22|64:8,1,90,0|2,0:0|0:0,0:0:0:0:
224,192,42369,86,0,L|389:179,1,135,2|0,0:0|0:0,0:0:0:0:
358,181,43322,2,0,P|358:231|391:266,1,90,0|2,0:0|0:0,0:0:0:0:
132,374,44274,6,0,P|168:319|158:254,1,135,2|0,0:0|0:0,0:0:0:0:
157,253,45226,2,0,P|177:315|234:348,1,135,2|0,0:0|0:0,0:0:0:0:
234,348,46179,2,0,P|326:331|408:374,1,180,2|0,0:0|0:0,0:0:0:0:
401,367,47607,2,0,L|464:364,1,45,2|0,0:0|0:0,0:0:0:0:
325,252,48083,6,0,P|345:184|312:86,2,135,2|0|2,0:0|0:0|0:0,0:0:0:0:
180,106,49988,2,0,P|169:65|183:-2,2,90,2|0|0,0:0|0:0|0:0,0:0:0:0:
180,106,51417,2,0,L|118:116,1,45,2|0,0:0|0:0,0:0:0:0:
256,32,51893,86,0,L|388:55,1,135,6|0,0:0|0:0,0:0:0:0:
388,55,52845,2,0,P|433:78|422:15,1,135
480,226,53798,6,0,L|493:282,1,45,6|0,0:0|0:0,0:0:0:0:
483,336,54274,2,0,L|442:316,1,45,2|0,0:0|0:0,0:0:0:0:
369,269,54750,2,0,P|395:254|425:250,1,60,2|0,0:0|0:0,0:0:0:0:
256,364,55464,5,2,0:0:0:0:
256,364,55702,2,0,L|266:320,1,45,2|0,0:0|0:0,0:0:0:0:
25,251,56417,1,0,0:0:0:0:
25,251,56655,2,0,L|35:207,1,45,2|0,0:0|0:0,0:0:0:0:
148,165,57131,2,0,L|158:208,1,45,2|0,0:0|0:0,0:0:0:0:
0,81,57607,85,2,0:0:0:0:
0,81,57845,2,0,L|10:37,1,45,2|0,0:0|0:0,0:0:0:0:
205,0,58322,1,2,0:0:0:0:
205,0,58560,2,0,L|215:43,1,45,2|0,0:0|0:0,0:0:0:0:
449,30,59036,2,0,P|388:23|334:30,1,90,2|2,0:0|0:0,0:0:0:0:
208,192,59750,6,0,P|258:176|302:169,1,90,2|0,0:0|0:0,0:0:0:0:
487,251,60464,2,0,L|477:207,1,45,2|0,0:0|0:0,0:0:0:0:
364,165,60940,2,0,L|354:208,1,45,2|0,0:0|0:0,0:0:0:0:
392,312,61417,6,0,B|336:264|269:265|269:265|263:285|288:304|312:320,1,180,2|0,0:0|0:0,0:0:0:0:
288,302,62845,2,0,P|302:351|300:365,1,45,2|0,0:0|0:0,0:0:0:0:
392,312,63322,2,0,P|417:250|481:200,1,135,2|0,0:0|0:0,0:0:0:0:
467,206,64274,2,0,P|463:183|453:163,1,45
269,29,64750,2,0,P|259:49|256:72,1,45,2|0,0:0|0:0,0:0:0:0:
203,114,65226,86,0,P|178:52|114:2,1,135,2|0,0:0|0:0,0:0:0:0:
127,8,66179,2,0,P|125:62|115:78,1,45,2|0,0:0|0:0,0:0:0:0:
0,79,66655,2,0,P|44:108|63:109,1,45,2|0,0:0|0:0,0:0:0:0:
203,114,67131,6,0,P|277:108|348:149,1,135,2|0,0:0|0:0,0:0:0:0:
382,89,68084,2,0,P|379:66|383:44,1,45,2|0,0:0|0:0,0:0:0:0:
511,115,68560,2,0,P|495:131|475:141,1,45,2|0,0:0|0:0,0:0:0:0:
284,220,69036,6,0,P|220:188|152:200,1,135,6|0,0:0|0:0,0:0:0:0:
98,225,69988,2,0,P|127:255|143:260,1,45,2|0,0:0|0:0,0:0:0:0:
204,292,70464,2,0,P|216:273|235:261,1,45,2|0,0:0|0:0,0:0:0:0:
227,102,70941,86,0,B|195:106|175:120|175:120|165:96|165:96|138:113|103:105,1,135,2|0,0:0|0:0,0:0:0:0:
49,84,71893,2,0,P|32:136|36:152,1,45
98,225,72369,2,0,P|89:204|88:181,1,45,2|0,0:0|0:0,0:0:0:0:
227,102,72845,6,0,P|257:44|316:6,1,135,2|0,0:0|0:0,0:0:0:0:
377,31,73798,2,0,P|424:43|476:23,1,90,0|2,0:0|0:0,0:0:0:0:
311,256,74750,6,0,P|291:193|306:125,1,135,2|0,0:0|0:0,0:0:0:0:
305,126,75703,2,0,P|261:174|194:195,1,135,2|0,0:0|0:0,0:0:0:0:
195,194,76655,2,0,P|258:208|310:255,1,135,2|0,0:0|0:0,0:0:0:0:
309,254,77607,2,0,P|332:239|373:232,1,45,2|0,0:0|0:0,0:0:0:0:
492,159,78084,2,0,P|472:150|455:136,1,45,2|0,0:0|0:0,0:0:0:0:
303,9,78560,86,0,P|318:50|316:95,2,90,2|0|0,0:0|0:0|0:0,0:0:0:0:
257,128,79750,2,0,P|237:118|219:104,2,45,0|2|0,0:0|0:0|0:0,0:0:0:0:
469,121,80464,6,0,P|407:147|340:152,1,135,2|0,0:0|0:0,0:0:0:0:
257,128,81417,2,0,P|237:138|219:152,1,45,2|0,0:0|0:0,0:0:0:0:
303,250,81893,2,0,P|293:230|279:212,1,45,2|0,0:0|0:0,0:0:0:0:
70,60,82369,6,0,B|122:85|139:4|212:38,1,135,2|0,0:0|0:0,0:0:0:0:
261,48,83322,2,0,P|288:53|331:44,1,45,2|0,0:0|0:0,0:0:0:0:
396,0,83798,2,0,P|381:16|371:36,1,45,2|0,0:0|0:0,0:0:0:0:
351,101,84274,86,4,B|313:255|356:291|431:219|424:341|404:368|329:376|302:351|291:291|320:273,2,360,6|2|2,0:0|0:0|0:0,0:0:0:0:
107,1,88560,2,0,P|171:62|256:88,1,180,2|2,0:0|0:0,0:0:0:0:
51,281,89988,2,0,B|92:194|208:128|265:225|196:307|149:260|160:243,1,270,2|0,0:0|0:0,0:0:0:0:
256,384,91893,38,0,B|244:347|308:314|253:294|242:309|240:331,1,101.250003862381,6|0,0:0|0:0,0:0:0:0:
162,256,92369,6,0,B|165:193|117:226|123:113|170:157|161:172,1,135,2|0,0:0|0:0,0:0:0:0:
350,196,92845,6,0,B|312:106|416:65|350:41|333:36|339:85,2,180.000006866455,2|2|2,0:0|0:0|0:0,0:0:0:0:
459,285,93798,6,0,P|377:253|346:336,1,196.875,2|0,0:0|0:0,0:0:0:0:
346,336,94750,2,0,P|192:327|363:140,1,551.25000525713,2|0,0:0|0:0,0:0:0:0:
347,127,95703,2,0,P|264:220|153:195,1,249.749999047279,2|0,0:0|0:0,0:0:0:0:
420,350,96655,6,0,P|396:323|371:312,1,45,2|0,0:0|0:0,0:0:0:0:
255,295,97131,2,0,P|296:289|352:249,1,101.250003862381,2|0,0:0|0:0,0:0:0:0:
418,251,97607,54,0,B|455:201|460:151|428:144|408:166|422:182,1,135,2|0,0:0|0:0,0:0:0:0:
345,256,98084,2,0,P|322:257|301:251,1,45,2|0,0:0|0:0,0:0:0:0:
224,167,98322,2,0,P|236:186|242:208,1,45,2|0,0:0|0:0,0:0:0:0:
234,279,98560,2,0,B|176:275|147:233|147:233|142:282|83:314,1,202.500007724762,2|0,0:0|0:0,0:0:0:0:
297,261,99512,6,0,P|216:277|147:233,1,168.75,6|0,0:0|0:0,0:0:0:0:
123,168,99988,2,0,P|149:90|222:52,1,168.75,2|0,0:0|0:0,0:0:0:0:
291,66,100464,2,0,P|350:154|342:209,2,150,2|2|2,0:0|0:0|0:0,0:0:0:0:
92,23,101417,6,0,P|138:98|42:67,1,236.250009012223,2|0,0:0|0:0,0:0:0:0:
41,79,102369,2,0,P|96:290|221:97,1,551.25000525713,2|0,0:0|0:0,0:0:0:0:
229,110,103322,2,0,P|167:210|266:323,1,249.749999047279,2|0,0:0|0:0,0:0:0:0:
249,24,104274,6,0,P|264:60|300:81,1,67.5,2|0,0:0|0:0,0:0:0:0:
332,156,104750,2,0,P|336:139|337:123,1,33.7500012874604,2|0,0:0|0:0,0:0:0:0:
380,45,104988,2,0,P|363:49|349:57,1,33.7500012874604,2|0,0:0|0:0,0:0:0:0:
259,140,105226,6,0,P|193:123|118:154,1,135,2|0,0:0|0:0,0:0:0:0:
32,147,105703,2,0,P|52:167|93:176,1,45,2|0,0:0|0:0,0:0:0:0:
120,258,105941,2,0,P|126:229|113:189,1,45,2|0,0:0|0:0,0:0:0:0:
203,324,106179,54,0,B|300:379|407:356|370:321|314:323,1,202.500007724762,6|0,0:0|0:0,0:0:0:0:
235,263,107131,6,0,P|186:202|206:64,1,202.500007724762,6|0,0:0|0:0,0:0:0:0:
254,25,107607,2,0,P|331:13|440:99,1,202.500007724762,2|0,0:0|0:0,0:0:0:0:
450,160,108084,2,0,P|395:259|317:285,2,180.000006866455,2|0|2,0:0|0:0|0:0,0:0:0:0:
178,277,109036,6,0,P|263:318|171:335,1,236.250009012223,2|0,0:0|0:0,0:0:0:0:
177,344,109988,2,0,P|20:224|247:200,1,551.25000525713,2|0,0:0|0:0,0:0:0:0:
245,196,110941,2,0,P|132:242|30:150,1,249.749999047279,2|0,0:0|0:0,0:0:0:0:
134,9,111893,6,0,P|115:37|86:53,1,67.5,2|0,0:0|0:0,0:0:0:0:
285,24,112369,2,0,P|234:29|189:51,1,101.250003862381,2|0,0:0|0:0,0:0:0:0:
85,53,112845,2,0,B|69:132|129:156|113:198|72:198|59:185|54:171|72:153|99:152,1,168.75,2|0,0:0|0:0,0:0:0:0:
158,141,113322,2,0,P|179:137|236:137,1,56.25,2|0,0:0|0:0,0:0:0:0:
355,164,113560,2,0,P|329:154|302:147,1,56.25,2|0,0:0|0:0,0:0:0:0:
250,212,113798,6,0,B|252:225|234:207|239:193|249:170|297:175|325:222|241:268|270:356,1,202.500007724762,2|0,0:0|0:0,0:0:0:0:
31,172,114750,54,0,P|57:93|130:56,1,168.75,6|0,0:0|0:0,0:0:0:0:
199,68,115226,2,0,P|253:129|249:211,1,168.75,2|0,0:0|0:0,0:0:0:0:
202,264,115703,2,0,P|96:271|52:236,2,150,2|2|2,0:0|0:0|0:0,0:0:0:0:
418,284,116655,6,0,P|335:266|398:342,1,236.250009012223,2|0,0:0|0:0,0:0:0:0:
389,346,117607,2,0,P|201:241|415:169,1,551.25000525713,2|0,0:0|0:0,0:0:0:0:
410,164,118560,2,0,P|318:184|211:60,1,249.749999047279,2|0,0:0|0:0,0:0:0:0:
104,72,119512,6,0,P|71:46|62:16,2,67.5,2|2|0,0:0|0:0|0:0,0:0:0:0:
81,168,120464,6,0,B|55:266|75:314|93:311|106:294|103:265|84:256,1,168.75,2|0,0:0|0:0,0:0:0:0:
214,243,120941,2,0,P|174:236|135:244,1,56.25,2|0,0:0|0:0,0:0:0:0:
199,131,121179,2,0,P|165:154|143:187,1,56.25,2|0,0:0|0:0,0:0:0:0:
95,267,121417,2,0,P|172:353|270:351,1,202.500007724762,6|0,0:0|0:0,0:0:0:0:
496,192,122369,22,0,P|381:203|325:284,1,202.500007724762,6|0,0:0|0:0,0:0:0:0:
330,267,122845,2,0,P|428:244|512:288,1,182.250000695229,2|0,0:0|0:0,0:0:0:0:
499,276,123322,2,0,P|432:352|360:376,1,161.999995056153,2|0,0:0|0:0,0:0:0:0:
377,373,123798,2,0,P|324:380|216:340,1,141.749995674133,2|0,0:0|0:0,0:0:0:0:
240,356,124274,2,0,P|264:284|244:220,1,121.499996292114,2|0,0:0|0:0,0:0:0:0:
255,241,124750,2,0,P|208:284|160:304,1,101.250003862381,2|0,0:0|0:0,0:0:0:0:
174,299,125226,2,0,P|164:248|172:200,1,80.9999975280763,2|0,0:0|0:0,0:0:0:0:
166,220,125703,2,0,P|147:238|109:246,1,45,2|0,0:0|0:0,0:0:0:0:
5,73,126179,6,0,P|23:108|51:137,1,80.9999975280763,2|0,0:0|0:0,0:0:0:0:
51,137,126655,2,0,P|67:91|112:39,1,101.250003862381,2|0,0:0|0:0,0:0:0:0:
98,50,127131,2,0,P|148:19|223:10,1,121.499996292114,2|0,0:0|0:0,0:0:0:0:
209,8,127607,2,0,P|274:26|328:71,1,121.499996292114,2|0,0:0|0:0,0:0:0:0:
317,58,128084,2,0,P|382:25|476:16,1,141.749995674133,2|0,0:0|0:0,0:0:0:0:
449,14,128560,2,0,P|439:96|401:175,1,161.999995056153,2|0,0:0|0:0,0:0:0:0:
406,167,129036,2,0,P|353:228|225:287,1,182.250000695229,2|0,0:0|0:0,0:0:0:0:
265,277,129512,2,0,P|149:289|50:259,1,135.000005149842,2|0,0:0|0:0,0:0:0:0:
52,74,129988,6,0,P|174:54|470:297,1,472.500004506111,6|0,0:0|0:0,0:0:0:0:
499,347,130941,2,0,B|421:294|327:298|327:298|337:334|392:352,1,249.749999047279,2|0,0:0|0:0,0:0:0:0:
499,347,131893,86,0,B|419:254|445:169|441:133|479:112|521:115|556:154|546:208|472:207,1,337.5,2|2,0:0|0:0,0:0:0:0:
193,209,133798,6,0,P|283:251|382:240,1,202.500007724762,2|0,0:0|0:0,0:0:0:0:
264,118,134750,2,0,P|284:145|296:177,1,67.5000025749208,2|0,0:0|0:0,0:0:0:0:
442,89,135226,2,0,P|418:113|391:131,1,67.5000025749208,2|0,0:0|0:0,0:0:0:0:
188,31,135703,6,0,B|279:-4|387:38|387:38|364:74|312:90,1,270,2|0,0:0|0:0,0:0:0:0:
239,107,136655,2,0,B|121:125|32:24|32:24|45:74|10:139,1,337.5,2|0,0:0|0:0,0:0:0:0:
135,176,137607,86,0,P|272:191|497:40,1,405.000015449525,6|0,0:0|0:0,0:0:0:0:
298,0,138560,2,0,B|262:218|460:373|500:345|543:304|523:249|458:239|439:271|490:333,1,472.500004506111,2|0,0:0|0:0,0:0:0:0:
308,342,139512,6,0,B|138:352|24:235|24:235|43:303|-11:351,1,416.249998412132,6|0,0:0|0:0,0:0:0:0:
178,235,140941,2,0,P|214:219|287:215,1,83.2499996824265,2|0,0:0|0:0,0:0:0:0:
134,184,141417,2,0,B|201:80|158:2|158:2|127:35|146:73,1,270,2|0,0:0|0:0,0:0:0:0:
134,184,143322,6,0,P|222:143|340:189,1,202.500007724762,2|0,0:0|0:0,0:0:0:0:
319,170,144274,2,0,B|334:288|413:322|413:322|440:284|404:244,1,270,2|0,0:0|0:0,0:0:0:0:
488,54,145226,86,0,P|432:65|443:9,1,135,6|0,0:0|0:0,0:0:0:0:
448,140,146179,2,0,P|451:169|470:200,1,45,2|0,0:0|0:0,0:0:0:0:
314,51,146655,2,0,P|336:56|359:54,1,45,2|0,0:0|0:0,0:0:0:0:
180,25,147131,6,0,P|225:41|272:99,1,90,2|0,0:0|0:0,0:0:0:0:
301,112,147845,2,0,P|293:145|272:172,2,45,0|2|0,0:0|0:0|0:0,0:0:0:0:
109,213,148560,2,0,P|99:192|95:170,1,45,2|0,0:0|0:0,0:0:0:0:
41,240,149036,6,0,B|61:313|165:273|189:342,1,180,2|2,0:0|0:0,0:0:0:0:
185,332,150464,2,0,P|164:348|121:345,1,45,2|0,0:0|0:0,0:0:0:0:
178,243,150941,86,0,P|249:271|329:254,1,135,2|0,0:0|0:0,0:0:0:0:
323,170,151893,2,0,P|263:217|237:295,1,135,2|0,0:0|0:0,0:0:0:0:
314,331,152845,2,0,P|306:264|268:209,1,135,2|0,0:0|0:0,0:0:0:0:
314,331,153798,2,0,P|338:335|374:330,1,45,2|0,0:0|0:0,0:0:0:0:
462,263,154274,2,0,P|438:268|407:287,1,45,2|0,0:0|0:0,0:0:0:0:
512,189,154750,6,0,L|359:167,1,135,2|0,0:0|0:0,0:0:0:0:
378,169,155703,2,0,P|393:124|376:74,1,90,2|2,0:0|0:0,0:0:0:0:
93,53,156655,6,0,L|189:37,2,90,2|0|0,0:0|0:0|0:0,0:0:0:0:
93,53,158084,2,0,P|110:90|111:116,1,45,2|0,0:0|0:0,0:0:0:0:
296,16,158560,86,0,L|472:48,1,135,2|0,0:0|0:0,0:0:0:0:
428,40,159512,2,0,P|469:24|454:94,1,135,6|0,0:0|0:0,0:0:0:0:
435,313,160464,6,0,L|446:248,1,45,6|0,0:0|0:0,0:0:0:0:
337,362,160941,2,0,L|378:310,1,45,2|0,0:0|0:0,0:0:0:0:
211,345,161417,2,0,P|237:330|286:324,1,60,2|2,0:0|0:0,0:0:0:0:
266,323,162131,5,2,0:0:0:0:
266,323,162369,2,0,P|271:301|283:281,1,45,2|0,0:0|0:0,0:0:0:0:
29,270,163083,1,0,0:0:0:0:
29,270,163322,2,0,P|42:294|45:341,1,45,2|0,0:0|0:0,0:0:0:0:
133,205,163798,2,0,P|120:229|117:276,1,45,2|0,0:0|0:0,0:0:0:0:
35,97,164274,85,2,0:0:0:0:
35,97,164512,2,0,P|48:121|51:168,1,45,2|0,0:0|0:0,0:0:0:0:
198,24,164988,1,2,0:0:0:0:
198,24,165226,2,0,P|185:48|182:95,1,45,2|0,0:0|0:0,0:0:0:0:
422,0,165703,2,0,P|398:14|354:72,1,90,2|0,0:0|0:0,0:0:0:0:
512,292,166417,6,0,P|491:255|444:219,1,90,2|2,0:0|0:0,0:0:0:0:
337,310,167131,2,0,P|359:302|379:292,1,45,2|0,0:0|0:0,0:0:0:0:
363,151,167607,2,0,P|358:173|358:195,1,45,2|0,0:0|0:0,0:0:0:0:
378,292,168084,6,0,P|301:293|208:349,1,180,2|0,0:0|0:0,0:0:0:0:
214,342,169512,2,0,P|263:357|269:363,1,45,2|0,0:0|0:0,0:0:0:0:
46,298,169988,86,0,B|111:264|176:284|176:284|171:304|146:323,1,180,2|0,0:0|0:0,0:0:0:0:
224,214,171179,1,2,0:0:0:0:
224,214,171417,2,0,P|232:248|248:267,1,45,2|0,0:0|0:0,0:0:0:0:
194,71,171893,2,0,P|164:158|80:226,1,180,2|2,0:0|0:0,0:0:0:0:
100,216,173322,2,0,P|102:187|93:159,1,45,2|0,0:0|0:0,0:0:0:0:
194,71,173798,6,0,B|171:84|169:63|173:39|194:39|221:98|311:66,1,135,2|0,0:0|0:0,0:0:0:0:
276,73,174750,2,0,P|300:70|341:51,1,45,2|0,0:0|0:0,0:0:0:0:
385,154,175226,2,0,P|361:150|320:131,1,45,2|0,0:0|0:0,0:0:0:0:
393,21,175703,6,0,P|428:72|511:80,1,135,6|0,0:0|0:0,0:0:0:0:
485,179,176655,2,0,P|463:187|418:191,1,45,2|0,0:0|0:0,0:0:0:0:
272,66,177131,2,0,P|293:74|338:78,1,45,2|0,0:0|0:0,0:0:0:0:
187,125,177607,86,0,B|221:56|189:29|189:29|174:43|187:78,1,135,2|0,0:0|0:0,0:0:0:0:
273,162,178560,2,0,P|250:166|229:174,1,45,2|0,0:0|0:0,0:0:0:0:
112,321,179036,2,0,P|134:303|154:270,1,45,2|0,0:0|0:0,0:0:0:0:
317,330,179512,6,0,P|251:323|175:347,1,135,2|0,0:0|0:0,0:0:0:0:
112,321,180464,2,0,P|122:294|122:255,1,45,2|0,0:0|0:0,0:0:0:0:
335,119,180941,2,0,P|338:141|347:162,1,45,2|0,0:0|0:0,0:0:0:0:
407,17,181417,6,0,P|340:59|262:51,1,135,2|0,0:0|0:0,0:0:0:0:
302,226,182369,2,0,P|299:146|345:83,1,135,2|0,0:0|0:0,0:0:0:0:
174,30,183322,2,0,P|243:67|275:138,1,135,2|0,0:0|0:0,0:0:0:0:
270,114,184274,2,0,P|238:110|212:118,1,45,2|0,0:0|0:0,0:0:0:0:
79,236,184750,2,0,P|82:213|91:193,1,45,2|0,0:0|0:0,0:0:0:0:
162,170,185226,86,0,B|169:246|120:299|120:299|137:292|187:315,1,180,2|0,0:0|0:0,0:0:0:0:
159,303,186655,2,0,P|179:309|210:331,1,45,2|0,0:0|0:0,0:0:0:0:
289,158,187131,6,0,P|278:238|248:286,1,135,2|0,0:0|0:0,0:0:0:0:
250,283,188084,2,0,P|269:288|300:310,1,45,2|0,0:0|0:0,0:0:0:0:
413,169,188560,2,0,P|434:162|453:151,1,45,2|0,0:0|0:0,0:0:0:0:
442,60,189035,6,0,B|390:85|373:4|300:38,1,135,6|0,0:0|0:0,0:0:0:0:
251,47,189988,2,0,P|229:52|206:51,1,45,2|0,0:0|0:0,0:0:0:0:
116,0,190464,2,0,P|131:16|141:36,1,45,2|0,0:0|0:0,0:0:0:0:
161,101,190940,86,4,B|199:255|156:291|81:219|88:341|108:368|183:376|210:351|221:291|192:273,2,360,6|2|2,0:0|0:0|0:0,0:0:0:0:
405,1,195226,2,0,P|341:62|256:88,1,180,2|2,0:0|0:0,0:0:0:0:
461,281,196654,2,0,B|420:194|304:128|247:225|316:307|363:260|352:243,1,270,2|0,0:0|0:0,0:0:0:0:
256,368,198560,38,0,B|251:320|222:294|222:294|208:320|219:336,1,101.250003862381,6|0,0:0|0:0,0:0:0:0:
349,256,199036,6,0,B|351:197|397:163|397:163|405:186|397:219,1,135,2|0,0:0|0:0,0:0:0:0:
153,166,199512,6,0,B|153:90|107:31|107:31|87:54|100:91,2,180.000006866455,2|2|2,0:0|0:0|0:0,0:0:0:0:
299,64,200464,6,0,P|400:84|435:1,1,196.875,2|0,0:0|0:0,0:0:0:0:
436,13,201417,2,0,P|451:196|211:79,1,551.25000525713,2|0,0:0|0:0,0:0:0:0:
207,101,202369,2,0,P|332:144|384:255,1,249.749999047279,2|0,0:0|0:0,0:0:0:0:
436,13,203322,6,0,P|414:45|410:76,2,67.5,2|0|0,0:0|0:0|0:0,0:0:0:0:
474,69,204274,2,0,B|479:85|505:131|447:172|454:183|486:188|498:170|485:155|473:157,1,135,2|0,0:0|0:0,0:0:0:0:
368,104,204750,54,0,P|388:113|406:128,1,45,2|0,0:0|0:0,0:0:0:0:
456,6,204988,2,0,P|438:21|396:33,1,45,2|0,0:0|0:0,0:0:0:0:
283,66,205226,2,0,B|222:63|140:28|140:28|156:50|146:108,1,202.500007724762,2|0,0:0|0:0,0:0:0:0:
163,317,206179,6,0,P|186:236|178:153,1,168.75,6|0,0:0|0:0,0:0:0:0:
51,145,206655,2,0,P|108:205|185:240,1,168.75,2|0,0:0|0:0,0:0:0:0:
236,135,207131,2,0,P|165:158|105:203,2,150,2|2|2,0:0|0:0|0:0,0:0:0:0:
413,141,208084,6,0,P|325:129|410:84,1,236.250009012223,2|0,0:0|0:0,0:0:0:0:
402,76,209036,2,0,P|293:52|382:295,1,551.25000525713,2|0,0:0|0:0,0:0:0:0:
376,297,209988,2,0,P|281:233|138:302,1,249.749999047279,2|0,0:0|0:0,0:0:0:0:
450,356,210941,6,0,P|440:318|449:277,1,67.5,2|0,0:0|0:0,0:0:0:0:
404,233,211417,2,0,P|400:212|386:183,1,33.7500012874604,2|0,0:0|0:0,0:0:0:0:
483,132,211655,2,0,P|477:147|474:164,1,33.7500012874604,2|0,0:0|0:0,0:0:0:0:
333,145,211893,6,0,P|328:78|299:18,1,135,2|0,0:0|0:0,0:0:0:0:
424,74,212369,2,0,P|420:89|410:117,1,45,2|0,0:0|0:0,0:0:0:0:
487,207,212607,2,0,P|483:192|473:164,1,45,2|0,0:0|0:0,0:0:0:0:
317,225,212845,54,0,B|226:260|204:179|99:225,1,202.500007724762,6|0,0:0|0:0,0:0:0:0:
39,41,213798,6,0,P|97:126|206:145,1,202.500007724762,6|0,0:0|0:0,0:0:0:0:
288,142,214274,2,0,P|185:149|114:234,1,202.500007724762,2|0,0:0|0:0,0:0:0:0:
91,291,214750,2,0,P|120:208|93:124,2,180.000006866455,2|2|2,0:0|0:0|0:0,0:0:0:0:
218,369,215703,6,0,P|169:306|265:332,1,236.250009012223,2|0,0:0|0:0,0:0:0:0:
266,320,216655,2,0,P|387:336|249:137,1,551.25000525713,2|0,0:0|0:0,0:0:0:0:
265,122,217607,2,0,P|337:211|480:207,1,249.749999047279,2|0,0:0|0:0,0:0:0:0:
182,151,218560,6,0,P|182:99|194:76,1,67.5,2|0,0:0|0:0,0:0:0:0:
272,22,219036,2,0,P|256:49|234:62,1,33.7500012874604,2|0,0:0|0:0,0:0:0:0:
294,109,219274,2,0,P|266:124|241:124,1,33.7500012874604,2|0,0:0|0:0,0:0:0:0:
99,127,219512,6,0,B|57:67|77:10|77:10|99:28|116:63,1,168.75,2|0,0:0|0:0,0:0:0:0:
182,151,219988,2,0,P|196:183|199:226,1,56.25,2|0,0:0|0:0,0:0:0:0:
279,230,220226,2,0,P|266:262|237:295,1,56.25,2|0,0:0|0:0,0:0:0:0:
302,344,220464,54,0,B|211:379|189:298|84:344,1,202.500007724762,2|0,0:0|0:0,0:0:0:0:
49,146,221417,6,0,P|116:197|199:203,1,168.75,6|0,0:0|0:0,0:0:0:0:
258,102,221893,2,0,P|181:133|134:203,1,168.75,2|0,0:0|0:0,0:0:0:0:
198,286,222369,2,0,P|200:212|166:146,2,150,2|2|0,0:0|0:0|0:0,0:0:0:0:
364,373,223322,6,0,P|369:281|301:343,1,236.250009012223,2|0,0:0|0:0,0:0:0:0:
301,343,224274,2,0,P|193:277|429:174,1,551.25000525713,2|0,0:0|0:0,0:0:0:0:
424,162,225226,2,0,P|274:185|206:108,1,249.749999047279,2|0,0:0|0:0,0:0:0:0:
464,104,226179,6,0,P|492:141|498:179,2,67.5,2|2|0,0:0|0:0|0:0,0:0:0:0:
474,38,227131,6,0,P|380:29|309:71,1,168.75,2|0,0:0|0:0,0:0:0:0:
351,178,227607,2,0,P|355:146|338:105,1,56.25,2|0,0:0|0:0,0:0:0:0:
247,62,227845,2,0,P|220:70|198:87,1,56.25,2|0,0:0|0:0,0:0:0:0:
105,193,228084,2,0,B|134:112|56:44|86:32|124:27|134:50|105:86,1,202.500007724762,2|0,0:0|0:0,0:0:0:0:
360,10,229036,6,0,P|271:73|168:77,1,202.500007724762,2|0,0:0|0:0,0:0:0:0:
180,79,229512,2,0,P|248:113|369:105,1,182.250000695229,2|0,0:0|0:0,0:0:0:0:
352,110,229988,2,0,P|288:164|197:180,1,161.999995056153,2|0,0:0|0:0,0:0:0:0:
213,180,230464,2,0,P|144:165|72:115,1,141.749995674133
84,127,230940,2,0,P|120:189|127:266,1,121.499996292114,2|0,0:0|0:0,0:0:0:0:
128,238,231417,2,0,P|120:291|91:346,1,101.250003862381,2|0,0:0|0:0,0:0:0:0:
99,333,231893,2,0,P|145:315|183:315,1,80.9999975280763,2|0,0:0|0:0,0:0:0:0:
176,314,232369,2,0,P|168:352|172:378,1,45,2|0,0:0|0:0,0:0:0:0:
343,357,232845,6,0,P|342:335|315:281,1,80.9999975280763,2|0,0:0|0:0,0:0:0:0:
317,283,233321,2,0,P|372:305|432:304,1,101.250003862381,2|0,0:0|0:0,0:0:0:0:
413,306,233798,2,0,P|386:268|370:190,1,121.499996292114,2|0,0:0|0:0,0:0:0:0:
369,197,234274,2,0,P|437:201|504:255,1,141.749995674133,2|0,0:0|0:0,0:0:0:0:
495,243,234750,2,0,P|467:186|476:83,1,161.999995056153,2|0,0:0|0:0,0:0:0:0:
472,90,235226,2,0,P|404:144|304:171,1,182.250000695229,2|0,0:0|0:0,0:0:0:0:
313,170,235702,2,0,B|158:185|82:52|74:21|74:21|68:88|17:158,1,405.000015449525,2|0,0:0|0:0,0:0:0:0:
318,50,236655,6,0,P|363:40|371:95,1,107.999996704102,2|2,0:0|0:0,0:0:0:0:
374,89,238084,2,0,L|411:86,1,26.9999991760254,2|0,0:0|0:0,0:0:0:0:
318,50,238560,2,0,P|284:73|216:61,1,107.999996704102,2|2,0:0|0:0,0:0:0:0:
220,64,239988,2,0,L|193:66,1,26.9999991760254,2|0,0:0|0:0,0:0:0:0:
180,170,240464,86,0,P|200:149|214:116,1,53.9999983520508,2|0,0:0|0:0,0:0:0:0:
332,249,241417,2,0,P|313:229|301:206,1,53.9999983520508,2|0,0:0|0:0,0:0:0:0:
118,349,242369,6,0,B|149:314|145:276|145:276|180:277,1,107.999996704102,2|2,0:0|0:0,0:0:0:0:
231,306,243639,2,0,P|230:323|216:363,1,35.9999989013672,2|0,0:0|0:0,0:0:0:0:
241,193,244274,6,0,P|228:220|225:243,2,53.9999983520508,2|0|2,0:0|0:0|0:0,0:0:0:0:
90,329,245708,2,0,L|117:329,1,26.9999991760254,2|0,0:0|0:0,0:0:0:0:
192,362,246186,2,0,P|179:335|176:312,2,53.9999983520508,2|0|2,0:0|0:0|0:0,0:0:0:0:
192,362,247620,2,0,L|225:362,1,26.9999991760254,2|0,0:0|0:0,0:0:0:0:
297,278,248098,102,0,P|293:304|281:328,1,53.9999983520508,2|0,0:0|0:0,0:0:0:0:
385,241,248815,1,2,0:0:0:0:
385,241,249054,2,0,L|352:240,1,26.9999991760254
176,192,249532,6,0,B|132:156|128:128|128:128|144:120|160:136,2,107.999996704102,2|0|2,0:0|0:0|0:0,0:0:0:0:
56,76,251923,86,0,P|168:28|394:40,1,315,6|0,0:0|0:0,0:0:0:0:
358,28,252874,2,0,P|371:78|399:10,1,168.75,2|0,0:0|0:0,0:0:0:0:
35,149,253827,6,0,B|282:122|471:293,1,472.500018024445,6|0,0:0|0:0,0:0:0:0:
469,291,254779,2,0,P|431:325|495:333,1,135,2|0,0:0|0:0,0:0:0:0:
330,364,255732,6,0,B|422:268|400:164|400:164|374:177|368:208,1,275.625002628565,6|0,0:0|0:0,0:0:0:0:
368,205,256684,2,0,P|301:231|333:143,1,202.500007724762,2|0,0:0|0:0,0:0:0:0:
476,0,257636,86,0,P|436:96|304:141,1,236.250009012223,2|0,0:0|0:0,0:0:0:0:
319,142,258589,2,0,P|262:199|378:191,1,270,6|0,0:0|0:0,0:0:0:0:
256,28,259541,6,0,B|217:237|62:319|62:319|91:261|83:168,1,472.500018024445,6|0,0:0|0:0,0:0:0:0:
84,212,260493,2,0,P|83:176|67:114,1,84.375,2|0,0:0|0:0,0:0:0:0:
72,128,260970,2,0,P|48:73|7:18,1,90,2|0,0:0|0:0,0:0:0:0:
236,11,261446,2,0,P|208:85|228:211,1,202.500007724762,6|0,0:0|0:0,0:0:0:0:
224,204,261922,2,0,B|262:280|309:307|335:305|345:291|334:273|310:272,1,180,2|0,0:0|0:0,0:0:0:0:
438,327,262398,6,0,B|441:268|476:232|476:232|483:250|478:268,1,135,2|0,0:0|0:0,0:0:0:0:
479,261,262874,2,0,P|425:250|359:256,1,90,2|0,0:0|0:0,0:0:0:0:
473,74,263351,86,0,P|282:194|38:175,1,472.500018024445,6|0,0:0|0:0,0:0:0:0:
43,177,264303,2,0,P|86:138|135:122,1,101.250003862381,2|0,0:0|0:0,0:0:0:0:
126,123,264779,2,0,P|116:181|103:203,1,78.7500007510185,2|0,0:0|0:0,0:0:0:0:
40,330,265255,6,0,B|166:339|127:250|275:260,1,236.250009012223,2|0,0:0|0:0,0:0:0:0:
258,259,266208,2,0,P|353:306|388:369,1,168.75,6|0,0:0|0:0,0:0:0:0:
384,357,266684,2,0,P|334:358|296:337,1,78.7500007510185,2|0,0:0|0:0,0:0:0:0:
377,238,267160,6,0,P|466:214|312:176,1,472.500018024445,6|0,0:0|0:0,0:0:0:0:
308,159,268113,2,0,B|306:52|232:17|232:17|231:51|262:83,1,236.250002253056,2|0,0:0|0:0,0:0:0:0:
308,159,269065,86,0,B|262:336|110:371|110:371|119:323|182:302,1,393.75,6|0,0:0|0:0,0:0:0:0:
165,308,270017,2,0,P|275:299|377:339,1,202.500007724762,2|0,0:0|0:0,0:0:0:0:
55,162,270970,6,0,P|206:180|492:37,1,472.500018024445,6|0,0:0|0:0,0:0:0:0:
486,43,271922,2,0,P|381:84|240:33,1,236.250002253056,2|0,0:0|0:0,0:0:0:0:
489,186,272874,6,0,P|445:195|409:283,1,135,2|0,0:0|0:0,0:0:0:0:
489,186,273827,2,0,P|407:194|293:340,1,270,6|0,0:0|0:0,0:0:0:0:
489,186,274779,86,0,P|326:182|34:351,1,472.500018024445,6|0,0:0|0:0,0:0:0:0:
58,323,275732,2,0,P|67:298|67:245,1,67.5,2|0,0:0|0:0,0:0:0:0:
69,257,276208,2,0,P|52:212|9:175,1,90,2|0,0:0|0:0,0:0:0:0:
58,323,276684,2,0,P|142:287|252:276,1,202.500007724762,6|0,0:0|0:0,0:0:0:0:
251,275,277160,2,0,B|352:287|385:318|385:318|373:326|345:323,1,180,2|0,0:0|0:0,0:0:0:0:
509,198,277636,6,0,P|453:226|361:233,1,135,2|0,0:0|0:0,0:0:0:0:
381,235,278113,2,0,P|434:252|472:282,1,90,2|0,0:0|0:0,0:0:0:0:
123,150,278589,6,0,B|304:36|488:121|488:121|441:169|396:164|366:134,1,472.500018024445,6|0,0:0|0:0,0:0:0:0:
409,156,279541,2,0,P|420:214|454:269,1,101.250003862381,2|0,0:0|0:0,0:0:0:0:
439,250,280017,2,0,P|472:229|498:194,1,78.7500007510185,2|0,0:0|0:0,0:0:0:0:
452,21,280493,86,0,B|399:86|288:100|288:100|289:75|314:53,1,236.250009012223,2|0,0:0|0:0,0:0:0:0:
309,56,281446,2,0,P|380:72|458:142,1,168.75,6|0,0:0|0:0,0:0:0:0:
452,133,281922,2,0,P|400:162|387:175,1,78.7500007510185,2|0,0:0|0:0,0:0:0:0:
461,302,282398,6,0,P|333:365|325:134,1,472.500018024445,6|0,0:0|0:0,0:0:0:0:
325,133,283351,2,0,P|283:255|123:261,1,275.625002628565,2|0,0:0|0:0,0:0:0:0:
151,276,284303,6,0,B|248:72|168:4|168:4|130:63|194:117,1,393.75,6|0,0:0|0:0,0:0:0:0:
174,98,285255,2,0,P|264:152|371:165,1,202.500007724762,2|0,0:0|0:0,0:0:0:0:
39,305,286208,102,0,P|235:268|502:328,1,472.500018024445,6|0,0:0|0:0,0:0:0:0:
498,326,287160,2,0,P|349:322|253:370,1,236.250002253056,2|0,0:0|0:0,0:0:0:0:
487,191,288113,6,0,P|450:170|372:218,1,135,2|0,0:0|0:0,0:0:0:0:
487,191,289065,2,0,P|379:147|222:185,1,270,6|0,0:0|0:0,0:0:0:0:
487,191,290017,86,0,P|369:111|30:112,1,472.500018024445,6|0,0:0|0:0,0:0:0:0:
48,104,290970,2,0,P|85:127|108:160,1,67.5,2|0,0:0|0:0,0:0:0:0:
100,145,291446,2,0,P|124:198|125:266,1,90,2|0,0:0|0:0,0:0:0:0:
286,14,291922,2,0,P|246:77|222:205,1,202.500007724762,2|0,0:0|0:0,0:0:0:0:
221,201,292398,2,0,B|233:303|263:328|263:328|279:303|261:269,1,180,2|0,0:0|0:0,0:0:0:0:
221,201,292874,6,0,P|155:162|69:139,1,135.000005149842,2|0,0:0|0:0,0:0:0:0:
99,144,293351,2,0,P|136:134|189:133,1,90,2|0,0:0|0:0,0:0:0:0:
332,11,293827,6,0,B|295:200|460:345|460:345|409:319|317:345,1,472.500018024445,6|0,0:0|0:0,0:0:0:0:
365,334,294779,2,0,P|306:344|239:329,1,101.250003862381,2|0,0:0|0:0,0:0:0:0:
265,338,295255,2,0,P|285:285|298:267,1,78.7500007510185,2|0,0:0|0:0,0:0:0:0:
452,100,295732,102,0,P|423:169|413:42,1,393.75,2|0,0:0|0:0,0:0:0:0:
401,37,296684,6,0,B|373:220|155:253|155:253|256:272|300:318|263:351|242:350|207:332|234:285,1,540.000020599366,6|0,0:0|0:0,0:0:0:0:
