osu file format v14

[General]
AudioFilename: audio.mp3
AudioLeadIn: 0
PreviewTime: 51533
Countdown: 0
SampleSet: Soft
StackLeniency: 0.4
Mode: 0
LetterboxInBreaks: 0
WidescreenStoryboard: 0

[Editor]
Bookmarks: 14333,38733,51533,76933,89933,115533,128333,153933,169933,208482,221282
DistanceSpacing: 1.4
BeatDivisor: 8
GridSize: 4
TimelineZoom: 2.1

[Metadata]
Title:Last Wanderlust
TitleUnicode:Last Wanderlust
Artist:Matryoshka
ArtistUnicode:Matryoshka
Creator:Gust
Version:Neverending Dusk
Source:シャリーのアトリエ ~黄昏の海の錬金術士~
Tags:Atelier Shallie: Alchemists of the Dusk Sea tasogare no umi no renkinjutsushi gust video game leomine leominexd pigeons english folk
BeatmapID:3425567
BeatmapSetID:1676802

[Difficulty]
HPDrainRate:7
CircleSize:6
OverallDifficulty:7
ApproachRate:7
SliderMultiplier:0.999999999999999
SliderTickRate:1

[Events]
//Background and Video events
Video,113,"ed.mp4"
0,0,"shalliebg2.jpg",0,0
//Break Periods
//Storyboard Layer 0 (Background)
//Storyboard Layer 1 (Fail)
//Storyboard Layer 2 (Pass)
//Storyboard Layer 3 (Foreground)
//Storyboard Layer 4 (Overlay)
//Storyboard Sound Samples

[TimingPoints]
245,800,4,2,1,62,1,0
13045,-100,4,2,1,64,0,0
14545,-100,4,2,1,10,0,0
14645,-100,4,2,1,64,0,0
15245,-100,4,2,1,10,0,0
15445,-100,4,2,1,64,0,0
15945,-100,4,2,1,10,0,0
16045,-100,4,2,1,64,0,0
17745,-100,4,2,1,10,0,0
17845,-100,4,2,1,64,0,0
18545,-100,4,2,1,10,0,0
18645,-100,4,2,1,64,0,0
19445,-100,4,2,1,64,0,0
20945,-100,4,2,1,10,0,0
21045,-100,4,2,1,64,0,0
21745,-100,4,2,1,10,0,0
21845,-100,4,2,1,64,0,0
22345,-100,4,2,1,10,0,0
22445,-100,4,2,1,64,0,0
24145,-100,4,2,1,10,0,0
24245,-100,4,2,1,64,0,0
25845,-100,4,2,1,66,0,0
27945,-100,4,2,1,10,0,0
28045,-100,4,2,1,66,0,0
28745,-100,4,2,1,10,0,0
28845,-100,4,2,1,66,0,0
30545,-100,4,2,1,10,0,0
30645,-100,4,2,1,66,0,0
31345,-100,4,2,1,10,0,0
31445,-100,4,2,1,66,0,0
32145,-100,4,2,1,10,0,0
32245,-100,4,2,1,66,0,0
33745,-100,4,2,1,10,0,0
33845,-100,4,2,1,66,0,0
34545,-100,4,2,1,10,0,0
34645,-100,4,2,1,66,0,0
35345,-100,4,2,1,10,0,0
35445,-100,4,2,1,66,0,0
36945,-100,4,2,1,10,0,0
37045,-100,4,2,1,66,0,0
38645,-100,4,2,1,70,0,0
46145,-100,4,2,1,10,0,0
46245,-100,4,2,1,70,0,0
46945,-100,4,2,1,10,0,0
47045,-100,4,2,1,70,0,0
47345,-100,4,2,1,10,0,0
47445,-100,4,2,1,70,0,0
51445,-66.6666666666667,4,2,1,78,0,0
54145,-66.6666666666667,4,2,1,10,0,0
54245,-66.6666666666667,4,2,1,78,0,0
60545,-66.6666666666667,4,2,1,10,0,0
60645,-66.6666666666667,4,2,1,78,0,0
60945,-66.6666666666667,4,2,1,10,0,0
61045,-66.6666666666667,4,2,1,78,0,0
62045,-66.6666666666667,4,2,1,30,0,0
62245,-66.6666666666667,4,2,1,78,0,0
62545,-66.6666666666667,4,2,1,30,0,0
62645,-66.6666666666667,4,2,1,78,0,0
66945,-66.6666666666667,4,2,1,10,0,0
67045,-66.6666666666667,4,2,1,78,0,0
67345,-66.6666666666667,4,2,1,10,0,0
67445,-66.6666666666667,4,2,1,78,0,0
73345,-66.6666666666667,4,2,1,10,0,0
73445,-66.6666666666667,4,2,1,78,0,0
73745,-66.6666666666667,4,2,1,10,0,0
73845,-66.6666666666667,4,2,1,78,0,0
77045,-66.6666666666667,4,2,1,62,0,0
83445,-66.6666666666667,4,2,1,65,0,0
89845,-66.6666666666667,4,2,1,68,0,0
91345,-66.6666666666667,4,2,1,10,0,0
91445,-66.6666666666667,4,2,1,68,0,0
92745,-66.6666666666667,4,2,1,10,0,0
92845,-66.6666666666667,4,2,1,68,0,0
94545,-66.6666666666667,4,2,1,10,0,0
94645,-66.6666666666667,4,2,1,68,0,0
95245,-66.6666666666667,4,2,1,10,0,0
95445,-66.6666666666667,4,2,1,68,0,0
95945,-66.6666666666667,4,2,1,10,0,0
96045,-66.6666666666667,4,2,1,68,0,0
97745,-66.6666666666667,4,2,1,10,0,0
97845,-66.6666666666667,4,2,1,68,0,0
102645,-66.6666666666667,4,2,1,70,0,0
104145,-66.6666666666667,4,2,1,10,0,0
104245,-66.6666666666667,4,2,1,70,0,0
107445,-66.6666666666667,4,2,1,70,0,0
110545,-66.6666666666667,4,2,1,10,0,0
110645,-66.6666666666667,4,2,1,70,0,0
115445,-66.6666666666667,4,2,1,72,0,0
117345,-66.6666666666667,4,2,1,10,0,0
117445,-66.6666666666667,4,2,1,72,0,0
117745,-66.6666666666667,4,2,1,10,0,0
117845,-66.6666666666667,4,2,1,72,0,0
118145,-66.6666666666667,4,2,1,10,0,0
118245,-66.6666666666667,4,2,1,72,0,0
128245,-45.4545454545455,4,2,1,78,0,0
130945,-45.4545454545455,4,2,1,10,0,0
131045,-45.4545454545455,4,2,1,78,0,0
132045,-45.4545454545455,4,2,1,30,0,0
132245,-45.4545454545455,4,2,1,78,0,0
137345,-45.4545454545455,4,2,1,10,0,0
137445,-45.4545454545455,4,2,1,78,0,0
137745,-45.4545454545455,4,2,1,10,0,0
137845,-45.4545454545455,4,2,1,78,0,0
143745,-45.4545454545455,4,2,1,10,0,0
143845,-45.4545454545455,4,2,1,78,0,0
146945,-45.4545454545455,4,2,1,10,0,0
147045,-45.4545454545455,4,2,1,78,0,0
150145,-45.4545454545455,4,2,1,10,0,0
150245,-45.4545454545455,4,2,1,78,0,0
150545,-45.4545454545455,4,2,1,10,0,0
150645,-45.4545454545455,4,2,1,78,0,0
153845,-100,4,2,1,70,0,0
157045,-100,4,2,1,62,0,0
169045,-66.6666666666667,4,2,1,62,0,0
169345,-66.6666666666667,4,2,1,10,0,0
169445,-45.4545454545455,4,2,1,62,0,0
169745,-45.4545454545455,4,2,1,10,0,0
169845,-33.3333333333333,4,2,1,80,0,1
170145,-33.3333333333333,4,2,1,10,0,1
170245,-33.3333333333333,4,2,1,80,0,1
172545,-33.3333333333333,4,2,1,10,0,1
172645,-33.3333333333333,4,2,1,80,0,1
172945,-33.3333333333333,4,2,1,10,0,1
173045,-33.3333333333333,4,2,1,80,0,1
175745,-33.3333333333333,4,2,1,10,0,1
175845,-33.3333333333333,4,2,1,80,0,1
176545,-33.3333333333333,4,2,1,10,0,1
176645,-33.3333333333333,4,2,1,80,0,1
178945,-33.3333333333333,4,2,1,10,0,1
179045,-33.3333333333333,4,2,1,80,0,1
182945,-33.3333333333333,4,2,1,10,0,1
183045,-33.3333333333333,4,2,1,80,0,1
186945,-33.3333333333333,4,2,1,10,0,1
187045,-33.3333333333333,4,2,1,80,0,1
190145,-33.3333333333333,4,2,1,10,0,1
190245,-33.3333333333333,4,2,1,80,0,1
196545,-33.3333333333333,4,2,1,10,0,1
196645,-33.3333333333333,4,2,1,80,0,1
198145,-33.3333333333333,4,2,1,10,0,1
198245,-33.3333333333333,4,2,1,80,0,1
199745,-33.3333333333333,4,2,1,10,0,1
199845,-33.3333333333333,4,2,1,80,0,1
200945,-33.3333333333333,4,2,1,10,0,1
201045,-33.3333333333333,4,2,1,80,0,1
204145,-33.3333333333333,4,2,1,10,0,1
204245,-33.3333333333333,4,2,1,80,0,1
204545,-33.3333333333333,4,2,1,10,0,1
204645,-33.3333333333333,4,2,1,80,0,1
206945,-33.3333333333333,4,2,1,10,0,1
207045,-33.3333333333333,4,2,1,80,0,1
208145,-33.3333333333333,4,2,1,10,0,1
208245,-100,4,2,1,70,0,0

[Colours]
Combo1 : 176,88,0
Combo2 : 89,255,255
Combo3 : 128,255,0
Combo4 : 251,187,197
Combo5 : 226,201,20

[HitObjects]
23,248,245,5,2,0:1:0:0:
94,252,645,1,2,2:2:0:0:
139,195,1045,1,2,2:2:0:0:
23,248,1845,1,2,0:1:0:0:
94,252,2245,1,2,2:2:0:0:
139,195,2645,1,2,2:2:0:0:
23,248,3245,5,2,2:2:0:0:
139,195,3445,1,2,0:1:0:0:
210,192,3845,1,2,2:2:0:0:
256,248,4245,1,2,2:2:0:0:
139,195,4845,5,2,2:2:0:0:
256,248,5045,1,2,0:1:0:0:
301,192,5445,1,2,2:2:0:0:
372,195,5845,1,2,2:2:0:0:
372,195,6445,1,2,2:2:0:0:
488,248,6645,5,2,0:1:0:0:
417,252,7045,1,2,2:2:0:0:
372,195,7445,1,2,2:2:0:0:
488,248,8245,1,2,0:1:0:0:
417,252,8645,1,2,2:2:0:0:
372,195,9045,1,2,2:2:0:0:
488,248,9645,5,2,2:2:0:0:
372,195,9845,1,2,0:1:0:0:
301,192,10245,1,2,2:2:0:0:
256,248,10645,1,2,2:2:0:0:
372,195,11245,5,2,2:2:0:0:
256,248,11445,1,2,0:1:0:0:
210,192,11845,1,2,2:2:0:0:
139,195,12245,1,2,2:2:0:0:
23,248,13045,5,2,0:1:0:0:
94,252,13445,1,2,2:2:0:0:
139,195,13845,1,2,2:2:0:0:
74,110,14245,6,0,L|116:119,1,37.5,2|0,2:2|0:0,0:0:0:0:
116,128,14645,2,0,P|148:121|169:76,1,74.9999999999999,2|0,0:1|0:0,0:0:0:0:
150,29,15445,2,0,L|221:21,1,62.4999999999999,2|0,2:2|0:0,0:0:0:0:
223,21,16045,1,2,2:2:0:0:
271,56,16245,6,0,P|282:35|283:8,2,50,2|2|2,0:1|2:2|2:2,0:0:0:0:
186,140,17445,2,0,P|188:160|192:185,1,37.5,2|0,2:2|0:0,0:0:0:0:
188,188,17845,6,0,P|222:180|253:223,1,87.4999999999999,2|0,0:1|0:0,0:0:0:0:
261,223,18645,2,0,L|249:302,1,74.9999999999999,2|2,2:2|2:2,0:0:0:0:
198,336,19445,6,0,P|205:363|217:390,2,50,2|2|2,0:1|2:2|2:2,0:0:0:0:
320,199,20645,2,0,P|313:174|306:156,1,37.5,2|0,2:2|0:0,0:0:0:0:
299,157,21045,6,0,P|303:139|364:126,1,87.4999999999999,2|0,0:1|0:0,0:0:0:0:
369,132,21845,2,0,P|412:139|439:138,1,62.4999999999999,2|0,2:2|0:0,0:0:0:0:
441,136,22445,5,2,2:2:0:0:
495,84,22645,2,0,L|486:30,2,50,2|2|2,0:1|2:2|2:2,0:0:0:0:
407,216,23845,6,0,P|378:221|369:223,1,37.5,2|0,2:2|0:0,0:0:0:0:
359,219,24245,2,0,P|329:259|337:316,1,99.9999999999999,2|2,0:1|2:2,0:0:0:0:
512,332,25845,5,2,0:1:0:0:
441,336,26245,1,2,2:2:0:0:
396,279,26645,1,2,2:2:0:0:
493,182,27045,6,0,L|464:186,1,25,2|0,2:2|0:0,0:0:0:0:
415,211,27445,2,0,P|391:190|382:154,1,62.4999999999999,2|0,0:1|0:0,0:0:0:0:
384,150,28045,1,0,0:0:0:0:
444,82,28245,2,0,P|468:102|477:138,1,62.4999999999999,2|0,2:2|0:0,0:0:0:0:
475,143,28845,1,2,2:2:0:0:
423,212,29045,6,0,L|433:270,2,50,2|2|2,0:1|2:2|2:2,0:0:0:0:
282,102,30245,6,0,P|255:106|236:111,1,37.5,2|0,2:2|0:0,0:0:0:0:
234,105,30645,2,0,P|203:138|196:180,1,87.4999999999999,2|0,0:1|0:0,0:0:0:0:
197,189,31445,2,0,P|162:215|119:218,1,87.4999999999999,2|0,2:2|0:0,0:0:0:0:
110,210,32245,6,0,P|103:237|91:264,2,50,2|2|2,0:1|2:2|2:2,0:0:0:0:
1,90,33445,2,0,P|8:65|14:48,1,37.5,2|0,2:2|0:0,0:0:0:0:
7,43,33845,6,0,P|22:26|90:15,1,87.4999999999999,2|0,0:1|0:0,0:0:0:0:
93,16,34645,2,0,P|112:26|137:90,1,87.4999999999999,2|0,2:2|0:0,0:0:0:0:
138,95,35445,6,0,P|154:88|191:80,2,50,2|2|2,0:1|2:2|2:2,0:0:0:0:
1,219,36645,2,0,P|25:224|47:232,1,37.5,2|0,2:2|0:0,0:0:0:0:
48,226,37045,2,0,P|18:272|10:320,1,99.9999999999999,2|2,0:1|2:2,0:0:0:0:
227,359,38645,6,0,L|213:363,10,8.33333333333333,6|0|0|0|0|0|2|0|0|0|0,1:2|0:0|0:0|0:0|2:2|0:0|0:0|0:0|0:0|0:0|0:0,0:0:0:0:
236,352,39445,2,0,P|248:353|260:357,1,25,8|0,2:2|0:0,0:0:0:0:
351,269,39845,6,0,P|334:278|319:289,1,37.5,2|0,2:2|0:0,0:0:0:0:
315,299,40245,2,0,P|330:309|347:317,1,37.5,2|0,1:2|0:0,0:0:0:0:
359,315,40645,2,0,P|360:296|358:277,1,37.5,2|0,2:2|0:0,0:0:0:0:
351,269,41045,6,0,P|365:242|390:232,1,50,8|0,2:2|0:0,0:0:0:0:
441,259,41645,1,2,2:2:0:0:
488,214,41845,5,2,1:2:0:0:
371,135,42245,1,2,2:2:0:0:
295,252,42645,1,8,2:2:0:0:
178,173,43045,2,0,L|163:180,2,16.6666666666667,2|0|0,2:2|0:0|0:0,0:0:0:0:
187,166,43445,6,0,L|192:148,2,12.5,2|0|0,1:2|0:0|0:0,0:0:0:0:
243,186,43845,1,2,2:2:0:0:
121,255,44245,1,8,2:2:0:0:
223,350,44645,2,0,P|198:358|180:365,1,37.5,0|0,0:0|0:0,0:0:0:0:
177,356,45045,6,0,L|164:352,9,8.33333333333333,2|0|0|0|0|0|2|0|0|0,1:2|0:0|0:0|0:0|2:2|0:0|0:0|0:0|0:0|0:0,0:0:0:0:
252,288,45845,2,0,P|264:302|276:322,1,37.5,8|0,2:2|0:0,0:0:0:0:
277,329,46245,2,0,P|295:334|301:334,1,25,2|0,2:2|0:0,0:0:0:0:
367,248,46645,6,0,P|376:232|389:217,1,37.5,2|0,1:2|0:0,0:0:0:0:
398,211,47045,2,0,P|388:195|375:180,1,37.5,2|0,2:2|0:0,0:0:0:0:
366,174,47445,2,0,P|385:152|415:149,1,50,8|2,2:2|2:2,0:0:0:0:
466,167,48045,1,2,2:2:0:0:
510,119,48245,5,2,1:2:0:0:
388,71,48645,1,2,2:2:0:0:
283,148,49045,1,8,2:2:0:0:
297,277,49445,6,0,L|289:279,5,8.33333333333333,2|0|0|0|0|0,2:2|0:0|0:0|0:0|0:0|0:0,0:0:0:0:
306,270,49845,2,0,L|318:272,3,12.5,2|0|0|0,1:2|0:0|0:0|0:0,0:0:0:0:
297,261,50245,2,0,P|274:254|262:253,1,25,2|0,2:2|0:0,0:0:0:0:
209,267,50645,5,8,2:2:0:0:
209,267,51445,5,4,1:2:0:0:
87,178,51845,1,2,2:2:0:0:
152,43,52245,1,10,2:2:0:0:
18,197,52645,5,2,2:2:0:0:
87,178,52845,1,2,2:2:0:0:
141,224,53045,2,0,P|150:249|153:267,1,37.5000014305115,0|0,1:1|0:0,0:0:0:0:
70,359,53445,2,0,P|61:334|58:316,1,37.5000014305115,2|0,2:2|0:0,0:0:0:0:
147,162,53845,6,0,P|170:151|207:145,1,56.2500021457672,10|0,2:2|0:0,0:0:0:0:
216,160,54245,2,0,P|220:133|227:116,1,37.5000014305115,2|0,2:2|0:0,0:0:0:0:
261,73,54545,1,0,0:0:0:0:
261,73,54645,2,0,P|299:91|316:161,1,112.500004291534,4|0,1:2|0:0,0:0:0:0:
219,229,55445,5,10,2:2:0:0:
251,292,55645,1,0,0:0:0:0:
241,290,55745,1,0,0:0:0:0:
232,289,55845,1,2,2:2:0:0:
190,335,56045,1,2,2:2:0:0:
254,384,56245,5,0,1:1:0:0:
118,265,56645,1,2,2:2:0:0:
273,160,57045,2,0,P|262:133|257:122,1,37.5000014305115,8|0,2:2|0:0,0:0:0:0:
206,52,57445,6,0,P|175:63|151:77,1,56.2500021457672,2|0,2:2|0:0,0:0:0:0:
143,94,57845,2,0,P|103:95|79:69,2,75.000002861023,4|2|10,1:2|2:2|2:2,0:0:0:0:
143,94,59045,5,2,2:2:0:0:
216,80,59245,1,2,2:2:0:0:
277,128,59445,2,0,P|301:121|318:120,1,37.5000014305115,0|0,1:1|0:0,0:0:0:0:
403,185,59845,2,0,P|384:182|366:176,1,37.5000014305115,2|0,2:2|0:0,0:0:0:0:
311,46,60245,6,0,P|327:22|363:7,1,56.2500021457672,10|0,2:2|0:0,0:0:0:0:
372,3,60645,2,0,P|400:4|431:28,1,56.2500021457672,2|0,2:2|0:0,0:0:0:0:
437,10,61045,2,0,B|458:-5|471:-5|482:0|502:12|502:33|502:48|493:57|458:61|452:92|460:116|470:142,1,187.500007152557,4|0,1:2|0:0,0:0:0:0:
362,209,62245,6,0,P|379:233|408:241,1,56.2500021457672,2|0,2:2|0:0,0:0:0:0:
421,226,62645,2,0,P|454:206|498:195,1,75.000002861023,0|2,1:1|2:2,0:0:0:0:
512,272,63245,2,0,L|482:268,1,18.7500007152557,0|0,0:0|0:0,0:0:0:0:
474,282,63445,5,8,2:2:0:0:
308,196,63845,5,8,2:2:0:0:
428,52,64245,6,0,P|476:39|504:36,2,75.000002861023,4|2|10,1:2|2:2|2:2,0:0:0:0:
428,52,65445,1,2,2:2:0:0:
376,104,65645,1,2,2:2:0:0:
300,100,65845,2,0,P|305:126|308:152,1,37.5000014305115,0|0,1:1|0:0,0:0:0:0:
204,276,66245,2,0,P|206:257|211:239,1,37.5000014305115,2|0,2:2|0:0,0:0:0:0:
176,192,66545,5,0,0:0:0:0:
176,192,66645,2,0,P|152:212|128:220,1,56.2500021457672,10|0,2:2|0:0,0:0:0:0:
106,221,67045,2,0,P|76:210|57:193,1,56.2500021457672,2|0,2:2|0:0,0:0:0:0:
47,173,67445,2,0,P|16:192|6:231,2,75.000002861023,4|2|10,1:2|2:2|2:2,0:0:0:0:
254,384,68645,6,0,P|251:365|246:347,1,37.5000014305115,2|0,2:2|2:2,0:0:0:0:
214,254,69045,2,0,P|273:256|305:313,1,112.500004291534,0|0,1:1|0:0,0:0:0:0:
309,357,69745,1,2,0:0:0:0:
309,357,69845,2,0,P|359:334|434:320,1,131.25000500679,8|0,2:2|0:0,0:0:0:0:
490,334,70645,5,4,1:2:0:0:
364,251,71045,1,2,2:2:0:0:
453,130,71445,1,10,2:2:0:0:
364,251,71845,1,2,2:2:0:0:
300,290,72045,1,2,2:2:0:0:
226,273,72245,1,0,1:1:0:0:
113,174,72645,1,2,2:2:0:0:
24,345,73045,6,0,P|57:340|79:319,1,56.2500021457672,10|0,2:2|0:0,0:0:0:0:
89,309,73445,2,0,P|100:278|93:247,1,56.2500021457672,2|0,2:2|0:0,0:0:0:0:
89,234,73845,2,0,P|52:226|23:120,1,150.000005722046,4|10,1:2|2:2,0:0:0:0:
237,0,75045,2,0,P|230:17|226:35,1,37.5000014305115,2|0,2:2|2:2,0:0:0:0:
295,19,75445,6,0,P|332:27|361:133,2,150.000005722046,0|8|6,1:1|2:2|1:2,0:0:0:0:
226,35,77245,1,2,2:2:0:0:
204,27,77445,1,2,2:2:0:0:
204,27,78645,5,2,2:2:0:0:
187,42,78845,1,2,2:2:0:0:
164,44,79045,1,2,2:2:0:0:
147,59,79245,1,2,2:2:0:0:
21,137,80245,5,2,2:2:0:0:
78,178,80445,1,2,2:2:0:0:
99,172,80645,1,2,2:2:0:0:
99,172,81845,5,2,2:2:0:0:
116,187,82045,1,2,2:2:0:0:
139,189,82245,1,2,2:2:0:0:
156,204,82445,1,2,2:2:0:0:
17,354,83045,5,2,2:2:0:0:
17,354,83445,1,2,1:1:0:0:
34,339,83645,1,2,2:2:0:0:
57,337,83845,1,2,2:2:0:0:
74,322,84045,1,2,2:2:0:0:
125,352,84245,1,2,2:2:0:0:
183,338,84445,1,2,2:2:0:0:
352,283,85045,5,2,1:1:0:0:
335,268,85245,1,2,2:2:0:0:
312,266,85445,1,2,2:2:0:0:
295,251,85645,1,2,2:2:0:0:
244,281,85845,1,2,2:2:0:0:
186,267,86045,1,2,2:2:0:0:
156,214,86245,1,2,2:2:0:0:
352,283,86645,5,2,1:1:0:0:
335,268,86845,1,2,2:2:0:0:
312,266,87045,1,2,2:2:0:0:
295,251,87245,1,2,2:2:0:0:
244,281,87445,1,2,2:2:0:0:
186,267,87645,1,2,2:2:0:0:
33,144,88245,5,2,1:1:0:0:
50,129,88445,1,2,2:2:0:0:
73,127,88645,1,2,2:2:0:0:
90,112,88845,1,2,2:2:0:0:
141,142,89045,1,10,2:2:0:0:
199,128,89245,1,2,2:2:0:0:
229,75,89445,2,0,P|221:43|210:25,1,37.5000014305115,2|0,2:2|0:0,0:0:0:0:
289,190,89845,6,0,L|330:184,1,37.5000014305115,6|0,1:2|0:0,0:0:0:0:
389,232,90245,2,0,L|351:237,1,37.5000014305115,2|0,2:2|0:0,0:0:0:0:
276,129,90645,6,0,P|284:97|295:79,1,37.5000014305115,8|0,2:2|0:0,0:0:0:0:
375,12,91045,2,0,P|395:25|412:57,1,56.2500021457672,2|0,2:2|0:0,0:0:0:0:
415,74,91445,2,0,P|446:56|488:59,1,75.000002861023,2|2,1:2|2:2,0:0:0:0:
380,288,92245,6,0,P|344:291|296:258,1,93.7500035762787,8|0,2:2|0:0,0:0:0:0:
288,237,92845,1,2,2:2:0:0:
236,280,93045,6,0,L|249:360,2,75.000002861023,2|2|8,1:2|2:2|2:2,0:0:0:0:
298,109,94245,6,0,L|292:169,1,56.2500021457672,2|0,2:2|0:0,0:0:0:0:
302,185,94645,2,0,P|272:168|211:218,1,112.500004291534,2|0,1:2|0:0,0:0:0:0:
126,336,95445,6,0,P|78:327|29:323,1,93.7500035762787,8|0,2:2|0:0,0:0:0:0:
10,324,96045,1,2,2:2:0:0:
38,384,96245,5,2,1:2:0:0:
119,276,96645,1,2,2:2:0:0:
16,187,97045,1,8,2:2:0:0:
119,276,97445,6,0,P|144:267|150:230,1,56.2500021457672,2|0,2:2|0:0,0:0:0:0:
147,218,97845,2,0,P|179:210|224:206,1,75.000002861023,2|2,1:2|2:2,0:0:0:0:
431,66,98645,2,0,P|393:61|356:59,1,75.000002861023,8|0,2:2|0:0,0:0:0:0:
298,95,99245,1,2,2:2:0:0:
218,18,99445,6,0,P|259:18|262:53,2,75.000002861023,2|2|8,1:2|2:2|2:2,0:0:0:0:
218,18,100645,1,2,2:2:0:0:
169,64,100845,1,2,2:2:0:0:
211,116,101045,5,2,1:2:0:0:
82,193,101445,1,2,2:2:0:0:
9,61,101845,1,8,2:2:0:0:
9,61,102645,6,0,L|13:110,1,37.5000014305115,6|0,1:2|0:0,0:0:0:0:
76,158,103045,2,0,L|72:120,1,37.5000014305115,2|0,2:2|0:0,0:0:0:0:
136,34,103445,5,8,2:2:0:0:
196,3,103645,1,0,0:0:0:0:
196,3,103845,2,0,P|232:21|231:36,1,56.2500021457672,2|0,2:2|0:0,0:0:0:0:
225,51,104245,2,0,P|266:38|308:31,1,75.000002861023,2|0,1:2|2:2,0:0:0:0:
439,117,104845,5,0,0:0:0:0:
439,117,104945,1,2,0:0:0:0:
439,117,105045,2,0,P|398:130|356:137,1,75.000002861023,8|0,2:2|0:0,0:0:0:0:
313,175,105645,1,2,2:2:0:0:
313,175,105745,1,0,0:0:0:0:
313,175,105845,2,0,L|307:254,2,75.000002861023,2|2|8,1:2|2:2|2:2,0:0:0:0:
326,109,106845,5,0,0:0:0:0:
326,109,107045,2,0,P|353:110|366:135,1,56.2500021457672,2|0,2:2|0:0,0:0:0:0:
383,147,107445,2,0,P|419:139|456:134,2,75.000002861023,2|2|8,1:2|2:2|2:2,0:0:0:0:
203,293,108645,5,0,0:0:0:0:
203,293,108845,2,0,P|212:315|213:319,1,18.7500007152557,2|0,2:2|0:0,0:0:0:0:
215,332,109045,2,0,P|178:324|141:319,2,75.000002861023,2|2|8,1:2|2:2|2:2,0:0:0:0:
298,312,110045,5,0,0:0:0:0:
298,312,110245,2,0,P|285:337|277:366,1,56.2500021457672,2|0,2:2|0:0,0:0:0:0:
258,375,110645,2,0,P|229:371|215:329,1,75.000002861023,2|2,1:2|2:2,0:0:0:0:
94,134,111445,6,0,P|61:121|36:192,1,131.25000500679,8|0,2:2|0:0,0:0:0:0:
27,212,112245,1,2,1:2:0:0:
183,263,112645,1,2,2:2:0:0:
256,115,113045,1,8,2:2:0:0:
313,79,113245,1,0,0:0:0:0:
313,79,113445,2,0,P|345:82|365:90,1,37.5000014305115,2|2,2:2|2:2,0:0:0:0:
404,117,113845,5,2,1:2:0:0:
234,177,114245,1,2,2:2:0:0:
128,22,114645,1,8,2:2:0:0:
128,22,115445,6,0,L|110:28,9,12.5000004768372,6|0|0|0|0|0|2|0|0|0,1:2|0:0|0:0|0:0|0:0|0:0|2:2|0:0|0:0|0:0,0:0:0:0:
188,45,116245,1,8,2:2:0:0:
191,55,116445,1,0,0:0:0:0:
239,2,116645,2,0,L|286:11,1,37.5000014305115,2|0,2:2|0:0,0:0:0:0:
385,97,117045,6,0,P|372:123|337:124,1,56.2500021457672,2|0,1:2|0:0,0:0:0:0:
325,122,117445,2,0,P|308:97|325:66,1,56.2500021457672,2|0,2:2|0:0,0:0:0:0:
333,57,117845,2,0,P|362:55|380:85,1,56.2500021457672,8|0,2:2|0:0,0:0:0:0:
385,97,118245,1,2,0:0:0:0:
396,95,118445,1,0,2:2:0:0:
473,61,118645,6,0,L|488:63,6,9.37500035762787,2|0|0|0|0|0|0,1:2|0:0|0:0|0:0|0:0|0:0|0:0,0:0:0:0:
449,46,119045,1,2,2:2:0:0:
446,35,119245,1,0,0:0:0:0:
396,95,119445,2,0,L|401:140,1,37.5000014305115,8|0,2:2|0:0,0:0:0:0:
390,153,119745,1,0,0:0:0:0:
390,153,119845,2,0,L|362:159,2,25.0000009536743,2|0|0,2:2|0:0|0:0,0:0:0:0:
256,240,120245,6,0,L|232:236,2,18.7500007152557,2|0|0,1:2|0:0|0:0,0:0:0:0:
304,276,120645,2,0,P|324:256|328:229,1,56.2500021457672,2|0,2:2|0:0,0:0:0:0:
324,208,121045,2,0,L|368:212,1,37.5000014305115,8|0,2:2|0:0,0:0:0:0:
484,332,121445,6,0,L|440:336,1,37.5000014305115,2|2,2:2|2:2,0:0:0:0:
428,321,121745,1,0,0:0:0:0:
430,314,121845,2,0,L|435:298,9,12.5000004768372,2|0|0|0|0|0|2|0|0|0,1:2|0:0|0:0|0:0|0:0|0:0|0:0|0:0|2:2|0:0,0:0:0:0:
337,381,122645,6,0,L|381:385,1,37.5000014305115,8|0,2:2|0:0,0:0:0:0:
428,321,123045,2,0,P|414:297|388:292,1,56.2500021457672,2|0,2:2|0:0,0:0:0:0:
367,303,123445,5,2,1:2:0:0:
369,314,123645,1,0,0:0:0:0:
305,332,123845,2,0,L|310:271,1,56.2500021457672,2|0,2:2|0:0,0:0:0:0:
291,261,124245,2,0,L|295:220,1,37.5000014305115,8|0,2:2|0:0,0:0:0:0:
202,154,124645,6,0,L|198:113,1,37.5000014305115,0|2,0:0|2:2,0:0:0:0:
248,70,125045,1,2,1:2:0:0:
248,70,125245,1,0,0:0:0:0:
191,33,125445,2,0,P|162:34|147:55,1,56.2500021457672,2|0,2:2|0:0,0:0:0:0:
135,73,125845,2,0,P|110:69|95:64,1,37.5000014305115,8|0,2:2|0:0,0:0:0:0:
15,118,126245,6,0,L|0:123,5,12.5000004768372,2|0|0|0|0|0,2:2|0:0|0:0|0:0|0:0|0:0,0:0:0:0:
33,105,126645,2,0,L|41:83,2,18.7500007152557,2|0|0,1:2|0:0|0:0,0:0:0:0:
77,192,127045,6,0,P|107:180|139:171,1,56.2500021457672,2|0,2:2|0:0,0:0:0:0:
199,168,127445,1,8,2:2:0:0:
199,168,128245,5,4,1:2:0:0:
337,235,128645,1,2,2:2:0:0:
429,112,129045,1,10,2:2:0:0:
356,299,129445,5,2,2:2:0:0:
337,235,129645,1,2,2:2:0:0:
354,171,129845,2,0,L|419:163,1,55.0000016784668,0|0,1:1|0:0,0:0:0:0:
252,250,130245,2,0,L|187:242,1,55.0000016784668,2|0,2:2|0:0,0:0:0:0:
446,117,130645,6,0,P|427:80|379:77,1,82.5000025177002,10|0,2:2|0:0,0:0:0:0:
363,93,131045,2,0,P|331:97|307:83,1,55.0000016784668,2|0,2:2|0:0,0:0:0:0:
273,35,131345,5,0,0:0:0:0:
273,35,131445,2,0,B|228:58|215:105|297:114|230:176,1,165.0000050354,4|0,1:2|0:0,0:0:0:0:
79,291,132245,6,0,P|111:266|151:268,1,82.5000025177002,10|0,2:2|0:0,0:0:0:0:
179,284,132645,1,2,2:2:0:0:
231,244,132845,1,2,2:2:0:0:
204,183,133045,5,0,1:1:0:0:
356,270,133445,1,2,2:2:0:0:
462,130,133845,2,0,P|450:91|434:69,1,55.0000016784668,8|0,2:2|0:0,0:0:0:0:
425,15,134245,6,0,P|386:18|381:56,1,82.5000025177002,2|0,2:2|0:0,0:0:0:0:
353,74,134645,2,0,P|295:74|243:37,2,110.000003356934,4|2|10,1:2|2:2|2:2,0:0:0:0:
512,274,135845,5,2,2:2:0:0:
438,251,136045,1,2,2:2:0:0:
389,310,136245,1,0,1:1:0:0:
238,377,136645,1,2,2:2:0:0:
129,253,137045,6,0,P|122:206|150:174,1,82.5000025177002,10|0,2:2|0:0,0:0:0:0:
172,167,137445,2,0,P|192:132|184:93,1,82.5000025177002,2|0,2:2|0:0,0:0:0:0:
159,70,137845,2,0,B|144:49|144:36|149:25|159:0|184:-4|205:-2|217:11|214:48|230:65|270:69|317:47,1,220.000006713867,4|10,1:2|2:2,0:0:0:0:
512,193,139045,6,0,P|478:199|473:229,1,55.0000016784668,2|0,2:2|2:2,0:0:0:0:
501,271,139345,1,0,0:0:0:0:
501,271,139445,2,0,P|430:287|372:288,1,110.000003356934,0|2,1:1|2:2,0:0:0:0:
350,384,140045,5,0,0:0:0:0:
350,384,140145,1,0,0:0:0:0:
350,384,140245,2,0,P|344:357|332:330,1,55.0000016784668,8|0,2:2|0:0,0:0:0:0:
204,192,140645,2,0,P|208:167|234:115,1,82.5000025177002,8|0,2:2|0:0,0:0:0:0:
256,94,141045,6,0,P|234:47|178:78,2,110.000003356934,4|2|10,1:2|2:2|2:2,0:0:0:0:
512,0,142245,1,2,2:2:0:0:
456,52,142445,1,2,2:2:0:0:
480,124,142645,2,0,P|448:132|412:148,1,55.0000016784668,0|0,1:1|0:0,0:0:0:0:
332,64,143045,2,0,P|359:71|385:81,1,55.0000016784668,2|0,2:2|0:0,0:0:0:0:
312,224,143345,5,0,0:0:0:0:
312,224,143445,2,0,P|260:248|228:272,1,82.5000025177002,10|0,2:2|0:0,0:0:0:0:
232,300,143845,2,0,P|196:284|172:280,1,55.0000016784668,2|0,2:2|0:0,0:0:0:0:
128,312,144145,1,0,0:0:0:0:
128,312,144245,2,0,P|96:328|88:272,2,110.000003356934,4|2|10,1:2|2:2|2:2,0:0:0:0:
196,356,145245,5,0,0:0:0:0:
180,280,145445,1,2,2:2:0:0:
220,212,145645,1,2,2:2:0:0:
208,136,145845,2,0,B|252:140|252:140|272:160|272:160|324:164,1,110.000003356934,0|2,1:1|2:2,0:0:0:0:
396,213,146445,5,0,0:0:0:0:
396,213,146545,1,0,0:0:0:0:
396,213,146645,2,0,P|398:178|416:130,1,82.5000025177002,8|0,2:2|0:0,0:0:0:0:
409,100,147045,2,0,P|455:101|476:64,1,82.5000025177002,2|0,2:2|0:0,0:0:0:0:
506,84,147445,5,4,1:2:0:0:
376,166,147845,1,2,2:2:0:0:
272,51,148245,1,10,2:2:0:0:
376,166,148645,1,2,2:2:0:0:
397,239,148845,1,2,2:2:0:0:
345,294,149045,1,0,1:1:0:0:
201,351,149445,1,2,2:2:0:0:
112,253,149845,6,0,P|144:233|155:188,1,82.5000025177002,10|0,2:2|0:0,0:0:0:0:
144,160,150245,2,0,P|110:142|66:155,1,82.5000025177002,2|0,2:2|0:0,0:0:0:0:
48,178,150645,6,0,B|30:162|21:141|24:120|36:104|36:104|-8:84|0:41|34:18|63:28|82:56,1,220.000006713867,4|10,1:2|2:2,0:0:0:0:
218,163,151645,5,0,0:0:0:0:
218,163,151745,1,0,0:0:0:0:
218,163,151845,2,0,P|244:156|272:154,1,55.0000016784668,2|0,2:2|2:2,0:0:0:0:
320,198,152245,2,0,P|356:234|413:222,2,110.000003356934,0|2|8,1:1|2:2|2:2,0:0:0:0:
153,147,153445,1,8,2:2:0:0:
95,289,153845,5,4,1:2:0:0:
2,119,157045,5,2,1:1:0:0:
55,146,157445,1,2,1:2:0:0:
114,138,157845,1,2,2:2:0:0:
114,138,158445,1,2,2:2:0:0:
189,60,158645,5,2,1:1:0:0:
247,46,159045,1,2,2:2:0:0:
295,81,159445,1,2,2:2:0:0:
247,46,159845,1,2,2:2:0:0:
216,152,160245,5,2,1:1:0:0:
254,197,160645,1,2,1:2:0:0:
233,253,161045,1,2,2:2:0:0:
233,253,161645,5,2,2:2:0:0:
321,178,161845,1,2,1:1:0:0:
374,205,162245,1,2,2:2:0:0:
433,197,162645,1,2,2:2:0:0:
474,153,163045,1,2,2:2:0:0:
433,197,163445,5,2,1:1:0:0:
374,205,163845,1,2,1:2:0:0:
321,178,164245,1,2,2:2:0:0:
321,178,164845,1,2,2:2:0:0:
233,87,165045,5,2,1:1:0:0:
192,43,165445,1,2,2:2:0:0:
132,32,165845,1,2,2:2:0:0:
78,58,166245,1,2,2:2:0:0:
32,188,166645,5,2,1:1:0:0:
60,240,167045,1,2,1:2:0:0:
50,298,167445,1,2,2:2:0:0:
50,298,168045,1,2,2:2:0:0:
60,240,168245,5,2,1:1:0:0:
32,188,168645,1,2,2:2:0:0:
67,141,168845,1,0,0:0:0:0:
67,141,168945,1,0,0:0:0:0:
67,141,169045,2,0,P|93:162|131:162,1,56.2500021457672,2|0,2:2|0:0,0:0:0:0:
147,157,169445,2,0,P|170:131|170:82,1,82.5000025177002,2|0,2:2|0:0,0:0:0:0:
126,49,169845,6,0,P|86:55|57:115,1,112.500004291534,6|0,1:2|0:0,0:0:0:0:
14,157,170245,1,2,2:2:0:0:
85,215,170445,1,2,2:2:0:0:
180,104,170645,6,0,B|269:83|229:158|340:125,2,150.000005722046,8|2|2,2:2|2:2|1:2,0:0:0:0:
104,152,171645,1,0,0:0:0:0:
60,72,171845,2,0,P|76:23|97:-6,1,75.000002861023,2|0,2:2|0:0,0:0:0:0:
284,164,172245,6,0,P|268:213|228:276,1,112.500004291534,8|0,2:2|0:0,0:0:0:0:
181,288,172645,2,0,P|137:272|53:260,1,112.500004291534,2|0,2:2|0:0,0:0:0:0:
19,290,173045,2,0,P|12:325|45:347,1,75.000002861023,6|0,1:2|0:0,0:0:0:0:
220,191,173445,5,2,2:2:0:0:
295,225,173645,1,2,2:2:0:0:
341,156,173845,2,0,P|393:173|422:188,1,75.000002861023,8|0,2:2|0:0,0:0:0:0:
512,329,174245,5,2,2:2:0:0:
437,363,174445,1,2,2:2:0:0:
391,294,174645,1,2,1:2:0:0:
391,294,174845,1,0,0:0:0:0:
466,260,175045,2,0,P|454:213|430:160,1,75.000002861023,2|0,2:2|0:0,0:0:0:0:
273,123,175445,6,0,B|267:77|314:54|304:10,1,112.500004291534,8|0,2:2|0:0,0:0:0:0:
250,0,175845,1,2,2:2:0:0:
179,114,176045,1,0,0:0:0:0:
293,185,176245,6,0,P|360:184|384:148,1,112.500004291534,6|0,1:2|0:0,0:0:0:0:
441,165,176645,1,2,2:2:0:0:
404,91,176845,1,2,2:2:0:0:
459,30,177045,2,0,P|478:69|487:106,1,75.000002861023,8|0,2:2|0:0,0:0:0:0:
353,212,177445,1,2,2:2:0:0:
316,286,177645,1,2,2:2:0:0:
362,354,177845,5,2,1:2:0:0:
260,382,178045,1,0,0:0:0:0:
180,313,178245,2,0,P|187:270|197:239,1,75.000002861023,2|0,2:2|0:0,0:0:0:0:
331,141,178645,2,0,P|324:98|297:25,1,112.500004291534,8|0,2:2|0:0,0:0:0:0:
247,5,179045,2,0,P|208:11|222:46,1,75.000002861023,2|0,2:2|0:0,0:0:0:0:
136,138,179445,6,0,B|50:127|78:193|-6:183,2,150.000005722046,6|2|8,1:2|2:2|2:2,0:0:0:0:
136,138,180645,1,2,2:2:0:0:
173,202,180845,1,2,2:2:0:0:
146,275,181045,1,6,1:2:0:0:
146,275,181145,1,0,0:0:0:0:
146,275,181245,1,0,0:0:0:0:
256,224,181445,5,2,2:2:0:0:
256,224,181545,1,0,0:0:0:0:
256,224,181645,1,0,0:0:0:0:
256,224,181745,1,0,0:0:0:0:
256,224,181845,2,0,P|305:242|297:296,1,112.500004291534,12|0,2:2|0:0,0:0:0:0:
253,336,182245,6,0,P|206:324|156:322,1,75.000002861023,8|0,2:2|0:0,0:0:0:0:
313,167,182645,2,0,P|364:154|428:145,1,112.500004291534,6|0,1:2|0:0,0:0:0:0:
482,157,183045,5,2,2:2:0:0:
420,242,183245,1,2,2:2:0:0:
508,293,183445,2,0,P|491:243|475:209,1,75.000002861023,8|0,2:2|0:0,0:0:0:0:
335,346,183845,5,2,2:2:0:0:
256,320,184045,1,2,2:2:0:0:
196,368,184245,2,0,P|181:333|169:297,1,75.000002861023,2|0,1:2|0:0,0:0:0:0:
208,137,184645,6,0,P|257:158|230:200,1,112.500004291534,2|0,2:2|0:0,0:0:0:0:
190,239,185045,2,0,P|146:229|96:225,1,75.000002861023,8|0,2:2|0:0,0:0:0:0:
320,345,185445,6,0,P|364:335|452:325,1,112.500004291534,2|0,2:2|0:0,0:0:0:0:
487,344,185845,2,0,P|479:375|465:384,2,50.0000019073487,6|0|0,1:2|0:0|0:0,0:0:0:0:
378,225,186245,5,2,2:2:0:0:
321,284,186445,1,2,2:2:0:0:
243,254,186645,2,0,P|228:215|222:144,1,112.500004291534,8|0,2:2|0:0,0:0:0:0:
164,163,187045,1,2,2:2:0:0:
98,113,187245,1,2,2:2:0:0:
124,36,187445,5,2,1:2:0:0:
124,36,187645,1,0,0:0:0:0:
36,106,187845,1,2,2:2:0:0:
36,106,188045,1,0,0:0:0:0:
94,191,188245,2,0,P|140:170|175:160,1,75.000002861023,8|0,2:2|0:0,0:0:0:0:
332,233,188645,5,2,2:2:0:0:
399,292,188845,1,0,0:0:0:0:
478,250,189045,2,0,B|420:186|509:179|449:104,1,150.000005722046,6|2,1:2|2:2,0:0:0:0:
500,16,189645,5,2,2:2:0:0:
423,45,189845,2,0,P|363:35|286:31,1,112.500004291534,8|0,2:2|0:0,0:0:0:0:
262,67,190245,1,2,2:2:0:0:
262,67,190445,1,2,2:2:0:0:
227,141,190645,5,2,1:2:0:0:
269,236,190845,1,0,0:0:0:0:
184,295,191045,2,0,P|172:247|166:209,1,75.000002861023,2|0,2:2|0:0,0:0:0:0:
300,169,191445,2,0,P|311:121|318:83,1,75.000002861023,8|0,2:2|0:0,0:0:0:0:
113,96,191845,2,0,P|101:48|95:10,1,75.000002861023,2|0,2:2|0:0,0:0:0:0:
0,197,192245,6,0,P|38:159|103:178,1,112.500004291534,6|0,1:2|0:0,0:0:0:0:
148,145,192645,1,2,2:2:0:0:
187,217,192845,1,2,2:2:0:0:
135,281,193045,1,8,2:2:0:0:
135,281,193445,1,2,2:2:0:0:
215,298,193645,1,2,2:2:0:0:
267,234,193845,5,6,1:2:0:0:
267,234,194045,1,0,0:0:0:0:
341,308,194245,1,2,2:2:0:0:
341,308,194445,1,0,0:0:0:0:
428,256,194645,2,0,P|468:293|462:347,1,112.500004291534,12|0,2:2|0:0,0:0:0:0:
408,376,195045,2,0,P|356:359|341:308,1,112.500004291534,8|0,2:2|0:0,0:0:0:0:
367,249,195445,6,0,P|360:207|348:172,1,75.000002861023,6|0,1:2|0:0,0:0:0:0:
256,60,195845,1,2,2:2:0:0:
181,110,196045,1,2,2:2:0:0:
136,31,196245,2,0,P|92:17|50:76,1,112.500004291534,8|0,2:2|0:0,0:0:0:0:
3,98,196645,6,0,P|8:145|27:208,1,112.500004291534,2|0,2:2|0:0,0:0:0:0:
84,222,197045,1,2,1:2:0:0:
42,293,197245,1,0,0:0:0:0:
84,222,197445,6,0,P|145:240|159:247,1,75.000002861023,2|0,2:2|0:0,0:0:0:0:
294,135,197845,2,0,P|231:145|179:159,1,112.500004291534,8|0,2:2|0:0,0:0:0:0:
126,139,198245,2,0,P|100:113|109:76,1,75.000002861023,2|0,2:2|0:0,0:0:0:0:
26,235,198645,6,0,P|5:250|6:290,2,37.5000014305115,6|0|0,1:2|0:0|0:0,0:0:0:0:
84,222,199045,1,2,2:2:0:0:
145,276,199245,1,2,2:2:0:0:
138,358,199445,2,0,P|204:339|256:333,1,112.500004291534,8|0,2:2|0:0,0:0:0:0:
305,349,199845,1,2,2:2:0:0:
263,277,200045,1,2,2:2:0:0:
301,179,200245,5,2,1:2:0:0:
242,120,200445,1,0,0:0:0:0:
170,161,200645,2,0,P|124:157|112:97,1,112.500004291534,2|0,2:2|0:0,0:0:0:0:
126,43,201045,2,0,B|35:32|83:113|-10:92,2,150.000005722046,8|2|6,2:2|2:2|1:2,0:0:0:0:
343,288,202245,5,2,2:2:0:0:
423,268,202445,1,2,2:2:0:0:
457,193,202645,1,8,2:2:0:0:
235,137,203045,5,2,2:2:0:0:
155,117,203245,1,2,2:2:0:0:
155,117,203345,1,0,0:0:0:0:
155,117,203445,1,2,1:2:0:0:
121,42,203645,1,0,0:0:0:0:
121,42,203845,2,0,P|76:10|24:27,1,112.500004291534,2|0,2:2|0:0,0:0:0:0:
7,86,204245,2,0,P|34:133|87:137,1,112.500004291534,8|0,2:2|0:0,0:0:0:0:
123,185,204645,2,0,P|162:178|199:166,1,75.000002861023,2|0,2:2|0:0,0:0:0:0:
326,60,205045,6,0,P|378:67|383:119,1,112.500004291534,6|0,1:2|0:0,0:0:0:0:
425,162,205445,1,2,2:2:0:0:
345,230,205645,1,2,2:2:0:0:
249,187,205845,6,0,P|222:181|180:179,2,50.0000019073487,8|0|0,2:2|0:0|0:0,0:0:0:0:
272,264,206245,1,2,2:2:0:0:
272,264,206445,1,2,2:2:0:0:
251,343,206645,6,0,P|303:333|375:326,1,112.500004291534,6|0,1:2|0:0,0:0:0:0:
410,363,207045,2,0,P|456:344|446:302,1,75.000002861023,2|0,2:2|0:0,0:0:0:0:
409,242,207445,6,0,P|369:232|329:228,1,75.000002861023,12|0,2:2|0:0,0:0:0:0:
193,102,207845,6,0,P|233:92|306:82,1,112.500004291534,8|0,2:2|0:0,0:0:0:0:
347,36,208245,5,6,1:2:0:0:
347,36,208645,2,0,L|341:10,2,25,2|2|2,1:2|2:2|0:1,0:0:0:0:
487,135,209445,2,0,L|456:132,1,25,2|2,2:2|2:2,0:0:0:0:
410,101,209845,5,2,0:1:0:0:
315,190,210245,1,2,2:2:0:0:
335,211,210445,1,0,0:0:0:0:
332,240,210645,1,2,0:1:0:0:
332,240,211045,2,0,L|301:243,1,25,2|0,2:2|0:0,0:0:0:0:
255,274,211445,6,0,L|246:223,2,50,2|2|2,1:1|1:2|0:1,0:0:0:0:
170,142,212645,2,0,L|139:139,1,25,2|2,2:2|2:2,0:0:0:0:
93,170,213045,1,2,0:1:0:0:
11,81,213445,1,2,2:2:0:0:
100,1,213845,1,2,0:1:0:0:
11,81,214245,2,0,L|6:47,1,25,2|0,2:2|0:0,0:0:0:0:
39,5,214645,5,2,1:1:0:0:
39,5,215045,2,0,L|74:8,2,25,2|2|2,1:2|2:2|0:1,0:0:0:0:
139,137,215845,6,0,L|143:113,1,25,2|2,2:2|2:2,0:0:0:0:
191,76,216245,1,2,0:1:0:0:
94,5,216645,1,2,2:2:0:0:
6,134,217045,1,2,0:1:0:0:
103,205,217445,1,2,2:2:0:0:
78,280,217845,6,0,L|25:289,1,50,2|2,1:1|1:2,0:0:0:0:
0,340,218445,2,0,L|26:346,1,25,2|2,2:2|0:1,0:0:0:0:
207,246,219045,6,0,L|201:220,1,25,2|2,2:2|2:2,0:0:0:0:
155,182,219445,5,2,0:1:0:0:
260,124,219845,5,2,2:2:0:0:
193,51,220245,5,2,0:1:0:0:
242,0,220645,5,2,0:1:0:0:
