osu file format v14

[General]
AudioFilename: audio.mp3
AudioLeadIn: 0
PreviewTime: 50442
Countdown: 0
SampleSet: Normal
StackLeniency: 0.7
Mode: 0
LetterboxInBreaks: 0
SkinPreference:Clear+Skin+Ultra+3.0+Red (1)
WidescreenStoryboard: 0

[Editor]
DistanceSpacing: 1
BeatDivisor: 4
GridSize: 8
TimelineZoom: 2.2

[Metadata]
Title:deltaMASH
TitleUnicode:∆MASH
Artist:MatrixMarioX
ArtistUnicode:MatrixMarioX
Creator:TrungPhineas
Version:Hot Garbage Challenge
Source:DDR Forever
Tags:stepmania ignorethis Doomsday siivagunner high quality rips jams slams gangnam style psy op monogatari renai circulation sans undertale megalovania
BeatmapID:1991223
BeatmapSetID:953671

[Difficulty]
HPDrainRate:6
CircleSize:4
OverallDifficulty:9
ApproachRate:9.6
SliderMultiplier:2.5
SliderTickRate:1

[Events]
//Background and Video events
0,0,"deltaMAX-bg.png",0,0
//Break Periods
//Storyboard Layer 0 (Background)
//Storyboard Layer 1 (Fail)
//Storyboard Layer 2 (Pass)
//Storyboard Layer 3 (Foreground)
//Storyboard Sound Samples

[TimingPoints]
570,600,4,1,0,80,1,0
10170,594.088816278034,4,1,0,40,1,0
10764,588.264130594637,4,1,0,40,1,0
11352,582.552551094713,4,1,0,40,1,0
11935,576.950814943026,4,1,0,40,1,0
12512,571.455783608743,4,1,0,40,1,0
13083,566.064437001745,4,1,0,40,1,0
13649,560.773867937754,4,1,0,40,1,0
14210,555.581276910968,4,1,0,40,1,0
14766,550.483967154457,4,1,0,40,1,0
15316,545.479339969999,4,1,0,40,1,0
15861,540.564890310374,4,1,0,40,1,0
16402,535.73820259833,4,1,0,40,1,0
16938,530.996946767556,4,1,0,40,1,0
17469,526.33887451204,4,1,0,40,1,0
17995,521.761815731119,4,1,0,40,1,0
18517,517.263675158412,4,1,0,40,1,0
19034,512.84242916364,4,1,0,40,1,0
19547,508.496122717064,4,1,0,40,1,0
20055,504.222866506996,4,1,0,40,1,0
20559,500.020834201425,4,1,0,40,1,0
21059,495.888259845448,4,1,0,40,1,0
21555,491.823435386696,4,1,0,40,1,0
22047,487.824708321476,4,1,0,40,1,0
22535,483.890479454817,4,1,0,40,1,0
23019,480.019200768031,4,1,0,40,1,0
23499,476.209373387833,4,1,0,40,1,0
23975,472.459545651404,4,1,0,40,1,0
24447,468.768311262159,4,1,0,40,1,0
24916,465.1343075313,4,1,0,40,1,0
25381,461.556213700527,4,1,0,40,1,0
25843,458.032749341578,4,1,0,40,1,0
26301,454.562672828516,4,1,0,40,1,0
26756,451.144779878943,4,1,0,45,1,0
27207,447.777902160528,4,1,0,45,1,0
27655,444.46090595948,4,1,0,45,1,0
28099,441.192690907754,4,1,0,45,1,0
28540,437.972188766013,4,1,0,45,1,0
28978,434.798362259502,4,1,0,45,1,0
29413,431.670203964171,4,1,0,45,1,0
29845,428.586735240544,4,1,0,45,1,0
30274,425.547005212951,4,1,0,45,1,0
30700,422.550089791894,4,1,0,45,1,0
31123,419.595090737438,4,1,0,45,1,0
31543,416.681134761624,4,1,0,45,1,0
31960,413.807372668023,4,1,0,45,1,0
32374,410.972978526662,4,1,0,45,1,0
32785,408.177148882615,4,1,0,45,1,0
33193,405.419101996689,4,1,0,45,1,0
33598,402.698077116682,4,1,0,45,1,0
34001,400.013333777793,4,1,0,45,1,0
34401,397.364151130832,4,1,0,45,1,0
34798,394.749827296951,4,1,0,45,1,0
35193,392.169678747671,4,1,0,45,1,0
35585,389.623039709081,4,1,0,45,1,0
35975,387.109261589084,4,1,0,45,1,0
36362,384.62771242668,4,1,0,45,1,0
36747,382.177776362305,4,1,0,45,1,0
37129,379.758853128264,4,1,0,45,1,0
37509,377.370357558414,4,1,0,45,1,0
37886,375.011719116222,4,1,0,45,1,0
38261,372.682381440417,4,1,0,45,1,0
38634,370.381801907466,4,1,0,45,1,0
39004,368.10945121016,4,1,0,45,1,0
39372,365.864812951614,4,1,0,45,1,0
39738,363.647383254038,4,1,0,50,1,0
40102,361.456670381638,4,1,0,50,1,0
40463,359.292194377077,4,1,0,50,1,0
40822,357.153486710914,4,1,0,50,1,0
41179,355.040089943489,4,1,0,50,1,0
41534,352.951557398747,4,1,0,50,1,0
41887,350.887452849499,4,1,0,50,1,0
42238,348.847350213669,4,1,0,50,1,0
42587,346.830833261077,4,1,0,50,1,0
42934,344.837495330326,4,1,0,50,1,0
43279,342.866939055402,4,1,0,50,1,0
43622,340.918776101594,4,1,0,50,1,0
43963,338.992626910365,4,1,0,50,1,0
44302,337.088120452822,4,1,0,50,1,0
44639,335.204893991452,4,1,0,50,1,0
44974,333.342592849801,4,1,0,50,1,0
45307,331.500870189784,4,1,0,50,1,0
45639,329.679386796341,4,1,0,50,1,0
45969,327.877810869149,4,1,0,50,1,0
46297,326.095817821136,4,1,0,50,1,0
46623,324.333090083516,4,1,0,50,1,0
46947,322.589316917121,4,1,0,50,1,0
47270,320.864194229792,4,1,0,50,1,0
47591,319.157424399585,4,1,0,50,1,0
47910,317.468716103601,4,1,0,50,1,0
48227,315.797784152215,4,1,0,50,1,0
48543,314.144349328516,4,1,0,50,1,0
48857,312.508138232766,4,1,0,50,1,0
49170,310.888883131687,4,1,0,50,1,0
49481,309.286321812418,4,1,0,50,1,0
49790,307.70019744096,4,1,0,50,1,0
50098,306.13025842496,4,1,0,50,1,0
50404,304.576258280667,4,1,0,55,1,1
50709,303.037955503927,4,1,0,55,1,1
51012,301.515113445061,4,1,0,55,1,1
51314,300.007500187505,4,1,0,55,1,1
51614,298.51488843006,4,1,0,55,1,1
51913,297.037055372658,4,1,0,55,1,1
52210,295.573782605483,4,1,0,55,1,1
52506,294.124856001373,4,1,0,55,1,1
52800,292.690065611356,4,1,0,55,1,1
53093,291.269205563242,4,1,0,55,1,1
53384,289.862073963139,4,1,0,55,1,1
53674,288.468472799827,4,1,0,55,1,1
53962,287.088207851862,4,1,0,55,1,1
54249,285.721088597348,4,1,0,55,1,1
54535,284.366928126259,4,1,0,55,1,1
54819,283.025543055261,4,1,0,55,1,1
55102,281.696753444917,4,1,0,55,1,1
55384,280.380382719222,4,1,0,55,1,1
55664,279.076257587386,4,1,0,55,1,1
55943,277.784207967777,4,1,0,55,1,1
56221,276.504066913984,4,1,0,55,1,1
56498,275.235670542902,4,1,0,55,1,1
56773,273.978857964794,4,1,0,55,1,1
57047,272.733471215255,4,1,0,55,1,1
57320,271.499355189031,4,1,0,55,1,1
57591,270.276357575621,4,1,0,55,1,1
57861,269.06432879661,4,1,0,55,1,1
58130,267.863121944686,4,1,0,55,1,1
58398,266.672592724283,4,1,0,55,1,1
58665,265.492599393792,4,1,0,55,1,1
58930,264.323002709311,4,1,0,55,1,1
59194,263.163665869866,4,1,0,55,1,1
59457,262.014454464071,4,1,0,60,1,1
59719,260.875236418183,4,1,0,60,1,0
59980,259.745881945497,4,1,0,60,1,0
60240,258.626263497058,4,1,0,60,1,0
60499,257.516255713642,4,1,0,60,1,0
60757,256.415735378961,4,1,0,60,1,0
61013,255.324581374072,4,1,0,60,1,0
61268,254.242674632937,4,1,0,60,1,0
61522,253.169898099116,4,1,0,60,1,0
61775,252.106136683544,4,1,0,60,1,0
62027,251.051277223373,4,1,0,60,1,0
62278,250.005208441843,4,1,0,60,1,0
62528,248.967820909147,4,1,0,60,1,0
62777,247.939007004277,4,1,0,60,1,0
63024,246.918660877796,4,1,0,60,1,0
63272,245.906678415541,4,1,0,60,1,0
63518,244.902957203208,4,1,0,60,1,0
63763,243.907396491799,4,1,0,60,1,0
64007,242.91989716391,4,1,0,60,1,0
64250,241.940361700841,4,1,0,60,1,0
64492,240.968694150485,4,1,0,60,1,0
64733,240.004800096002,4,1,0,60,1,0
64973,239.048586625232,4,1,0,60,1,0
65212,238.099962300839,4,1,0,60,1,0
65450,237.158837131169,4,1,0,60,1,0
65687,236.225122541782,4,1,0,60,1,0
65923,235.298731347673,4,1,0,60,1,0
66158,234.379577726127,4,1,0,60,1,0
66392,233.467577190218,4,1,0,60,1,0
66625,232.562646562918,4,1,0,60,1,0
66857,231.664703951814,4,1,0,60,1,0
67090,230.773668724399,4,1,0,60,1,0
67321,229.889461483936,4,1,0,60,1,0
67551,229.012004045879,4,1,0,60,1,0
67780,228.141219414818,4,1,0,60,1,0
68008,227.277031761965,4,1,0,60,1,0
68235,226.41936640314,4,1,0,60,1,0
68461,225.568149777251,4,1,0,60,1,0
68687,224.72330942527,4,1,0,60,1,0
68912,223.884773969664,4,1,0,60,1,0
69136,223.052473094295,4,1,0,60,1,0
69359,222.226337524769,4,1,0,60,1,0
69581,221.406299009207,4,1,0,60,1,0
69802,220.592290299454,4,1,0,60,1,0
70023,219.784245132695,4,1,0,60,1,0
70243,218.982098213471,4,1,0,60,1,0
70462,218.185785196094,4,1,0,60,1,0
70680,217.39524266744,4,1,0,60,1,0
70897,216.610408130111,4,1,0,60,1,0
71114,215.831219985971,4,1,0,60,1,0
71330,215.057617520027,4,1,0,60,1,0
71545,214.289540884659,4,1,0,60,1,0
71759,213.526931084183,4,1,0,60,1,0
71973,212.769729959751,4,1,0,60,1,0
72186,212.017880174561,4,1,0,60,1,0
72398,211.271325199387,4,1,0,60,1,0
72609,210.530009298409,4,1,0,60,1,0
72820,209.793877515341,4,1,0,60,1,0
73030,209.062875659855,4,1,0,60,1,0
73239,208.336950294276,4,1,0,60,1,0
73447,207.616048720566,4,1,0,60,1,0
73655,206.900118967568,4,1,0,60,1,0
73862,206.189109778519,4,1,0,60,1,0
74068,205.482970598812,4,1,0,60,1,0
74273,204.78165156402,4,1,0,65,1,0
74478,204.085103488155,4,1,1,65,1,0
74682,203.393277852167,4,1,1,65,1,0
74885,202.706126792682,4,1,1,65,1,0
75088,202.023603090961,4,1,1,65,1,0
75290,201.345660162083,4,1,1,65,1,0
75491,200.672252044349,4,1,1,65,1,0
75692,200.00333338889,4,1,1,65,1,0
75892,199.338859449493,4,1,1,65,1,0
76091,198.678786072617,4,1,1,65,1,0
76290,198.023069687619,4,1,1,65,1,0
76488,197.371667297159,4,1,1,65,1,0
76685,196.724536467811,4,1,1,65,1,0
76882,196.081635320839,4,1,1,65,1,0
77078,195.442922523168,4,1,1,65,1,0
77273,194.808357278527,4,1,1,65,1,0
77468,194.177899318759,4,1,1,65,1,0
77662,193.551508895305,4,1,1,65,1,0
77856,192.929146770848,4,1,1,65,1,0
78049,192.310774211125,4,1,1,65,1,0
78241,191.696352976885,4,1,1,65,1,0
78433,191.085845316008,4,1,1,65,1,0
78624,190.479213955777,4,1,1,65,1,0
78814,189.876422095286,4,1,1,65,1,0
79004,189.277433398003,4,1,1,65,1,0
79193,188.682211984465,4,1,1,65,1,0
79382,188.090722425116,4,1,1,65,1,0
79570,187.502929733277,4,1,1,65,1,0
79758,186.918799358245,4,1,1,65,1,0
79945,186.338297178528,4,1,1,65,1,0
80131,185.761389495193,4,1,1,65,1,0
80317,185.188043025355,4,1,1,65,1,0
80502,184.618224895768,4,1,1,65,1,0
80686,184.051902636544,4,1,1,65,1,0
80871,183.489044174987,4,1,1,65,1,0
81053,182.92961782954,4,1,1,65,1,0
81237,182.373592303834,4,1,1,65,1,0
81419,181.820936680859,4,1,1,65,1,0
81601,181.271620417227,4,1,1,65,1,0
81782,180.72561333755,4,1,1,65,1,0
81963,180.182885628913,4,1,1,65,1,0
82143,179.643407835447,4,1,1,65,1,0
82323,179.107150852998,4,1,1,65,1,0
82502,178.574085923898,4,1,1,65,1,0
82681,178.044184631819,4,1,1,65,1,0
82859,177.517418896729,4,1,1,65,1,0
83037,176.993760969926,4,1,1,65,1,0
83214,176.473183429168,4,1,1,65,1,0
83390,175.955659173888,4,1,1,65,1,0
83566,175.441161420489,4,1,1,65,1,0
83741,174.929663697722,4,1,1,65,1,0
83916,174.421139842149,4,1,1,65,1,0
84090,173.915563993681,4,1,1,65,1,0
84264,173.412910591194,4,1,1,65,1,0
84437,172.913154368219,4,1,1,65,1,0
84610,172.416270348712,4,1,1,65,1,0
84782,171.922233842892,4,1,1,65,1,0
84954,171.431020443149,4,1,1,65,1,0
85125,170.942606020029,4,1,1,65,1,0
85296,170.456966718277,4,1,1,65,1,0
85466,169.97407895296,4,1,1,65,1,0
85636,169.493919405641,4,1,1,65,1,0
85805,169.016465020634,4,1,1,65,1,0
85974,168.541693001306,4,1,1,65,1,0
86143,168.069580806454,4,1,1,70,1,0
86311,167.600106146734,4,1,1,70,1,0
86479,167.133246981156,4,1,1,70,1,0
86646,166.668981513632,4,1,1,70,1,0
86813,166.207288189587,4,1,1,70,1,0
86979,165.74814569262,4,1,1,70,1,0
87145,165.291532941225,4,1,1,70,1,0
87310,164.837429085564,4,1,1,70,1,0
87475,164.385813504295,4,1,1,70,1,0
87639,163.936665801445,4,1,1,70,1,0
87803,163.489965803349,4,1,1,70,1,0
87966,163.045693555619,4,1,1,70,1,0
88129,162.60382932018,4,1,1,70,1,0
88292,162.164353572346,4,1,1,70,1,0
88454,161.727246997938,4,1,1,70,1,0
88616,161.292490490464,4,1,1,70,1,0
88777,160.860065148326,4,1,1,70,1,0
88938,160.429952272089,4,1,1,70,1,0
89098,160.002133361778,4,1,1,70,1,0
89258,159.57659011423,4,1,1,70,1,0
89418,159.153304420483,4,1,1,70,1,0
89577,158.732258363206,4,1,1,70,1,0
89736,158.313434214172,4,1,1,70,1,0
89894,157.896814431769,4,1,1,70,1,0
90052,157.482381658552,4,1,1,70,1,0
90209,157.070118718831,4,1,1,70,1,0
90366,156.6600086163,4,1,1,70,1,0
90523,156.2520345317,4,1,1,70,1,0
90679,155.846179820517,4,1,1,70,1,0
90835,155.442428010726,4,1,1,70,1,0
90990,155.040762800553,4,1,1,70,1,0
91145,154.641168056289,4,1,1,70,1,0
91300,154.243627810126,4,1,1,70,1,0
91454,153.848126258029,4,1,1,70,1,0
91608,153.454647757644,4,1,1,70,1,0
91761,153.063176826235,4,1,1,70,1,0
91914,152.673698138653,4,1,1,70,1,0
92067,152.286196525337,4,1,1,70,1,0
92219,151.900656970341,4,1,1,70,1,0
92371,151.517064609402,4,1,1,70,1,0
92523,151.135404728019,4,1,1,70,1,0
92674,150.755662759582,4,1,1,70,1,0
92825,150.377824283512,4,1,1,70,1,0
92975,150.001875023438,4,1,1,70,1,0
93125,149.627800845397,4,1,1,70,1,0
93275,149.255587756067,4,1,1,70,1,0
93424,148.885221901016,4,1,1,70,1,0
93573,148.51668956299,4,1,1,70,1,0
93722,148.149977160212,4,1,1,70,1,0
93870,147.78507124472,4,1,1,70,1,0
94018,147.421958500719,4,1,1,70,1,0
94165,147.060625742963,4,1,1,70,1,0
94312,146.701059915158,4,1,1,70,1,0
94459,146.343248088391,4,1,1,70,1,0
94605,145.98717745958,4,1,1,70,1,0
94751,145.632835349944,4,1,1,70,1,0
94897,145.280209203501,4,1,1,70,1,0
95042,144.929286585587,4,1,1,70,1,0
95187,144.580055181388,4,1,1,70,1,0
95332,144.232502794505,4,1,1,70,1,0
95476,143.886617345532,4,1,1,70,1,0
95620,143.542386870656,4,1,1,70,1,0
95764,143.199799520281,4,1,1,70,1,0
95907,142.858843557661,4,1,1,70,1,0
96050,142.51950735757,4,1,1,75,1,0
96193,142.181779404969,4,1,1,75,1,0
96335,141.845648293715,4,1,1,75,1,0
96477,141.511102725268,4,1,1,75,1,0
96619,141.178131507429,4,1,1,75,1,0
96760,140.846723553093,4,1,1,75,1,0
96901,140.516867879015,4,1,1,75,1,0
97042,140.188553604598,4,1,1,75,1,0
97182,139.861769950699,4,1,1,75,1,0
97322,139.536506238445,4,1,1,75,1,0
97462,139.212751888073,4,1,1,75,1,0
97601,138.890496417783,4,1,1,75,1,0
97740,138.569729442603,4,1,1,75,1,0
97879,138.25044067328,4,1,1,75,1,0
98017,137.932619915171,4,1,1,75,1,0
98155,137.616257067168,4,1,1,75,1,0
98293,137.301342120619,4,1,1,75,1,0
98430,136.987865158278,4,1,1,75,1,0
98567,136.675816353261,4,1,1,75,1,0
98704,136.365185968022,4,1,1,75,1,0
98840,136.055964353337,4,1,1,75,1,0
98976,135.748141947307,4,1,1,75,1,0
99112,135.441709274371,4,1,1,75,1,0
99247,135.136656944335,4,1,1,75,1,0
99382,134.832975651412,4,1,1,75,1,0
99517,134.530656173275,4,1,1,75,1,0
99652,134.229689370127,4,1,1,75,1,0
99786,133.930066183774,4,1,1,75,1,0
99920,133.631777636722,4,1,1,75,1,0
100054,133.334814831276,4,1,1,75,1,0
100187,133.039168948658,4,1,1,75,1,0
100320,132.744831248133,4,1,1,75,1,0
100453,132.451793066149,4,1,1,75,1,0
100585,132.160045815483,4,1,1,75,1,0
100717,131.869580984406,4,1,1,75,1,0
100849,131.580390135857,4,1,1,75,1,0
100981,131.292464906618,4,1,1,75,1,0
101112,131.005797006518,4,1,1,75,1,0
101243,130.720378217628,4,1,1,75,1,0
101374,130.436200393483,4,1,1,75,1,0
101504,130.153255458302,4,1,1,75,1,0
101634,129.871535406227,4,1,1,75,1,0
101764,129.591032300565,4,1,1,75,1,0
101894,129.311738273042,4,1,1,75,1,0
102023,129.03364552307,4,1,1,75,1,0
102152,128.756746317021,4,1,1,75,1,0
102281,128.481032987505,4,1,1,75,1,0
102409,128.20649793267,4,1,1,75,1,0
102537,127.933133615497,4,1,1,75,1,0
102665,127.660932563112,4,1,1,75,1,0
102793,127.389887366108,4,1,1,75,1,0
102920,127.119990677867,4,1,1,75,1,0
103047,126.851235213903,4,1,1,75,1,0
103174,126.5836137512,4,1,1,75,1,0
103301,126.31711912757,4,1,1,75,1,0
103427,126.051744241011,4,1,1,75,1,0
103553,125.787482049078,4,1,1,75,1,0
103679,125.524325568259,4,1,1,75,1,0
103805,125.26226787336,4,1,1,75,1,0
103930,125.001302096897,4,1,1,75,1,0
104055,124.741421428497,4,1,1,75,1,0
104180,124.482619114306,4,1,1,75,1,0
104304,124.224888456402,4,1,1,75,1,0
104428,123.968222812219,4,1,1,75,1,0
104552,123.712615593975,4,1,1,80,1,0
104676,123.45806026811,4,1,1,80,1,0
104799,123.204550354726,4,1,1,80,1,0
104922,122.952079427043,4,1,1,80,1,0
105045,122.70064111085,4,1,1,80,1,0
105168,122.45022908397,4,1,1,80,1,0
105290,122.200837075734,4,1,1,80,1,0
105412,121.952458866452,4,1,1,80,1,0
105534,121.705088286899,4,1,1,80,1,0
105656,121.458719217806,4,1,1,80,1,0
105777,121.213345589349,4,1,1,80,1,0
105898,120.968961380659,4,1,1,80,1,0
106019,120.725560619322,4,1,1,80,1,0
106140,120.483137380897,4,1,1,80,1,0
106260,120.241685788435,4,1,1,80,1,0
106380,120.001200012,4,1,1,80,1,0
106500,119.761674268206,4,1,1,80,1,0
106620,119.523102819749,4,1,1,80,1,0
106740,119.28547997495,4,1,1,80,1,0
106859,119.048800087302,4,1,1,80,1,0
106978,118.813057555025,4,1,1,80,1,0
107097,118.578246820621,4,1,1,80,1,0
107216,118.344362370438,4,1,1,80,1,0
107334,118.11139873424,4,1,1,80,1,0
107452,117.879350484779,4,1,1,80,1,0
107570,117.648212237375,4,1,1,80,1,0
107688,117.417978649498,4,1,1,80,1,0
107805,117.188644420356,4,1,1,80,1,0
107922,116.96020429049,4,1,1,80,1,0
108039,116.732653041372,4,1,1,80,1,0
108156,116.505985495005,4,1,1,80,1,0
108273,116.280196513532,4,1,1,80,1,0
108389,116.055280998849,4,1,1,80,1,0
108505,115.831233892219,4,1,1,80,1,0
108621,115.608050173894,4,1,1,80,1,0
108737,115.385724862739,4,1,1,80,1,0
108852,115.164253015864,4,1,1,80,1,0
108967,114.943629728254,4,1,1,80,1,0
109082,114.72385013241,4,1,1,80,1,0
109197,114.50490939799,4,1,1,80,1,0
109312,114.286802731455,4,1,1,80,1,0
109426,114.069525375716,4,1,1,80,1,0
109540,113.853072609797,4,1,1,80,1,0
109654,113.637439748482,4,1,1,80,1,0
109768,113.422622141986,4,1,1,80,1,0
109881,113.208615175615,4,1,1,80,1,0
109994,112.995414269438,4,1,1,80,1,0
110107,112.783014877959,4,1,1,80,1,0
110220,112.571412489798,4,1,1,80,1,0
110333,112.360602627365,4,1,1,80,1,0
110445,112.15058084655,4,1,1,80,1,0
110557,111.941342736406,4,1,1,80,1,0
110669,111.732883918845,4,1,1,80,1,0
110781,111.525200048328,4,1,1,80,1,0
110893,111.318286811566,4,1,1,80,1,0
111004,111.112139927222,4,1,1,80,1,0
111115,110.906755145611,4,1,1,80,1,0
111226,110.702128248416,4,1,1,80,1,0
111337,110.498255048389,4,1,1,80,1,0
111447,110.295131389075,4,1,1,80,1,0
111557,110.092753144524,4,1,1,80,1,0
111667,109.891116219013,4,1,1,80,1,0
111777,109.690216546769,4,1,1,80,1,0
111887,109.490050091698,4,1,1,80,1,0
111996,109.290612847112,4,1,1,90,1,0
112105,109.091900835462,4,1,1,90,1,0
112214,108.893910108077,4,1,1,90,1,0
112323,108.696636744898,4,1,1,90,1,0
112432,108.500076854221,4,1,1,90,1,0
112541,108.304226572442,4,1,1,90,1,0
112649,108.109082063802,4,1,1,90,1,0
112757,107.91463952014,4,1,1,90,1,0
112865,107.720895160639,4,1,1,90,1,0
112973,107.527845231588,4,1,1,90,1,0
113081,107.335486006136,4,1,1,90,1,0
113188,107.143813784052,4,1,1,90,1,0
113295,106.952824891487,4,1,1,90,1,0
113402,106.762515680744,4,1,1,90,1,0
113509,106.57288253004,4,1,1,90,1,0
113616,106.383921843279,4,1,1,90,1,0
113722,106.195630049823,4,1,0,90,1,0
113828,106.008003604272,4,1,0,90,1,0
113934,105.821038986234,4,1,0,90,1,0
114040,105.634732700112,4,1,0,90,1,0
114146,105.449081274879,4,1,0,90,1,0
114251,105.264081263871,4,1,0,90,1,0
114356,105.079729244564,4,1,0,90,1,0
114461,104.896021818373,4,1,0,90,1,0
114566,104.712041884817,4,1,0,100,1,1
114670,-100,4,1,1,100,0,0

[Colours]
Combo1 : 240,240,240
Combo2 : 255,0,0
Combo3 : 192,192,192

[HitObjects]
136,202,10170,6,0,P|150:239|224:296,1,125
125,122,10615,1,0,0:0:0:0:
125,122,10764,1,0,0:0:0:0:
225,174,11058,1,0,0:0:0:0:
224,86,11352,6,0,P|272:77|353:37,1,125
419,0,11935,1,0,0:0:0:0:
235,5,12223,1,0,0:0:0:0:
303,87,12512,6,0,P|333:120|415:175,1,125
493,213,12940,1,0,0:0:0:0:
493,213,13083,1,0,0:0:0:0:
415,84,13366,1,0,0:0:0:0:
323,113,13649,6,0,P|270:134|197:160,1,125
112,184,14069,1,0,0:0:0:0:
112,184,14210,1,0,0:0:0:0:
322,238,14487,1,0,0:0:0:0:
346,85,14766,6,0,P|319:131|256:182,1,125
183,220,15178,1,0,0:0:0:0:
183,220,15316,1,0,0:0:0:0:
397,191,15588,6,0,P|365:212|270:226,1,125
183,220,16131,1,0,0:0:0:0:
27,133,16402,5,0,0:0:0:0:
27,133,16535,1,0,0:0:0:0:
27,133,16669,2,0,B|-4:197|-4:197|24:257,1,125
91,321,17070,1,0,0:0:0:0:
91,321,17203,1,0,0:0:0:0:
188,384,17469,1,0,0:0:0:0:
265,153,17732,2,0,B|219:198|219:198|143:193,1,125
55,133,18255,5,0,0:0:0:0:
55,133,18386,1,0,0:0:0:0:
55,133,18516,2,0,B|100:84|100:84|166:74,1,125
261,75,19034,1,0,0:0:0:0:
386,106,19290,5,0,0:0:0:0:
386,106,19418,1,0,0:0:0:0:
306,163,19547,2,0,B|251:211|251:211|279:293,1,125
341,322,20055,5,0,0:0:0:0:
377,318,20181,1,0,0:0:0:0:
414,312,20307,1,0,0:0:0:0:
363,202,20559,6,0,B|322:169|322:169|217:235,1,125
186,240,21059,2,0,B|159:231|159:231|43:273,1,125
0,310,21430,5,0,0:0:0:0:
0,310,21555,1,0,0:0:0:0:
249,325,21800,6,0,B|318:322|318:322|359:258,1,125
387,199,22168,1,0,0:0:0:0:
387,199,22290,1,0,0:0:0:0:
246,138,22535,1,0,0:0:0:0:
384,83,22776,2,0,B|445:47|445:47|481:-19,1,125
117,135,23379,5,0,0:0:0:0:
117,135,23499,2,0,B|60:170|60:170|-5:175,1,125
278,262,23975,1,0,0:0:0:0:
282,93,24329,5,0,0:0:0:0:
282,93,24447,2,0,B|260:31|260:31|198:5,1,125
187,246,24916,1,0,0:0:0:0:
415,274,25264,5,0,0:0:0:0:
415,274,25381,2,0,B|479:245|479:245|524:176,1,125
282,112,25843,1,0,0:0:0:0:
135,268,26072,6,0,L|269:244,1,125
296,322,26414,1,0,0:0:0:0:
296,322,26528,2,0,P|339:235|314:184,1,125
200,80,27094,5,0,0:0:0:0:
200,80,27207,2,0,P|146:116|86:126,1,125
4,217,27655,2,0,P|69:253|140:263,1,125
373,136,28099,6,0,P|332:225|276:268,1,125
279,264,28429,1,0,0:0:0:0:
232,274,28540,1,0,0:0:0:0:
264,70,28868,5,0,0:0:0:0:
264,70,28978,2,0,L|172:166,1,125
70,258,29412,1,0,0:0:0:0:
341,304,29736,5,0,0:0:0:0:
341,304,29845,2,0,L|512:284,1,125
361,147,30274,1,0,0:0:0:0:
115,146,30593,5,0,0:0:0:0:
115,146,30700,2,0,L|66:1,1,125
318,89,31016,2,0,L|367:234,1,125
344,380,31542,5,0,0:0:0:0:
344,380,31647,1,0,0:0:0:0:
344,380,31751,2,0,P|418:365|478:333,1,125
170,200,32270,5,0,0:0:0:0:
170,200,32374,2,0,P|107:164|74:91,1,125
274,277,32785,1,0,0:0:0:0:
388,72,33091,5,0,0:0:0:0:
388,72,33193,2,0,P|352:137|285:162,1,125
108,204,33598,1,0,0:0:0:0:
261,333,33900,5,0,0:0:0:0:
261,333,34000,2,0,P|323:284|351:236,1,125
375,15,34401,6,0,P|320:76|273:94,1,125
243,105,34699,1,0,0:0:0:0:
202,115,34798,2,0,P|130:146|81:223,1,125
277,312,35193,5,0,0:0:0:0:
277,312,35291,2,0,B|358:313|358:313|411:267,1,125
406,262,35585,2,0,P|429:203|396:138,1,125
223,77,35974,6,0,B|185:87|185:87|173:124|173:124|126:149,1,125
16,176,36265,1,0,0:0:0:0:
16,176,36362,2,0,P|51:238|112:273,1,125
297,312,36747,1,0,0:0:0:0:
394,81,36938,5,0,0:0:0:0:
394,81,37033,1,0,0:0:0:0:
394,81,37129,2,0,P|324:86|261:131,1,125
146,205,37509,1,0,0:0:0:0:
375,279,37697,5,0,0:0:0:0:
381,284,37792,1,0,0:0:0:0:
381,284,37886,2,0,P|354:216|308:173,1,125
284,158,38167,1,0,0:0:0:0:
249,139,38261,1,0,0:0:0:0:
89,206,38447,5,0,0:0:0:0:
84,240,38540,1,0,0:0:0:0:
99,271,38634,2,0,P|134:331|189:366,1,125
415,179,38911,5,0,0:0:0:0:
400,152,39004,2,0,P|343:101|276:92,1,125
11,225,39280,5,0,0:0:0:0:
18,261,39372,1,0,0:0:0:0:
38,297,39463,1,0,0:0:0:0:
80,325,39554,1,0,0:0:0:0:
117,349,39646,1,0,0:0:0:0:
160,372,39738,1,0,0:0:0:0:
510,311,39919,6,0,P|498:237|448:186,1,125
340,151,40282,2,0,P|260:172|206:176,1,125
68,19,40642,5,0,0:0:0:0:
68,19,40732,1,0,0:0:0:0:
68,19,40822,2,0,P|119:71|208:98,1,125
340,151,41179,5,0,0:0:0:0:
388,30,41356,2,0,P|312:15|251:40,1,125
157,107,41710,1,0,0:0:0:0:
262,245,41887,1,0,0:0:0:0:
121,225,42062,6,0,L|60:255,2,62.5
255,167,42412,1,0,0:0:0:0:
374,112,42587,1,0,0:0:0:0:
378,250,42760,5,0,0:0:0:0:
378,250,42847,1,0,0:0:0:0:
378,250,42934,2,0,P|319:277|235:284,1,125
97,230,43279,2,0,P|159:188|232:172,1,125
425,167,43622,2,0,P|390:234|321:298,1,125
310,54,43963,2,0,P|367:6|440:4,1,125
369,268,44301,6,0,P|310:308|223:308,1,125
353,24,44639,1,0,0:0:0:0:
297,376,44806,1,0,0:0:0:0:
297,376,44890,1,0,0:0:0:0:
297,376,44974,2,0,P|214:372|139:336,1,125
15,244,45307,1,0,0:0:0:0:
181,206,45472,6,0,B|212:199|212:199|276:215|276:215|317:202,1,125
407,189,45803,2,0,B|434:165|434:165|403:148|403:148|406:68,1,125
348,13,46132,2,0,B|301:41|301:41|262:29|262:29|202:51,1,125
71,101,46460,2,0,B|114:124|114:124|99:154|99:154|152:177,1,125
264,215,46785,5,0,0:0:0:0:
264,215,46866,1,0,0:0:0:0:
264,215,46947,2,0,P|218:273|148:300,1,125
118,109,47269,1,0,0:0:0:0:
195,367,47430,1,0,0:0:0:0:
195,367,47510,1,0,0:0:0:0:
195,367,47591,2,0,P|129:379|34:358,1,125
7,259,47910,1,0,0:0:0:0:
216,197,48068,5,0,0:0:0:0:
216,197,48148,1,0,0:0:0:0:
216,197,48227,2,0,P|295:175|330:122,1,125
363,36,48542,1,0,0:0:0:0:
210,11,48700,2,0,P|194:80|231:147,1,125
340,228,49013,2,0,P|394:184|426:122,1,125
154,118,49325,2,0,P|107:194|123:276,1,125
474,220,49635,5,0,0:0:0:0:
474,220,49712,1,0,0:0:0:0:
474,220,49790,2,0,P|512:155|500:77,1,125
91,170,50020,5,0,0:0:0:0:
91,170,50098,1,0,0:0:0:0:
91,170,50174,2,0,P|128:240|185:266,1,125
190,268,50404,6,0,P|255:255|345:259,1,125
341,257,50632,1,0,0:0:0:0:
376,266,50709,2,0,P|430:305|440:369,1,125
196,324,51012,6,0,P|128:286|122:238,1,125
248,120,51313,2,0,P|267:194|232:231,1,125
63,314,51614,2,0,P|64:235|114:190,1,125
363,122,51912,2,0,P|303:166|239:155,1,125
14,331,52210,2,0,P|72:281|172:284,1,125
237,266,52506,2,0,P|303:282|384:271,1,125
490,250,52800,1,0,0:0:0:0:
388,156,52946,5,0,0:0:0:0:
388,156,53019,1,0,0:0:0:0:
388,156,53093,2,0,P|310:169|234:151,1,125
215,144,53311,1,0,0:0:0:0:
167,137,53384,2,0,P|101:167|67:243,1,125
152,320,53674,1,0,0:0:0:0:
166,140,53818,6,0,P|236:108|315:118,1,125
263,328,54105,2,0,P|188:328|126:268,1,125
266,61,54391,2,0,P|345:106|356:175,1,125
149,376,54677,2,0,P|86:329|61:246,1,125
37,188,54960,1,0,0:0:0:0:
123,132,55102,6,0,B|165:160|181:148|181:148|208:113|208:113|254:151,1,125
256,149,55313,1,0,0:0:0:0:
290,172,55384,2,0,P|361:177|415:161,1,125
491,65,55664,1,0,0:0:0:0:
410,162,55803,2,0,P|334:128|306:61,1,125
511,131,56081,2,0,P|482:219|423:255,1,125
264,66,56359,2,0,P|348:26|404:48,1,125
393,343,56635,6,0,P|325:307|301:241,1,125
356,22,56909,2,0,P|339:99|293:133,1,125
279,374,57183,2,0,P|248:307|269:256,1,125
512,216,57455,5,0,0:0:0:0:
512,216,57523,1,0,0:0:0:0:
512,216,57591,1,0,0:0:0:0:
400,370,57726,2,0,P|337:384|256:362,1,125
150,187,57995,1,0,0:0:0:0:
280,261,58130,6,0,P|302:328|265:383,1,125
113,332,58398,1,0,0:0:0:0:
15,242,58531,5,0,0:0:0:0:
15,242,58598,1,0,0:0:0:0:
15,242,58665,2,0,P|30:177|83:129,1,125
80,143,58930,5,0,0:0:0:0:
80,143,58996,1,0,0:0:0:0:
80,143,59062,2,0,P|56:210|-10:249,1,125
4,48,59325,5,0,0:0:0:0:
212,224,59457,1,0,0:0:0:0:
168,77,59588,1,0,0:0:0:0:
212,224,59719,2,0,P|272:268|331:284,1,125
455,279,59980,1,0,0:0:0:0:
399,104,60109,6,0,P|471:68|531:7,2,125
301,138,60499,2,0,P|185:166|126:155,1,125
180,165,60757,2,0,P|115:193|141:275,1,125
307,271,61013,2,0,B|348:231|348:231|427:241|439:192,1,125
414,224,61268,1,0,0:0:0:0:
282,66,61395,5,0,0:0:0:0:
121,69,61522,2,0,P|146:140|192:168,1,125
185,165,61775,2,0,L|336:247,1,125
494,302,62027,1,0,0:0:0:0:
493,118,62152,1,0,0:0:0:0:
494,302,62278,1,0,0:0:0:0:
329,183,62403,1,0,0:0:0:0:
397,349,62528,6,0,P|329:369|252:337,1,125
278,355,62777,2,0,P|224:303|162:292,1,125
176,291,63024,2,0,P|230:240|208:160,1,125
196,12,63270,1,0,0:0:0:0:
422,155,63394,6,0,B|414:147|411:144|457:193|512:241,2,125
422,155,63763,2,0,P|317:128|257:148,1,125
114,190,64007,1,0,0:0:0:0:
230,329,64128,2,0,P|301:300|341:257,2,125
137,355,64492,2,0,P|50:381|-14:375,1,125
69,249,64733,2,0,P|102:190|103:118,1,125
55,24,64973,5,0,0:0:0:0:
227,77,65092,1,0,0:0:0:0:
115,137,65212,1,0,0:0:0:0:
322,138,65331,1,0,0:0:0:0:
217,211,65450,6,0,L|120:292,1,125
90,320,65687,2,0,L|205:216,1,125
349,113,65923,2,0,P|399:68|443:18,2,125
244,195,66275,1,0,0:0:0:0:
125,260,66392,6,0,P|65:297|0:327,2,125
244,195,66741,1,0,0:0:0:0:
245,77,66857,6,0,L|245:11,4,62.5
244,304,67205,1,0,0:0:0:0:
354,168,67321,6,0,P|365:97|336:37,1,125
345,49,67551,2,0,P|266:111|200:109,1,125
54,60,67780,1,0,0:0:0:0:
164,269,67894,6,0,P|167:346|128:393,1,125
141,383,68121,2,0,P|199:349|277:354,1,125
255,347,68348,2,0,P|281:282|338:247,1,125
325,252,68573,2,0,P|367:306|424:328,3,125
417,327,69023,1,0,0:0:0:0:
374,54,69136,2,0,P|448:9|510:4,2,125
246,146,69581,5,0,0:0:0:0:
246,146,69691,2,0,P|209:73|139:60,1,125
172,58,69912,2,0,P|94:48|70:8,1,125
71,13,70132,2,0,P|17:54|-4:131,1,125
0,105,70352,2,0,P|58:154|60:200,3,125
60,198,70788,1,0,0:0:0:0:
230,300,70897,2,0,P|285:344|310:398,2,125
391,66,71330,5,0,0:0:0:0:
391,66,71437,2,0,P|458:121|440:186,1,125
462,163,71652,2,0,P|383:151|330:174,1,125
343,167,71865,2,0,P|406:203|416:260,1,125
418,250,72079,2,0,P|489:278|510:360,3,125
225,295,72503,1,0,0:0:0:0:
225,295,72609,2,0,P|164:344|138:407,2,125
274,129,72924,5,0,0:0:0:0:
274,129,73030,2,0,P|221:86|166:69,1,125
167,69,73239,2,0,P|80:49|37:8,2,125
285,53,73550,5,0,0:0:0:0:
130,163,73653,1,0,0:0:0:0:
266,165,73758,1,0,0:0:0:0:
108,51,73861,1,0,0:0:0:0:
251,273,73964,5,0,0:0:0:0:
406,167,74067,1,0,0:0:0:0:
266,165,74170,1,0,0:0:0:0:
421,273,74273,2,0,P|369:332|314:353,1,125
119,372,74478,5,0,0:0:0:0:
107,341,74580,1,0,0:0:0:0:
97,313,74682,1,0,0:0:0:0:
32,116,74885,5,0,0:0:0:0:
334,180,75088,1,0,0:0:0:0:
160,194,75290,6,0,L|18:206,2,125
365,177,75692,5,0,0:0:0:0:
224,305,75892,1,0,0:0:0:0:
285,126,76091,1,0,0:0:0:0:
299,89,76190,1,0,0:0:0:0:
311,56,76289,1,0,0:0:0:0:
44,182,76488,6,0,P|86:252|258:280,1,250
248,212,76783,2,0,P|312:214|399:259,1,125
368,236,76980,2,0,P|460:165|455:115,1,125
459,166,77175,2,0,P|495:231|479:295,1,125
307,382,77370,1,0,0:0:0:0:
137,324,77468,1,0,0:0:0:0:
235,194,77662,5,0,0:0:0:0:
261,160,77758,1,0,0:0:0:0:
285,130,77855,1,0,0:0:0:0:
19,188,78049,1,0,0:0:0:0:
162,369,78241,1,0,0:0:0:0:
329,183,78433,6,0,L|191:113,1,125
252,249,78624,2,0,P|322:266|413:123,1,250
255,46,79004,1,0,0:0:0:0:
28,189,79193,1,0,0:0:0:0:
57,216,79287,1,0,0:0:0:0:
88,242,79381,1,0,0:0:0:0:
386,380,79570,6,0,P|460:353|482:257,1,125
387,275,79758,2,0,P|376:195|467:43,1,250
507,135,80038,2,0,P|397:147|349:119,1,125
194,89,80223,2,0,P|211:43|283:1,1,125
171,26,80409,2,0,P|240:8|308:34,1,125
445,122,80686,5,0,0:0:0:0:
429,157,80778,1,0,0:0:0:0:
416,188,80870,1,0,0:0:0:0:
295,380,81053,1,0,0:0:0:0:
257,110,81237,1,0,0:0:0:0:
378,298,81419,5,0,0:0:0:0:
402,330,81509,1,0,0:0:0:0:
430,363,81600,1,0,0:0:0:0:
231,116,81782,1,0,0:0:0:0:
305,374,81963,1,0,0:0:0:0:
150,101,82143,1,0,0:0:0:0:
138,69,82232,1,0,0:0:0:0:
129,40,82322,1,0,0:0:0:0:
119,286,82502,6,0,P|154:355|213:394,1,125
212,293,82681,2,0,P|286:286|406:148,1,250
465,266,82947,2,0,P|411:206|402:145,1,125
477,111,83125,2,0,P|418:68|346:57,1,125
368,56,83302,2,0,P|319:109|256:131,1,125
78,183,83566,5,0,0:0:0:0:
42,202,83653,1,0,0:0:0:0:
11,218,83741,1,0,0:0:0:0:
315,284,83915,1,0,0:0:0:0:
56,333,84090,1,0,0:0:0:0:
332,149,84264,1,0,0:0:0:0:
300,167,84350,1,0,0:0:0:0:
266,184,84437,1,0,0:0:0:0:
18,241,84610,5,0,0:0:0:0:
370,258,84696,2,0,L|448:265,7,62.5
165,249,85125,5,0,0:0:0:0:
124,242,85210,1,0,0:0:0:0:
89,224,85295,1,0,0:0:0:0:
311,58,85466,5,0,0:0:0:0:
239,109,85550,1,0,0:0:0:0:
317,201,85635,1,0,0:0:0:0:
204,225,85720,1,0,0:0:0:0:
295,240,85805,1,0,0:0:0:0:
419,244,85890,1,0,0:0:0:0:
512,167,85975,1,0,0:0:0:0:
411,70,86058,6,0,L|288:157,1,125
159,221,86311,1,0,0:0:0:0:
122,239,86394,1,0,0:0:0:0:
84,256,86478,1,0,0:0:0:0:
191,384,86646,1,0,0:0:0:0:
99,92,86812,2,0,P|163:146|224:174,1,125
473,234,86979,1,0,0:0:0:0:
439,255,87061,1,0,0:0:0:0:
414,271,87144,1,0,0:0:0:0:
204,378,87310,6,0,P|111:337|46:205,1,250
54,18,87639,1,0,0:0:0:0:
76,52,87720,1,0,0:0:0:0:
98,83,87802,1,0,0:0:0:0:
293,368,87966,1,0,0:0:0:0:
154,171,88129,2,0,P|201:121|332:95,1,187.5
313,92,88292,2,0,P|357:173|497:251,1,250
445,78,88534,1,0,0:0:0:0:
69,16,88616,6,0,L|189:84,2,125
25,176,88937,1,0,0:0:0:0:
47,213,89018,1,0,0:0:0:0:
73,243,89098,1,0,0:0:0:0:
245,263,89258,1,0,0:0:0:0:
257,109,89418,2,0,P|183:146|160:236,1,125
158,200,89577,2,0,P|238:233|324:375,1,250
122,318,89894,5,0,0:0:0:0:
444,86,90052,2,0,L|219:257,1,250
68,60,90366,2,0,L|261:254,1,250
408,384,90679,5,0,0:0:0:0:
363,267,90756,1,0,0:0:0:0:
300,326,90834,1,0,0:0:0:0:
240,348,90912,1,0,0:0:0:0:
193,232,90990,1,0,0:0:0:0:
1,28,91145,6,0,P|63:84|221:120,1,250
410,71,91454,1,0,0:0:0:0:
445,55,91530,1,0,0:0:0:0:
478,36,91607,1,0,0:0:0:0:
163,286,91761,2,0,P|245:247|301:88,1,250
82,192,92067,2,0,P|145:274|300:372,1,250
512,50,92371,6,0,P|447:102|275:157,1,250
120,186,92674,1,0,0:0:0:0:
82,192,92749,1,0,0:0:0:0:
45,198,92824,1,0,0:0:0:0:
212,328,92975,1,0,0:0:0:0:
346,21,93125,2,0,P|314:92|192:228,1,250
201,220,93349,2,0,B|296:217|411:214|483:93|425:102,1,250
430,141,93572,6,0,L|514:22,2,125
230,375,93870,1,0,0:0:0:0:
150,88,94018,1,0,0:0:0:0:
134,41,94091,1,0,0:0:0:0:
123,3,94165,1,0,0:0:0:0:
105,225,94312,2,0,P|226:251|381:219,1,250
437,16,94605,2,0,P|368:37|311:84,1,125
325,67,94751,2,0,P|265:104|157:107,1,125
213,115,94896,5,0,0:0:0:0:
105,261,95042,1,0,0:0:0:0:
235,371,95187,2,0,P|334:322|419:189,1,250
445,121,95476,2,0,L|466:57,4,62.5
435,149,95763,1,0,0:0:0:0:
376,310,95907,1,0,0:0:0:0:
256,73,96050,1,0,0:0:0:0:
195,246,96193,5,0,0:0:0:0:
195,246,96335,2,0,P|121:197|73:46,1,250
72,49,96619,1,0,0:0:0:0:
219,118,96760,1,0,0:0:0:0:
327,214,96901,1,0,0:0:0:0:
401,55,97042,6,0,P|370:119|219:216,1,250
36,242,97321,2,0,P|102:317|296:330,1,250
244,346,97601,5,0,0:0:0:0:
320,83,97740,1,0,0:0:0:0:
512,258,97878,1,0,0:0:0:0:
253,205,98017,1,0,0:0:0:0:
466,59,98154,1,0,0:0:0:0:
458,346,98293,1,0,0:0:0:0:
251,210,98430,5,0,0:0:0:0:
251,210,98567,2,0,P|129:185|14:137,1,250
14,137,98840,1,0,0:0:0:0:
137,54,98976,1,0,0:0:0:0:
279,13,99111,1,0,0:0:0:0:
293,268,99247,6,0,P|249:154|128:78,1,250
16,384,99517,2,0,P|133:326|180:197,1,250
179,221,99786,1,0,0:0:0:0:
53,14,99920,1,0,0:0:0:0:
297,85,100054,1,0,0:0:0:0:
0,226,100187,1,0,0:0:0:0:
278,178,100320,1,0,0:0:0:0:
34,229,100453,5,0,0:0:0:0:
34,229,100585,2,0,P|121:259|317:259,1,250
277,266,100849,1,0,0:0:0:0:
500,169,100981,1,0,0:0:0:0:
210,89,101112,1,0,0:0:0:0:
330,208,101243,1,0,0:0:0:0:
100,331,101374,6,0,P|228:275|288:169,1,250
44,159,101634,2,0,P|136:197|290:181,1,250
283,183,101894,1,0,0:0:0:0:
468,85,102023,1,0,0:0:0:0:
312,310,102152,1,0,0:0:0:0:
276,36,102280,1,0,0:0:0:0:
410,202,102409,1,0,0:0:0:0:
205,340,102537,5,0,0:0:0:0:
205,340,102665,2,0,P|249:266|305:77,1,250
300,110,102920,1,0,0:0:0:0:
70,218,103047,1,0,0:0:0:0:
260,384,103174,1,0,0:0:0:0:
216,245,103300,1,0,0:0:0:0:
471,211,103427,6,0,B|459:199|456:196|399:248|202:290,1,250
471,211,103679,2,0,P|377:166|259:17,1,250
283,63,103930,1,0,0:0:0:0:
112,181,104055,1,0,0:0:0:0:
380,237,104179,1,0,0:0:0:0:
112,181,104304,1,0,0:0:0:0:
380,237,104428,1,0,0:0:0:0:
0,182,104552,6,0,P|124:164|243:113,1,250
448,3,104799,1,0,0:0:0:0:
275,311,104922,1,0,0:0:0:0:
110,31,105045,1,0,0:0:0:0:
411,215,105167,1,0,0:0:0:0:
119,184,105290,1,0,0:0:0:0:
343,7,105412,1,0,0:0:0:0:
275,311,105533,1,0,0:0:0:0:
200,23,105656,1,0,0:0:0:0:
499,183,105777,1,0,0:0:0:0:
183,247,105898,1,0,0:0:0:0:
382,67,106019,1,0,0:0:0:0:
23,342,106139,6,0,L|137:86,2,250
164,27,106500,1,0,0:0:0:0:
215,299,106619,1,0,0:0:0:0:
164,27,106740,1,0,0:0:0:0:
361,240,106859,1,0,0:0:0:0:
491,275,106978,6,0,P|382:322|203:308,1,250
21,211,107216,1,0,0:0:0:0:
236,121,107334,1,0,0:0:0:0:
446,175,107452,1,0,0:0:0:0:
159,157,107569,1,0,0:0:0:0:
421,55,107688,1,0,0:0:0:0:
417,301,107805,1,0,0:0:0:0:
198,26,107922,1,0,0:0:0:0:
417,301,108039,1,0,0:0:0:0:
198,26,108155,1,0,0:0:0:0:
417,301,108273,1,0,0:0:0:0:
254,82,108389,6,0,L|497:178,2,250
79,2,108737,1,0,0:0:0:0:
146,369,108852,1,0,0:0:0:0:
450,131,108967,1,0,0:0:0:0:
194,171,109082,1,0,0:0:0:0:
356,348,109197,1,0,0:0:0:0:
81,236,109311,1,0,0:0:0:0:
384,251,109426,1,0,0:0:0:0:
356,19,109540,1,0,0:0:0:0:
248,356,109654,1,0,0:0:0:0:
356,19,109767,5,0,0:0:0:0:
248,356,109881,1,0,0:0:0:0:
356,19,109994,1,0,0:0:0:0:
248,356,110107,1,0,0:0:0:0:
502,60,110220,2,0,L|256:168,2,250
95,313,110557,1,0,0:0:0:0:
345,184,110669,1,0,0:0:0:0:
114,20,110780,1,0,0:0:0:0:
345,184,110893,1,0,0:0:0:0:
95,313,111004,1,0,0:0:0:0:
443,316,111115,5,0,0:0:0:0:
139,124,111226,1,0,0:0:0:0:
388,190,111337,1,0,0:0:0:0:
10,235,111447,1,0,0:0:0:0:
443,316,111557,1,0,0:0:0:0:
10,235,111667,5,0,0:0:0:0:
443,316,111777,1,0,0:0:0:0:
10,235,111887,1,0,0:0:0:0:
424,89,111996,5,0,0:0:0:0:
155,367,112105,1,0,0:0:0:0:
155,62,112214,1,0,0:0:0:0:
378,291,112323,1,0,0:0:0:0:
378,291,112377,1,0,0:0:0:0:
378,291,112431,1,0,0:0:0:0:
152,190,112540,5,0,0:0:0:0:
371,15,112649,1,0,0:0:0:0:
271,337,112757,1,0,0:0:0:0:
238,46,112865,1,0,0:0:0:0:
506,219,112972,1,0,0:0:0:0:
154,130,113081,1,0,0:0:0:0:
496,81,113188,1,0,0:0:0:0:
99,255,113295,5,0,0:0:0:0:
99,255,113348,1,0,0:0:0:0:
99,255,113402,1,0,0:0:0:0:
289,58,113508,5,0,0:0:0:0:
289,58,113562,1,0,0:0:0:0:
289,58,113615,1,0,0:0:0:0:
289,58,113669,1,0,0:0:0:0:
289,58,113722,1,0,0:0:0:0:
228,370,113828,5,0,0:0:0:0:
113,77,113934,1,0,0:0:0:0:
363,347,114040,1,0,0:0:0:0:
279,16,114145,21,0,0:0:0:0:
281,376,114251,1,0,0:0:0:0:
225,19,114356,1,0,0:0:0:0:
225,378,114461,1,0,0:0:0:0:
256,192,114566,1,0,0:0:0:0:
256,192,114670,12,0,122471,0:0:0:0:
