osu file format v14

[General]
AudioFilename: audio.ogg
AudioLeadIn: 0
PreviewTime: 25780
Countdown: 0
SampleSet: Normal
StackLeniency: 0.7
Mode: 1
LetterboxInBreaks: 0
WidescreenStoryboard: 0

[Editor]
DistanceSpacing: 0.8
BeatDivisor: 4
GridSize: 32
TimelineZoom: 3.499999

[Metadata]
Title:SETTLE IT IN SMASH
TitleUnicode:SETTLE♂IT♂IN♂SMASH
Artist:MatrixMarioX
ArtistUnicode:MatrixMarioX
Creator:Quorum
Version:gachiBASS
Source:
Tags:electronic instrumental novelty MAD super smash bros SSB4 remix gachimuchi Billy Herrington Van Darkholme Mark Wolff brothers 大乱闘スマッシュブラザーズ Wii U 3DS otoMAD 音MAD oto MAD 音 MAD
BeatmapID:3226867
BeatmapSetID:1580320

[Difficulty]
HPDrainRate:6.9
CircleSize:5
OverallDifficulty:6
ApproachRate:5
SliderMultiplier:1.4
SliderTickRate:1

[Events]
//Background and Video events
0,0,"gachi.jpg",0,60
//Break Periods
//Storyboard Layer 0 (Background)
//Storyboard Layer 1 (Fail)
//Storyboard Layer 2 (Pass)
//Storyboard Layer 3 (Foreground)
//Storyboard Layer 4 (Overlay)
//Storyboard Sound Samples

[TimingPoints]
19707,405.405405405405,4,1,0,100,1,0
26193,-76.9230769230769,4,1,0,100,0,1
68355,-76.9230769230769,4,1,0,100,0,0

[HitObjects]
263,179,19707,5,8,0:0:0:0:
263,179,19909,1,0,0:0:0:0:
263,179,20112,1,0,0:0:0:0:
263,179,20315,1,8,0:0:0:0:
263,179,20720,1,0,0:0:0:0:
263,179,20923,1,0,0:0:0:0:
263,179,21125,1,8,0:0:0:0:
263,179,21531,1,8,0:0:0:0:
263,179,21734,1,0,0:0:0:0:
263,179,21936,1,8,0:0:0:0:
263,179,22342,1,0,0:0:0:0:
263,179,22544,1,0,0:0:0:0:
263,179,22747,1,12,0:0:0:0:
263,179,23152,1,0,0:0:0:0:
263,179,23355,1,8,0:0:0:0:
263,179,23558,1,0,0:0:0:0:
270,137,23659,1,8,0:0:0:0:
263,179,23761,1,8,0:0:0:0:
257,132,23862,1,0,0:0:0:0:
263,179,23963,1,8,0:0:0:0:
257,132,24065,1,0,0:0:0:0:
263,179,24166,1,8,0:0:0:0:
257,132,24267,1,8,0:0:0:0:
263,179,24369,1,0,0:0:0:0:
257,132,24470,1,0,0:0:0:0:
263,179,24571,1,12,0:0:0:0:
263,179,25382,1,4,0:0:0:0:
263,179,25686,1,4,0:0:0:0:
263,179,25990,1,4,0:0:0:0:
263,179,26193,1,12,0:0:0:0:
262,153,26396,1,0,0:0:0:0:
262,153,26497,1,0,0:0:0:0:
262,153,26598,1,8,0:0:0:0:
262,153,26801,1,0,0:0:0:0:
262,153,26902,1,0,0:0:0:0:
262,153,27004,1,8,0:0:0:0:
241,98,27105,1,8,0:0:0:0:
262,153,27206,1,0,0:0:0:0:
262,153,27409,1,8,0:0:0:0:
241,98,27612,1,0,0:0:0:0:
241,98,27713,1,0,0:0:0:0:
241,98,27815,1,8,0:0:0:0:
241,98,28017,1,8,0:0:0:0:
241,98,28220,1,8,0:0:0:0:
241,98,28423,1,8,0:0:0:0:
241,98,28524,1,0,0:0:0:0:
241,98,28625,1,8,0:0:0:0:
254,110,28727,1,8,0:0:0:0:
241,98,28828,1,0,0:0:0:0:
217,93,28929,1,8,0:0:0:0:
227,93,29132,1,0,0:0:0:0:
241,98,29234,1,8,0:0:0:0:
241,98,29335,1,8,0:0:0:0:
241,98,29436,1,0,0:0:0:0:
241,98,29639,1,0,0:0:0:0:
241,98,29842,1,8,0:0:0:0:
241,98,30044,1,0,0:0:0:0:
241,98,30146,1,8,0:0:0:0:
241,98,30247,1,8,0:0:0:0:
225,84,30348,1,0,0:0:0:0:
241,98,30450,1,0,0:0:0:0:
239,67,30551,1,8,0:0:0:0:
241,98,30754,1,8,0:0:0:0:
241,98,30855,1,8,0:0:0:0:
191,44,30956,1,8,0:0:0:0:
241,98,31058,1,0,0:0:0:0:
241,98,31261,1,8,0:0:0:0:
241,98,31362,1,8,0:0:0:0:
241,98,31463,1,0,0:0:0:0:
241,98,31666,1,0,0:0:0:0:
241,98,31767,1,8,0:0:0:0:
241,98,31869,1,0,0:0:0:0:
241,98,31970,1,0,0:0:0:0:
241,98,32071,1,8,0:0:0:0:
241,98,32274,1,0,0:0:0:0:
229,78,32375,1,8,0:0:0:0:
241,98,32477,1,8,0:0:0:0:
241,98,32578,1,0,0:0:0:0:
241,98,32679,1,12,0:0:0:0:
229,78,32882,1,0,0:0:0:0:
229,78,32984,1,0,0:0:0:0:
229,78,33085,1,8,0:0:0:0:
229,78,33288,1,0,0:0:0:0:
229,78,33389,1,8,0:0:0:0:
229,78,33490,1,8,0:0:0:0:
229,78,33592,1,8,0:0:0:0:
229,78,33693,1,0,0:0:0:0:
229,78,33896,1,8,0:0:0:0:
229,78,34098,1,0,0:0:0:0:
229,78,34200,1,0,0:0:0:0:
229,78,34301,1,8,0:0:0:0:
229,78,34504,1,8,0:0:0:0:
229,78,34706,1,8,0:0:0:0:
229,78,34909,1,0,0:0:0:0:
229,78,35011,1,8,0:0:0:0:
241,48,35112,1,0,0:0:0:0:
229,78,35213,1,8,0:0:0:0:
229,78,35315,1,8,0:0:0:0:
229,78,35416,1,0,0:0:0:0:
229,78,35619,1,0,0:0:0:0:
229,78,35720,1,8,0:0:0:0:
216,72,35821,1,0,0:0:0:0:
229,78,35923,1,8,0:0:0:0:
229,78,36125,1,0,0:0:0:0:
229,78,36328,1,8,0:0:0:0:
229,78,36531,1,0,0:0:0:0:
229,78,36632,1,8,0:0:0:0:
232,74,36734,1,8,0:0:0:0:
221,72,36835,1,0,0:0:0:0:
232,74,36936,1,0,0:0:0:0:
232,74,37038,1,8,0:0:0:0:
232,74,37240,1,0,0:0:0:0:
232,74,37342,1,8,0:0:0:0:
228,71,37443,1,8,0:0:0:0:
232,74,37544,1,0,0:0:0:0:
232,74,37747,1,8,0:0:0:0:
232,74,37848,1,0,0:0:0:0:
232,74,37950,1,8,0:0:0:0:
232,74,38152,1,0,0:0:0:0:
232,74,38254,1,8,0:0:0:0:
232,74,38456,1,0,0:0:0:0:
232,74,38558,1,8,0:0:0:0:
218,67,38659,1,8,0:0:0:0:
218,67,38761,1,8,0:0:0:0:
218,67,38862,1,0,0:0:0:0:
218,67,38963,1,8,0:0:0:0:
218,67,39065,1,8,0:0:0:0:
218,67,39166,1,0,0:0:0:0:
218,67,39369,1,0,0:0:0:0:
218,67,39470,1,8,0:0:0:0:
218,67,39571,1,8,0:0:0:0:
218,67,39673,1,8,0:0:0:0:
218,67,39774,1,0,0:0:0:0:
218,67,39875,1,8,0:0:0:0:
226,94,39977,1,0,0:0:0:0:
218,67,40078,1,8,0:0:0:0:
218,67,40179,1,8,0:0:0:0:
218,67,40281,1,0,0:0:0:0:
218,67,40382,1,8,0:0:0:0:
223,60,40484,1,8,0:0:0:0:
218,67,40585,1,0,0:0:0:0:
223,60,40686,1,0,0:0:0:0:
218,67,40788,1,12,0:0:0:0:
223,42,40990,1,0,0:0:0:0:
223,42,41193,1,8,0:0:0:0:
223,42,41396,1,0,0:0:0:0:
223,42,41497,1,8,0:0:0:0:
223,42,41598,1,0,0:0:0:0:
223,42,41700,1,0,0:0:0:0:
223,42,41801,1,8,0:0:0:0:
223,42,42004,1,8,0:0:0:0:
223,42,42206,1,0,0:0:0:0:
223,42,42308,1,0,0:0:0:0:
223,42,42409,1,8,0:0:0:0:
223,42,42511,1,8,0:0:0:0:
223,42,42612,1,0,0:0:0:0:
223,42,42713,1,0,0:0:0:0:
223,42,42815,1,8,0:0:0:0:
223,42,42916,1,8,0:0:0:0:
223,42,43017,1,8,0:0:0:0:
223,42,43119,1,8,0:0:0:0:
223,42,43321,1,8,0:0:0:0:
223,42,43423,1,8,0:0:0:0:
223,42,43524,1,0,0:0:0:0:
223,42,43625,1,8,0:0:0:0:
223,42,43828,1,8,0:0:0:0:
223,42,44031,1,0,0:0:0:0:
223,42,44234,1,0,0:0:0:0:
246,43,44335,1,0,0:0:0:0:
223,42,44436,1,8,0:0:0:0:
223,42,44538,1,8,0:0:0:0:
223,42,44639,1,0,0:0:0:0:
223,42,44740,1,8,0:0:0:0:
223,42,44943,1,0,0:0:0:0:
223,42,45044,1,8,0:0:0:0:
223,42,45146,1,0,0:0:0:0:
223,42,45247,1,8,0:0:0:0:
223,42,45450,1,0,0:0:0:0:
223,42,45652,1,8,0:0:0:0:
223,42,45855,1,0,0:0:0:0:
228,23,45956,1,0,0:0:0:0:
223,42,46058,1,8,0:0:0:0:
223,42,46159,1,8,0:0:0:0:
212,75,46261,1,0,0:0:0:0:
223,42,46362,1,8,0:0:0:0:
223,42,46565,1,8,0:0:0:0:
223,42,46666,1,8,0:0:0:0:
223,42,46767,1,0,0:0:0:0:
223,42,46869,1,8,0:0:0:0:
223,42,46970,1,8,0:0:0:0:
223,42,47071,1,8,0:0:0:0:
223,42,47173,1,0,0:0:0:0:
223,42,47274,1,12,0:0:0:0:
223,42,47477,1,0,0:0:0:0:
223,42,47679,1,8,0:0:0:0:
223,42,47882,1,0,0:0:0:0:
223,42,47984,1,8,0:0:0:0:
223,42,48186,1,8,0:0:0:0:
223,42,48288,1,0,0:0:0:0:
223,42,48389,1,0,0:0:0:0:
226,23,48490,1,8,0:0:0:0:
223,42,48693,1,8,0:0:0:0:
223,42,48794,1,8,0:0:0:0:
223,42,48896,1,0,0:0:0:0:
223,42,49098,1,0,0:0:0:0:
223,42,49200,1,0,0:0:0:0:
223,42,49301,1,8,0:0:0:0:
223,42,49402,1,8,0:0:0:0:
223,42,49504,1,0,0:0:0:0:
223,42,49605,1,8,0:0:0:0:
223,42,49808,1,0,0:0:0:0:
223,42,49909,1,0,0:0:0:0:
223,42,50011,1,0,0:0:0:0:
223,42,50112,1,8,0:0:0:0:
223,42,50213,1,8,0:0:0:0:
223,42,50315,1,8,0:0:0:0:
223,42,50416,1,8,0:0:0:0:
223,42,50517,1,8,0:0:0:0:
223,42,50720,1,0,0:0:0:0:
223,42,50821,1,0,0:0:0:0:
223,42,50923,1,8,0:0:0:0:
234,37,51024,1,8,0:0:0:0:
223,42,51125,1,0,0:0:0:0:
223,42,51227,1,8,0:0:0:0:
223,42,51429,1,8,0:0:0:0:
223,42,51531,1,0,0:0:0:0:
231,36,51632,1,0,0:0:0:0:
231,36,51734,1,8,0:0:0:0:
226,56,51835,1,0,0:0:0:0:
231,36,51936,1,0,0:0:0:0:
231,36,52139,1,8,0:0:0:0:
192,35,52240,1,8,0:0:0:0:
231,36,52342,1,0,0:0:0:0:
210,32,52443,1,0,0:0:0:0:
222,33,52544,1,8,0:0:0:0:
262,54,52646,1,8,0:0:0:0:
222,33,52747,1,8,0:0:0:0:
222,33,52848,1,8,0:0:0:0:
240,41,52950,1,4,0:0:0:0:
240,41,53254,1,4,0:0:0:0:
240,41,53558,1,4,0:0:0:0:
240,41,53761,1,12,0:0:0:0:
229,40,53963,1,0,0:0:0:0:
225,33,54065,1,0,0:0:0:0:
234,36,54166,1,8,0:0:0:0:
225,33,54267,1,0,0:0:0:0:
231,43,54369,1,0,0:0:0:0:
229,40,54470,1,0,0:0:0:0:
231,43,54571,1,8,0:0:0:0:
229,40,54774,1,0,0:0:0:0:
229,40,54875,1,8,0:0:0:0:
229,40,55078,1,8,0:0:0:0:
229,40,55179,1,0,0:0:0:0:
231,43,55382,1,8,0:0:0:0:
231,43,55585,1,0,0:0:0:0:
229,40,55686,1,0,0:0:0:0:
229,40,55788,1,8,0:0:0:0:
229,40,55889,1,8,0:0:0:0:
229,40,55990,1,8,0:0:0:0:
229,40,56092,1,0,0:0:0:0:
229,40,56193,1,8,0:0:0:0:
231,43,56396,1,0,0:0:0:0:
231,43,56497,1,8,0:0:0:0:
231,43,56700,1,8,0:0:0:0:
229,40,56801,1,0,0:0:0:0:
229,40,56902,1,0,0:0:0:0:
229,40,57004,1,12,0:0:0:0:
229,40,57206,1,0,0:0:0:0:
231,43,57308,1,0,0:0:0:0:
231,43,57409,1,8,0:0:0:0:
231,43,57511,1,8,0:0:0:0:
231,43,57612,1,0,0:0:0:0:
229,40,57713,1,0,0:0:0:0:
229,40,57815,1,8,0:0:0:0:
229,40,58017,1,0,0:0:0:0:
229,40,58119,1,8,0:0:0:0:
231,43,58321,1,0,0:0:0:0:
231,43,58423,1,8,0:0:0:0:
217,84,58524,1,8,0:0:0:0:
231,43,58625,1,0,0:0:0:0:
229,40,58828,1,8,0:0:0:0:
229,40,58929,1,0,0:0:0:0:
229,40,59132,1,0,0:0:0:0:
231,43,59234,1,8,0:0:0:0:
231,43,59335,1,8,0:0:0:0:
231,43,59436,1,0,0:0:0:0:
206,84,59538,1,8,0:0:0:0:
231,43,59639,1,8,0:0:0:0:
229,40,59740,1,0,0:0:0:0:
229,40,59842,1,8,0:0:0:0:
229,40,60044,1,8,0:0:0:0:
231,43,60247,1,0,0:0:0:0:
236,59,60348,1,0,0:0:0:0:
236,59,60450,1,8,0:0:0:0:
236,59,60551,1,0,0:0:0:0:
236,59,60652,1,8,0:0:0:0:
236,59,60754,1,0,0:0:0:0:
236,59,60855,1,8,0:0:0:0:
236,59,60956,1,8,0:0:0:0:
236,59,61058,1,8,0:0:0:0:
236,59,61159,1,0,0:0:0:0:
236,59,61261,1,8,0:0:0:0:
236,59,61362,1,0,0:0:0:0:
236,59,61463,1,8,0:0:0:0:
236,59,61565,1,0,0:0:0:0:
236,59,61666,1,8,0:0:0:0:
236,59,61767,1,8,0:0:0:0:
236,59,61869,1,0,0:0:0:0:
236,59,61970,1,0,0:0:0:0:
236,59,62071,1,8,0:0:0:0:
236,59,62173,1,8,0:0:0:0:
236,59,62274,1,8,0:0:0:0:
236,59,62375,1,0,0:0:0:0:
236,59,62477,1,8,0:0:0:0:
236,59,62578,1,0,0:0:0:0:
236,59,62679,1,8,0:0:0:0:
236,59,62781,1,0,0:0:0:0:
236,59,62882,1,0,0:0:0:0:
236,59,62984,1,8,0:0:0:0:
236,59,63085,1,0,0:0:0:0:
236,59,63186,1,0,0:0:0:0:
236,59,63288,1,8,0:0:0:0:
236,59,63389,1,0,0:0:0:0:
236,59,63490,1,12,0:0:0:0:
236,59,63896,1,12,0:0:0:0:
236,59,64301,1,12,0:0:0:0:
236,59,64706,1,12,0:0:0:0:
236,59,65112,1,12,0:0:0:0:
149,123,65315,1,0,0:0:0:0:
236,59,65517,1,8,0:0:0:0:
158,223,65720,1,0,0:0:0:0:
236,59,65923,1,8,0:0:0:0:
236,59,66125,1,8,0:0:0:0:
225,50,66227,1,8,0:0:0:0:
236,59,66328,1,8,0:0:0:0:
236,59,66531,1,0,0:0:0:0:
236,59,66734,1,8,0:0:0:0:
236,59,66835,1,8,0:0:0:0:
236,59,66936,1,0,0:0:0:0:
236,59,67038,1,0,0:0:0:0:
236,59,67139,1,8,0:0:0:0:
236,59,67240,1,8,0:0:0:0:
236,59,67342,1,8,0:0:0:0:
236,59,67443,1,8,0:0:0:0:
236,59,67544,1,4,0:0:0:0:
236,59,67848,1,4,0:0:0:0:
236,59,68152,1,4,0:0:0:0:
236,59,68355,1,12,0:0:0:0:
