osu file format v14

[General]
AudioFilename: audio.ogg
AudioLeadIn: 0
PreviewTime: 25780
Countdown: 0
SampleSet: Normal
StackLeniency: 0.7
Mode: 1
LetterboxInBreaks: 0
WidescreenStoryboard: 1

[Editor]
DistanceSpacing: 0.8
BeatDivisor: 4
GridSize: 32
TimelineZoom: 1.7

[Metadata]
Title:SETTLE IT IN SMASH
TitleUnicode:SETTLE♂IT♂IN♂SMASH
Artist:MatrixMarioX
ArtistUnicode:MatrixMarioX
Creator:Quorum
Version:Futsuu
Source:
Tags:electronic instrumental novelty MAD super smash bros SSB4 remix gachimuchi Billy Herrington Van Darkholme Mark Wolff brothers 大乱闘スマッシュブラザーズ Wii U 3DS otoMAD 音MAD oto MAD 音 MAD
BeatmapID:3226866
BeatmapSetID:1580320

[Difficulty]
HPDrainRate:7
CircleSize:5
OverallDifficulty:4
ApproachRate:5
SliderMultiplier:1.4
SliderTickRate:1

[Events]
//Background and Video events
0,0,"gachi.jpg",0,60
//Break Periods
//Storyboard Layer 0 (Background)
//Storyboard Layer 1 (Fail)
//Storyboard Layer 2 (Pass)
//Storyboard Layer 3 (Foreground)
//Storyboard Layer 4 (Overlay)
//Storyboard Sound Samples

[TimingPoints]
19707,405.405405405405,4,1,0,100,1,0
26193,-90.9090909090909,4,1,0,100,0,1
68355,-90.9090909090909,4,1,0,100,0,0

[HitObjects]
263,179,19707,5,8,0:0:0:0:
263,179,20315,1,8,0:0:0:0:
263,179,20720,1,0,0:0:0:0:
263,179,21125,1,8,0:0:0:0:
263,179,21936,1,8,0:0:0:0:
263,179,22342,1,0,0:0:0:0:
263,179,22747,1,12,0:0:0:0:
263,179,23152,1,0,0:0:0:0:
263,179,23355,1,8,0:0:0:0:
263,179,23761,1,8,0:0:0:0:
263,179,23963,1,8,0:0:0:0:
263,179,24166,1,8,0:0:0:0:
263,179,24369,1,0,0:0:0:0:
263,179,24571,1,8,0:0:0:0:
263,179,25382,1,4,0:0:0:0:
263,179,25686,1,4,0:0:0:0:
263,179,25990,1,4,0:0:0:0:
263,179,26193,1,12,0:0:0:0:
262,153,26598,1,8,0:0:0:0:
262,153,27004,1,8,0:0:0:0:
262,153,27206,1,0,0:0:0:0:
262,153,27409,1,8,0:0:0:0:
241,98,27815,1,0,0:0:0:0:
241,98,28017,1,8,0:0:0:0:
241,98,28220,1,8,0:0:0:0:
219,87,28625,1,8,0:0:0:0:
241,98,28828,1,0,0:0:0:0:
241,98,29031,1,8,0:0:0:0:
241,98,29436,1,0,0:0:0:0:
241,98,29842,1,8,0:0:0:0:
241,98,30247,1,0,0:0:0:0:
222,91,30450,1,0,0:0:0:0:
224,89,30652,1,8,0:0:0:0:
241,98,31058,1,0,0:0:0:0:
231,83,32274,1,0,0:0:0:0:
218,83,32477,1,0,0:0:0:0:
241,98,32679,1,12,0:0:0:0:
229,78,33085,1,8,0:0:0:0:
229,78,33490,1,8,0:0:0:0:
247,68,33693,1,0,0:0:0:0:
229,78,33896,1,8,0:0:0:0:
229,78,34301,1,0,0:0:0:0:
229,78,34504,1,8,0:0:0:0:
229,78,34706,1,8,0:0:0:0:
241,48,35112,1,8,0:0:0:0:
229,78,35315,1,8,0:0:0:0:
241,85,35517,1,8,0:0:0:0:
229,78,35923,1,0,0:0:0:0:
229,78,36328,1,8,0:0:0:0:
232,74,36734,1,0,0:0:0:0:
221,72,36936,1,8,0:0:0:0:
232,74,37139,1,8,0:0:0:0:
232,74,37544,1,8,0:0:0:0:
232,74,38355,1,0,0:0:0:0:
232,74,38558,1,0,0:0:0:0:
218,67,38761,1,8,0:0:0:0:
218,67,39166,1,8,0:0:0:0:
218,67,39571,1,8,0:0:0:0:
218,67,39774,1,8,0:0:0:0:
218,67,39977,1,8,0:0:0:0:
218,67,40382,1,0,0:0:0:0:
218,67,40788,1,12,0:0:0:0:
223,42,41598,1,0,0:0:0:0:
223,42,41801,1,8,0:0:0:0:
223,42,42004,1,8,0:0:0:0:
223,42,42409,1,8,0:0:0:0:
223,42,42815,1,0,0:0:0:0:
223,42,43220,1,0,0:0:0:0:
223,42,43423,1,0,0:0:0:0:
223,42,43625,1,8,0:0:0:0:
223,42,44031,1,8,0:0:0:0:
223,42,44436,1,0,0:0:0:0:
223,42,44842,1,8,0:0:0:0:
221,50,45044,1,0,0:0:0:0:
223,42,45247,1,8,0:0:0:0:
223,42,45652,1,0,0:0:0:0:
223,42,46058,1,8,0:0:0:0:
223,42,46463,1,8,0:0:0:0:
216,72,46666,1,8,0:0:0:0:
223,42,46869,1,0,0:0:0:0:
223,42,47274,1,12,0:0:0:0:
223,42,48085,1,8,0:0:0:0:
223,42,48288,1,0,0:0:0:0:
226,23,48490,1,8,0:0:0:0:
223,42,48896,1,0,0:0:0:0:
223,42,49098,1,0,0:0:0:0:
223,42,49301,1,8,0:0:0:0:
223,42,49706,1,0,0:0:0:0:
223,42,50112,1,8,0:0:0:0:
223,42,50315,1,8,0:0:0:0:
223,42,50517,1,8,0:0:0:0:
223,42,50923,1,8,0:0:0:0:
223,42,51328,1,0,0:0:0:0:
223,42,51531,1,0,0:0:0:0:
231,36,51734,1,8,0:0:0:0:
231,36,52139,1,8,0:0:0:0:
222,33,52544,1,8,0:0:0:0:
240,41,52950,1,4,0:0:0:0:
240,41,53254,1,4,0:0:0:0:
240,41,53558,1,4,0:0:0:0:
240,41,53761,1,12,0:0:0:0:
231,43,54571,1,8,0:0:0:0:
229,40,54774,1,8,0:0:0:0:
229,40,54977,1,8,0:0:0:0:
231,43,55382,1,0,0:0:0:0:
229,40,55788,1,8,0:0:0:0:
229,40,56193,1,0,0:0:0:0:
231,43,56396,1,0,0:0:0:0:
231,43,56598,1,8,0:0:0:0:
229,40,57004,1,12,0:0:0:0:
229,40,57815,1,8,0:0:0:0:
229,40,58017,1,0,0:0:0:0:
229,40,58220,1,8,0:0:0:0:
231,43,58625,1,8,0:0:0:0:
229,40,59031,1,0,0:0:0:0:
231,43,59436,1,0,0:0:0:0:
198,65,59639,1,0,0:0:0:0:
229,40,59842,1,8,0:0:0:0:
231,43,60247,1,0,0:0:0:0:
236,59,60652,1,8,0:0:0:0:
236,59,60855,1,8,0:0:0:0:
236,59,61058,1,0,0:0:0:0:
236,59,61261,1,0,0:0:0:0:
236,59,61463,1,8,0:0:0:0:
236,59,61869,1,8,0:0:0:0:
236,59,62071,1,0,0:0:0:0:
236,59,62274,1,0,0:0:0:0:
236,59,62679,1,0,0:0:0:0:
236,59,62984,1,8,0:0:0:0:
236,59,63288,1,0,0:0:0:0:
236,59,63490,1,12,0:0:0:0:
236,59,64301,1,12,0:0:0:0:
236,59,64706,1,12,0:0:0:0:
236,59,65112,1,12,0:0:0:0:
236,59,65517,1,8,0:0:0:0:
236,59,65923,1,8,0:0:0:0:
236,59,66125,1,8,0:0:0:0:
236,59,66328,1,8,0:0:0:0:
236,59,66734,1,0,0:0:0:0:
236,59,66936,1,0,0:0:0:0:
236,59,67139,1,8,0:0:0:0:
236,59,67342,1,8,0:0:0:0:
236,59,67544,1,4,0:0:0:0:
236,59,67848,1,4,0:0:0:0:
236,59,68152,1,4,0:0:0:0:
236,59,68355,1,12,0:0:0:0:
