osu file format v14

[General]
AudioFilename: hoang.mp3
AudioLeadIn: 0
PreviewTime: 12140
Countdown: 0
SampleSet: Soft
StackLeniency: 0.5
Mode: 0
LetterboxInBreaks: 0
WidescreenStoryboard: 1

[Editor]
Bookmarks: 1681,7015,12358,41681,52348,62348
DistanceSpacing: 1
BeatDivisor: 4
GridSize: 4
TimelineZoom: 1

[Metadata]
Title:Hoangpungnyuga
TitleUnicode:호앙풍류가
Artist:MatrixMarioX & MowtenDoo
ArtistUnicode:MatrixMarioX & MowtenDoo
Creator:Sonnyc
Version:Insane
Source:나와 호랑이님
Tags:상록수 호랑풍류가 Billy Herrington Gachimuchi International Wrestling Festival 2015 -WORLD OF ANIKI- korean novelty Horang Hoang Pungryuga Horangpungnyuga
BeatmapID:2685991
BeatmapSetID:1292748

[Difficulty]
HPDrainRate:6
CircleSize:4
OverallDifficulty:8
ApproachRate:8.5
SliderMultiplier:1.8
SliderTickRate:1

[Events]
//Background and Video events
0,0,"bg.jpg",0,0
//Break Periods
//Storyboard Layer 0 (Background)
//Storyboard Layer 1 (Fail)
//Storyboard Layer 2 (Pass)
//Storyboard Layer 3 (Foreground)
//Storyboard Layer 4 (Overlay)
//Storyboard Sound Samples

[TimingPoints]
1668,333.333333333333,4,2,1,70,1,0
7001,-100,4,2,1,50,0,0
8334,-100,4,2,1,70,0,0
9667,-100,4,2,1,90,0,0
11001,-100,4,2,1,50,0,0
11667,-100,4,2,1,70,0,0
12001,-100,4,2,1,80,0,0
12334,-100,4,2,1,90,0,1
17001,-100,4,2,1,100,0,1
17501,-100,4,2,1,90,0,1
21667,-100,4,2,1,100,0,1
22834,-100,4,2,1,90,0,1
27667,-100,4,2,1,100,0,1
28167,-100,4,2,1,90,0,1
32334,-100,4,2,1,100,0,1
33334,-100,4,2,1,90,0,1
35001,-100,4,2,1,100,0,1
36001,-100,4,2,1,90,0,1
37667,-100,4,2,1,100,0,1
39001,-100,4,2,1,90,0,0
39084,-100,4,2,1,70,0,0
41667,-100,4,2,1,80,0,0
45001,-100,4,2,1,100,0,0
45667,-100,4,2,1,80,0,0
51001,-100,4,2,1,100,0,0
51834,-100,4,2,1,80,0,0
55667,-100,4,2,1,100,0,0
56334,-100,4,2,1,80,0,0
61667,-100,4,2,1,100,0,0
62334,-172.413793103448,4,2,1,100,0,0
62501,-172.413793103448,4,2,1,20,0,0
64334,-172.413793103448,4,2,1,5,0,0

[Colours]
Combo1 : 170,170,255
Combo2 : 255,255,128
Combo3 : 255,128,255
Combo4 : 255,170,85

[HitObjects]
221,108,1667,6,0,P|162:41|69:62,1,180,4|0,1:0|1:0,0:0:0:0:
35,170,2334,2,0,P|94:237|187:216,1,180,0|0,1:0|1:0,0:0:0:0:
255,124,3001,6,0,L|438:102,1,180,8|8,0:0|0:0,0:0:0:0:
487,216,3667,2,0,L|304:238,1,180,0|0,1:0|1:0,0:0:0:0:
192,195,4334,6,0,P|259:254|238:347,1,180,0|0,1:0|1:0,0:0:0:0:
130,381,5001,2,0,P|63:322|84:229,1,180,0|0,1:0|1:0,0:0:0:0:
175,160,5667,5,8,0:0:0:0:
75,81,6001,1,8,0:0:0:0:
194,34,6334,1,8,0:0:0:0:
194,34,6501,1,0,1:0:0:0:
194,34,6667,1,8,0:0:0:0:
294,113,7001,5,2,1:0:0:0:
292,126,7084,1,2,0:0:0:0:
291,139,7167,1,2,0:0:0:0:
290,153,7250,1,2,0:0:0:0:
288,166,7334,1,2,1:0:0:0:
287,180,7417,1,2,0:0:0:0:
286,193,7501,1,2,0:0:0:0:
285,207,7584,1,2,0:0:0:0:
283,220,7667,2,0,L|278:265,3,45,2|2|2|2,1:0|0:0|0:0|0:0,0:0:0:0:
354,264,8001,2,0,L|349:309,3,45,2|2|2|2,1:0|0:0|0:0|0:0,0:0:0:0:
278,347,8334,5,2,1:0:0:0:
260,349,8417,1,2,0:0:0:0:
243,350,8500,1,2,0:0:0:0:
225,351,8583,1,2,0:0:0:0:
208,355,8667,1,2,1:0:0:0:
189,356,8750,1,2,0:0:0:0:
172,357,8833,1,2,0:0:0:0:
153,358,8917,1,2,0:0:0:0:
136,361,9000,2,0,L|76:367,3,45,2|2|2|2,1:0|0:0|0:0|0:0,0:0:0:0:
44,301,9334,2,0,L|-10:307,3,45,2|2|2|2,1:0|0:0|0:0|0:0,0:0:0:0:
121,265,9667,5,2,1:0:0:0:
124,240,9750,1,2,0:0:0:0:
125,216,9833,1,2,0:0:0:0:
128,190,9916,1,2,0:0:0:0:
132,166,10000,1,2,1:0:0:0:
133,140,10083,1,2,0:0:0:0:
135,116,10166,1,2,0:0:0:0:
137,90,10250,1,2,0:0:0:0:
140,66,10334,2,0,L|148:-18,3,45,2|2|2|2,1:0|0:0|0:0|0:0,0:0:0:0:
223,5,10667,2,0,L|216:59,3,45,2|2|2|2,1:0|0:0|0:0|0:0,0:0:0:0:
300,43,11001,6,0,P|419:55|393:172,1,270,2|2,0:1|0:0,0:0:0:0:
302,213,11667,2,0,L|258:208,4,45,2|2|2|2|2,0:1|0:0|0:0|0:0|0:1,0:0:0:0:
226,111,12167,5,2,0:0:0:0:
226,111,12334,1,6,1:0:0:0:
97,141,12501,1,10,0:0:0:0:
220,192,12667,1,2,1:0:0:0:
151,79,12834,1,10,0:0:0:0:
139,210,13001,1,2,1:0:0:0:
402,153,13334,37,2,1:0:0:0:
309,135,13501,1,10,0:0:0:0:
341,224,13667,1,2,1:0:0:0:
402,153,13834,1,10,0:0:0:0:
309,135,14001,1,2,1:0:0:0:
340,225,14167,1,10,0:0:0:0:
402,153,14334,1,2,1:0:0:0:
214,279,14667,21,2,1:0:0:0:
124,266,14834,1,8,0:0:0:0:
34,253,15001,2,0,P|37:188|142:183,1,180,2|2,1:0|1:0,0:0:0:0:
214,279,15501,1,8,0:0:0:0:
324,216,15667,1,2,1:0:0:0:
237,192,15834,1,8,0:0:0:0:
300,303,16001,2,0,L|392:295,1,90,2|8,1:0|0:0,0:0:0:0:
479,287,16334,1,0,1:0:0:0:
414,175,16501,5,8,0:0:0:0:
307,219,16667,1,0,1:2:0:0:
230,129,16834,1,8,0:0:0:0:
291,33,17001,1,0,1:2:0:0:
404,59,17168,1,8,1:2:0:0:
414,175,17334,1,8,1:2:0:0:
288,238,17501,21,10,0:0:0:0:
357,348,17667,1,6,1:0:0:0:
288,238,17834,1,10,0:0:0:0:
262,364,18001,1,2,1:0:0:0:
194,254,18167,1,10,0:0:0:0:
167,381,18334,1,2,1:0:0:0:
14,186,18667,37,2,1:0:0:0:
106,204,18834,1,10,0:0:0:0:
166,133,19001,1,2,1:0:0:0:
74,115,19167,1,10,0:0:0:0:
14,186,19334,1,2,1:0:0:0:
106,204,19501,1,10,0:0:0:0:
166,133,19667,1,2,1:0:0:0:
358,245,20001,21,2,1:0:0:0:
371,155,20168,1,8,0:0:0:0:
384,65,20335,2,0,P|307:91|293:198,1,180,2|2,1:0|1:0,0:0:0:0:
371,155,20834,1,8,0:0:0:0:
358,245,21001,1,2,1:0:0:0:
461,168,21167,1,8,0:0:0:0:
448,258,21334,1,2,1:0:0:0:
237,160,21667,5,6,1:0:0:0:
388,204,22001,1,6,1:0:0:0:
275,313,22334,1,6,1:0:0:0:
244,85,22834,21,0,0:0:0:0:
244,85,23001,1,6,1:0:0:0:
373,114,23168,1,10,0:0:0:0:
250,166,23334,1,2,1:0:0:0:
319,52,23501,1,10,0:0:0:0:
331,184,23668,1,2,1:0:0:0:
64,143,24001,37,2,1:0:0:0:
157,125,24168,1,10,0:0:0:0:
125,214,24334,1,2,1:0:0:0:
64,143,24501,1,10,0:0:0:0:
157,125,24668,1,2,1:0:0:0:
126,215,24834,1,10,0:0:0:0:
64,143,25001,1,2,1:0:0:0:
265,283,25334,21,2,1:0:0:0:
355,270,25501,1,8,0:0:0:0:
445,257,25668,2,0,P|442:192|337:187,1,180,2|2,1:0|1:0,0:0:0:0:
265,283,26168,1,8,0:0:0:0:
155,220,26334,1,2,1:0:0:0:
242,196,26501,1,8,0:0:0:0:
179,307,26668,2,0,L|87:299,1,90,2|8,1:0|0:0,0:0:0:0:
0,291,27001,1,0,1:0:0:0:
65,179,27168,5,8,0:0:0:0:
172,223,27334,1,0,1:2:0:0:
249,133,27501,1,8,0:0:0:0:
188,37,27668,1,0,1:2:0:0:
75,63,27835,1,8,1:2:0:0:
65,179,28001,1,8,1:2:0:0:
188,252,28167,21,10,0:0:0:0:
100,348,28335,1,2,1:0:0:0:
188,252,28500,1,10,0:0:0:0:
60,224,28667,1,2,1:0:0:0:
188,252,28834,1,10,0:0:0:0:
148,127,29001,1,2,1:0:0:0:
384,68,29334,37,2,1:0:0:0:
289,86,29501,1,10,0:0:0:0:
226,13,29667,1,2,1:0:0:0:
289,86,29834,1,10,0:0:0:0:
256,177,30001,1,2,1:0:0:0:
289,86,30167,1,10,0:0:0:0:
384,68,30334,1,2,1:0:0:0:
493,261,30667,21,2,1:0:0:0:
403,274,30834,1,8,0:0:0:0:
313,287,31001,2,0,P|339:210|446:196,1,180,2|2,1:0|1:0,0:0:0:0:
493,261,31501,1,8,0:0:0:0:
403,274,31668,1,2,1:0:0:0:
506,351,31834,1,8,0:0:0:0:
416,364,32001,1,2,1:0:0:0:
253,186,32334,5,6,1:0:0:0:
404,230,32668,1,6,1:0:0:0:
291,339,33001,1,6,1:0:0:0:
154,170,33334,37,2,1:0:0:0:
141,260,33501,1,8,0:0:0:0:
128,350,33668,2,0,P|205:324|219:217,1,180,2|2,1:0|1:0,0:0:0:0:
141,260,34167,1,8,0:0:0:0:
154,170,34334,1,2,1:0:0:0:
51,247,34501,1,8,0:0:0:0:
64,157,34667,1,2,1:0:0:0:
258,274,35001,5,6,1:0:0:0:
302,123,35335,1,6,1:0:0:0:
411,236,35668,1,6,1:0:0:0:
234,100,36001,37,2,1:0:0:0:
324,113,36168,1,8,0:0:0:0:
414,126,36335,2,0,P|388:49|281:35,1,180,2|2,1:0|1:0,0:0:0:0:
234,100,36835,1,8,0:0:0:0:
324,113,37002,1,2,1:0:0:0:
221,190,37168,1,8,0:0:0:0:
311,203,37335,1,2,1:0:0:0:
101,59,37667,5,6,1:0:0:0:
117,219,38001,1,6,1:0:0:0:
135,380,38334,1,6,1:0:0:0:
117,219,38668,1,6,1:0:0:0:
101,59,39001,1,6,1:0:0:0:
256,192,39084,12,0,40334,0:0:0:0:
220,140,40501,6,0,P|256:108|320:112,2,90,2|0|2,0:0|0:0|0:0,0:0:0:0:
158,213,41001,2,0,P|185:247|227:260,1,90,2|0,0:0|0:0,0:0:0:0:
321,277,41334,2,0,P|337:235|327:192,1,90,2|0,0:0|0:0,0:0:0:0:
220,140,41667,6,0,L|209:229,1,90,6|8,1:0|0:0,0:0:0:0:
141,129,42001,2,0,L|130:218,1,90,2|8,1:0|0:0,0:0:0:0:
62,315,42334,5,2,1:0:0:0:
62,315,42501,1,8,0:0:0:0:
158,303,42667,1,2,1:0:0:0:
158,303,42834,1,8,0:0:0:0:
256,251,43001,6,0,L|245:340,1,90,2|8,1:0|0:0,0:0:0:0:
335,262,43334,2,0,L|324:351,1,90,2|8,1:0|0:0,0:0:0:0:
432,302,43667,5,2,1:0:0:0:
432,302,43834,1,8,0:0:0:0:
420,206,44000,1,2,1:0:0:0:
420,206,44167,1,8,0:0:0:0:
327,150,44334,6,0,L|316:239,1,90,2|8,1:0|0:0,0:0:0:0:
248,139,44667,2,0,L|237:228,1,90,2|8,1:0|0:0,0:0:0:0:
166,76,45001,5,2,1:0:0:0:
166,76,45168,1,8,0:0:0:0:
295,59,45334,1,2,1:0:0:0:
295,59,45501,1,8,0:0:0:0:
354,175,45667,6,0,L|343:264,1,90,2|8,1:0|0:0,0:0:0:0:
433,186,46001,2,0,L|422:275,1,90,2|8,1:0|0:0,0:0:0:0:
484,357,46334,5,2,1:0:0:0:
388,369,46501,1,8,0:0:0:0:
388,369,46667,1,2,1:0:0:0:
292,381,46834,1,8,0:0:0:0:
208,300,47001,6,0,L|197:211,1,90,6|8,1:0|0:0,0:0:0:0:
129,311,47334,2,0,L|118:222,1,90,2|8,1:0|0:0,0:0:0:0:
77,133,47667,5,2,1:0:0:0:
173,145,47834,1,8,0:0:0:0:
173,145,48000,1,2,1:0:0:0:
269,157,48167,1,8,0:0:0:0:
357,208,48334,6,0,L|346:119,1,90,2|8,1:0|0:0,0:0:0:0:
436,197,48668,2,0,L|425:108,1,90,2|8,1:0|0:0,0:0:0:0:
471,28,49001,5,2,1:0:0:0:
375,16,49168,1,8,0:0:0:0:
375,16,49334,1,2,1:0:0:0:
279,4,49501,1,8,0:0:0:0:
201,98,49667,37,6,1:0:0:0:
201,98,50334,1,6,1:0:0:0:
201,98,51001,1,6,1:0:0:0:
356,76,51335,1,6,1:0:0:0:
297,222,51667,5,6,1:0:0:0:
297,222,51834,1,10,0:0:0:0:
201,234,52001,1,2,1:0:0:0:
105,246,52167,1,10,0:0:0:0:
33,182,52334,6,0,P|26:137|54:101,1,90,6|10,1:0|0:0,0:0:0:0:
96,25,52667,2,0,P|141:18|177:46,1,90,2|10,1:0|0:0,0:0:0:0:
264,28,53001,5,2,1:0:0:0:
256,118,53167,1,10,0:0:0:0:
249,209,53334,1,2,1:0:0:0:
242,300,53501,1,10,0:0:0:0:
320,355,53667,6,0,P|363:362|399:337,1,90,2|10,1:0|0:0,0:0:0:0:
483,303,54001,2,0,P|490:259|465:223,1,90,2|10,1:0|0:0,0:0:0:0:
378,198,54334,5,2,1:0:0:0:
295,206,54500,1,10,0:0:0:0:
212,212,54667,1,2,1:0:0:0:
128,218,54834,1,10,0:0:0:0:
45,181,55001,6,0,P|38:136|66:100,1,90,2|10,1:0|0:0,0:0:0:0:
108,24,55334,2,0,P|153:17|189:45,1,90,2|10,1:0|0:0,0:0:0:0:
280,17,55667,5,2,1:0:0:0:
271,118,55833,1,10,0:0:0:0:
263,221,56000,1,2,1:0:0:0:
255,324,56167,1,10,0:0:0:0:
331,372,56334,6,0,P|374:379|410:354,1,90,2|10,1:0|0:0,0:0:0:0:
494,320,56667,2,0,P|501:276|476:240,1,90,2|10,1:0|0:0,0:0:0:0:
390,267,57001,5,2,1:0:0:0:
390,267,57167,1,10,0:0:0:0:
402,171,57334,1,2,1:0:0:0:
414,75,57500,1,10,0:0:0:0:
346,15,57667,6,0,P|301:8|265:36,1,90,6|10,1:0|0:0,0:0:0:0:
177,15,58001,2,0,P|132:8|96:36,1,90,2|10,1:0|0:0,0:0:0:0:
43,104,58334,5,2,1:0:0:0:
133,112,58500,1,10,0:0:0:0:
224,119,58667,1,2,1:0:0:0:
315,126,58834,1,10,0:0:0:0:
400,97,59001,6,0,P|425:132|417:176,1,90,2|10,1:0|0:0,0:0:0:0:
487,233,59334,2,0,P|512:268|504:312,1,90,2|10,1:0|0:0,0:0:0:0:
421,347,59667,5,2,1:0:0:0:
338,339,59833,1,10,0:0:0:0:
255,333,60000,1,2,1:0:0:0:
171,327,60167,1,10,0:0:0:0:
116,221,60334,37,6,1:0:0:0:
116,221,61001,1,6,1:0:0:0:
116,221,61667,1,6,1:0:0:0:
271,199,62000,1,6,1:0:0:0:
175,75,62334,6,0,B|218:46|296:42|296:42|335:108|335:159|335:159|316:109|276:83|276:83|219:184|219:184|202:192|184:188|184:188|71:175|7:295|70:391|132:425|248:423|311:302|237:217,1,1044.00003186035,6|0,1:0|0:0,0:0:0:0:
