osu file format v14

[General]
AudioFilename: hoang.mp3
AudioLeadIn: 0
PreviewTime: 12140
Countdown: 0
SampleSet: Soft
StackLeniency: 0.5
Mode: 0
LetterboxInBreaks: 0
WidescreenStoryboard: 1

[Editor]
Bookmarks: 1681,7015,12358,41681,52348,62348
DistanceSpacing: 1
BeatDivisor: 4
GridSize: 4
TimelineZoom: 1

[Metadata]
Title:Hoangpungnyuga
TitleUnicode:호앙풍류가
Artist:MatrixMarioX & MowtenDoo
ArtistUnicode:MatrixMarioX & MowtenDoo
Creator:Sonnyc
Version:Hard
Source:나와 호랑이님
Tags:상록수 호랑풍류가 Billy Herrington Gachimuchi International Wrestling Festival 2015 -WORLD OF ANIKI- korean novelty Horang Hoang Pungryuga Horangpungnyuga
BeatmapID:2686426
BeatmapSetID:1292748

[Difficulty]
HPDrainRate:5
CircleSize:4
OverallDifficulty:6
ApproachRate:7
SliderMultiplier:1.6
SliderTickRate:1

[Events]
//Background and Video events
0,0,"bg.jpg",0,0
//Break Periods
//Storyboard Layer 0 (Background)
//Storyboard Layer 1 (Fail)
//Storyboard Layer 2 (Pass)
//Storyboard Layer 3 (Foreground)
//Storyboard Layer 4 (Overlay)
//Storyboard Sound Samples

[TimingPoints]
1668,333.333333333333,4,2,1,70,1,0
7001,-100,4,2,1,50,0,0
8334,-100,4,2,1,70,0,0
9667,-100,4,2,1,90,0,0
11001,-100,4,2,1,50,0,0
11667,-100,4,2,1,70,0,0
12001,-100,4,2,1,80,0,0
12334,-100,4,2,1,90,0,1
17001,-100,4,2,1,100,0,1
17501,-100,4,2,1,90,0,1
21667,-100,4,2,1,100,0,1
22834,-100,4,2,1,90,0,1
27667,-100,4,2,1,100,0,1
28167,-100,4,2,1,90,0,1
32334,-100,4,2,1,100,0,1
33334,-100,4,2,1,90,0,1
35001,-100,4,2,1,100,0,1
36001,-100,4,2,1,90,0,1
37667,-100,4,2,1,100,0,1
39001,-100,4,2,1,90,0,0
39084,-100,4,2,1,70,0,0
41667,-100,4,2,1,80,0,0
45001,-100,4,2,1,100,0,0
45667,-100,4,2,1,80,0,0
51001,-100,4,2,1,100,0,0
51834,-100,4,2,1,80,0,0
55667,-100,4,2,1,100,0,0
56334,-100,4,2,1,80,0,0
61667,-100,4,2,1,100,0,0
62334,-166.666666666667,4,2,1,100,0,0
62501,-166.666666666667,4,2,1,20,0,0
64334,-166.666666666667,4,2,1,5,0,0

[Colours]
Combo1 : 170,170,255
Combo2 : 255,255,128
Combo3 : 255,128,255
Combo4 : 255,170,85

[HitObjects]
334,214,1667,6,0,P|361:176|469:160,1,160,4|0,1:0|1:0,0:0:0:0:
512,258,2334,2,0,P|485:296|377:312,1,160,0|0,1:0|1:0,0:0:0:0:
290,259,3001,6,0,L|311:101,1,160,8|8,0:0|0:0,0:0:0:0:
218,48,3667,2,0,L|197:206,1,160,0|0,1:0|1:0,0:0:0:0:
132,294,4334,6,0,P|54:294|0:239,1,160,0|0,1:0|1:0,0:0:0:0:
44,140,5001,2,0,P|121:139|176:194,1,160,0|0,1:0|1:0,0:0:0:0:
132,294,5667,5,8,0:0:0:0:
256,257,6001,1,8,0:0:0:0:
354,352,6334,1,8,0:0:0:0:
354,352,6501,1,0,1:0:0:0:
354,352,6667,1,8,0:0:0:0:
454,271,7001,5,2,1:0:0:0:
452,258,7084,1,2,0:0:0:0:
451,245,7168,1,2,0:0:0:0:
372,231,7334,2,0,L|375:271,2,40,2|2|0,1:0|0:0|0:0,0:0:0:0:
293,217,7667,2,0,L|297:258,6,40,2|2|2|2|2|2|2,1:0|0:0|0:0|0:0|1:0|0:0|0:0,0:0:0:0:
217,189,8334,5,2,1:0:0:0:
215,202,8417,1,2,0:0:0:0:
214,215,8501,1,2,0:0:0:0:
135,229,8667,2,0,L|138:189,2,40,2|2|0,1:0|0:0|0:0,0:0:0:0:
56,243,9000,2,0,L|60:202,6,40,2|2|2|2|2|2|2,1:0|0:0|0:0|0:0|1:0|0:0|0:0,0:0:0:0:
105,306,9667,5,2,1:0:0:0:
107,319,9750,1,2,0:0:0:0:
108,332,9834,1,2,0:0:0:0:
186,319,10000,2,0,L|189:359,2,40,2|2|0,1:0|0:0|0:0,0:0:0:0:
264,306,10334,2,0,L|267:345,6,40,2|2|2|2|2|2|2,1:0|0:0|0:0|0:0|1:0|0:0|0:0,0:0:0:0:
344,318,11001,6,0,P|382:244|210:228,1,320,2|2,0:1|0:1,0:0:0:0:
56,84,12167,5,2,0:0:0:0:
135,75,12334,1,6,1:0:0:0:
294,58,12667,1,2,1:0:0:0:
453,42,13001,1,8,0:0:0:0:
386,187,13334,37,2,1:0:0:0:
386,187,13501,1,10,0:0:0:0:
453,230,13667,2,0,L|443:324,1,80,2|10,1:0|0:0,0:0:0:0:
368,285,14001,1,2,1:0:0:0:
291,308,14167,1,10,0:0:0:0:
350,363,14334,1,2,1:0:0:0:
191,343,14667,21,2,1:0:0:0:
111,332,14834,1,8,0:0:0:0:
31,321,15001,2,0,P|14:273|110:230,1,160,2|2,1:0|1:0,0:0:0:0:
168,245,15501,1,8,0:0:0:0:
168,245,15667,2,0,L|163:166,1,80,2|8,1:0|0:0,0:0:0:0:
155,86,16001,1,0,1:0:0:0:
313,108,16334,1,0,1:0:0:0:
287,183,16501,5,8,0:0:0:0:
367,171,16667,1,0,1:0:0:0:
402,244,16834,1,8,0:0:0:0:
345,299,17001,1,0,1:2:0:0:
274,261,17167,1,8,0:0:0:0:
287,183,17334,1,8,1:2:0:0:
367,171,17501,21,10,0:0:0:0:
367,171,17668,1,6,1:0:0:0:
208,154,18001,1,2,1:0:0:0:
49,138,18335,1,8,0:0:0:0:
160,23,18667,37,2,1:0:0:0:
160,23,18834,1,10,0:0:0:0:
227,66,19000,2,0,L|217:160,1,80,2|10,1:0|0:0,0:0:0:0:
155,195,19334,1,2,1:0:0:0:
162,275,19500,1,10,0:0:0:0:
170,354,19667,1,2,1:0:0:0:
316,288,20001,21,2,1:0:0:0:
396,299,20168,1,8,0:0:0:0:
476,310,20334,2,0,P|493:262|397:219,1,160,2|2,1:0|1:0,0:0:0:0:
350,171,20835,1,8,0:0:0:0:
350,171,21001,2,0,L|271:176,1,80,2|8,1:0|0:0,0:0:0:0:
190,183,21334,1,2,1:0:0:0:
316,288,21667,5,6,1:0:0:0:
316,288,22001,1,6,1:0:0:0:
316,288,22334,1,6,1:0:0:0:
456,84,22834,21,0,0:0:0:0:
377,75,23001,1,6,1:0:0:0:
218,58,23334,1,2,1:0:0:0:
59,42,23668,1,8,0:0:0:0:
126,187,24001,37,2,1:0:0:0:
126,187,24168,1,10,0:0:0:0:
59,230,24334,2,0,L|69:324,1,80,2|10,1:0|0:0,0:0:0:0:
144,285,24668,1,2,1:0:0:0:
221,308,24834,1,10,0:0:0:0:
162,363,25001,1,2,1:0:0:0:
321,343,25334,21,2,1:0:0:0:
401,332,25501,1,8,0:0:0:0:
481,321,25668,2,0,P|498:273|402:230,1,160,2|2,1:0|1:0,0:0:0:0:
346,245,26168,1,8,0:0:0:0:
346,245,26334,2,0,L|351:166,1,80,2|8,1:0|0:0,0:0:0:0:
356,86,26668,1,2,1:0:0:0:
201,108,27001,1,0,1:0:0:0:
227,183,27168,5,8,0:0:0:0:
147,171,27334,1,0,1:0:0:0:
112,244,27501,1,8,0:0:0:0:
169,299,27668,1,0,1:2:0:0:
240,261,27834,1,8,0:0:0:0:
227,183,28001,1,8,1:2:0:0:
214,105,28167,21,10,0:0:0:0:
214,105,28335,1,2,1:0:0:0:
364,160,28667,1,2,1:0:0:0:
240,261,29001,1,8,0:0:0:0:
90,206,29334,37,2,1:0:0:0:
90,206,29501,1,10,0:0:0:0:
133,139,29668,2,0,L|227:149,1,80,2|10,1:0|0:0,0:0:0:0:
262,211,30001,1,2,1:0:0:0:
342,204,30168,1,10,0:0:0:0:
421,196,30334,1,2,1:0:0:0:
329,65,30667,21,2,1:0:0:0:
249,54,30834,1,8,0:0:0:0:
169,43,31001,2,0,P|121:26|78:122,1,160,2|2,1:0|1:0,0:0:0:0:
126,160,31501,1,8,0:0:0:0:
126,160,31667,2,0,L|121:239,1,80,2|8,1:0|0:0,0:0:0:0:
114,320,32000,1,2,1:0:0:0:
226,198,32333,5,6,1:0:0:0:
226,198,32667,1,6,1:0:0:0:
226,198,33000,1,6,1:0:0:0:
169,43,33334,37,2,1:0:0:0:
248,53,33501,1,8,0:0:0:0:
328,65,33668,2,0,P|378:61|393:166,1,160,2|2,1:0|1:0,0:0:0:0:
339,189,34168,1,8,0:0:0:0:
339,189,34334,2,0,L|322:266,1,80,2|8,1:0|0:0,0:0:0:0:
302,344,34667,1,2,1:0:0:0:
226,198,35001,5,6,1:0:0:0:
226,198,35335,1,6,1:0:0:0:
226,198,35668,1,6,1:0:0:0:
329,65,36001,37,2,1:0:0:0:
249,54,36168,1,8,0:0:0:0:
169,43,36335,2,0,P|121:26|78:122,1,160,2|2,1:0|1:0,0:0:0:0:
126,160,36835,1,8,0:0:0:0:
126,160,37001,2,0,L|121:239,1,80,2|8,1:0|0:0,0:0:0:0:
114,320,37334,1,2,1:0:0:0:
226,198,37667,5,6,1:0:0:0:
226,198,38001,1,6,1:0:0:0:
382,229,38334,1,6,1:0:0:0:
382,229,38667,1,6,1:0:0:0:
226,198,39001,1,6,1:0:0:0:
256,192,39084,12,0,40334,0:0:0:0:
369,134,41001,21,0,0:0:0:0:
369,134,41168,2,0,L|372:54,2,80,2|2|2,0:0|0:0|0:0,0:0:0:0:
446,116,41667,2,0,L|438:280,1,160,6|2,1:0|1:0,0:0:0:0:
306,367,42334,5,2,1:0:0:0:
306,367,42501,1,8,0:0:0:0:
229,343,42667,2,0,L|233:262,1,80,2|8,1:0|0:0,0:0:0:0:
312,279,43001,2,0,L|320:115,1,160,2|2,1:0|1:0,0:0:0:0:
182,38,43667,6,0,L|101:47,1,80,2|8,1:0|0:0,0:0:0:0:
131,122,44001,2,0,L|212:113,1,80,2|8,1:0|0:0,0:0:0:0:
262,52,44334,2,0,L|254:211,1,160,2|2,1:0|1:0,0:0:0:0:
153,336,45001,5,2,1:0:0:0:
153,336,45168,1,8,0:0:0:0:
245,328,45334,1,2,1:0:0:0:
245,328,45501,1,8,0:0:0:0:
336,320,45667,2,0,L|345:130,1,160,2|2,1:0|1:0,0:0:0:0:
197,93,46334,6,0,L|201:172,1,80,2|8,1:0|0:0,0:0:0:0:
127,205,46667,2,0,L|123:125,1,80,2|8,1:0|0:0,0:0:0:0:
46,104,47001,2,0,L|54:263,1,160,6|2,1:0|1:0,0:0:0:0:
177,364,47667,5,2,1:0:0:0:
177,364,47834,1,8,0:0:0:0:
254,340,48000,2,0,L|250:259,1,80,2|8,1:0|0:0,0:0:0:0:
171,276,48334,2,0,L|163:112,1,160,2|2,1:0|1:0,0:0:0:0:
305,41,49001,6,0,L|386:50,1,80,2|8,1:0|0:0,0:0:0:0:
356,124,49335,2,0,L|275:115,1,80,2|8,1:0|0:0,0:0:0:0:
225,54,49667,1,6,1:0:0:0:
269,276,50334,1,6,1:0:0:0:
225,54,51001,1,6,1:0:0:0:
225,54,51334,1,6,1:0:0:0:
225,54,51667,1,6,1:0:0:0:
158,93,51834,22,0,P|155:132|175:166,2,80,8|2|8,0:0|1:0|0:0,0:0:0:0:
225,54,52334,2,0,P|279:94|251:170,1,160,6|2,1:0|1:0,0:0:0:0:
105,238,53001,5,2,1:0:0:0:
105,238,53167,1,8,0:0:0:0:
110,314,53334,2,0,P|144:333|183:331,1,80,2|8,1:0|0:0,0:0:0:0:
222,265,53667,2,0,P|181:210|105:238,1,160,2|2,1:0|1:0,0:0:0:0:
6,111,54334,6,0,P|5:71|27:38,1,80,2|8,1:0|0:0,0:0:0:0:
104,39,54667,2,0,P|138:20|177:21,1,80,2|8,1:0|0:0,0:0:0:0:
216,88,55000,2,0,P|175:142|99:114,1,160,2|2,1:0|1:0,0:0:0:0:
53,267,55667,5,2,1:0:0:0:
53,267,55833,1,8,0:0:0:0:
145,255,56000,1,2,1:0:0:0:
145,255,56166,1,8,0:0:0:0:
236,244,56334,2,0,P|182:284|210:360,1,160,2|2,1:0|1:0,0:0:0:0:
380,308,57001,6,0,P|340:309|307:287,1,80,2|8,1:0|0:0,0:0:0:0:
308,210,57334,2,0,P|289:176|290:137,1,80,2|8,1:0|0:0,0:0:0:0:
357,98,57667,2,0,P|411:139|383:215,1,160,6|2,1:0|1:0,0:0:0:0:
223,237,58334,5,2,1:0:0:0:
223,237,58500,1,8,0:0:0:0:
218,161,58667,2,0,P|184:142|145:144,1,80,2|8,1:0|0:0,0:0:0:0:
106,210,59000,2,0,P|147:265|223:237,1,160,2|2,1:0|1:0,0:0:0:0:
357,150,59667,6,0,P|397:149|430:171,1,80,2|8,1:0|0:0,0:0:0:0:
429,248,60000,2,0,P|448:282|447:321,1,80,2|8,1:0|0:0,0:0:0:0:
380,360,60334,1,6,1:0:0:0:
158,316,61001,1,6,1:0:0:0:
380,360,61668,1,6,1:0:0:0:
380,360,62001,1,6,1:0:0:0:
380,360,62334,1,6,1:0:0:0:
256,192,62501,12,0,65667,0:0:0:0:
