osu file format v14

[General]
AudioFilename: hoang.mp3
AudioLeadIn: 0
PreviewTime: 12140
Countdown: 0
SampleSet: Soft
StackLeniency: 0.2
Mode: 0
LetterboxInBreaks: 0
WidescreenStoryboard: 0

[Editor]
Bookmarks: 1681,7015,12358,41681,52348,62348
DistanceSpacing: 2.5
BeatDivisor: 4
GridSize: 4
TimelineZoom: 1

[Metadata]
Title:Hoangpungnyuga
TitleUnicode:호앙풍류가
Artist:MatrixMarioX & MowtenDoo
ArtistUnicode:MatrixMarioX & MowtenDoo
Creator:Sonnyc
Version:ExpertPlus
Source:나와 호랑이님
Tags:상록수 호랑풍류가 Billy Herrington Gachimuchi International Wrestling Festival 2015 -WORLD OF ANIKI- korean novelty Horang Hoang Pungryuga Horangpungnyuga
BeatmapID:2682795
BeatmapSetID:1292748

[Difficulty]
HPDrainRate:6
CircleSize:4.3
OverallDifficulty:9
ApproachRate:9.2
SliderMultiplier:1.8
SliderTickRate:1

[Events]
//Background and Video events
0,0,"bg.jpg",0,0
//Break Periods
//Storyboard Layer 0 (Background)
//Storyboard Layer 1 (Fail)
//Storyboard Layer 2 (Pass)
//Storyboard Layer 3 (Foreground)
//Storyboard Layer 4 (Overlay)
//Storyboard Sound Samples

[TimingPoints]
1668,333.333333333333,4,2,1,70,1,0
7001,-100,4,2,1,50,0,0
8334,-100,4,2,1,70,0,0
9667,-100,4,2,1,90,0,0
11001,-100,4,2,1,50,0,0
11667,-100,4,2,1,70,0,0
12001,-100,4,2,1,80,0,0
12334,-100,4,2,1,90,0,1
17001,-100,4,2,1,100,0,1
17501,-100,4,2,1,90,0,1
21667,-100,4,2,1,100,0,1
22834,-100,4,2,1,90,0,1
27667,-100,4,2,1,100,0,1
28167,-100,4,2,1,90,0,1
32334,-100,4,2,1,100,0,1
33334,-100,4,2,1,90,0,1
35001,-100,4,2,1,100,0,1
36001,-100,4,2,1,90,0,1
37667,-100,4,2,1,100,0,1
39001,-100,4,2,1,90,0,0
39084,-100,4,2,1,70,0,0
41667,-66.6666666666667,4,2,1,80,0,0
45001,-66.6666666666667,4,2,1,100,0,0
45667,-66.6666666666667,4,2,1,80,0,0
51001,-66.6666666666667,4,2,1,100,0,0
51834,-44.4444444444445,4,2,1,80,0,0
52667,-66.6666666666667,4,2,1,80,0,0
53001,-66.6666666666667,4,2,1,80,0,0
53667,-44.4444444444445,4,2,1,80,0,0
54001,-33.3333333333333,4,2,1,80,0,0
54334,-66.6666666666667,4,2,1,80,0,0
55001,-44.4444444444445,4,2,1,80,0,0
55334,-33.3333333333333,4,2,1,80,0,0
55667,-66.6666666666667,4,2,1,100,0,0
56334,-44.4444444444445,4,2,1,80,0,0
56667,-33.3333333333333,4,2,1,80,0,0
57001,-66.6666666666667,4,2,1,80,0,0
57667,-44.4444444444445,4,2,1,80,0,0
58001,-66.6666666666667,4,2,1,80,0,0
58334,-66.6666666666667,4,2,1,80,0,0
59001,-44.4444444444445,4,2,1,80,0,0
59334,-33.3333333333333,4,2,1,80,0,0
59667,-66.6666666666667,4,2,1,80,0,0
61667,-66.6666666666667,4,2,1,100,0,0
62334,-170.5,4,2,1,100,0,0
62501,-172.413793103448,4,2,1,20,0,0
64334,-172.413793103448,4,2,1,5,0,0

[Colours]
Combo1 : 170,170,255
Combo2 : 255,255,128
Combo3 : 255,128,255
Combo4 : 255,170,85

[HitObjects]
454,168,1667,6,0,P|471:236|399:314,1,180,4|0,1:2|1:0,0:0:0:0:
58,216,2334,2,0,P|41:148|113:70,1,180,0|0,1:2|1:0,0:0:0:0:
408,91,3001,6,0,L|227:104,1,180,8|8,0:0|0:0,0:0:0:0:
105,294,3668,2,0,L|286:307,1,180,0|0,1:0|1:0,0:0:0:0:
157,43,4334,6,0,P|93:102|106:187,1,180,0|0,1:2|1:0,0:0:0:0:
355,341,5001,2,0,P|418:281|405:196,1,180,0|0,1:2|1:0,0:0:0:0:
209,50,5667,5,10,0:0:0:0:
112,357,6001,1,10,0:0:0:0:
426,287,6334,1,10,0:0:0:0:
330,273,6501,1,0,1:0:0:0:
366,364,6667,1,10,0:0:0:0:
256,184,7001,5,2,1:0:0:0:
265,205,7084,1,2,0:0:0:0:
267,227,7167,1,2,0:0:0:0:
263,249,7250,1,2,0:0:0:0:
252,269,7334,1,2,1:0:0:0:
235,284,7417,1,2,0:0:0:0:
215,293,7500,1,2,0:0:0:0:
193,296,7584,1,2,0:0:0:0:
171,292,7667,1,2,1:0:0:0:
151,281,7750,1,2,0:0:0:0:
135,265,7834,1,2,0:0:0:0:
126,245,7917,1,2,0:0:0:0:
122,223,8000,1,2,1:0:0:0:
126,201,8084,1,2,0:0:0:0:
136,181,8167,1,2,0:0:0:0:
152,165,8250,1,2,0:0:0:0:
133,128,8335,5,2,1:0:0:0:
109,152,8417,1,2,0:0:0:0:
94,182,8500,1,2,0:0:0:0:
88,214,8584,1,2,0:0:0:0:
94,246,8668,1,2,1:0:0:0:
107,275,8750,1,2,0:0:0:0:
131,298,8834,1,2,0:0:0:0:
161,315,8917,1,2,0:0:0:0:
193,320,9001,1,2,1:0:0:0:
225,316,9084,1,2,0:0:0:0:
254,303,9167,1,2,0:0:0:0:
279,280,9250,1,2,0:0:0:0:
296,252,9335,1,2,1:0:0:0:
302,219,9417,1,2,0:0:0:0:
298,187,9500,1,2,0:0:0:0:
285,156,9583,1,2,0:0:0:0:
316,130,9668,5,2,1:0:0:0:
333,171,9750,1,2,0:0:0:0:
337,213,9833,1,2,0:0:0:0:
329,256,9916,1,2,0:0:0:0:
308,294,10001,1,2,1:0:0:0:
275,324,10083,1,2,0:0:0:0:
236,341,10166,1,2,0:0:0:0:
194,347,10250,1,2,0:0:0:0:
151,339,10334,1,2,1:0:0:0:
113,318,10416,1,2,0:0:0:0:
82,287,10500,1,2,0:0:0:0:
64,248,10583,1,2,0:0:0:0:
56,205,10667,1,2,1:0:0:0:
64,163,10750,1,2,0:0:0:0:
83,124,10833,1,2,0:0:0:0:
114,93,10916,1,2,0:0:0:0:
158,80,11001,5,2,0:1:0:0:
150,103,11084,1,2,0:0:0:0:
132,120,11167,1,2,0:0:0:0:
109,127,11251,1,2,0:0:0:0:
85,123,11334,1,2,0:0:0:0:
65,108,11417,1,2,0:0:0:0:
55,86,11501,1,2,0:0:0:0:
55,61,11584,1,2,0:0:0:0:
83,25,11667,37,2,0:1:0:0:
133,7,11750,1,2,0:0:0:0:
186,14,11834,1,2,0:0:0:0:
231,45,11917,1,2,0:0:0:0:
256,92,12000,1,2,0:1:0:0:
282,139,12084,1,2,0:0:0:0:
326,171,12167,1,2,0:0:0:0:
379,178,12251,1,2,0:0:0:0:
431,161,12334,21,6,1:0:0:0:
81,223,12501,1,10,0:0:0:0:
316,25,12667,5,2,1:0:0:0:
195,358,12833,1,10,0:0:0:0:
142,56,13001,5,2,1:0:0:0:
369,327,13167,1,10,0:0:0:0:
142,56,13334,5,2,1:0:0:0:
267,206,13501,1,10,0:0:0:0:
75,239,13667,1,2,1:0:0:0:
247,95,13835,1,10,0:0:0:0:
181,278,14001,1,2,1:0:0:0:
55,129,14167,1,10,0:0:0:0:
247,95,14334,2,0,L|241:189,1,90,2|10,1:0|0:0,0:0:0:0:
426,46,14667,5,2,1:0:0:0:
461,237,14834,1,8,0:0:0:0:
426,46,15001,2,0,P|402:79|397:130,1,90,2|8,1:0|0:0,0:0:0:0:
244,344,15334,5,2,1:0:0:0:
197,90,15501,1,8,0:0:0:0:
244,344,15667,1,2,1:0:0:0:
346,194,15834,1,8,0:0:0:0:
95,239,16001,2,0,P|49:263|32:301,1,90,2|8,1:0|0:0,0:0:0:0:
244,344,16334,1,0,1:0:0:0:
114,36,16501,5,8,0:0:0:0:
350,3,16667,1,0,1:2:0:0:
455,218,16834,1,8,0:0:0:0:
283,383,17001,1,0,1:2:0:0:
72,271,17168,1,8,1:2:0:0:
114,36,17334,1,8,1:2:0:0:
459,66,17501,21,10,0:0:0:0:
408,348,17667,1,6,1:0:0:0:
459,66,17834,1,10,0:0:0:0:
312,305,18001,5,2,1:0:0:0:
262,22,18168,1,10,0:0:0:0:
242,376,18334,5,2,1:0:0:0:
96,126,18501,1,10,0:0:0:0:
357,186,18667,5,2,1:0:0:0:
232,336,18834,1,10,0:0:0:0:
424,369,19000,1,2,1:0:0:0:
374,77,19167,1,10,0:0:0:0:
249,227,19334,1,2,1:0:0:0:
441,260,19500,1,10,0:0:0:0:
374,77,19667,2,0,L|357:185,1,90,2|10,1:0|0:0,0:0:0:0:
146,60,20001,5,2,1:0:0:0:
181,251,20168,1,8,0:0:0:0:
146,60,20335,2,0,P|122:93|117:144,1,90,2|8,1:0|0:0,0:0:0:0:
289,292,20667,5,2,1:0:0:0:
446,259,20834,1,8,0:0:0:0:
258,133,21000,1,2,1:0:0:0:
415,101,21167,1,8,0:0:0:0:
289,292,21334,2,0,P|333:296|369:321,1,90,2|8,1:0|0:0,0:0:0:0:
141,328,21667,5,6,1:0:0:0:
195,24,22001,37,6,1:0:0:0:
431,223,22334,21,6,1:0:0:0:
82,161,22834,5,0,0:0:0:0:
82,161,23001,1,6,1:0:0:0:
431,223,23167,1,10,0:0:0:0:
196,25,23334,5,2,1:0:0:0:
317,358,23500,1,10,0:0:0:0:
370,56,23668,5,2,1:0:0:0:
143,327,23834,1,10,0:0:0:0:
370,56,24001,5,2,1:0:0:0:
245,206,24168,1,10,0:0:0:0:
437,239,24334,1,2,1:0:0:0:
265,95,24502,1,10,0:0:0:0:
331,278,24668,1,2,1:0:0:0:
457,129,24834,1,10,0:0:0:0:
265,95,25001,2,0,L|271:189,1,90,2|10,1:0|0:0,0:0:0:0:
86,46,25334,5,2,1:0:0:0:
51,237,25501,1,8,0:0:0:0:
86,46,25668,2,0,P|110:79|115:130,1,90,2|8,1:0|0:0,0:0:0:0:
268,344,26001,5,2,1:0:0:0:
315,90,26168,1,8,0:0:0:0:
268,344,26334,1,2,1:0:0:0:
166,194,26501,1,8,0:0:0:0:
417,239,26668,2,0,P|463:263|480:301,1,90,2|8,1:0|0:0,0:0:0:0:
268,344,27001,1,0,1:0:0:0:
397,36,27168,5,8,0:0:0:0:
161,3,27334,1,0,1:2:0:0:
56,218,27501,1,8,0:0:0:0:
228,383,27668,1,0,1:2:0:0:
439,271,27835,1,8,1:2:0:0:
397,36,28001,1,8,1:2:0:0:
55,66,28167,21,10,0:0:0:0:
106,348,28334,1,2,1:0:0:0:
55,66,28500,1,10,0:0:0:0:
325,163,28667,5,2,1:0:0:0:
106,348,28834,1,10,0:0:0:0:
55,66,29001,5,2,1:0:0:0:
324,163,29168,1,10,0:0:0:0:
41,220,29334,5,2,1:0:0:0:
233,272,29500,1,10,0:0:0:0:
306,89,29667,1,2,1:0:0:0:
164,229,29833,1,10,0:0:0:0:
285,383,30001,1,2,1:0:0:0:
235,190,30167,1,10,0:0:0:0:
41,220,30334,2,0,L|134:230,1,90,2|10,1:0|0:0,0:0:0:0:
417,257,30667,5,2,1:0:0:0:
226,292,30834,1,8,0:0:0:0:
417,257,31001,2,0,P|384:233|333:228,1,90,2|8,1:0|0:0,0:0:0:0:
130,311,31334,5,2,1:0:0:0:
163,154,31501,1,8,0:0:0:0:
289,342,31667,1,2,1:0:0:0:
321,185,31834,1,8,0:0:0:0:
130,311,32001,2,0,P|166:285|210:281,1,90,2|8,1:0|0:0,0:0:0:0:
371,328,32334,5,6,1:0:0:0:
317,24,32667,37,6,1:0:0:0:
81,223,33001,21,6,1:0:0:0:
417,257,33334,5,2,1:0:0:0:
226,292,33500,1,8,0:0:0:0:
417,257,33667,2,0,P|384:233|333:228,1,90,2|8,1:0|0:0,0:0:0:0:
64,89,34001,5,2,1:0:0:0:
97,246,34168,1,8,0:0:0:0:
223,58,34334,1,2,1:0:0:0:
255,215,34501,1,8,0:0:0:0:
64,89,34667,2,0,P|100:63|144:59,1,90,2|8,1:0|0:0,0:0:0:0:
434,164,35001,5,6,1:0:0:0:
198,363,35334,37,6,1:0:0:0:
144,59,35667,21,6,1:0:0:0:
417,257,36001,5,2,1:0:0:0:
226,292,36167,1,8,0:0:0:0:
417,257,36334,2,0,P|384:233|333:228,1,90,2|8,1:0|0:0,0:0:0:0:
68,170,36668,5,2,1:0:0:0:
225,137,36834,1,8,0:0:0:0:
99,328,37001,1,2,1:0:0:0:
256,296,37167,1,8,0:0:0:0:
68,170,37334,2,0,P|104:144|148:140,1,90,2|8,1:0|0:0,0:0:0:0:
302,382,37667,5,6,1:0:0:0:
103,53,38001,37,6,1:0:0:0:
456,202,38334,21,6,1:0:0:0:
83,289,38667,21,6,1:0:0:0:
334,0,39001,5,6,1:0:0:0:
256,192,39084,12,0,40334,0:0:0:0:
134,114,40501,5,2,0:0:0:0:
245,47,40667,1,2,0:0:0:0:
366,93,40834,1,2,0:0:0:0:
406,215,41001,1,2,0:0:0:0:
335,323,41167,1,2,0:0:0:0:
206,335,41334,1,2,0:0:0:0:
117,241,41501,1,2,0:0:0:0:
433,53,41667,6,0,L|446:187,1,135.000005149842,6|8,1:0|0:0,0:0:0:0:
340,64,42001,2,0,L|353:198,1,135.000005149842,2|8,1:0|0:0,0:0:0:0:
172,130,42334,5,2,1:0:0:0:
211,317,42501,1,8,0:0:0:0:
172,130,42667,1,2,1:0:0:0:
211,317,42834,1,8,0:0:0:0:
340,64,43001,6,0,L|353:198,1,135.000005149842,2|8,1:0|0:0,0:0:0:0:
433,53,43334,2,0,L|446:187,1,135.000005149842,2|8,1:0|0:0,0:0:0:0:
217,285,43667,5,2,1:0:0:0:
406,322,43834,1,8,0:0:0:0:
217,285,44000,1,2,1:0:0:0:
406,322,44167,1,8,0:0:0:0:
433,53,44334,6,0,L|446:187,1,135.000005149842,2|8,1:0|0:0,0:0:0:0:
340,64,44667,2,0,L|353:198,1,135.000005149842,2|8,1:0|0:0,0:0:0:0:
117,38,45001,5,2,1:0:0:0:
180,353,45168,1,8,0:0:0:0:
117,38,45334,1,2,1:0:0:0:
180,353,45501,1,8,0:0:0:0:
340,64,45668,6,0,L|353:198,1,135.000005149842,2|8,1:0|0:0,0:0:0:0:
433,53,46001,2,0,L|446:187,1,135.000005149842,2|8,1:0|0:0,0:0:0:0:
139,297,46334,5,2,1:0:0:0:
337,336,46501,1,8,0:0:0:0:
158,198,46667,1,2,1:0:0:0:
356,237,46834,1,8,0:0:0:0:
79,53,47001,6,0,L|66:187,1,135.000005149842,6|8,1:0|0:0,0:0:0:0:
172,64,47334,2,0,L|159:198,1,135.000005149842,2|8,1:0|0:0,0:0:0:0:
339,80,47667,5,2,1:0:0:0:
295,302,47834,1,8,0:0:0:0:
445,110,48001,1,2,1:0:0:0:
400,331,48168,1,8,0:0:0:0:
172,64,48334,6,0,L|159:198,1,135.000005149842,2|8,1:0|0:0,0:0:0:0:
79,53,48668,2,0,L|66:187,1,135.000005149842,2|8,1:0|0:0,0:0:0:0:
378,157,49001,5,2,1:0:0:0:
158,198,49168,1,8,0:0:0:0:
402,282,49334,1,2,1:0:0:0:
183,323,49501,1,8,0:0:0:0:
79,53,49667,5,6,1:0:0:0:
79,53,50334,5,6,1:0:0:0:
79,53,51001,5,6,1:0:0:0:
383,107,51334,37,6,1:0:0:0:
184,343,51668,21,6,1:0:0:0:
115,230,51834,1,10,0:0:0:0:
146,101,52001,1,0,1:0:0:0:
259,32,52167,1,10,0:0:0:0:
422,198,52334,6,0,P|421:124|350:177,1,202.500007724762,6|10,1:0|0:0,0:0:0:0:
413,184,52667,2,0,P|412:135|365:170,1,135,2|10,1:0|0:0,0:0:0:0:
447,315,53001,5,2,1:0:0:0:
318,305,53167,1,10,0:0:0:0:
189,295,53334,1,2,1:0:0:0:
60,285,53501,1,10,0:0:0:0:
199,179,53667,6,0,P|198:105|127:158,1,202.500007724762,2|10,1:0|0:0,0:0:0:0:
208,192,54001,2,0,P|206:94|112:164,1,270,2|10,1:0|0:0,0:0:0:0:
338,34,54334,5,2,1:0:0:0:
330,137,54500,1,10,0:0:0:0:
322,240,54667,1,2,1:0:0:0:
314,343,54834,1,10,0:0:0:0:
149,258,55001,6,0,P|150:184|221:237,1,202.500007724762,2|10,1:0|0:0,0:0:0:0:
140,271,55334,2,0,P|141:173|235:243,1,270,2|10,1:0|0:0,0:0:0:0:
30,63,55667,5,2,1:0:0:0:
221,48,55833,1,10,0:0:0:0:
308,137,56000,1,2,1:0:0:0:
500,121,56167,1,10,0:0:0:0:
361,284,56334,6,0,P|419:225|434:306,1,202.500007724762,2|10,1:0|0:0,0:0:0:0:
347,291,56668,2,0,P|422:211|443:319,1,270,2|10,1:0|0:0,0:0:0:0:
227,349,57001,5,2,1:0:0:0:
158,236,57167,1,10,0:0:0:0:
189,107,57334,1,0,1:0:0:0:
302,38,57500,1,10,0:0:0:0:
430,167,57667,6,0,P|429:241|358:188,1,202.500007724762,6|10,1:0|0:0,0:0:0:0:
421,181,58001,2,0,P|420:229|373:194,1,135,2|10,1:0|0:0,0:0:0:0:
447,69,58334,5,2,1:0:0:0:
318,79,58500,1,10,0:0:0:0:
189,89,58667,1,2,1:0:0:0:
60,99,58834,1,10,0:0:0:0:
199,205,59001,6,0,P|198:279|127:226,1,202.500007724762,2|10,1:0|0:0,0:0:0:0:
208,192,59334,2,0,P|206:289|112:219,1,270,2|10,1:0|0:0,0:0:0:0:
338,350,59667,5,2,1:0:0:0:
330,247,59833,1,10,0:0:0:0:
322,144,60000,1,2,1:0:0:0:
314,41,60167,1,10,0:0:0:0:
420,86,60334,5,6,1:0:0:0:
420,86,61001,5,6,1:0:0:0:
420,86,61667,5,6,1:0:0:0:
362,378,62001,37,6,1:0:0:0:
135,167,62334,22,0,B|23:149|-46:267|14:366|75:401|190:403|258:285|187:196|187:196|174:183|172:164|172:164|232:61|232:61|186:43|131:53|131:53|175:26|252:24|252:24|289:92|287:144,1,1055.71847507331,6|0,1:0|0:0,0:0:0:0:
