osu file format v14

[General]
AudioFilename: hoang.mp3
AudioLeadIn: 0
PreviewTime: 12140
Countdown: 0
SampleSet: Soft
StackLeniency: 0.2
Mode: 0
LetterboxInBreaks: 0
WidescreenStoryboard: 1

[Editor]
Bookmarks: 1681,7015,12358,41681,52348,62348
DistanceSpacing: 1
BeatDivisor: 4
GridSize: 4
TimelineZoom: 1

[Metadata]
Title:Hoangpungnyuga
TitleUnicode:호앙풍류가
Artist:MatrixMarioX & MowtenDoo
ArtistUnicode:MatrixMarioX & MowtenDoo
Creator:Sonnyc
Version:Expert
Source:나와 호랑이님
Tags:상록수 호랑풍류가 Billy Herrington Gachimuchi International Wrestling Festival 2015 -WORLD OF ANIKI- korean novelty Horang Hoang Pungryuga Horangpungnyuga
BeatmapID:2683901
BeatmapSetID:1292748

[Difficulty]
HPDrainRate:6
CircleSize:4.5
OverallDifficulty:8.5
ApproachRate:9
SliderMultiplier:1.8
SliderTickRate:1

[Events]
//Background and Video events
0,0,"bg.jpg",0,0
//Break Periods
//Storyboard Layer 0 (Background)
//Storyboard Layer 1 (Fail)
//Storyboard Layer 2 (Pass)
//Storyboard Layer 3 (Foreground)
//Storyboard Layer 4 (Overlay)
//Storyboard Sound Samples

[TimingPoints]
1668,333.333333333333,4,2,1,70,1,0
7001,-100,4,2,1,50,0,0
8334,-100,4,2,1,70,0,0
9667,-100,4,2,1,90,0,0
11001,-100,4,2,1,50,0,0
11667,-100,4,2,1,70,0,0
12001,-100,4,2,1,80,0,0
12334,-100,4,2,1,90,0,1
17001,-100,4,2,1,100,0,1
17501,-100,4,2,1,90,0,1
21667,-100,4,2,1,100,0,1
22834,-100,4,2,1,90,0,1
27667,-100,4,2,1,100,0,1
28167,-100,4,2,1,90,0,1
32334,-100,4,2,1,100,0,1
33334,-100,4,2,1,90,0,1
35001,-100,4,2,1,100,0,1
36001,-100,4,2,1,90,0,1
37667,-100,4,2,1,100,0,1
39001,-100,4,2,1,90,0,0
39084,-100,4,2,1,70,0,0
41667,-76.9230769230769,4,2,1,80,0,0
45001,-76.9230769230769,4,2,1,100,0,0
45667,-76.9230769230769,4,2,1,80,0,0
51001,-76.9230769230769,4,2,1,100,0,0
51834,-76.9230769230769,4,2,1,80,0,0
52667,-90.9090909090909,4,2,1,80,0,0
53001,-76.9230769230769,4,2,1,80,0,0
54001,-66.6666666666667,4,2,1,80,0,0
54334,-76.9230769230769,4,2,1,80,0,0
55334,-66.6666666666667,4,2,1,80,0,0
55667,-76.9230769230769,4,2,1,100,0,0
56334,-76.9230769230769,4,2,1,80,0,0
56667,-66.6666666666667,4,2,1,80,0,0
57001,-76.9230769230769,4,2,1,80,0,0
58001,-90.9090909090909,4,2,1,80,0,0
58334,-76.9230769230769,4,2,1,80,0,0
59334,-66.6666666666667,4,2,1,80,0,0
59667,-76.9230769230769,4,2,1,80,0,0
61667,-66.6666666666667,4,2,1,100,0,0
62334,-172.413793103448,4,2,1,100,0,0
62501,-172.413793103448,4,2,1,20,0,0
64334,-172.413793103448,4,2,1,5,0,0

[Colours]
Combo1 : 170,170,255
Combo2 : 255,255,128
Combo3 : 255,128,255
Combo4 : 255,170,85

[HitObjects]
363,127,1667,6,0,P|331:77|218:77,1,180,4|0,1:0|1:0,0:0:0:0:
149,257,2334,2,0,P|207:321|293:309,1,180,0|0,1:0|1:0,0:0:0:0:
339,78,3001,6,0,L|364:257,1,180,8|8,0:0|0:0,0:0:0:0:
174,307,3667,2,0,L|149:128,1,180,0|0,1:0|1:0,0:0:0:0:
321,85,4334,6,0,P|371:117|371:230,1,180,0|0,1:0|1:0,0:0:0:0:
191,299,5001,2,0,P|127:241|139:155,1,180,0|0,1:0|1:0,0:0:0:0:
260,80,5667,5,10,0:0:0:0:
191,299,6001,1,10,0:0:0:0:
415,249,6334,1,10,0:0:0:0:
336,242,6501,1,0,1:0:0:0:
369,314,6667,1,10,0:0:0:0:
250,188,7001,5,2,1:0:0:0:
243,172,7084,1,2,0:0:0:0:
241,156,7167,1,2,0:0:0:0:
244,139,7250,1,2,0:0:0:0:
253,123,7334,1,2,1:0:0:0:
266,112,7417,1,2,0:0:0:0:
281,105,7500,1,2,0:0:0:0:
298,103,7584,1,2,0:0:0:0:
315,106,7667,1,2,1:0:0:0:
330,114,7750,1,2,0:0:0:0:
342,126,7834,1,2,0:0:0:0:
349,142,7917,1,2,0:0:0:0:
352,159,8000,1,2,1:0:0:0:
349,175,8084,1,2,0:0:0:0:
342,191,8167,1,2,0:0:0:0:
329,203,8250,1,2,0:0:0:0:
344,231,8335,5,2,1:0:0:0:
362,213,8417,1,2,0:0:0:0:
374,190,8500,1,2,0:0:0:0:
378,165,8584,1,2,0:0:0:0:
374,141,8668,1,2,1:0:0:0:
364,119,8750,1,2,0:0:0:0:
345,101,8834,1,2,0:0:0:0:
322,88,8917,1,2,0:0:0:0:
298,84,9001,1,2,1:0:0:0:
273,87,9084,1,2,0:0:0:0:
251,97,9167,1,2,0:0:0:0:
232,115,9250,1,2,0:0:0:0:
219,136,9335,1,2,1:0:0:0:
214,162,9417,1,2,0:0:0:0:
217,186,9500,1,2,0:0:0:0:
227,210,9583,1,2,0:0:0:0:
203,230,9668,5,2,1:0:0:0:
190,198,9750,1,2,0:0:0:0:
187,166,9833,1,2,0:0:0:0:
194,133,9916,1,2,0:0:0:0:
210,104,10001,1,2,1:0:0:0:
235,81,10083,1,2,0:0:0:0:
265,68,10166,1,2,0:0:0:0:
297,63,10250,1,2,0:0:0:0:
330,70,10334,1,2,1:0:0:0:
359,86,10416,1,2,0:0:0:0:
383,109,10500,1,2,0:0:0:0:
397,139,10583,1,2,0:0:0:0:
403,172,10667,1,2,1:0:0:0:
397,205,10750,1,2,0:0:0:0:
382,235,10833,1,2,0:0:0:0:
358,258,10916,1,2,0:0:0:0:
325,268,11001,5,2,0:1:0:0:
331,251,11084,1,2,0:0:0:0:
345,238,11167,1,2,0:0:0:0:
362,232,11251,1,2,0:0:0:0:
381,235,11334,1,2,0:0:0:0:
396,247,11417,1,2,0:0:0:0:
404,264,11501,1,2,0:0:0:0:
404,283,11584,1,2,0:0:0:0:
383,309,11667,37,2,0:1:0:0:
345,323,11750,1,2,0:0:0:0:
304,317,11834,1,2,0:0:0:0:
269,294,11917,1,2,0:0:0:0:
250,258,12000,1,2,0:1:0:0:
230,221,12084,1,2,0:0:0:0:
197,197,12167,1,2,0:0:0:0:
156,192,12250,1,2,0:0:0:0:
116,205,12334,21,6,1:0:0:0:
338,165,12501,1,10,0:0:0:0:
185,294,12668,5,2,1:0:0:0:
264,77,12834,1,10,0:0:0:0:
298,273,13001,5,2,1:0:0:0:
151,97,13167,1,10,0:0:0:0:
298,273,13334,5,2,1:0:0:0:
185,294,13501,1,10,0:0:0:0:
223,185,13667,1,2,1:0:0:0:
298,273,13834,1,10,0:0:0:0:
185,294,14001,1,2,1:0:0:0:
223,185,14168,1,10,0:0:0:0:
298,273,14334,2,0,L|288:368,1,90,2|10,1:0|0:0,0:0:0:0:
346,146,14667,5,2,1:0:0:0:
223,185,14834,1,8,0:0:0:0:
346,146,15001,2,0,P|313:117|266:120,1,90,2|8,1:0|0:0,0:0:0:0:
68,148,15334,5,2,1:0:0:0:
223,185,15501,1,8,0:0:0:0:
68,148,15667,1,2,1:0:0:0:
165,88,15834,1,8,0:0:0:0:
128,243,16001,2,0,P|129:282|165:323,1,90,2|8,1:0|0:0,0:0:0:0:
223,185,16334,1,0,1:0:0:0:
68,148,16501,5,8,0:0:0:0:
156,4,16667,1,0,1:2:0:0:
321,45,16834,1,8,0:0:0:0:
331,213,17001,1,0,1:2:0:0:
176,276,17168,1,8,1:2:0:0:
68,148,17334,1,8,1:2:0:0:
254,323,17501,21,10,0:0:0:0:
62,294,17667,1,6,1:0:0:0:
254,323,17834,1,10,0:0:0:0:
103,202,18001,5,2,1:0:0:0:
254,323,18168,1,10,0:0:0:0:
184,143,18334,5,2,1:0:0:0:
254,323,18501,1,10,0:0:0:0:
67,257,18667,5,2,1:0:0:0:
180,236,18834,1,10,0:0:0:0:
141,344,19001,1,2,1:0:0:0:
254,323,19167,1,10,0:0:0:0:
180,236,19334,1,2,1:0:0:0:
141,344,19500,1,10,0:0:0:0:
67,257,19667,2,0,L|77:162,1,90,2|10,1:0|0:0,0:0:0:0:
155,66,20001,5,2,1:0:0:0:
32,105,20168,1,8,0:0:0:0:
155,66,20335,2,0,P|122:37|75:40,1,90,2|8,1:0|0:0,0:0:0:0:
144,146,20667,5,2,1:0:0:0:
260,120,20834,1,8,0:0:0:0:
172,261,21000,1,2,1:0:0:0:
286,236,21167,1,8,0:0:0:0:
144,146,21334,2,0,P|100:144|67:173,1,90,2|8,1:0|0:0,0:0:0:0:
22,318,21667,5,6,1:0:0:0:
222,216,22001,37,6,1:0:0:0:
34,94,22334,21,6,1:0:0:0:
396,205,22834,5,0,0:0:0:0:
396,205,23001,1,6,1:0:0:0:
174,165,23168,1,10,0:0:0:0:
327,294,23335,5,2,1:0:0:0:
248,77,23501,1,10,0:0:0:0:
214,273,23668,5,2,1:0:0:0:
361,97,23834,1,10,0:0:0:0:
214,273,24001,5,2,1:0:0:0:
327,294,24167,1,10,0:0:0:0:
288,186,24334,1,2,1:0:0:0:
214,273,24501,1,10,0:0:0:0:
327,294,24668,1,2,1:0:0:0:
288,186,24834,1,10,0:0:0:0:
214,273,25001,2,0,L|224:368,1,90,2|10,1:0|0:0,0:0:0:0:
166,146,25334,5,2,1:0:0:0:
289,185,25501,1,8,0:0:0:0:
166,146,25668,2,0,P|199:117|246:120,1,90,2|8,1:0|0:0,0:0:0:0:
444,148,26001,5,2,1:0:0:0:
289,185,26168,1,8,0:0:0:0:
444,148,26334,1,2,1:0:0:0:
347,88,26501,1,8,0:0:0:0:
384,243,26668,2,0,P|383:282|347:323,1,90,2|8,1:0|0:0,0:0:0:0:
289,185,27001,1,0,1:0:0:0:
444,148,27167,5,8,0:0:0:0:
355,4,27333,1,0,1:2:0:0:
191,45,27500,1,8,0:0:0:0:
180,213,27667,1,0,1:2:0:0:
335,275,27834,1,8,1:2:0:0:
444,148,28000,1,8,1:2:0:0:
191,45,28167,21,10,0:0:0:0:
383,74,28334,1,2,1:0:0:0:
191,45,28500,1,10,0:0:0:0:
262,225,28667,5,2,1:0:0:0:
383,74,28834,1,10,0:0:0:0:
191,45,29001,5,2,1:0:0:0:
261,226,29167,1,10,0:0:0:0:
101,113,29334,5,2,1:0:0:0:
225,136,29501,1,10,0:0:0:0:
307,41,29667,1,2,1:0:0:0:
225,136,29834,1,10,0:0:0:0:
268,255,30001,1,2,1:0:0:0:
225,136,30168,1,10,0:0:0:0:
101,113,30334,2,0,L|12:125,1,90,2|10,1:0|0:0,0:0:0:0:
154,251,30667,5,2,1:0:0:0:
31,290,30834,1,8,0:0:0:0:
154,251,31001,2,0,P|121:222|74:225,1,90,2|8,1:0|0:0,0:0:0:0:
282,187,31334,5,2,1:0:0:0:
256,303,31501,1,8,0:0:0:0:
397,215,31667,1,2,1:0:0:0:
372,329,31834,1,8,0:0:0:0:
282,187,32001,2,0,P|280:143|309:110,1,90,2|8,1:0|0:0,0:0:0:0:
444,55,32334,5,6,1:0:0:0:
222,93,32667,37,6,1:0:0:0:
366,265,33001,21,6,1:0:0:0:
77,223,33334,5,2,1:0:0:0:
200,262,33501,1,8,0:0:0:0:
77,223,33668,2,0,P|110:194|157:197,1,90,2|8,1:0|0:0,0:0:0:0:
295,285,34001,5,2,1:0:0:0:
179,311,34168,1,8,0:0:0:0:
267,170,34334,1,2,1:0:0:0:
153,195,34501,1,8,0:0:0:0:
295,285,34668,2,0,P|339:287|372:258,1,90,2|8,1:0|0:0,0:0:0:0:
425,118,35001,5,6,1:0:0:0:
413,342,35334,37,6,1:0:0:0:
225,220,35668,21,6,1:0:0:0:
448,281,36001,5,2,1:0:0:0:
325,320,36168,1,8,0:0:0:0:
448,281,36335,2,0,P|415:252|368:255,1,90,2|8,1:0|0:0,0:0:0:0:
183,230,36667,5,2,1:0:0:0:
299,204,36834,1,8,0:0:0:0:
211,345,37000,1,2,1:0:0:0:
325,320,37167,1,8,0:0:0:0:
183,230,37334,2,0,P|139:228|106:257,1,90,2|8,1:0|0:0,0:0:0:0:
272,327,37667,5,6,1:0:0:0:
121,77,38001,37,6,1:0:0:0:
388,190,38334,21,6,1:0:0:0:
106,256,38667,21,6,1:0:0:0:
296,37,39001,5,6,1:0:0:0:
256,192,39084,12,0,40334,0:0:0:0:
314,254,40501,5,2,0:0:0:0:
364,172,40667,1,2,0:0:0:0:
330,82,40834,1,2,0:0:0:0:
239,52,41001,1,2,0:0:0:0:
159,105,41167,1,2,0:0:0:0:
150,201,41334,1,2,0:0:0:0:
220,267,41501,1,2,0:0:0:0:
364,172,41667,6,0,L|372:288,1,116.999994644165,6|8,1:0|0:0,0:0:0:0:
441,168,42001,2,0,L|449:284,1,116.999994644165,2|8,1:0|0:0,0:0:0:0:
268,205,42334,5,2,1:0:0:0:
294,80,42501,1,8,0:0:0:0:
268,205,42667,1,2,1:0:0:0:
294,80,42834,1,8,0:0:0:0:
158,139,43001,6,0,L|166:255,1,116.999994644165,2|8,1:0|0:0,0:0:0:0:
81,143,43334,2,0,L|89:259,1,116.999994644165,2|8,1:0|0:0,0:0:0:0:
188,54,43667,5,2,1:0:0:0:
313,80,43834,1,8,0:0:0:0:
188,54,44000,1,2,1:0:0:0:
313,80,44167,1,8,0:0:0:0:
231,188,44334,6,0,L|239:304,1,116.999994644165,2|8,1:0|0:0,0:0:0:0:
308,184,44667,2,0,L|316:300,1,116.999994644165,2|8,1:0|0:0,0:0:0:0:
456,71,45001,5,2,1:0:0:0:
416,260,45168,1,8,0:0:0:0:
456,71,45334,1,2,1:0:0:0:
416,260,45501,1,8,0:0:0:0:
305,107,45667,6,0,L|313:223,1,116.999994644165,2|8,1:0|0:0,0:0:0:0:
228,111,46000,2,0,L|236:227,1,116.999994644165,2|8,1:0|0:0,0:0:0:0:
70,205,46334,5,2,1:0:0:0:
96,330,46501,1,8,0:0:0:0:
152,189,46667,1,2,1:0:0:0:
178,314,46834,1,8,0:0:0:0:
310,126,47001,6,0,L|302:242,1,116.999994644165,6|8,1:0|0:0,0:0:0:0:
233,122,47334,2,0,L|225:238,1,116.999994644165,2|8,1:0|0:0,0:0:0:0:
126,107,47667,5,2,1:0:0:0:
1,133,47834,1,8,0:0:0:0:
142,189,48000,1,2,1:0:0:0:
17,215,48167,1,8,0:0:0:0:
233,122,48334,6,0,L|225:238,1,116.999994644165,2|8,1:0|0:0,0:0:0:0:
310,126,48667,2,0,L|302:242,1,116.999994644165,2|8,1:0|0:0,0:0:0:0:
479,181,49001,5,2,1:0:0:0:
505,306,49168,1,8,0:0:0:0:
397,197,49334,1,2,1:0:0:0:
423,322,49501,1,8,0:0:0:0:
289,146,49667,5,6,1:0:0:0:
289,146,50334,5,6,1:0:0:0:
289,146,51001,5,6,1:0:0:0:
511,184,51334,37,6,1:0:0:0:
367,356,51668,21,6,1:0:0:0:
272,378,51834,1,10,0:0:0:0:
188,329,52001,1,2,1:0:0:0:
165,235,52167,1,10,0:0:0:0:
275,119,52334,6,0,P|320:117|358:177,1,116.999994644165,6|10,1:0|0:0,0:0:0:0:
271,210,52667,2,0,P|251:167|277:127,1,99.0000030212403,2|10,1:0|0:0,0:0:0:0:
453,81,53001,5,2,1:0:0:0:
445,180,53167,1,10,0:0:0:0:
437,279,53334,1,2,1:0:0:0:
429,378,53501,1,10,0:0:0:0:
248,306,53668,6,0,P|255:261|321:236,1,116.999994644165,2|10,1:0|0:0,0:0:0:0:
354,351,54001,2,0,P|290:363|244:317,1,135.000005149842,2|10,1:0|0:0,0:0:0:0:
316,162,54334,5,2,1:0:0:0:
231,168,54500,1,10,0:0:0:0:
146,175,54667,1,2,1:0:0:0:
62,182,54834,1,10,0:0:0:0:
140,4,55001,6,0,P|185:11|210:77,1,116.999994644165,2|10,1:0|0:0,0:0:0:0:
95,110,55334,2,0,P|82:46|128:0,1,135.000005149842,2|10,1:0|0:0,0:0:0:0:
295,28,55668,5,2,1:0:0:0:
316,162,55834,1,10,0:0:0:0:
260,231,56001,1,2,1:0:0:0:
282,366,56167,1,10,0:0:0:0:
440,336,56334,6,0,P|475:307|464:237,1,116.999994644165,2|10,1:0|0:0,0:0:0:0:
347,266,56667,2,0,P|367:327|430:344,1,135.000005149842,2|10,1:0|0:0,0:0:0:0:
415,148,57001,5,2,1:0:0:0:
320,126,57167,1,10,0:0:0:0:
236,175,57334,1,2,1:0:0:0:
213,269,57500,1,10,0:0:0:0:
83,348,57667,6,0,P|38:350|0:290,1,116.999994644165,6|10,1:0|0:0,0:0:0:0:
88,257,58001,2,0,P|107:299|81:339,1,99.0000030212403,2|10,1:0|0:0,0:0:0:0:
23,162,58334,5,2,1:0:0:0:
122,170,58501,1,10,0:0:0:0:
221,178,58667,1,2,1:0:0:0:
320,186,58834,1,10,0:0:0:0:
475,78,59001,6,0,P|468:33|402:8,1,116.999994644165,2|10,1:0|0:0,0:0:0:0:
369,123,59334,2,0,P|433:136|479:90,1,135.000005149842,2|10,1:0|0:0,0:0:0:0:
280,40,59667,5,2,1:0:0:0:
286,125,59833,1,10,0:0:0:0:
293,210,60000,1,2,1:0:0:0:
300,294,60167,1,10,0:0:0:0:
435,384,60334,5,6,1:0:0:0:
435,384,61000,5,6,1:0:0:0:
435,384,61667,5,6,1:0:0:0:
213,346,62000,37,6,1:0:0:0:
357,174,62334,22,0,B|431:259|368:380|252:382|190:348|127:252|191:132|304:145|304:145|322:149|339:141|339:141|396:40|396:40|435:66|455:116|455:116|455:65|416:-1|416:-1|338:3|295:32|295:32,1,1044.00003186035,6|0,1:0|0:0,0:0:0:0:
