osu file format v14

[General]
AudioFilename: hoang.mp3
AudioLeadIn: 0
PreviewTime: 12140
Countdown: 0
SampleSet: Soft
StackLeniency: 0.5
Mode: 0
LetterboxInBreaks: 0
WidescreenStoryboard: 1

[Editor]
Bookmarks: 1681,7015,12358,41681,52348,62348
DistanceSpacing: 1.1
BeatDivisor: 4
GridSize: 4
TimelineZoom: 1

[Metadata]
Title:Hoangpungnyuga
TitleUnicode:호앙풍류가
Artist:MatrixMarioX & MowtenDoo
ArtistUnicode:MatrixMarioX & MowtenDoo
Creator:Sonnyc
Version:Easy
Source:나와 호랑이님
Tags:상록수 호랑풍류가 Billy Herrington Gachimuchi International Wrestling Festival 2015 -WORLD OF ANIKI- korean novelty Horang Hoang Pungryuga Horangpungnyuga
BeatmapID:2683458
BeatmapSetID:1292748

[Difficulty]
HPDrainRate:2
CircleSize:2.5
OverallDifficulty:2
ApproachRate:3
SliderMultiplier:0.799999999999999
SliderTickRate:1

[Events]
//Background and Video events
0,0,"bg.jpg",0,0
//Break Periods
//Storyboard Layer 0 (Background)
//Storyboard Layer 1 (Fail)
//Storyboard Layer 2 (Pass)
//Storyboard Layer 3 (Foreground)
//Storyboard Layer 4 (Overlay)
//Storyboard Sound Samples

[TimingPoints]
1668,333.333333333333,4,2,1,70,1,0
7001,-100,4,2,1,50,0,0
8334,-100,4,2,1,70,0,0
9667,-100,4,2,1,90,0,0
11001,-100,4,2,1,50,0,0
12334,-100,4,2,1,90,0,1
21667,-100,4,2,1,100,0,1
22834,-100,4,2,1,90,0,1
32334,-100,4,2,1,100,0,1
33334,-100,4,2,1,90,0,1
35001,-100,4,2,1,100,0,1
36001,-100,4,2,1,90,0,1
37667,-100,4,2,1,100,0,1
39001,-100,4,2,1,90,0,0
41667,-100,4,2,1,80,0,0
51001,-100,4,2,1,100,0,0
51834,-100,4,2,1,80,0,0
61667,-100,4,2,1,100,0,0
62334,-100,4,2,1,100,0,0
62501,-100,4,2,1,20,0,0
64334,-100,4,2,1,5,0,0

[Colours]
Combo1 : 170,170,255
Combo2 : 255,255,128
Combo3 : 255,128,255
Combo4 : 255,170,85

[HitObjects]
0,204,1667,38,0,P|51:251|140:250,1,160,4|0,1:0|1:0,0:0:0:0:
244,113,3001,2,0,L|268:272,1,160,8|0,0:0|1:0,0:0:0:0:
374,133,4334,2,0,P|452:129|512:180,1,160,0|0,1:0|1:0,0:0:0:0:
423,332,5667,1,8,0:0:0:0:
258,270,6334,1,8,0:0:0:0:
395,158,7001,38,0,P|342:85|204:101,1,240,2|2,1:2|0:0,0:0:0:0:
120,77,8334,2,0,P|83:159|166:270,1,240,2|2,1:2|0:0,0:0:0:0:
188,356,9667,2,0,P|277:346|332:219,1,240,2|2,1:2|0:0,0:0:0:0:
395,158,11001,1,2,0:1:0:0:
135,60,12334,37,6,1:0:0:0:
146,147,12667,1,0,1:0:0:0:
156,234,13001,1,8,1:2:0:0:
300,334,13667,2,0,L|379:340,1,79.9999999999999,2|0,1:0|1:0,0:0:0:0:
467,349,14334,1,8,1:2:0:0:
386,192,15001,6,0,L|210:205,1,160,2|8,1:0|1:2,0:0:0:0:
75,112,16334,2,0,P|115:36|252:50,1,240,2|0,1:0|1:0,0:0:0:0:
289,129,17667,5,6,1:0:0:0:
273,216,18001,1,0,1:0:0:0:
256,302,18334,1,8,1:2:0:0:
84,261,19001,2,0,L|90:182,2,79.9999999999999,2|0|8,1:0|1:0|1:2,0:0:0:0:
256,302,20334,6,0,L|243:126,1,160,2|8,1:0|1:2,0:0:0:0:
406,75,21667,1,6,1:0:0:0:
406,75,22000,1,6,1:0:0:0:
406,75,22333,1,6,1:0:0:0:
445,246,23001,5,6,1:0:0:0:
358,235,23334,1,0,1:0:0:0:
271,225,23668,1,8,1:2:0:0:
329,59,24334,2,0,L|250:65,1,79.9999999999999,2|0,1:0|1:0,0:0:0:0:
162,74,25001,1,8,1:2:0:0:
111,242,25667,6,0,L|287:255,1,160,2|8,1:0|1:2,0:0:0:0:
422,162,27001,2,0,P|382:86|245:100,1,240,2|0,1:0|1:0,0:0:0:0:
277,182,28334,5,2,1:0:0:0:
190,171,28667,1,0,1:0:0:0:
103,161,29000,1,8,1:2:0:0:
32,322,29667,2,0,L|111:316,2,79.9999999999999,2|0|8,1:0|1:0|1:2,0:0:0:0:
103,161,31001,6,0,L|279:174,1,160,2|8,1:0|1:2,0:0:0:0:
171,323,32334,1,6,1:0:0:0:
171,323,32667,1,6,1:0:0:0:
171,323,33000,1,6,1:0:0:0:
265,172,33667,22,0,L|106:161,1,160,2|8,1:0|1:2,0:0:0:0:
196,10,35000,1,6,1:0:0:0:
196,10,35333,1,6,1:0:0:0:
196,10,35666,1,6,1:0:0:0:
106,161,36334,6,0,L|282:174,1,160,2|8,1:0|1:2,0:0:0:0:
171,323,37667,1,6,1:0:0:0:
171,323,38001,1,6,1:0:0:0:
261,314,38333,1,6,1:0:0:0:
261,314,38667,1,6,1:0:0:0:
352,306,39000,1,6,1:0:0:0:
426,32,41667,22,0,L|412:195,1,160,6|0,1:0|1:2,0:0:0:0:
323,181,42667,1,8,0:0:0:0:
323,181,43001,2,0,L|336:21,1,160,2|0,1:0|1:2,0:0:0:0:
163,55,44334,6,0,L|156:134,1,79.9999999999999,2|8,1:0|0:0,0:0:0:0:
69,100,45001,2,0,L|56:260,1,160,2|2,1:0|1:0,0:0:0:0:
147,237,46001,2,0,L|140:316,2,79.9999999999999,8|0|8,0:0|1:0|0:0,0:0:0:0:
233,273,47001,6,0,L|247:110,1,160,6|0,1:0|1:2,0:0:0:0:
336,124,48001,1,8,0:0:0:0:
336,124,48335,2,0,L|323:284,1,160,2|0,1:0|1:2,0:0:0:0:
489,340,49667,5,6,1:0:0:0:
455,167,50334,1,6,1:0:0:0:
323,283,51001,1,6,1:0:0:0:
323,283,51334,1,6,1:0:0:0:
323,283,51667,1,6,1:0:0:0:
173,189,52334,6,0,P|163:127|94:166,1,160,6|0,1:0|1:0,0:0:0:0:
9,191,53334,1,8,0:0:0:0:
9,191,53667,2,0,P|17:110|77:47,1,160,2|0,1:0|1:0,0:0:0:0:
241,25,55001,6,0,P|279:29|317:55,1,79.9999999999999,2|8,1:0|0:0,0:0:0:0:
251,114,55668,2,0,L|264:274,1,160,2|2,1:0|1:0,0:0:0:0:
273,362,56667,2,0,P|234:358|197:332,2,79.9999999999999,8|0|8,0:0|1:0|0:0,0:0:0:0:
342,305,57667,6,0,P|332:243|263:282,1,160,6|0,1:0|1:0,0:0:0:0:
191,218,58667,1,8,0:0:0:0:
191,218,59000,2,0,P|249:161|335:151,1,160,2|0,1:0|1:0,0:0:0:0:
497,183,60334,5,6,1:0:0:0:
381,315,61001,1,6,1:0:0:0:
324,149,61668,1,6,1:0:0:0:
324,149,62001,1,6,1:0:0:0:
324,149,62334,1,6,1:0:0:0:
256,192,62501,12,0,65667,0:0:0:0:
