osu file format v14

[General]
AudioFilename: audio.mp3
AudioLeadIn: 0
PreviewTime: 91034
Countdown: 0
SampleSet: Normal
StackLeniency: 0.6
Mode: 0
LetterboxInBreaks: 0
WidescreenStoryboard: 1

[Editor]
DistanceSpacing: 1
BeatDivisor: 4
GridSize: 8
TimelineZoom: 1

[Metadata]
Title:All I Know
TitleUnicode:All I Know
Artist:Matrix & Futurebound ft. Luke Bingham
ArtistUnicode:Matrix & Futurebound ft. Luke Bingham
Creator:SquareTude
Version:Minorsonek's Normal
Source:
Tags:Minorsonek RVMathew Seulgij dnb drum and bass
BeatmapID:1632000
BeatmapSetID:775765

[Difficulty]
HPDrainRate:3
CircleSize:3
OverallDifficulty:3
ApproachRate:4
SliderMultiplier:0.999999999999999
SliderTickRate:1

[Events]
//Background and Video events
0,0,"109509.jpg",0,0
//Break Periods
2,33303,37300
//Storyboard Layer 0 (Background)
//Storyboard Layer 1 (Fail)
//Storyboard Layer 2 (Pass)
//Storyboard Layer 3 (Foreground)
//Storyboard Sound Samples

[TimingPoints]
0,344.827586206897,4,2,2,40,1,0
11034,-100,4,2,2,40,0,0
33102,-100,4,2,2,40,0,0
33793,-100,4,1,2,40,0,0
37586,-100,4,1,2,40,0,0
38620,-100,4,1,2,50,0,0
44137,-100,4,1,2,60,0,0
45516,-100,4,1,2,60,0,0
46896,-100,4,1,2,70,0,0
48275,-100,4,1,2,70,0,0
49655,-100,4,2,1,85,0,1
68965,-100,4,3,3,60,0,0
71724,-100,4,2,1,85,0,0
91034,-100,4,3,3,60,0,0
93793,-100,4,2,1,85,0,1
114482,-100,4,3,3,60,0,0
115862,-100,4,1,2,60,0,0

[Colours]
Combo1 : 0,128,255
Combo2 : 255,255,128

[HitObjects]
13,293,11034,6,0,P|106:266|164:291,1,150,4|8,0:3|0:3,0:0:0:0:
280,361,12068,1,8,0:3:0:0:
432,233,12758,2,0,L|445:83,1,150,8|8,0:3|0:3,0:0:0:0:
331,180,13793,2,0,P|263:209|191:192,2,150,8|8|8,0:3|0:3|1:3,0:0:0:0:
141,117,15517,2,0,P|102:182|120:250,1,150,8|8,0:3|0:3,0:0:0:0:
219,362,16551,6,0,L|370:348,1,150,8|8,1:3|0:3,0:0:0:0:
471,239,17586,1,8,0:3:0:0:
273,269,18275,2,0,P|237:204|247:131,1,150,8|8,0:3|0:3,0:0:0:0:
373,50,19310,2,0,P|446:59|510:24,2,150,8|8|8,1:3|0:3|0:3,0:0:0:0:
176,10,21034,2,0,L|162:159,1,150,8|8,0:3|0:3,0:0:0:0:
227,294,22068,6,0,P|153:320|80:287,1,150,4|8,1:1|0:3,0:0:0:0:
25,159,23103,1,8,0:3:0:0:
207,77,23793,2,0,P|254:150|248:227,1,150,8|8,0:3|0:3,0:0:0:0:
186,345,24827,2,0,P|259:321|330:341,2,150,8|8|8,1:3|0:3|1:3,0:0:0:0:
361,249,26551,2,0,L|371:100,1,150,8|8,1:3|0:3,0:0:0:0:
247,183,27586,6,0,P|189:213|94:211,1,150,8|8,1:3|0:3,0:0:0:0:
9,98,28620,1,8,1:3:0:0:
207,97,29310,2,0,P|281:97|334:147,1,150,8|8,0:3|0:3,0:0:0:0:
417,272,30344,2,0,B|430:120,2,150,8|8|8,0:3|0:3|0:3,0:0:0:0:
224,325,32068,2,0,P|154:347|81:326,1,150,8|8,0:3|0:3,0:0:0:0:
154,195,33103,5,4,0:3:0:0:
409,353,38620,6,0,P|395:259|460:163,1,200,0|2,0:0|0:2,0:0:0:0:
301,310,40000,2,0,P|202:312|125:252,1,200,0|2,0:0|0:2,0:0:0:0:
25,79,41379,2,0,L|7:278,1,200,0|2,0:0|0:2,0:0:0:0:
153,141,42758,1,0,0:0:0:0:
291,284,43448,2,0,P|344:287|392:256,1,99.9999999999999,2|2,0:2|0:2,0:0:0:0:
455,194,44137,5,0,0:0:0:0:
299,68,44827,2,0,P|246:65|198:96,1,99.9999999999999,2|2,0:2|0:2,0:0:0:0:
135,158,45517,1,0,0:0:0:0:
291,284,46206,2,0,L|300:172,1,99.9999999999999,2|2,0:2|0:2,0:0:0:0:
374,118,46896,1,0,0:0:0:0:
193,203,47586,2,0,L|183:91,1,99.9999999999999,2|2,0:2|0:2,0:0:0:0:
110,37,48275,1,0,0:0:0:0:
53,119,48620,2,0,P|72:166|63:227,2,99.9999999999999,2|2|2,0:2|0:2|1:2,0:0:0:0:
10,29,49655,6,0,L|122:37,1,99.9999999999999,6|8,0:0|0:0,0:0:0:0:
192,93,50344,2,0,L|291:85,1,99.9999999999999,0|8,0:0|0:0,0:0:0:0:
338,102,50862,1,0,0:0:0:0:
381,130,51034,2,0,P|425:205|380:311,1,200,2|0,0:0|0:0,0:0:0:0:
316,374,52068,1,8,0:0:0:0:
249,299,52413,6,0,P|200:308|152:297,1,99.9999999999999,6|8,0:0|0:0,0:0:0:0:
64,249,53103,2,0,P|54:297|65:345,2,99.9999999999999,0|8|2,0:0|0:0|0:0,0:0:0:0:
155,70,54482,2,0,L|259:62,1,99.9999999999999,0|8,0:0|0:0,0:0:0:0:
353,48,55172,6,0,P|341:96|351:144,1,99.9999999999999,6|8,0:0|0:0,0:0:0:0:
398,233,55862,2,0,P|409:281|399:329,1,99.9999999999999,0|8,0:0|0:0,0:0:0:0:
357,358,56379,1,0,0:0:0:0:
318,325,56551,2,0,L|110:306,1,200,2|0,0:0|0:0,0:0:0:0:
52,232,57586,1,8,0:0:0:0:
121,159,57931,6,0,L|225:151,1,99.9999999999999,6|8,0:0|0:0,0:0:0:0:
306,99,58620,2,0,L|314:-5,2,99.9999999999999,0|8|2,0:0|0:0|0:0,0:0:0:0:
378,168,59655,1,8,0:0:0:0:
465,119,60000,2,0,P|480:165|470:214,1,99.9999999999999,0|8,0:0|0:0,0:0:0:0:
412,296,60689,6,0,L|300:288,1,99.9999999999999,6|8,0:0|0:0,0:0:0:0:
233,350,61379,2,0,L|134:358,1,99.9999999999999,0|8,0:0|0:0,0:0:0:0:
84,345,61896,1,0,0:0:0:0:
41,317,62068,2,0,P|-3:242|42:136,1,200,2|0,0:0|0:0,0:0:0:0:
113,81,63103,1,8,0:0:0:0:
129,179,63448,6,0,P|177:190|226:181,1,99.9999999999999,6|8,0:0|0:0,0:0:0:0:
316,137,64137,2,0,P|326:185|315:233,2,99.9999999999999,0|8|2,0:0|0:0|0:0,0:0:0:0:
263,330,65517,2,0,L|367:322,1,99.9999999999999,0|8,0:0|0:0,0:0:0:0:
449,372,66206,6,0,P|461:324|451:276,1,99.9999999999999,6|8,0:0|0:0,0:0:0:0:
404,187,66896,2,0,P|393:139|403:91,1,99.9999999999999,0|8,0:0|0:0,0:0:0:0:
429,47,67413,1,0,0:0:0:0:
454,4,67586,2,0,L|246:23,1,200,2|0,0:0|0:0,0:0:0:0:
189,98,68620,1,8,0:0:0:0:
123,173,68965,6,0,L|115:285,1,99.9999999999999,0|0,0:0|0:0,0:0:0:0:
63,357,69655,2,0,P|108:372|160:363,1,99.9999999999999,0|0,0:0|0:0,0:0:0:0:
240,305,70344,2,0,L|352:313,1,99.9999999999999,0|0,0:0|0:0,0:0:0:0:
426,363,71034,2,0,P|441:318|432:266,1,99.9999999999999,0|0,0:0|0:0,0:0:0:0:
383,179,71724,6,0,P|379:94|463:188,1,300,6|8,0:0|0:0,0:0:0:0:
315,301,73448,2,0,P|243:320|172:299,1,150,8|2,0:0|0:0,0:0:0:0:
128,274,74137,1,8,0:0:0:0:
102,177,74482,6,0,B|200:160|200:160|288:208|288:208|392:184,1,300,2|8,0:0|0:0,0:0:0:0:
223,67,76206,2,0,P|176:49|127:54,1,99.9999999999999,8|0,0:0|0:0,0:0:0:0:
38,100,76896,1,8,0:0:0:0:
102,177,77241,6,0,B|181:220|165:300|165:300|236:256|305:305,1,300,6|8,0:0|0:0,0:0:0:0:
495,370,78965,2,0,P|468:300|480:227,1,150,8|2,0:0|0:0,0:0:0:0:
501,182,79655,1,8,0:0:0:0:
440,102,80000,5,2,0:0:0:0:
396,128,80172,2,0,P|346:131|299:105,1,99.9999999999999,0|0,0:0|0:0,0:0:0:0:
187,13,81034,2,0,B|153:108|153:108|184:191|184:191|145:298,1,300,8|0,0:0|0:0,0:0:0:0:
79,369,82413,1,8,0:0:0:0:
34,280,82758,6,0,P|18:206|44:129,2,150,6|0|8,0:0|0:0|0:0,0:0:0:0:
217,359,84482,2,0,L|385:351,1,150,8|2,0:0|0:0,0:0:0:0:
416,348,85172,1,8,0:0:0:0:
357,266,85517,6,0,P|430:252|494:288,2,150,2|0|8,0:0|0:0|0:0,0:0:0:0:
179,357,87241,2,0,L|171:245,1,99.9999999999999,8|0,0:0|0:0,0:0:0:0:
165,157,87931,1,8,0:0:0:0:
252,205,88275,6,0,P|323:228|391:200,2,150,6|0|8,0:0|0:0|0:0,0:0:0:0:
90,88,90000,2,0,P|67:158|95:226,1,150,8|2,0:0|0:0,0:0:0:0:
129,263,90689,1,8,0:0:0:0:
256,192,91034,12,0,92931,0:0:0:0:
54,262,93793,6,0,P|102:251|150:261,1,99.9999999999999,6|8,0:0|0:0,0:0:0:0:
233,319,94482,2,0,P|281:329|329:318,1,99.9999999999999,0|8,0:0|0:0,0:0:0:0:
373,293,95000,1,0,0:0:0:0:
412,262,95172,2,0,P|442:180|379:83,1,200,2|0,0:0|0:0,0:0:0:0:
303,36,96206,1,8,0:0:0:0:
240,113,96551,6,0,L|136:121,1,99.9999999999999,6|8,0:0|0:0,0:0:0:0:
52,170,97241,2,0,P|41:122|51:74,2,99.9999999999999,0|8|2,0:0|0:0|0:0,0:0:0:0:
156,342,98620,2,0,L|260:334,1,99.9999999999999,0|8,0:0|0:0,0:0:0:0:
343,381,99310,6,0,P|355:332|344:284,1,99.9999999999999,6|8,0:0|0:0,0:0:0:0:
291,199,100000,2,0,P|280:151|290:103,1,99.9999999999999,0|8,0:0|0:0,0:0:0:0:
312,57,100517,1,0,0:0:0:0:
336,13,100689,2,0,P|242:42|148:11,1,200,2|0,0:0|0:0,0:0:0:0:
63,63,101724,1,8,0:0:0:0:
118,146,102068,6,0,P|165:130|214:135,1,99.9999999999999,6|8,0:0|0:0,0:0:0:0:
301,185,102758,2,0,L|309:289,2,99.9999999999999,0|8|2,0:0|0:0|0:0,0:0:0:0:
350,98,103793,1,8,0:0:0:0:
436,147,104137,2,0,L|428:251,1,99.9999999999999,0|8,0:0|0:0,0:0:0:0:
414,346,104827,6,0,L|302:338,1,99.9999999999999,6|8,0:0|0:0,0:0:0:0:
231,282,105517,2,0,L|132:290,1,99.9999999999999,0|8,0:0|0:0,0:0:0:0:
85,268,106034,1,0,0:0:0:0:
46,235,106206,2,0,P|84:146|39:60,1,200,2|0,0:0|0:0,0:0:0:0:
137,40,107241,1,8,0:0:0:0:
200,117,107586,6,0,L|304:109,1,99.9999999999999,6|8,0:0|0:0,0:0:0:0:
388,154,108275,2,0,P|399:105|389:57,2,99.9999999999999,0|8|2,0:0|0:0|0:0,0:0:0:0:
288,327,109655,2,0,P|238:324|189:336,1,99.9999999999999,0|8,0:0|0:0,0:0:0:0:
101,382,110344,6,0,P|90:333|102:285,1,99.9999999999999,6|8,0:0|0:0,0:0:0:0:
155,200,111034,2,0,P|203:189|251:200,1,99.9999999999999,0|8,0:0|0:0,0:0:0:0:
294,227,111551,1,0,0:0:0:0:
333,257,111724,2,0,L|352:49,1,200,2|0,0:0|0:0,0:0:0:0:
252,76,112758,1,8,0:0:0:0:
155,51,113103,6,0,L|163:163,1,99.9999999999999,6|8,0:0|0:0,0:0:0:0:
217,233,113793,2,0,P|172:248|120:239,2,99.9999999999999,0|8|0,0:0|0:0|0:0,0:0:0:0:
297,173,114827,1,0,0:0:0:0:
379,229,115172,2,0,P|394:184|385:132,1,99.9999999999999,0|0,0:0|0:0,0:0:0:0:
305,73,115862,5,4,0:0:0:0:
