osu file format v14

[General]
AudioFilename: audio.mp3
AudioLeadIn: 0
PreviewTime: 91034
Countdown: 0
SampleSet: Normal
StackLeniency: 0.4
Mode: 0
LetterboxInBreaks: 0
WidescreenStoryboard: 1

[Editor]
DistanceSpacing: 1.1
BeatDivisor: 4
GridSize: 32
TimelineZoom: 1

[Metadata]
Title:All I Know
TitleUnicode:All I Know
Artist:Matrix & Futurebound ft. Luke Bingham
ArtistUnicode:Matrix & Futurebound ft. Luke Bingham
Creator:SquareTude
Version:Mathew's Hard
Source:
Tags:Minorsonek RVMathew Seulgij dnb drum and bass
BeatmapID:1631999
BeatmapSetID:775765

[Difficulty]
HPDrainRate:5
CircleSize:4.3
OverallDifficulty:7
ApproachRate:8
SliderMultiplier:1.6
SliderTickRate:1

[Events]
//Background and Video events
0,0,"109509.jpg",0,0
//Break Periods
//Storyboard Layer 0 (Background)
//Storyboard Layer 1 (Fail)
//Storyboard Layer 2 (Pass)
//Storyboard Layer 3 (Foreground)
//Storyboard Sound Samples

[TimingPoints]
0,344.827586206897,4,2,2,40,1,0
11034,-125,4,2,2,40,0,0
33102,-111.111111111111,4,2,2,40,0,0
33793,-111.111111111111,4,1,2,40,0,0
37586,-111.111111111111,4,1,2,40,0,0
38620,-111.111111111111,4,1,2,50,0,0
44137,-105.263157894737,4,1,2,60,0,0
46896,-100,4,1,2,70,0,0
49655,-90.9090909090909,4,2,1,85,0,1
68965,-90.9090909090909,4,3,3,60,0,0
71724,-90.9090909090909,4,2,1,85,0,0
91034,-90.9090909090909,4,3,3,60,0,0
93793,-90.9090909090909,4,2,1,85,0,1
114482,-90.9090909090909,4,3,3,60,0,0
115862,-90.9090909090909,4,1,2,60,0,0

[Colours]
Combo1 : 0,128,255
Combo2 : 255,255,128

[HitObjects]
414,31,11034,6,0,P|450:68|444:96,1,64,4|0,0:3|0:0,0:0:0:0:
441,150,11379,1,0,1:1:0:0:
441,150,11551,1,8,0:3:0:0:
384,192,11724,2,0,B|336:192|336:192|320:208|320:208|240:208,1,128,0|8,1:3|0:3,0:0:0:0:
195,188,12241,1,0,0:3:0:0:
161,126,12413,2,0,P|153:91|163:54,2,64,0|0|8,1:0|0:3|0:3,0:0:0:0:
208,259,13103,2,0,P|216:294|206:331,1,64,0|8,1:3|0:3,0:0:0:0:
149,355,13448,2,0,P|141:320|151:283,1,64,0|0,1:3|0:3,0:0:0:0:
208,259,13793,6,0,P|237:286|278:287,1,64,8|0,0:3|0:0,0:0:0:0:
318,251,14137,1,0,1:0:0:0:
383,277,14310,1,8,0:3:0:0:
434,228,14482,2,0,L|426:165,1,64,0|0,1:3|0:3,0:0:0:0:
367,126,14827,2,0,L|359:63,1,64,8|0,1:3|0:3,0:0:0:0:
297,29,15172,2,0,P|256:80|288:147,1,128,0|8,1:3|0:3,0:0:0:0:
341,259,15862,2,0,L|426:259,1,64,0|8,1:1|0:3,0:0:0:0:
421,190,16206,2,0,L|357:190,1,64,0|0,0:3|0:0,0:0:0:0:
341,259,16551,6,0,P|322:286|335:341,1,64,8|0,1:3|0:0,0:0:0:0:
378,358,16896,2,0,P|412:360|457:338,1,64,0|8,0:0|0:3,0:0:0:0:
490,301,17241,2,0,P|498:239|451:189,1,128,0|8,1:0|0:3,0:0:0:0:
420,130,17758,1,0,0:3:0:0:
420,130,17931,2,0,P|420:89|434:52,2,64,0|0|8,1:1|0:3|0:3,0:0:0:0:
471,261,18620,2,0,P|436:254|395:261,1,64,2|8,1:2|0:3,0:0:0:0:
350,297,18965,2,0,P|318:299|287:292,1,64,0|0,1:3|0:0,0:0:0:0:
222,266,19310,5,8,1:3:0:0:
104,188,19655,2,0,P|99:157|106:124,1,64,0|8,0:0|0:3,0:0:0:0:
145,67,20000,2,0,P|87:81|28:31,2,128,0|8|2,1:1|0:3|1:2,0:0:0:0:
273,9,21034,2,0,P|257:51|276:76,1,64,8|0,0:3|0:0,0:0:0:0:
307,122,21379,2,0,P|320:152|312:200,1,64,0|8,1:3|0:3,0:0:0:0:
262,225,21724,2,0,P|249:195|257:147,1,64,2|2,1:3|1:2,0:0:0:0:
318,182,22068,6,0,P|331:212|323:260,1,64,4|0,1:1|0:0,0:0:0:0:
316,315,22413,1,0,1:1:0:0:
316,315,22586,1,8,0:3:0:0:
252,344,22758,2,0,L|95:344,1,128,0|8,1:1|0:3,0:0:0:0:
70,298,23275,1,0,0:0:0:0:
40,234,23448,2,0,P|34:201|46:170,2,64,0|0|8,1:1|0:3|0:3,0:0:0:0:
157,311,24137,2,0,L|231:311,1,64,0|8,1:1|0:3,0:0:0:0:
274,264,24482,2,0,L|356:264,1,64,0|0,1:3|0:0,0:0:0:0:
401,232,24827,6,0,P|421:195|421:162,1,64,8|0,1:3|0:0,0:0:0:0:
388,112,25172,1,0,1:1:0:0:
333,68,25344,1,8,0:3:0:0:
272,108,25517,2,0,L|192:112,1,64,0|0,1:1|0:0,0:0:0:0:
158,161,25862,2,0,L|94:157,1,64,8|0,1:3|0:0,0:0:0:0:
28,134,26206,2,0,P|67:181|54:242,1,128,0|8,0:0|1:3,0:0:0:0:
141,353,26896,2,0,L|141:270,1,64,0|8,1:1|0:3,0:0:0:0:
189,237,27241,1,0,0:3:0:0:
210,304,27413,1,0,0:0:0:0:
141,289,27586,6,0,L|59:289,1,64,8|0,1:3|0:0,0:0:0:0:
10,266,27931,2,0,P|-1:237|8:194,1,64,0|8,1:1|0:3,0:0:0:0:
55,158,28275,2,0,P|118:166|165:119,1,128,0|8,1:1|1:3,0:0:0:0:
186,61,28793,1,0,0:0:0:0:
186,61,28965,2,0,P|201:28|235:12,2,64,0|0|8,1:1|0:3|0:3,0:0:0:0:
194,202,29655,2,0,L|210:266,1,64,2|8,1:2|0:3,0:0:0:0:
272,231,30000,2,0,L|288:295,1,64,0|0,0:3|0:0,0:0:0:0:
350,325,30344,5,8,0:3:0:0:
440,216,30689,2,0,P|426:188|428:150,1,64,2|8,0:0|0:3,0:0:0:0:
472,101,31034,2,0,P|488:65|436:-3,2,128,0|8|2,0:0|0:3|0:0,0:0:0:0:
364,192,32068,2,0,L|287:192,1,64,8|0,0:3|0:0,0:0:0:0:
229,192,32413,6,0,L|98:192,2,128,0|2|4,1:3|1:2|0:3,0:0:0:0:
351,120,33448,1,4,0:0:0:0:
351,120,33793,2,0,B|408:120|408:120|437:139|437:139|504:139,2,143.999995605469
206,186,34827,1,0,0:0:0:0:
206,186,35172,6,0,B|177:135|177:135|178:100|178:100|144:43,2,143.999995605469
337,275,36206,1,0,0:0:0:0:
337,275,36551,2,0,B|308:324|308:324|276:339|276:339|243:397,2,143.999995605469
427,139,37586,1,2,1:2:0:0:
368,94,37758,1,0,1:0:0:0:
368,94,37931,6,0,B|432:94|432:94|448:78|448:78|520:78,2,143.999995605469,2|2|0,1:2|1:2|0:0,0:0:0:0:
256,206,38965,1,0,0:0:0:0:
144,94,39310,2,0,B|80:94|80:94|64:78|64:78|-8:78,2,143.999995605469,2|2|0,0:2|0:2|0:0,0:0:0:0:
256,206,40344,1,0,0:0:0:0:
386,116,40689,2,0,L|393:188,1,71.9999978027344,2|0,0:2|0:0,0:0:0:0:
454,238,41034,2,0,L|447:310,1,71.9999978027344,2|0,0:2|0:0,0:0:0:0:
382,355,41379,6,0,P|327:314|244:330,1,143.999995605469
106,268,42068,2,0,L|99:196,1,71.9999978027344,2|0,0:2|0:0,0:0:0:0:
38,146,42413,2,0,L|45:74,1,71.9999978027344,2|0,0:2|0:0,0:0:0:0:
110,29,42758,2,0,P|165:70|248:54,1,143.999995605469,0|0,0:0|0:2,0:0:0:0:
305,20,43275,1,0,0:2:0:0:
364,71,43448,2,0,P|383:102|377:144,1,71.9999978027344,2|0,0:2|0:2,0:0:0:0:
320,188,43793,2,0,P|301:157|307:115,1,71.9999978027344,2|0,0:2|0:2,0:0:0:0:
380,136,44137,6,0,P|396:201|341:263,1,151.999995941162
271,302,44655,1,0,0:0:0:0:
214,239,44827,2,0,L|126:241,1,75.9999979705811,2|0,0:2|0:0,0:0:0:0:
71,290,45172,1,2,0:2:0:0:
148,323,45344,1,0,0:0:0:0:
138,240,45517,2,0,B|94:173|94:173|117:86,1,151.999995941162
198,86,46034,1,0,0:0:0:0:
198,86,46206,2,0,L|174:178,1,75.9999979705811,2|0,0:2|0:0,0:0:0:0:
228,227,46551,1,2,0:2:0:0:
160,274,46724,1,0,0:0:0:0:
160,274,46896,6,0,B|232:298|248:250|320:274,1,160,0|0,0:0|0:0,0:0:0:0:
400,304,47413,1,0,0:0:0:0:
463,243,47586,2,0,P|474:203|445:161,1,80,2|0,0:2|0:0,0:0:0:0:
386,118,47931,2,0,P|350:134|313:123,1,80,2|0,0:2|0:0,0:0:0:0:
271,45,48275,2,0,P|306:29|344:40,1,80,2|0,0:2|0:0,0:0:0:0:
313,123,48620,1,2,0:0:0:0:
318,211,48793,1,2,1:2:0:0:
401,241,48965,2,0,L|397:161,1,80,2|2,0:2|0:2,0:0:0:0:
477,198,49310,2,0,L|481:278,1,80,2|2,1:2|1:0,0:0:0:0:
433,353,49655,6,0,B|377:353|377:353|361:361|361:361|297:361,1,132.00000402832,6|0,0:0|0:0,0:0:0:0:
270,347,50000,2,0,P|281:305|252:257,1,88.000002685547,8|0,0:0|0:0,0:0:0:0:
200,204,50344,2,0,P|183:142|226:97,1,132.00000402832,0|0,0:0|0:0,0:0:0:0:
260,90,50689,2,0,P|301:108|357:86,1,88.000002685547,8|0,0:0|0:0,0:0:0:0:
417,52,51034,2,0,P|461:37|504:54,2,88.000002685547,2|0|8,0:0|0:0|0:0,0:0:0:0:
314,195,51724,1,0,0:0:0:0:
314,283,51896,1,2,0:0:0:0:
398,310,52068,1,8,0:0:0:0:
449,239,52241,1,0,0:0:0:0:
398,167,52413,6,0,P|336:182|274:139,1,132.00000402832,6|0,0:0|0:0,0:0:0:0:
252,126,52758,2,0,P|247:177|220:201,1,88.000002685547,8|0,0:0|0:0,0:0:0:0:
58,238,53103,2,0,P|96:218|138:228,1,88.000002685547,0|2,0:0|0:0,0:0:0:0:
251,352,53448,2,0,P|214:330|202:289,1,88.000002685547,8|0,0:0|0:0,0:0:0:0:
252,126,53793,2,0,P|252:193|364:193,1,176.000005371094,2|8,0:0|0:0,0:0:0:0:
448,70,54482,2,0,P|431:110|461:157,1,88.000002685547,0|2,0:0|0:0,0:0:0:0:
494,223,54827,2,0,P|511:262|494:301,1,88.000002685547,8|0,0:0|0:0,0:0:0:0:
410,327,55172,6,0,P|367:265|386:208,1,132.00000402832,6|0,0:0|0:0,0:0:0:0:
398,184,55517,2,0,P|354:189|310:154,1,88.000002685547,8|0,0:0|0:0,0:0:0:0:
259,101,55862,2,0,P|206:144|132:112,1,132.00000402832,0|0,0:0|0:0,0:0:0:0:
117,114,56206,2,0,P|130:162|105:216,1,88.000002685547,8|0,0:0|0:0,0:0:0:0:
40,316,56551,2,0,P|27:275|38:233,2,88.000002685547,2|0|8,0:0|0:0|0:0,0:0:0:0:
214,346,57241,1,0,0:0:0:0:
293,384,57413,1,2,0:0:0:0:
354,320,57586,1,8,0:0:0:0:
313,243,57758,1,0,0:0:0:0:
226,258,57931,6,0,B|165:281|165:281|89:261,1,132.00000402832,6|0,0:0|0:0,0:0:0:0:
75,239,58275,2,0,P|60:181|92:147,1,88.000002685547,8|0,0:0|0:0,0:0:0:0:
220,78,58620,2,0,P|194:112|151:118,1,88.000002685547,0|2,0:0|0:0,0:0:0:0:
4,40,58965,2,0,P|46:44|72:78,1,88.000002685547,8|0,0:0|0:0,0:0:0:0:
75,239,59310,2,0,P|121:229|165:252,1,88.000002685547,2|0,0:0|0:0,0:0:0:0:
228,296,59655,1,8,0:0:0:0:
157,244,59827,1,0,0:0:0:0:
237,209,60000,2,0,P|277:225|319:214,1,88.000002685547,0|2,0:0|0:0,0:0:0:0:
446,143,60344,2,0,P|406:127|364:138,1,88.000002685547,8|0,0:0|0:0,0:0:0:0:
319,214,60689,6,0,B|319:270|319:270|327:286|327:286|327:350,1,132.00000402832,6|0,0:0|0:0,0:0:0:0:
348,372,61034,2,0,B|391:383|391:383|445:375,1,88.000002685547,8|0,0:0|0:0,0:0:0:0:
491,309,61379,2,0,P|508:264|453:207,1,132.00000402832,0|0,0:0|0:0,0:0:0:0:
423,217,61724,2,0,P|430:175|401:134,1,88.000002685547,8|0,0:0|0:0,0:0:0:0:
330,93,62068,2,0,P|286:104|236:89,2,88.000002685547,2|0|8,0:0|0:0|0:0,0:0:0:0:
432,236,62758,1,0,0:0:0:0:
297,192,62931,1,2,0:0:0:0:
381,307,63103,1,8,0:0:0:0:
297,280,63275,1,0,0:0:0:0:
381,164,63448,6,0,P|319:179|257:136,1,132.00000402832,6|0,0:0|0:0,0:0:0:0:
235,123,63793,2,0,P|230:174|203:198,1,88.000002685547,8|0,0:0|0:0,0:0:0:0:
42,235,64137,2,0,P|80:215|122:225,1,88.000002685547,0|2,0:0|0:0,0:0:0:0:
234,349,64482,2,0,P|197:327|185:286,1,88.000002685547,8|0,0:0|0:0,0:0:0:0:
235,123,64827,2,0,P|235:190|347:190,1,176.000005371094,2|8,0:0|0:0,0:0:0:0:
488,140,65517,2,0,P|441:174|471:256,1,132.00000402832,0|0,0:0|0:0,0:0:0:0:
463,274,65862,2,0,P|425:267|371:285,1,88.000002685547,8|0,0:0|0:0,0:0:0:0:
321,347,66206,6,0,P|266:312|202:323,1,132.00000402832,6|0,0:0|0:0,0:0:0:0:
173,343,66551,2,0,L|188:254,1,88.000002685547,8|0,0:0|0:0,0:0:0:0:
263,210,66896,2,0,P|291:155|248:101,1,132.00000402832,0|0,0:0|0:0,0:0:0:0:
220,90,67241,2,0,P|186:108|129:97,1,88.000002685547,8|0,0:0|0:0,0:0:0:0:
45,130,67586,2,0,P|64:91|57:48,2,88.000002685547,2|0|8,0:0|0:0|0:0,0:0:0:0:
76,348,68275,1,0,0:0:0:0:
75,205,68448,1,2,0:0:0:0:
159,321,68620,1,8,0:0:0:0:
24,277,68793,1,0,0:0:0:0:
160,233,68965,6,0,B|212:271|212:271|291:271,1,132.00000402832,0|0,0:0|0:0,0:0:0:0:
306,248,69310,2,0,P|335:195|313:154,1,88.000002685547,0|0,0:0|3:0,0:0:0:0:
207,56,69655,2,0,P|222:96|262:114,1,88.000002685547,0|0,0:0|3:0,0:0:0:0:
422,68,70000,2,0,P|380:61|346:87,1,88.000002685547,0|0,0:0|3:0,0:0:0:0:
306,248,70344,2,0,P|266:229|226:244,1,88.000002685547,0|0,0:0|3:0,0:0:0:0:
168,311,70689,1,0,0:0:0:0:
227,243,70862,1,0,3:0:0:0:
139,229,71034,2,0,P|109:189|115:140,1,88.000002685547,0|0,0:0|3:0,0:0:0:0:
179,22,71379,2,0,P|194:61|183:103,1,88.000002685547,0|0,0:0|3:0,0:0:0:0:
109,152,71724,6,0,B|174:137|174:137|205:156|205:156|294:134,1,176.000005371094,6|8,0:0|0:0,0:0:0:0:
343,81,72241,2,0,B|303:157|303:157|359:241,1,176.000005371094,0|2,0:0|0:0,0:0:0:0:
441,229,72758,2,0,L|392:155,1,88.000002685547,8|0,0:0|0:0,0:0:0:0:
434,78,73103,2,0,L|392:157,1,88.000002685547,2|0,0:0|0:0,0:0:0:0:
335,223,73448,2,0,B|278:210|278:210|242:229|242:229|149:210,1,176.000005371094,8|0,0:0|0:0,0:0:0:0:
96,158,73965,1,2,0:0:0:0:
166,214,74137,2,0,P|186:251|173:292,1,88.000002685547,8|0,0:0|0:0,0:0:0:0:
112,356,74482,6,0,P|176:319|270:356,1,176.000005371094,2|8,0:0|0:0,0:0:0:0:
438,255,75000,2,0,P|361:293|283:259,1,176.000005371094,0|2,0:0|0:0,0:0:0:0:
220,197,75517,2,0,P|204:151|233:101,1,88.000002685547,8|0,0:0|0:0,0:0:0:0:
282,56,75862,2,0,P|324:74|382:53,1,88.000002685547,2|0,0:0|0:0,0:0:0:0:
436,15,76206,1,8,0:0:0:0:
364,65,76379,1,0,0:0:0:0:
400,146,76551,2,0,L|376:243,1,88.000002685547,0|2,0:0|0:0,0:0:0:0:
233,319,76896,2,0,L|318:295,1,88.000002685547,8|0,0:0|0:0,0:0:0:0:
474,179,77241,6,0,B|459:237|459:237|468:281|468:281|446:360,1,176.000005371094,6|8,0:0|0:0,0:0:0:0:
364,322,77758,2,0,B|301:322|301:322|273:345|273:345|178:344,1,176.000005371094,0|2,0:0|0:0,0:0:0:0:
113,315,78275,2,0,P|94:270|113:215,1,88.000002685547,8|0,0:0|0:0,0:0:0:0:
150,159,78620,2,0,P|156:116|138:76,1,88.000002685547,2|0,0:0|0:0,0:0:0:0:
73,16,78965,1,8,0:0:0:0:
138,76,79137,1,0,0:0:0:0:
211,28,79310,2,0,L|311:28,1,88.000002685547,0|2,0:0|0:0,0:0:0:0:
348,101,79655,1,8,0:0:0:0:
428,63,79827,1,0,0:0:0:0:
498,164,80000,6,0,L|410:164,1,88.000002685547,2|0,0:0|0:0,0:0:0:0:
348,101,80344,1,8,0:0:0:0:
262,119,80517,2,0,P|264:73|221:33,2,88.000002685547,0|0|2,0:0|0:0|0:0,0:0:0:0:
211,191,81034,2,0,P|126:192|93:112,1,176.000005371094,8|2,0:0|0:0,0:0:0:0:
101,30,81550,1,0,0:0:0:0:
187,7,81724,1,8,0:0:0:0:
230,83,81896,1,0,0:0:0:0:
315,61,82068,2,0,P|307:107|355:155,1,88.000002685547,0|2,0:0|0:0,0:0:0:0:
480,211,82413,2,0,P|448:182|405:182,1,88.000002685547,8|0,0:0|0:0,0:0:0:0:
263,273,82758,6,0,P|304:259|327:223,2,88.000002685547,6|0|8,0:0|0:0|0:0,0:0:0:0:
176,287,83275,2,0,P|107:243|151:138,1,176.000005371094,0|2,0:0|0:0,0:0:0:0:
193,110,83793,2,0,B|234:94|234:94|267:51,1,88.000002685547,8|0,0:0|0:0,0:0:0:0:
343,88,84137,2,0,B|335:131|335:131|356:181,1,88.000002685547,2|0,0:0|0:0,0:0:0:0:
283,226,84482,2,0,B|249:198|249:198|195:191,1,88.000002685547,8|0,0:0|0:0,0:0:0:0:
51,203,84827,2,0,B|85:231|85:231|129:237,1,88.000002685547,0|2,0:0|0:0,0:0:0:0:
205,192,85172,1,8,0:0:0:0:
128,148,85344,1,0,0:0:0:0:
128,237,85517,6,0,P|125:305|214:300,1,176.000005371094,2|8,0:0|0:0,0:0:0:0:
384,237,86034,2,0,P|387:305|298:300,1,176.000005371094,0|2,0:0|0:0,0:0:0:0:
256,226,86551,2,0,P|239:185|270:132,1,88.000002685547,8|0,0:0|0:0,0:0:0:0:
323,92,86896,2,0,P|367:110|424:95,1,88.000002685547,2|0,0:0|0:0,0:0:0:0:
478,54,87241,1,8,0:0:0:0:
406,104,87413,1,0,0:0:0:0:
467,167,87586,2,0,P|485:210|477:255,1,88.000002685547,0|2,0:0|0:0,0:0:0:0:
406,104,87931,2,0,P|388:61|396:16,1,88.000002685547,8|0,0:0|0:0,0:0:0:0:
467,167,88275,6,0,B|405:151|405:151|373:167|373:167|281:143,1,176.000005371094,6|8,0:0|0:0,0:0:0:0:
234,88,88793,2,0,B|274:164|274:164|218:248,1,176.000005371094,0|2,0:0|0:0,0:0:0:0:
136,236,89310,2,0,B|123:199|123:199|96:157,1,88.000002685547,8|0,0:0|0:0,0:0:0:0:
143,85,89655,2,0,L|192:160,2,88.000002685547,2|0|8,0:0|0:0|0:0,0:0:0:0:
93,12,90172,1,0,0:0:0:0:
143,85,90344,2,0,L|244:85,1,88.000002685547,0|2,0:0|0:0,0:0:0:0:
365,160,90689,2,0,L|277:160,1,88.000002685547,8|0,0:0|0:0,0:0:0:0:
211,218,91034,5,0,0:0:0:0:
256,192,91120,12,0,93103,0:0:0:0:
79,353,93793,6,0,B|135:353|135:353|151:361|151:361|215:361,1,132.00000402832,6|0,0:0|0:0,0:0:0:0:
242,347,94137,2,0,P|231:305|260:257,1,88.000002685547,8|0,0:0|0:0,0:0:0:0:
312,204,94482,2,0,P|329:142|286:97,1,132.00000402832,0|0,0:0|0:0,0:0:0:0:
252,90,94827,2,0,P|211:108|155:86,1,88.000002685547,8|0,0:0|0:0,0:0:0:0:
95,52,95172,2,0,P|51:37|8:54,2,88.000002685547,2|0|8,0:0|0:0|0:0,0:0:0:0:
198,195,95862,1,0,0:0:0:0:
198,283,96034,1,2,0:0:0:0:
63,239,96206,1,8,0:0:0:0:
114,310,96379,1,0,0:0:0:0:
114,167,96551,6,0,P|176:182|238:139,1,132.00000402832,6|0,0:0|0:0,0:0:0:0:
260,126,96896,2,0,P|265:177|292:201,1,88.000002685547,8|0,0:0|0:0,0:0:0:0:
454,238,97241,2,0,P|416:218|374:228,1,88.000002685547,0|2,0:0|0:0,0:0:0:0:
261,352,97586,2,0,P|298:330|310:289,1,88.000002685547,8|0,0:0|0:0,0:0:0:0:
260,126,97931,2,0,P|222:195|294:195,1,176.000005371094,2|8,0:0|0:0,0:0:0:0:
450,126,98620,2,0,P|467:166|456:218,1,88.000002685547,0|2,0:0|0:0,0:0:0:0:
420,287,98965,2,0,P|378:275|327:302,1,88.000002685547,8|0,0:0|0:0,0:0:0:0:
266,340,99310,6,0,P|309:278|290:221,1,132.00000402832,6|0,0:0|0:0,0:0:0:0:
276,198,99655,2,0,P|326:211|376:182,1,88.000002685547,8|0,0:0|0:0,0:0:0:0:
434,137,100000,2,0,P|448:74|398:37,1,132.00000402832,0|0,0:0|0:0,0:0:0:0:
367,50,100344,2,0,P|326:64|270:46,1,88.000002685547,8|0,0:0|0:0,0:0:0:0:
136,114,100689,2,0,P|177:128|219:118,2,88.000002685547,2|0|8,0:0|0:0|0:0,0:0:0:0:
256,332,101379,1,0,0:0:0:0:
299,198,101551,1,2,0:0:0:0:
184,282,101724,1,8,0:0:0:0:
327,282,101896,1,0,0:0:0:0:
211,198,102068,6,0,B|146:210|146:210|75:177,1,132.00000402832,6|0,0:0|0:0,0:0:0:0:
57,162,102413,2,0,L|73:262,1,88.000002685547,8|0,0:0|0:0,0:0:0:0:
87,375,102758,2,0,L|155:319,1,88.000002685547,0|2,0:0|0:0,0:0:0:0:
256,240,103103,2,0,L|173:208,1,88.000002685547,8|0,0:0|0:0,0:0:0:0:
256,240,103448,2,0,L|338:208,1,88.000002685547,2|0,0:0|0:0,0:0:0:0:
387,281,103793,2,0,L|305:313,1,88.000002685547,8|0,0:0|0:0,0:0:0:0:
207,313,104137,2,0,L|125:281,1,88.000002685547,0|2,0:0|0:0,0:0:0:0:
22,163,104482,1,8,0:0:0:0:
103,194,104655,1,0,0:0:0:0:
183,156,104827,6,0,P|227:110|191:38,1,132.00000402832,6|0,0:0|0:0,0:0:0:0:
187,22,105172,2,0,P|233:37|300:13,1,88.000002685547,8|0,0:0|0:0,0:0:0:0:
355,4,105517,2,0,P|344:65|379:131,1,132.00000402832,0|0,0:0|0:0,0:0:0:0:
390,157,105862,2,0,P|348:145|309:163,1,88.000002685547,8|0,0:0|0:0,0:0:0:0:
248,227,106206,2,0,P|204:238|154:223,2,88.000002685547,2|0|8,0:0|0:0|0:0,0:0:0:0:
399,217,106896,1,0,0:0:0:0:
315,102,107068,1,2,0:0:0:0:
450,146,107241,1,8,0:0:0:0:
315,190,107413,1,0,0:0:0:0:
399,74,107586,6,0,P|337:89|275:46,1,132.00000402832,6|0,0:0|0:0,0:0:0:0:
253,33,107931,2,0,P|248:84|221:108,1,88.000002685547,8|0,0:0|0:0,0:0:0:0:
60,145,108275,2,0,P|98:125|140:135,1,88.000002685547,0|2,0:0|0:0,0:0:0:0:
252,259,108620,2,0,P|215:237|203:196,1,88.000002685547,8|0,0:0|0:0,0:0:0:0:
210,39,108965,2,0,P|210:106|322:106,1,176.000005371094,2|8,0:0|0:0,0:0:0:0:
468,69,109655,2,0,P|421:103|451:185,1,132.00000402832,0|0,0:0|0:0,0:0:0:0:
446,202,110000,2,0,P|403:187|361:195,1,88.000002685547,8|0,0:0|0:0,0:0:0:0:
290,245,110344,6,0,P|223:265|138:230,1,132.00000402832,6|0,0:0|0:0,0:0:0:0:
129,246,110689,2,0,P|142:208|127:157,1,88.000002685547,8|0,0:0|0:0,0:0:0:0:
107,77,111034,2,0,B|176:105|176:105|246:77,1,132.00000402832,0|0,0:0|0:0,0:0:0:0:
254,58,111379,2,0,P|241:101|273:147,1,88.000002685547,8|0,0:0|0:0,0:0:0:0:
342,258,111724,2,0,P|355:217|337:179,2,88.000002685547,2|0|8,0:0|0:0|0:0,0:0:0:0:
76,348,112413,1,0,0:0:0:0:
159,321,112586,1,2,0:0:0:0:
75,205,112758,1,8,0:0:0:0:
24,277,112931,1,0,0:0:0:0:
160,233,113103,6,0,B|212:271|212:271|291:271,1,132.00000402832,6|0,0:0|0:0,0:0:0:0:
309,252,113448,2,0,P|338:199|316:158,1,88.000002685547,8|0,0:0|0:0,0:0:0:0:
210,46,113793,2,0,P|225:86|265:104,1,88.000002685547,0|2,0:0|0:0,0:0:0:0:
435,60,114137,2,0,P|392:53|359:80,1,88.000002685547,8|0,0:0|0:0,0:0:0:0:
309,252,114482,2,0,P|269:233|229:248,1,88.000002685547
162,320,114827,1,0,0:0:0:0:
230,247,115000,1,0,0:0:0:0:
136,223,115172,2,0,P|108:189|112:134,1,88.000002685547,0|0,0:0|0:0,0:0:0:0:
186,14,115517,2,0,P|201:55|190:97,1,88.000002685547,0|0,0:0|0:0,0:0:0:0:
256,192,115862,5,4,0:0:0:0:
