osu file format v14

[General]
AudioFilename: audio.mp3
AudioLeadIn: 0
PreviewTime: 149109
Countdown: 0
SampleSet: Soft
StackLeniency: 0.7
Mode: 0
LetterboxInBreaks: 0
WidescreenStoryboard: 1

[Editor]
Bookmarks: 33333,127126
DistanceSpacing: 1
BeatDivisor: 4
GridSize: 32
TimelineZoom: 1

[Metadata]
Title:All I Know (M&F's Rolling Out Radio Mix)
TitleUnicode:All I Know (M&F's Rolling Out Radio Mix)
Artist:Matrix & Futurebound feat. Luke Bingham
ArtistUnicode:Matrix & Futurebound feat. Luke Bingham
Creator:Tycani
Version:PotatoDew's Normal
Source:
Tags:english dnb drum and bass electronic play rainworld potatodew jaybone fuiba fuyu m_i_x thexo
BeatmapID:3033794
BeatmapSetID:1454367

[Difficulty]
HPDrainRate:3
CircleSize:3
OverallDifficulty:4
ApproachRate:5.5
SliderMultiplier:1.1
SliderTickRate:1

[Events]
//Background and Video events
0,0,"109509.jpg",0,0
//Break Periods
2,33533,43242
2,116292,126001
//Storyboard Layer 0 (Background)
//Storyboard Layer 1 (Fail)
//Storyboard Layer 2 (Pass)
//Storyboard Layer 3 (Foreground)
//Storyboard Layer 4 (Overlay)
//Storyboard Sound Samples

[TimingPoints]
230,344.827586206897,4,2,1,50,1,0
230,-100,4,2,1,50,0,0
316,-1000,4,2,1,50,0,0
11264,-100,4,2,1,50,0,0
22298,-100,4,2,1,65,0,0
49195,-100,4,2,1,75,0,0
49885,-90.9090909090909,4,2,1,90,0,1
69195,-90.9090909090909,4,2,1,80,0,1
71954,-100,4,2,1,90,0,0
91264,-100,4,2,1,75,0,0
94023,-90.9090909090909,4,2,1,90,0,1
114712,-90.9090909090909,4,2,1,80,0,1
116092,-100,4,2,1,60,0,0
127126,-100,4,2,1,70,0,0
147816,-100,4,2,1,75,0,0
149195,-90.9090909090909,4,2,1,90,0,1
168505,-90.9090909090909,4,2,1,80,0,1
169885,-90.9090909090909,4,2,1,40,0,1
170919,-90.9090909090909,4,2,1,80,0,1
171264,-100,4,2,1,90,0,0
191954,-100,4,2,1,70,0,0

[Colours]
Combo1 : 13,202,242
Combo2 : 192,192,192
Combo3 : 18,124,255

[HitObjects]
110,161,11264,6,0,P|86:218|67:334,2,165,6|2|2,1:2|0:0|0:0,0:0:0:0:
316,237,12988,1,0,0:0:0:0:
394,92,13505,1,2,0:0:0:0:
249,11,14023,6,0,L|67:40,2,165,2|2|2,0:0|0:0|0:0,0:0:0:0:
154,207,15747,1,0,0:0:0:0:
245,344,16264,1,2,0:0:0:0:
382,252,16781,6,0,P|444:254|481:161,2,165,2|2|2,0:0|0:0|0:0,0:0:0:0:
218,104,18505,1,0,0:0:0:0:
61,155,19023,1,2,0:0:0:0:
13,312,19540,6,0,L|179:345,2,165,2|2|2,0:0|0:0|0:0,0:0:0:0:
172,160,21264,1,2,0:0:0:0:
314,242,21781,1,2,0:0:0:0:
412,110,22298,6,0,P|354:67|253:51,2,165,2|2|2,0:0|0:0|0:0,0:0:0:0:
485,317,24023,2,0,P|437:345|361:345,1,110,2|2,0:0|0:0,0:0:0:0:
329,337,24540,1,2,0:0:0:0:
220,212,25057,6,0,L|189:382,2,165,2|2|2,0:0|0:0|0:0,0:0:0:0:
96,29,26781,2,0,P|27:44|-7:96,1,110,2|2,0:0|0:0,0:0:0:0:
22,123,27298,1,2,0:0:0:0:
7,287,27816,6,0,P|79:283|117:365,2,165,2|2|2,0:0|0:0|0:0,0:0:0:0:
190,165,29540,2,0,P|201:121|200:49,1,110,2|2,0:0|0:0,0:0:0:0:
235,13,30057,1,2,0:0:0:0:
346,134,30574,6,0,L|509:100,2,165,2|2|2,0:0|0:0|0:0,0:0:0:0:
219,314,32298,2,0,P|170:292|107:290,1,110,2|2,0:0|0:0,0:0:0:0:
74,250,32816,1,2,0:0:0:0:
134,96,33333,5,6,1:2:0:0:
256,192,44367,6,0,L|226:68,1,110,0|2,3:0|3:2,0:0:0:0:
133,31,45057,2,0,L|103:155,1,110,2|2,3:2|3:2,0:0:0:0:
54,234,45747,2,0,P|112:240|152:275,1,110,2|0,3:2|3:0,0:0:0:0:
237,339,46436,2,0,P|295:333|335:298,1,110,2|2,3:2|3:2,0:0:0:0:
427,243,47126,5,2,3:2:0:0:
355,158,47471,1,0,3:0:0:0:
441,90,47816,1,2,3:2:0:0:
364,10,48161,1,2,1:2:0:0:
278,79,48505,2,0,L|214:92,1,55,0|0,1:0|1:0,0:0:0:0:
182,54,48850,2,0,L|118:41,1,55,2|2,1:2|1:2,0:0:0:0:
78,66,49195,1,2,1:2:0:0:
30,165,49540,1,2,1:2:0:0:
46,217,49712,1,0,1:0:0:0:
64,268,49885,6,0,B|120:288|120:288|181:248,1,121.000003692627,6|10,1:2|0:0,0:0:0:0:
219,216,50402,1,2,0:0:0:0:
219,216,50574,1,2,0:0:0:0:
298,307,50919,2,0,L|380:326,1,60.5000018463135,10|2,0:0|0:0,0:0:0:0:
409,289,51264,1,2,1:2:0:0:
409,289,51436,2,0,L|481:272,1,60.5000018463135,2|8,0:0|0:0,0:0:0:0:
501,158,51954,2,0,P|489:120|467:88,1,60.5000018463135,2|2,0:0|1:2,0:0:0:0:
419,88,52298,2,0,P|385:66|347:56,1,60.5000018463135,10|2,0:0|0:0,0:0:0:0:
307,75,52643,6,0,B|245:70|245:70|189:106,1,121.000003692627,2|10,1:2|0:0,0:0:0:0:
146,138,53161,1,2,0:0:0:0:
146,138,53333,1,2,0:0:0:0:
226,228,53678,1,10,0:0:0:0:
164,332,54023,2,0,P|102:353|38:339,1,121.000003692627,2|8,1:2|0:0,0:0:0:0:
1,232,54712,1,2,0:0:0:0:
63,128,55057,2,0,P|55:89|63:58,1,60.5000018463135,10|2,0:0|0:0,0:0:0:0:
97,22,55402,6,0,B|156:43|156:43|220:29,1,121.000003692627,6|10,1:2|0:0,0:0:0:0:
261,67,55919,1,2,0:0:0:0:
261,67,56092,1,2,0:0:0:0:
372,21,56436,2,0,L|444:37,1,60.5000018463135,10|2,0:0|0:0,0:0:0:0:
468,81,56781,1,2,1:2:0:0:
468,81,56954,2,0,L|452:153,1,60.5000018463135,2|8,0:0|0:0,0:0:0:0:
369,226,57471,2,0,P|337:242|300:242,1,60.5000018463135,2|2,0:0|1:2,0:0:0:0:
260,273,57816,2,0,P|227:258|203:230,1,60.5000018463135,10|2,0:0|0:0,0:0:0:0:
176,190,58161,6,0,B|150:140|150:140|171:70,1,121.000003692627,2|10,1:2|0:0,0:0:0:0:
197,24,58678,1,2,0:0:0:0:
197,24,58850,1,2,0:0:0:0:
305,77,59195,1,10,0:0:0:0:
420,40,59540,2,0,P|435:97|414:166,1,121.000003692627,2|8,1:2|0:0,0:0:0:0:
358,260,60230,1,2,0:0:0:0:
252,244,60574,1,10,0:0:0:0:
194,223,60747,1,2,0:0:0:0:
146,259,60919,6,0,B|89:287|89:287|10:266,1,121.000003692627,6|10,1:2|0:0,0:0:0:0:
6,217,61436,1,2,0:0:0:0:
6,217,61609,1,2,0:0:0:0:
81,122,61954,2,0,L|93:52,1,60.5000018463135,10|2,0:0|0:0,0:0:0:0:
140,26,62298,1,2,1:2:0:0:
140,26,62471,2,0,L|199:36,1,60.5000018463135,2|8,0:0|0:0,0:0:0:0:
282,124,62988,2,0,P|278:161|288:195,1,60.5000018463135,2|2,0:0|1:2,0:0:0:0:
260,239,63333,2,0,P|280:269|310:289,1,60.5000018463135,10|2,0:0|0:0,0:0:0:0:
334,333,63678,6,0,B|396:355|396:355|459:322,1,121.000003692627,2|10,1:2|0:0,0:0:0:0:
491,290,64195,1,2,0:0:0:0:
491,290,64367,1,2,0:0:0:0:
419,192,64712,1,10,0:0:0:0:
491,95,65057,2,0,P|443:73|370:72,1,121.000003692627,2|8,1:2|0:0,0:0:0:0:
270,10,65747,1,2,0:0:0:0:
178,89,66092,2,0,P|165:126|164:163,1,60.5000018463135,10|2,0:0|0:0,0:0:0:0:
122,191,66436,6,0,B|101:249|101:249|117:331,1,121.000003692627,6|10,1:2|0:0,0:0:0:0:
157,348,66954,1,2,0:0:0:0:
157,348,67126,1,2,0:0:0:0:
239,259,67471,2,0,L|311:247,1,60.5000018463135,10|2,0:0|0:0,0:0:0:0:
335,200,67816,1,2,1:2:0:0:
335,200,67988,2,0,L|323:128,1,60.5000018463135,2|8,0:0|0:0,0:0:0:0:
395,41,68505,2,0,P|437:31|471:36,1,60.5000018463135,2|2,0:0|1:2,0:0:0:0:
498,73,68850,2,0,P|508:115|503:149,1,60.5000018463135,10|2,0:0|0:0,0:0:0:0:
467,178,69195,5,0,1:0:0:0:
416,287,69540,1,0,1:0:0:0:
305,237,69885,1,0,1:0:0:0:
257,348,70230,1,0,1:0:0:0:
149,294,70574,1,0,1:0:0:0:
178,176,70919,2,0,L|160:113,1,60.5000018463135,0|0,1:0|1:0,0:0:0:0:
115,78,71264,1,8,0:0:0:0:
222,22,71609,1,8,0:0:0:0:
280,37,71781,1,8,0:0:0:0:
337,52,71954,6,0,B|361:106|361:106|345:164,1,110,6|8,1:2|0:0,0:0:0:0:
309,195,72471,1,2,0:0:0:0:
224,265,72816,1,0,1:0:0:0:
172,246,72988,1,10,0:0:0:0:
88,174,73333,2,0,L|63:46,2,110,0|8|0,1:0|0:0|0:0,0:0:0:0:
30,268,74367,2,0,L|17:326,1,55,10|2,0:0|0:0,0:0:0:0:
51,365,74712,6,0,B|104:344|104:344|176:363,1,110,2|8,1:2|0:0,0:0:0:0:
205,333,75230,1,2,0:0:0:0:
309,366,75574,1,0,1:0:0:0:
361,348,75747,1,8,0:0:0:0:
434,265,76092,2,0,L|452:151,1,110,0|10,1:0|0:0,0:0:0:0:
414,122,76609,1,2,0:0:0:0:
414,122,76781,1,2,0:0:0:0:
314,168,77126,1,10,0:0:0:0:
259,158,77298,1,2,0:0:0:0:
204,150,77471,6,0,B|158:167|158:167|86:147,1,110,6|8,1:2|0:0,0:0:0:0:
57,114,77988,1,2,0:0:0:0:
117,22,78333,1,0,1:0:0:0:
169,37,78505,1,10,0:0:0:0:
275,9,78850,2,0,L|401:32,1,110,2|10,1:2|0:0,0:0:0:0:
421,68,79367,1,2,0:0:0:0:
421,68,79540,1,2,0:0:0:0:
368,164,79885,2,0,P|357:205|359:231,1,55,10|2,0:0|0:0,0:0:0:0:
331,265,80230,6,0,B|282:292|282:292|204:281,1,110,2|10,1:2|0:0,0:0:0:0:
186,248,80747,1,2,0:0:0:0:
245,155,81092,1,0,1:0:0:0:
228,102,81264,1,8,0:0:0:0:
139,36,81609,2,0,L|16:63,1,110,0|10,1:0|0:0,0:0:0:0:
4,166,82298,2,0,P|17:201|22:237,1,55,2|0,0:0|1:0,0:0:0:0:
6,271,82643,1,10,0:0:0:0:
31,319,82816,1,2,0:0:0:0:
81,341,82988,6,0,B|135:329|135:329|203:362,1,110,6|8,1:2|0:0,0:0:0:0:
237,339,83505,1,2,0:0:0:0:
195,236,83850,1,0,1:0:0:0:
213,183,84023,1,10,0:0:0:0:
263,85,84367,2,0,L|388:62,1,110,0|10,1:0|0:0,0:0:0:0:
423,96,84885,1,2,0:0:0:0:
423,96,85057,1,2,0:0:0:0:
478,191,85402,2,0,P|488:227|482:261,1,55,10|2,0:0|0:0,0:0:0:0:
459,292,85747,6,0,B|413:313|413:313|348:300,1,110,2|10,1:2|0:0,0:0:0:0:
311,266,86264,1,2,0:0:0:0:
222,331,86609,1,0,1:0:0:0:
169,314,86781,1,10,0:0:0:0:
63,346,87126,2,0,L|41:221,1,110,0|10,1:0|0:0,0:0:0:0:
74,191,87643,1,2,0:0:0:0:
74,191,87816,1,2,0:0:0:0:
131,97,88161,2,0,P|163:109|191:115,1,55,10|2,0:0|0:0,0:0:0:0:
229,142,88505,6,0,B|248:192|248:192|231:255,1,110,6|8,1:2|0:0,0:0:0:0:
204,293,89023,1,2,0:0:0:0:
295,352,89367,1,0,1:0:0:0:
347,334,89540,1,10,0:0:0:0:
442,278,89885,2,0,L|473:385,2,110,0|10|2,1:0|0:0|0:0,0:0:0:0:
358,206,90919,2,0,P|357:171|365:143,1,55,10|2,0:0|0:0,0:0:0:0:
354,97,91264,6,0,B|437:60|443:143|524:100,2,165,0|0|0,1:0|1:0|1:3,0:0:0:0:
267,28,92643,1,0,1:0:0:0:
179,95,92988,1,0,1:0:0:0:
89,31,93333,2,0,P|38:32|16:43,1,55,0|8,1:0|0:0,0:0:0:0:
1,77,93678,1,8,0:0:0:0:
70,175,94023,6,0,B|97:230|97:230|71:304,1,121.000003692627,6|10,1:2|0:0,0:0:0:0:
111,336,94540,1,2,0:0:0:0:
111,336,94712,1,2,0:0:0:0:
218,280,95057,2,0,L|300:301,1,60.5000018463135,10|2,0:0|0:0,0:0:0:0:
323,333,95402,1,2,1:2:0:0:
323,333,95574,2,0,L|405:312,1,60.5000018463135,2|8,0:0|0:0,0:0:0:0:
463,228,96092,2,0,P|473:175|469:147,1,60.5000018463135,2|2,0:0|1:2,0:0:0:0:
431,124,96436,2,0,P|421:71|425:43,1,60.5000018463135,10|2,0:0|0:0,0:0:0:0:
378,22,96781,6,0,B|321:36|321:36|251:14,1,121.000003692627,2|10,1:2|0:0,0:0:0:0:
202,39,97298,1,2,0:0:0:0:
206,43,97471,1,2,0:0:0:0:
120,129,97816,1,10,0:0:0:0:
208,211,98161,2,0,P|225:264|215:338,1,121.000003692627,2|8,1:2|0:0,0:0:0:0:
109,380,98850,1,2,0:0:0:0:
17,300,99195,2,0,P|28:262|30:232,1,60.5000018463135,10|2,0:0|0:0,0:0:0:0:
62,190,99540,6,0,B|79:136|79:136|54:67,1,121.000003692627,6|10,1:2|0:0,0:0:0:0:
102,35,100057,1,2,0:0:0:0:
102,35,100230,1,2,0:0:0:0:
200,104,100574,2,0,L|279:83,1,60.5000018463135,10|2,0:0|0:0,0:0:0:0:
304,49,100919,1,2,1:2:0:0:
304,49,101092,2,0,L|383:70,1,60.5000018463135,2|10,0:0|0:0,0:0:0:0:
441,156,101609,2,0,P|453:198|450:236,1,60.5000018463135,2|2,0:0|1:2,0:0:0:0:
409,257,101954,2,0,P|391:296|364:324,1,60.5000018463135,10|2,0:0|0:0,0:0:0:0:
336,350,102298,6,0,B|273:332|273:332|210:359,1,121.000003692627,2|10,1:2|0:0,0:0:0:0:
162,325,102816,1,2,0:0:0:0:
166,329,102988,1,2,0:0:0:0:
92,232,103333,1,10,0:0:0:0:
177,145,103678,2,0,P|163:94|186:24,1,121.000003692627,2|10,1:2|0:0,0:0:0:0:
299,4,104367,1,2,0:0:0:0:
390,67,104712,1,10,0:0:0:0:
449,53,104885,1,2,0:0:0:0:
487,100,105057,6,0,B|512:158|512:158|492:232,1,121.000003692627,4|8,1:2|0:0,0:0:0:0:
454,257,105574,1,2,0:0:0:0:
454,257,105747,1,2,0:0:0:0:
361,179,106092,2,0,L|296:164,1,60.5000018463135,10|2,0:0|0:0,0:0:0:0:
256,135,106436,1,2,1:2:0:0:
256,135,106609,2,0,L|191:150,1,60.5000018463135,2|8,0:0|0:0,0:0:0:0:
78,175,107126,2,0,P|58:210|56:246,1,60.5000018463135,2|2,0:0|1:2,0:0:0:0:
28,284,107471,2,0,P|48:319|50:355,1,60.5000018463135,10|2,0:0|0:0,0:0:0:0:
93,382,107816,6,0,B|151:360|151:360|221:389,1,121.000003692627,2|10,1:2|0:0,0:0:0:0:
253,347,108333,1,2,0:0:0:0:
257,351,108505,1,2,0:0:0:0:
375,375,108850,1,8,0:0:0:0:
464,293,109195,2,0,P|448:252|456:158,1,121.000003692627,2|8,1:2|0:0,0:0:0:0:
350,106,109885,1,2,0:0:0:0:
260,187,110230,2,0,P|212:190|186:185,1,60.5000018463135,10|2,0:0|0:0,0:0:0:0:
152,225,110574,6,0,B|99:250|99:250|30:228,1,121.000003692627,6|10,1:2|0:0,0:0:0:0:
11,183,111092,1,2,0:0:0:0:
11,183,111264,1,2,0:0:0:0:
61,73,111609,2,0,L|140:57,1,60.5000018463135,10|2,0:0|0:0,0:0:0:0:
168,23,111954,1,2,1:2:0:0:
168,23,112126,2,0,L|247:39,1,60.5000018463135,2|8,0:0|0:0,0:0:0:0:
321,110,112643,2,0,P|335:144|333:179,1,60.5000018463135,2|2,0:0|1:2,0:0:0:0:
300,216,112988,2,0,P|286:250|288:285,1,60.5000018463135,10|2,0:0|0:0,0:0:0:0:
319,323,113333,6,0,B|375:348|375:348|441:328,1,121.000003692627,2|10,1:2|0:0,0:0:0:0:
483,302,113850,1,2,0:0:0:0:
487,306,114023,1,2,0:0:0:0:
444,192,114367,1,10,0:0:0:0:
505,87,114712,1,0,1:0:0:0:
400,25,115057,2,0,L|333:41,1,60.5000018463135,0|0,1:0|1:0,0:0:0:0:
302,85,115402,1,8,0:0:0:0:
192,33,115747,1,8,0:0:0:0:
132,23,115919,1,8,0:0:0:0:
77,14,116092,5,2,1:2:0:0:
329,56,127126,6,0,L|508:92,2,165,6|2|2,1:2|0:0|0:0,0:0:0:0:
406,202,128678,1,2,0:0:0:0:
281,310,129195,2,0,P|200:292|201:213,1,165,2|2,0:0|0:0,0:0:0:0:
183,56,130230,2,0,L|4:92,2,165,2|2|2,0:0|0:0|0:0,0:0:0:0:
256,204,131782,2,0,P|271:284|255:364,1,165,2|2,0:0|0:0,0:0:0:0:
169,296,132643,6,0,L|1:331,2,165,2|2|2,0:0|0:0|0:0,0:0:0:0:
91,150,134195,1,2,0:0:0:0:
189,17,134712,2,0,P|211:85|231:185,1,165,2|2,0:0|0:0,0:0:0:0:
343,296,135747,2,0,L|511:331,2,165,2|2|2,0:0|0:0|0:0,0:0:0:0:
256,155,137298,2,0,P|196:167|159:76,1,165,2|2,0:0|0:0,0:0:0:0:
256,42,138161,6,0,P|335:48|421:-1,1,165,2|2,0:0|0:0,0:0:0:0:
499,148,139195,1,2,0:0:0:0:
338,185,139712,2,0,P|370:264|353:343,2,165,2|2|2,0:0|0:0|0:0,0:0:0:0:
256,42,141264,2,0,P|177:48|91:-1,1,165,2|2,0:0|0:0,0:0:0:0:
13,148,142298,1,2,0:0:0:0:
174,185,142816,2,0,P|142:264|159:343,1,165,2|2,0:0|0:0,0:0:0:0:
267,344,143678,6,0,L|397:316,1,110,2|0,3:2|3:0,0:0:0:0:
373,210,144367,2,0,L|243:238,1,110,0|2,3:0|3:2,0:0:0:0:
245,124,145057,2,0,L|115:96,1,110,0|0,3:0|3:0,0:0:0:0:
139,0,145747,2,0,L|267:28,1,110,2|0,3:2|3:0,0:0:0:0:
345,71,146436,5,2,1:2:0:0:
451,41,146781,1,0,1:0:0:0:
512,132,147126,1,0,1:0:0:0:
445,218,147471,1,0,1:0:0:0:
341,181,147816,1,0,1:0:0:0:
232,200,148161,2,0,L|170:211,1,55,2|2,1:2|1:2,0:0:0:0:
124,219,148505,1,0,1:0:0:0:
15,239,148850,1,10,0:0:0:0:
1,292,149023,1,2,1:2:0:0:
25,346,149195,6,0,B|87:330|87:330|159:353,1,121.000003692627,6|10,1:2|0:0,0:0:0:0:
197,370,149712,1,2,0:0:0:0:
197,370,149885,1,2,0:0:0:0:
273,276,150230,2,0,L|347:261,1,60.5000018463135,10|2,0:0|0:0,0:0:0:0:
384,303,150574,1,2,1:2:0:0:
384,303,150747,2,0,L|458:318,1,60.5000018463135,2|8,0:0|0:0,0:0:0:0:
499,208,151264,2,0,P|509:175|501:138,1,60.5000018463135,2|2,0:0|1:2,0:0:0:0:
454,117,151609,2,0,P|435:88|401:70,1,60.5000018463135,10|2,0:0|0:0,0:0:0:0:
360,44,151954,6,0,B|301:22|301:22|222:37,1,121.000003692627,2|10,1:2|0:0,0:0:0:0:
196,5,152471,1,2,0:0:0:0:
196,5,152643,1,2,0:0:0:0:
133,107,152988,1,10,0:0:0:0:
212,197,153333,2,0,P|226:259|200:324,1,121.000003692627,2|8,1:2|0:0,0:0:0:0:
97,361,154023,1,2,0:0:0:0:
25,263,154367,2,0,P|16:232|16:198,1,60.5000018463135,10|2,0:0|0:0,0:0:0:0:
55,158,154712,6,0,B|36:102|36:102|64:40,1,121.000003692627,6|10,1:2|0:0,0:0:0:0:
112,10,155230,1,2,0:0:0:0:
112,10,155402,1,2,0:0:0:0:
210,80,155747,2,0,L|276:94,1,60.5000018463135,10|2,0:0|0:0,0:0:0:0:
318,57,156092,1,2,1:2:0:0:
318,57,156264,2,0,L|385:44,1,60.5000018463135,2|8,0:0|0:0,0:0:0:0:
474,117,156781,2,0,P|490:151|493:185,1,60.5000018463135,2|2,0:0|1:2,0:0:0:0:
451,217,157126,2,0,P|435:251|432:285,1,60.5000018463135,10|2,0:0|0:0,0:0:0:0:
390,317,157471,6,0,B|331:303|331:303|262:335,1,121.000003692627,2|10,1:2|0:0,0:0:0:0:
219,307,157988,1,2,0:0:0:0:
219,307,158161,1,2,0:0:0:0:
264,195,158505,1,10,0:0:0:0:
191,98,158850,2,0,P|141:85|56:99,1,121.000003692627,2|10,1:2|0:0,0:0:0:0:
10,196,159540,1,2,0:0:0:0:
18,315,159885,1,10,0:0:0:0:
65,352,160057,1,2,0:0:0:0:
123,337,160230,6,0,B|186:350|186:350|246:312,1,121.000003692627,6|10,1:2|0:0,0:0:0:0:
272,272,160747,1,2,0:0:0:0:
272,272,160919,1,2,0:0:0:0:
199,174,161264,2,0,L|185:109,1,60.5000018463135,10|2,0:0|0:0,0:0:0:0:
224,69,161609,1,2,1:2:0:0:
224,69,161781,2,0,L|289:55,1,60.5000018463135,2|8,0:0|0:0,0:0:0:0:
392,107,162298,2,0,P|413:137|424:176,1,60.5000018463135,2|2,0:0|1:2,0:0:0:0:
451,211,162643,2,0,P|441:246|418:279,1,60.5000018463135,10|2,0:0|0:0,0:0:0:0:
383,306,162988,6,0,B|328:335|328:335|246:315,1,121.000003692627,2|10,1:2|0:0,0:0:0:0:
223,292,163505,1,2,0:0:0:0:
223,292,163678,1,2,0:0:0:0:
115,347,164023,1,10,0:0:0:0:
34,256,164367,2,0,P|9:204|29:122,1,121.000003692627,2|8,1:2|0:0,0:0:0:0:
113,69,165057,1,2,0:0:0:0:
204,148,165402,2,0,P|245:166|286:167,1,60.5000018463135,10|2,0:0|0:0,0:0:0:0:
300,213,165747,6,0,B|356:245|356:245|428:226,1,121.000003692627,6|10,1:2|0:0,0:0:0:0:
460,265,166264,1,2,1:2:0:0:
460,265,166436,1,2,1:2:0:0:
511,155,166781,2,0,L|494:78,1,60.5000018463135,10|2,0:0|1:2,0:0:0:0:
451,56,167126,1,2,1:2:0:0:
451,56,167298,2,0,L|374:73,1,60.5000018463135,2|8,1:2|0:0,0:0:0:0:
281,18,167816,2,0,P|247:36|208:45,1,60.5000018463135,2|2,1:2|1:2,0:0:0:0:
171,68,168161,2,0,P|137:50|98:41,1,60.5000018463135,10|2,0:0|1:2,0:0:0:0:
64,75,168505,5,0,1:0:0:0:
61,196,168850,1,0,1:0:0:0:
157,268,169195,1,0,1:0:0:0:
278,264,169540,1,0,1:0:0:0:
355,357,169885,5,8,0:0:0:0:
445,276,170230,1,0,0:0:0:0:
455,216,170402,1,0,0:0:0:0:
465,156,170574,1,0,0:0:0:0:
381,68,170919,2,0,P|332:54|300:54,1,60.5000018463135,8|0,0:0|1:0,0:0:0:0:
275,24,171264,6,0,B|221:46|221:46|152:25,1,110,6|8,1:2|0:0,0:0:0:0:
121,8,171781,1,2,0:0:0:0:
74,107,172126,1,0,1:0:0:0:
108,149,172298,1,10,0:0:0:0:
74,253,172643,2,0,L|45:384,2,110,0|8|2,1:0|0:0|0:0,0:0:0:0:
180,225,173678,2,0,L|244:241,1,55,10|2,0:0|0:0,0:0:0:0:
272,199,174023,6,0,B|285:145|285:145|260:72,1,110,2|8,1:2|0:0,0:0:0:0:
299,48,174540,1,2,0:0:0:0:
388,112,174885,1,0,1:0:0:0:
439,93,175057,1,8,0:0:0:0:
507,179,175402,2,0,L|485:292,1,110,0|10,1:0|0:0,0:0:0:0:
448,327,175919,1,2,0:0:0:0:
448,327,176092,1,2,0:0:0:0:
348,280,176436,1,10,0:0:0:0:
295,296,176609,1,2,0:0:0:0:
242,312,176781,6,0,B|184:288|184:288|122:301,1,110,6|8,1:2|0:0,0:0:0:0:
95,262,177298,1,2,0:0:0:0:
133,158,177643,1,0,1:0:0:0:
95,117,177816,1,8,0:0:0:0:
168,35,178161,2,0,L|287:11,1,110,2|10,1:2|0:0,0:0:0:0:
323,41,178678,1,2,0:0:0:0:
323,41,178850,1,2,0:0:0:0:
279,142,179195,2,0,P|284:177|295:204,1,55,10|2,0:0|0:0,0:0:0:0:
313,245,179540,6,0,B|366:272|366:272|434:258,1,110,2|10,1:2|0:0,0:0:0:0:
451,220,180057,1,2,0:0:0:0:
422,113,180402,1,0,1:0:0:0:
450,66,180574,1,10,0:0:0:0:
354,12,180919,2,0,L|225:32,1,110,0|10,1:0|0:0,0:0:0:0:
168,108,181609,2,0,P|137:121|109:123,1,55,2|2,0:0|1:2,0:0:0:0:
69,153,181954,1,10,0:0:0:0:
48,204,182126,1,2,0:0:0:0:
69,254,182298,6,0,B|124:270|124:270|180:242,1,110,6|8,1:2|0:0,0:0:0:0:
224,263,182816,1,2,0:0:0:0:
322,213,183161,1,0,1:0:0:0:
372,233,183333,1,10,0:0:0:0:
458,165,183678,2,0,L|480:56,1,110,0|10,1:0|0:0,0:0:0:0:
446,20,184195,1,2,0:0:0:0:
446,20,184367,1,2,0:0:0:0:
353,78,184712,2,0,P|324:89|291:93,1,55,10|2,0:0|0:0,0:0:0:0:
252,120,185057,6,0,B|199:131|199:131|140:105,1,110,2|8,1:2|0:0,0:0:0:0:
109,69,185574,1,0,0:0:0:0:
30,145,185919,1,0,1:0:0:0:
59,191,186092,1,8,0:0:0:0:
7,287,186436,2,0,L|119:306,1,110,0|10,1:0|0:0,0:0:0:0:
160,338,186954,1,2,0:0:0:0:
160,338,187126,1,2,0:0:0:0:
258,288,187471,2,0,P|286:288|333:309,1,55,10|2,0:0|0:0,0:0:0:0:
345,339,187816,6,0,B|397:326|397:326|449:347,1,110,6|8,1:2|0:0,0:0:0:0:
501,328,188333,1,2,0:0:0:0:
442,234,188678,1,0,1:0:0:0:
472,187,188851,1,10,0:0:0:0:
388,115,189195,2,0,L|402:0,2,110,0|10|2,1:0|0:0|0:0,0:0:0:0:
288,162,190230,2,0,P|277:201|282:239,1,55,10|2,0:0|0:0,0:0:0:0:
246,260,190574,6,0,B|197:286|197:286|131:270,1,110,2|10,1:2|0:0,0:0:0:0:
96,296,191092,1,0,0:0:0:0:
96,296,191264,1,2,0:0:0:0:
55,193,191609,2,0,P|22:201|-12:198,2,55,10|2|0,0:0|0:0|1:0,0:0:0:0:
120,104,192298,2,0,P|136:67|135:28,1,55
176,14,192643,1,0,0:0:0:0:
277,56,192988,1,8,0:0:0:0:
379,15,193333,1,0,1:0:0:0:
