osu file format v14

[General]
AudioFilename: audio.mp3
AudioLeadIn: 0
PreviewTime: 53512
Countdown: 0
SampleSet: Soft
StackLeniency: 0.7
Mode: 0
LetterboxInBreaks: 0
WidescreenStoryboard: 0

[Editor]
Bookmarks: 11012
DistanceSpacing: 0.9
BeatDivisor: 2
GridSize: 32
TimelineZoom: 1.8

[Metadata]
Title:Fire (feat. Max Marshall)
TitleUnicode:Fire (feat. Max Marshall)
Artist:Matrix & Futurebound
ArtistUnicode:Matrix & Futurebound
Creator:SquareTude
Version:Normal
Source:
Tags:b00 liquicity liquid drum and n & bass dnb electronic english short ver
BeatmapID:2005306
BeatmapSetID:957835

[Difficulty]
HPDrainRate:3.5
CircleSize:3
OverallDifficulty:4.5
ApproachRate:6
SliderMultiplier:1
SliderTickRate:1

[Events]
//Background and Video events
0,0,"206977.jpg",0,0
//Break Periods
2,71902,73410
//Storyboard Layer 0 (Background)
//Storyboard Layer 1 (Fail)
//Storyboard Layer 2 (Pass)
//Storyboard Layer 3 (Foreground)
//Storyboard Sound Samples

[TimingPoints]
-22,344.827586206897,4,2,1,40,1,0
11012,-133.333333333333,4,2,3,40,0,0
33081,-114.942528735632,4,2,3,50,0,0
34288,-114.942528735632,4,2,3,50,0,0
35840,-114.942528735632,4,2,3,50,0,0
37046,-114.942528735632,4,2,3,50,0,0
38598,-114.942528735632,4,2,3,50,0,0
42736,-114.942528735632,4,2,3,50,0,0
44115,-100,4,2,3,60,0,0
52391,-100,4,2,3,60,0,0
55150,-100,4,2,1,75,0,1
71702,-100,4,2,3,75,0,0
74288,-100,4,2,1,75,0,0
76357,-100,4,2,1,75,0,0
77219,-100,4,2,1,75,0,1
99288,-100,4,2,1,60,0,0
99633,-100,4,2,1,50,0,0
99978,-100,4,2,1,40,0,0
100322,-100,4,2,1,30,0,0
101012,-100,4,2,1,20,0,0
102046,-100,4,2,1,10,0,0
103426,-100,4,2,1,5,0,0

[Colours]
Combo1 : 255,198,170
Combo2 : 170,210,255

[HitObjects]
352,32,11012,6,0,L|351:147,1,112.500004291535,0|0,3:0|0:0,0:0:0:0:
268,236,12046,1,2,0:0:0:0:
216,171,12391,2,0,P|185:149|129:138,1,75.0000028610231,2|2,0:0|0:0,0:0:0:0:
108,145,12909,1,2,0:0:0:0:
108,145,13081,2,0,L|112:246,1,75.0000028610231,2|2,0:0|0:0,0:0:0:0:
140,297,13771,6,0,L|300:287,1,150,0|0,0:0|0:0,0:0:0:0:
357,241,14805,2,0,P|390:232|415:235,1,37.5000014305115,2|2,0:0|0:0,0:0:0:0:
431,246,15150,2,0,L|436:137,1,75.0000028610231,2|0,0:0|0:0,0:0:0:0:
420,132,15667,2,0,L|415:26,1,75.0000028610231,2|2,0:0|0:0,0:0:0:0:
406,16,16184,2,0,P|358:4|348:4,1,37.5000014305115,2|2,0:0|0:0,0:0:0:0:
331,21,16529,6,0,L|194:20,2,112.500004291535,2|0|2,0:0|0:0|0:0,0:0:0:0:
186,355,19288,6,0,L|326:351,2,112.500004291535,2|0|2,0:0|0:0|0:0,0:0:0:0:
51,108,22046,6,0,L|45:251,1,112.500004291535,0|0,0:0|0:0,0:0:0:0:
126,314,23081,1,2,0:0:0:0:
186,258,23426,2,0,P|233:240|290:242,1,75.0000028610231,2|2,0:0|0:0,0:0:0:0:
296,251,23943,1,2,0:0:0:0:
296,251,24115,2,0,L|298:160,1,75.0000028610231,2|2,0:0|0:0,0:0:0:0:
356,118,24805,6,0,P|406:127|484:92,1,112.500004291535,0|0,0:0|0:0,0:0:0:0:
492,230,25840,2,0,L|494:284,1,37.5000014305115,2|2,0:0|0:0,0:0:0:0:
489,308,26184,2,0,L|399:303,1,75.0000028610231,2|0,0:0|0:0,0:0:0:0:
383,331,26702,2,0,L|298:336,1,75.0000028610231,2|2,0:0|0:0,0:0:0:0:
271,354,27219,2,0,L|214:355,1,37.5000014305115,2|2,0:0|0:0,0:0:0:0:
192,347,27564,6,0,P|163:281|175:209,2,112.500004291535,2|0|2,0:0|0:0|0:0,0:0:0:0:
486,58,30322,6,0,P|481:129|444:180,2,112.500004291535,2|0|2,0:0|0:0|0:0,0:0:0:0:
221,19,33081,6,0,P|235:65|231:122,1,87.0000007301331,4|0,3:0|0:0,0:0:0:0:
205,142,33598,2,0,P|190:189|190:233,1,87.0000007301331,2|0,0:0|0:0,0:0:0:0:
207,270,34115,1,2,0:0:0:0:
207,270,34288,2,0,L|411:264,1,174.000001460266,2|0,0:0|0:0,0:0:0:0:
486,163,35495,6,0,P|500:137|503:119,1,43.5000003650665,2|2,0:0|0:0,0:0:0:0:
476,83,35840,2,0,P|415:55|375:62,1,87.0000007301331,2|0,0:0|0:0,0:0:0:0:
355,79,36357,2,0,P|294:107|251:95,1,87.0000007301331,2|0,0:0|0:0,0:0:0:0:
234,81,36874,1,2,0:0:0:0:
234,81,37046,2,0,P|173:53|63:110,1,174.000001460266,2|0,0:0|0:0,0:0:0:0:
109,221,38253,6,0,L|167:219,1,43.5000003650665,2|2,0:0|0:0,0:0:0:0:
195,240,38598,2,0,L|300:243,1,87.0000007301331,2|0,0:0|0:0,0:0:0:0:
327,228,39115,2,0,L|421:223,1,87.0000007301331,2|0,0:0|0:0,0:0:0:0:
459,238,39633,1,2,0:0:0:0:
243,215,41012,6,0,L|243:261,1,43.5000003650665,2|2,0:0|0:0,0:0:0:0:
268,303,41357,2,0,L|174:299,1,87.0000007301331,2|2,0:0|0:0,0:0:0:0:
146,333,41874,2,0,L|52:336,1,87.0000007301331,2|0,0:0|0:0,0:0:0:0:
12,322,42391,1,2,0:0:0:0:
203,178,43253,5,2,0:0:0:0:
203,178,43426,2,0,P|221:138|225:126,1,43.5000003650665,0|2,3:0|0:0,0:0:0:0:
194,98,43771,2,0,P|182:75|176:57,1,43.5000003650665,2|2,0:0|0:0,0:0:0:0:
129,29,44115,6,0,P|89:57|47:113,2,100,0|8|8,3:0|0:2|0:0,0:0:0:0:
213,8,45150,2,0,P|247:18|275:36,1,50,0|0,0:0|3:0,0:0:0:0:
298,57,45495,2,0,P|312:103|302:217,1,150,8|0,0:0|3:0,0:0:0:0:
318,252,46184,2,0,P|356:188|415:141,1,150,8|8,0:0|0:0,0:0:0:0:
464,148,46874,6,0,L|458:271,2,100,8|8|8,0:0|0:0|0:0,0:0:0:0:
467,47,47909,2,0,L|411:51,1,50,0|0,0:0|3:0,0:0:0:0:
373,25,48253,2,0,L|208:22,1,150,8|0,0:0|3:0,0:0:0:0:
184,54,48943,2,0,L|34:56,1,150,8|8,0:0|0:0,0:0:0:0:
2,94,49633,6,0,L|6:196,2,100,8|8|8,0:0|0:0|0:0,0:0:0:0:
71,22,50667,2,0,P|93:18|131:26,1,50,0|0,0:0|3:0,0:0:0:0:
164,45,51012,2,0,B|201:85|201:85|195:199,1,150,8|0,0:0|3:0,0:0:0:0:
161,216,51702,2,0,L|326:238,1,150,8|8,0:0|0:0,0:0:0:0:
359,239,52391,6,0,P|398:222|434:175,1,100,0|0,3:0|3:0,0:0:0:0:
389,76,53081,2,0,P|340:64|292:76,1,100,0|0,3:0|3:0,0:0:0:0:
214,153,53771,6,0,L|221:201,2,50,0|8|8,3:0|0:0|0:0,0:0:0:0:
133,80,54460,2,0,L|138:30,2,50,8|8|8,0:0|0:0|0:0,0:0:0:0:
41,120,55150,6,0,P|27:159|52:222,1,100,4|8,3:0|0:0,0:0:0:0:
90,231,55667,2,0,P|104:270|79:333,1,100,0|8,0:0|0:3,0:0:0:0:
47,354,56184,1,8,0:0:0:0:
144,384,56529,2,0,L|278:379,1,100,8|8,0:3|0:0,0:0:0:0:
331,330,57219,2,0,L|404:329,1,50,0|8,0:0|0:3,0:0:0:0:
425,352,57564,2,0,L|474:352,1,50,8|0,0:0|0:0,0:0:0:0:
504,311,57909,6,0,L|498:206,1,100,8|8,0:3|0:0,0:0:0:0:
460,178,58426,2,0,L|465:78,1,100,0|8,0:0|0:3,0:0:0:0:
469,28,58943,1,8,0:0:0:0:
384,58,59288,6,0,P|337:80|251:63,1,100,8|8,0:3|0:0,0:0:0:0:
211,33,59978,2,0,P|163:23|143:27,1,50,0|8,0:0|0:3,0:0:0:0:
121,41,60322,2,0,P|96:42|72:50,1,50,8|0,0:0|0:0,0:0:0:0:
47,87,60667,6,0,B|25:113|25:113|36:192,1,100,8|8,0:3|0:0,0:0:0:0:
40,222,61184,2,0,P|90:221|142:257,1,100,0|8,0:0|0:3,0:0:0:0:
154,285,61702,1,8,0:0:0:0:
232,235,62046,6,0,P|292:215|341:230,1,100,8|8,0:3|0:0,0:0:0:0:
356,262,62564,2,0,P|401:281|450:274,1,100,0|8,0:0|0:3,0:0:0:0:
494,250,63081,1,8,0:0:0:0:
414,189,63426,6,0,P|393:145|403:78,1,100,8|8,0:3|0:0,0:0:0:0:
431,59,63943,2,0,L|323:59,1,100,0|8,0:0|0:3,0:0:0:0:
280,55,64460,1,8,0:0:0:0:
180,60,64805,6,0,P|137:111|115:155,1,100,8|8,0:3|0:0,0:0:0:0:
197,204,65495,2,0,L|194:266,1,50,8|8,0:3|0:3,0:0:0:0:
225,293,65840,2,0,L|228:355,1,50,8|8,0:0|0:3,0:0:0:0:
182,365,66184,6,0,L|65:364,1,100,4|8,3:0|0:0,0:0:0:0:
32,354,66702,2,0,L|37:234,1,100,0|8,0:0|0:3,0:0:0:0:
12,210,67219,1,8,0:0:0:0:
40,115,67564,6,0,P|75:78|141:52,1,100,8|8,0:3|0:0,0:0:0:0:
215,80,68253,2,0,L|272:79,1,50,8|8,0:3|0:3,0:0:0:0:
311,99,68598,2,0,L|360:99,1,50,8|0,0:0|0:0,0:0:0:0:
403,72,68943,6,0,B|428:96|428:96|427:176,1,100,8|8,0:3|0:0,0:0:0:0:
394,199,69460,2,0,L|400:307,1,100,0|8,0:0|0:3,0:0:0:0:
368,338,69978,1,8,0:0:0:0:
294,284,70322,6,0,L|300:184,1,100,8|8,0:3|0:0,0:0:0:0:
265,155,70840,2,0,L|259:55,1,100,0|8,0:0|0:3,0:0:0:0:
282,16,71357,2,0,L|351:15,1,50,8|0,0:0|0:0,0:0:0:0:
375,25,71702,5,0,3:0:0:0:
373,25,74460,6,0,L|378:88,2,50,8|0|8,0:3|0:0|0:0,0:0:0:0:
291,63,75150,2,0,L|286:126,2,50,8|8|8,0:0|0:3|0:0,0:0:0:0:
204,38,75840,6,0,P|159:27|139:25,1,50,8|8,0:0|0:3,0:0:0:0:
110,29,76184,2,0,P|85:33|61:40,1,50,8|8,0:0|0:0,0:0:0:0:
28,71,76529,2,0,L|35:128,2,50,8|8|8,0:3|0:3|0:0,0:0:0:0:
115,47,77219,6,0,P|163:57|236:49,1,100,12|8,0:0|0:0,0:0:0:0:
303,65,77909,2,0,P|319:102|333:172,1,100,0|8,0:0|0:0,0:0:0:0:
341,249,78598,2,0,P|330:297|312:344,1,100,8|8,0:3|0:0,0:0:0:0:
276,371,79115,2,0,P|228:381|155:373,1,100,0|8,0:0|0:3,0:0:0:0:
138,355,79633,2,0,L|138:283,1,50,8|0,0:0|0:0,0:0:0:0:
175,128,80667,6,0,L|171:296,1,150,0|0,0:0|0:0,0:0:0:0:
195,316,81357,2,0,P|232:330|300:325,1,100,8|8,0:3|0:0,0:0:0:0:
329,302,81874,2,0,P|366:288|434:293,1,100,0|8,0:0|0:3,0:0:0:0:
462,316,82391,1,8,0:0:0:0:
500,234,82736,6,0,L|491:118,1,100,4|8,0:0|0:0,0:0:0:0:
434,65,83426,2,0,P|383:36|275:43,1,150,0|0,0:0|0:0,0:0:0:0:
254,57,84115,2,0,P|204:85|144:81,1,100,8|8,0:3|0:0,0:0:0:0:
119,71,84633,2,0,L|116:177,1,100,0|8,0:0|0:3,0:0:0:0:
85,203,85150,2,0,L|88:266,1,50,8|8,0:0|0:3,0:0:0:0:
237,352,86184,6,0,P|288:325|303:321,1,50,0|8,0:0|0:3,0:0:0:0:
323,341,86529,2,0,P|374:368|389:372,1,50,8|0,0:0|0:0,0:0:0:0:
411,361,86874,1,8,0:3:0:0:
411,361,87046,2,0,P|425:322|423:256,1,100,0|8,0:0|0:3,0:0:0:0:
395,229,87564,2,0,P|384:198|379:166,2,50,8|8|8,0:3|0:3|0:0,0:0:0:0:
327,288,88253,6,0,P|291:314|216:308,1,100,12|8,0:3|0:0,0:0:0:0:
151,287,88943,2,0,P|120:255|107:181,1,100,0|8,0:0|0:0,0:0:0:0:
104,112,89633,2,0,P|116:70|173:22,1,100,8|8,0:3|0:0,0:0:0:0:
197,16,90150,2,0,P|238:28|287:85,1,100,0|8,0:0|0:3,0:0:0:0:
300,111,90667,2,0,P|310:148|309:165,1,50,8|8,0:0|0:3,0:0:0:0:
193,300,91702,6,0,P|238:276|352:294,1,150,0|0,0:0|0:0,0:0:0:0:
361,318,92391,2,0,L|365:207,1,100,8|8,0:3|0:0,0:0:0:0:
337,181,92909,2,0,L|237:177,1,100,0|8,0:0|0:3,0:0:0:0:
192,154,93426,2,0,L|129:155,1,50,8|8,0:0|0:3,0:0:0:0:
98,130,93771,6,0,P|71:84|81:23,1,100,8|8,0:3|0:0,0:0:0:0:
170,12,94460,2,0,L|297:24,1,100,0|8,0:0|0:0,0:0:0:0:
351,79,95150,2,0,L|459:70,1,100,8|8,0:3|0:0,0:0:0:0:
494,46,95667,1,0,0:0:0:0:
271,159,96529,6,0,P|197:133|165:141,1,100,8|8,0:3|0:0,0:0:0:0:
128,142,97046,2,0,P|120:196|138:257,1,100,0|8,0:0|0:3,0:0:0:0:
208,302,97736,2,0,P|199:325|175:351,1,50,0|8,0:0|0:3,0:0:0:0:
134,357,98081,2,0,P|113:343|88:337,1,50,0|8,0:0|0:0,0:0:0:0:
40,350,98426,2,0,P|13:302|19:193,1,150,8|8,0:3|0:0,0:0:0:0:
72,128,99288,5,12,0:0:0:0:
256,192,99460,12,0,103426,0:0:0:0:
