osu file format v14

[General]
AudioFilename: audio.mp3
AudioLeadIn: 0
PreviewTime: 53512
Countdown: 0
SampleSet: Soft
StackLeniency: 0.7
Mode: 0
LetterboxInBreaks: 0
WidescreenStoryboard: 0

[Editor]
Bookmarks: 11012,27219,50840,90150
DistanceSpacing: 1.4
BeatDivisor: 4
GridSize: 32
TimelineZoom: 1.8

[Metadata]
Title:Fire (feat. Max Marshall)
TitleUnicode:Fire (feat. Max Marshall)
Artist:Matrix & Futurebound
ArtistUnicode:Matrix & Futurebound
Creator:SquareTude
Version:Hard
Source:
Tags:b00 liquicity liquid drum and n & bass dnb electronic english short ver
BeatmapID:2005568
BeatmapSetID:957835

[Difficulty]
HPDrainRate:4.5
CircleSize:3.4
OverallDifficulty:6.5
ApproachRate:8
SliderMultiplier:1.4
SliderTickRate:1

[Events]
//Background and Video events
0,0,"206977.jpg",0,0
//Break Periods
2,71902,73710
//Storyboard Layer 0 (Background)
//Storyboard Layer 1 (Fail)
//Storyboard Layer 2 (Pass)
//Storyboard Layer 3 (Foreground)
//Storyboard Sound Samples

[TimingPoints]
-22,344.827586206897,4,2,1,40,1,0
11012,-166.666666666667,4,2,3,40,0,0
33081,-125,4,2,3,50,0,0
34288,-181.818181818182,4,2,3,50,0,0
35840,-125,4,2,3,50,0,0
37046,-200,4,2,3,50,0,0
38598,-125,4,2,3,50,0,0
39633,-200,4,2,3,50,0,0
41357,-125,4,2,3,50,0,0
42391,-200,4,2,3,50,0,0
43426,-125,4,2,3,50,0,0
44115,-125,4,2,3,60,0,0
52391,-125,4,2,3,60,0,0
55150,-100,4,2,1,75,0,1
71702,-133.333333333333,4,2,3,75,0,0
74288,-133.333333333333,4,2,1,75,0,0
74460,-90.9090909090909,4,2,1,75,0,0
77219,-90.9090909090909,4,2,1,75,0,1
99288,-90.9090909090909,4,2,1,60,0,0
99633,-90.9090909090909,4,2,1,50,0,0
99978,-90.9090909090909,4,2,1,40,0,0
100322,-90.9090909090909,4,2,1,30,0,0
101012,-90.9090909090909,4,2,1,20,0,0
102046,-90.9090909090909,4,2,1,10,0,0
103426,-90.9090909090909,4,2,1,5,0,0

[Colours]
Combo1 : 255,198,170
Combo2 : 170,213,255

[HitObjects]
480,54,11012,6,0,P|448:77|354:95,2,125.999996154785,0|0|2,3:0|0:0|0:0,0:0:0:0:
322,12,12391,2,0,P|291:5|240:0,1,83.9999974365235,2|2,0:0|0:0,0:0:0:0:
203,9,12909,1,2,0:0:0:0:
203,9,13081,2,0,P|172:16|121:21,1,83.9999974365235,2|2,0:0|0:0,0:0:0:0:
24,127,13771,6,0,L|36:-16,2,125.999996154785,0|0|2,0:0|0:0|0:0,0:0:0:0:
63,208,14978,1,2,0:0:0:0:
63,208,15150,2,0,L|71:306,1,83.9999974365235,2|0,0:0|0:0,0:0:0:0:
94,320,15667,2,0,L|191:324,1,83.9999974365235,2|2,0:0|0:0,0:0:0:0:
217,341,16184,2,0,L|275:335,1,41.9999987182618,2|2,0:0|0:0,0:0:0:0:
303,317,16529,6,0,P|326:294|418:257,2,125.999996154785,2|0|2,0:0|0:0|0:0,0:0:0:0:
489,321,19288,6,0,L|483:193,2,125.999996154785,2|0|2,0:0|0:0|0:0,0:0:0:0:
358,81,22046,6,0,P|370:127|358:222,2,125.999996154785,0|0|2,0:0|0:0|0:0,0:0:0:0:
377,300,23426,6,0,P|339:278|290:276,1,83.9999974365235,2|2,0:0|0:0,0:0:0:0:
265,291,23943,1,2,0:0:0:0:
265,291,24115,2,0,P|227:313|178:315,1,83.9999974365235,2|2,0:0|0:0,0:0:0:0:
115,148,24805,6,0,L|114:282,2,125.999996154785,0|0|2,0:0|0:0|0:0,0:0:0:0:
168,74,26012,1,2,0:0:0:0:
168,74,26184,6,0,P|210:51|258:57,1,83.9999974365235,2|0,0:0|0:0,0:0:0:0:
283,73,26702,2,0,L|281:162,1,83.9999974365235,2|2,0:0|0:0,0:0:0:0:
252,193,27219,2,0,L|252:244,1,41.9999987182618,2|2,0:0|0:0,0:0:0:0:
276,283,27564,6,0,P|230:255|143:259,2,125.999996154785,2|0|2,0:0|0:0|0:0,0:0:0:0:
87,312,30322,6,0,L|96:174,2,125.999996154785,2|0|2,0:0|0:0|0:0,0:0:0:0:
180,49,32046,5,0,0:0:0:0:
180,49,32219,1,2,0:0:0:0:
211,145,32391,1,2,0:0:0:0:
269,60,32564,1,2,0:0:0:0:
296,197,32736,1,2,0:0:0:0:
349,117,32909,1,2,0:0:0:0:
381,238,33081,6,0,L|378:355,1,112,4|0,3:0|0:0,0:0:0:0:
473,367,33598,2,0,L|470:255,1,112,2|0,0:0|0:0,0:0:0:0:
440,176,34115,1,2,0:0:0:0:
440,176,34288,2,0,P|405:154|303:192,1,154.000004699707,2|0,0:0|0:0,0:0:0:0:
171,235,35495,1,2,0:0:0:0:
171,235,35667,1,2,0:0:0:0:
102,166,35840,6,0,L|110:52,1,112,2|0,0:0|0:0,0:0:0:0:
193,34,36357,2,0,L|200:145,1,112,2|0,0:0|0:0,0:0:0:0:
171,235,36874,1,2,0:0:0:0:
171,235,37046,2,0,L|161:375,1,140,2|0,0:0|0:0,0:0:0:0:
9,150,38253,1,2,0:0:0:0:
9,150,38426,1,2,0:0:0:0:
79,93,38598,6,0,P|109:82|189:96,1,112,2|0,0:0|0:0,0:0:0:0:
195,184,39115,2,0,P|141:198|87:185,1,112,2|0,0:0|0:0,0:0:0:0:
9,150,39633,2,0,P|-6:121|24:23,1,140,2|0,0:0|0:0,0:0:0:0:
309,14,41012,1,2,0:0:0:0:
309,14,41184,1,2,0:0:0:0:
243,85,41357,6,0,P|220:134|209:192,1,112,2|2,0:0|0:0,0:0:0:0:
349,253,41874,2,0,P|338:198|315:147,1,112,2|0,0:0|0:0,0:0:0:0:
243,85,42391,2,0,P|203:76|101:107,1,140,2|0,0:0|0:0,0:0:0:0:
31,164,43253,1,2,0:0:0:0:
117,196,43426,1,0,3:0:0:0:
17,273,43598,1,2,0:0:0:0:
137,308,43771,1,2,0:0:0:0:
17,370,43943,1,2,0:0:0:0:
172,332,44115,6,0,L|242:333,1,56,0|0,3:0|0:0,0:0:0:0:
314,308,44460,2,0,L|369:307,1,56,8|0,0:2|0:0,0:0:0:0:
457,339,44805,2,0,L|512:339,2,56,8|0|0,0:0|0:0|0:0,0:0:0:0:
358,274,45322,1,0,3:0:0:0:
358,274,45495,6,0,L|302:274,2,56,8|0|0,0:0|0:0|0:0,0:0:0:0:
431,212,46012,1,0,3:0:0:0:
431,212,46184,2,0,L|486:212,2,56,8|0|8,0:0|0:0|0:0,0:0:0:0:
347,151,46702,1,8,0:0:0:0:
347,151,46874,6,0,P|320:147|291:151,1,56,8|0,0:0|0:0,0:0:0:0:
217,203,47219,2,0,P|190:206|161:202,1,56,8|0,0:0|0:0,0:0:0:0:
82,161,47564,2,0,P|55:157|26:161,2,56,8|0|0,0:0|0:0|0:0,0:0:0:0:
165,225,48081,1,0,3:0:0:0:
165,225,48253,6,0,P|191:228|220:224,2,56,8|0|0,0:0|0:0|0:0,0:0:0:0:
77,178,48771,1,0,3:0:0:0:
77,178,48943,2,0,P|50:174|21:178,2,56,8|0|8,0:0|0:0|0:0,0:0:0:0:
168,252,49460,1,8,0:0:0:0:
168,252,49633,6,0,L|171:186,1,56,8|0,0:0|0:0,0:0:0:0:
239,134,49978,2,0,L|236:78,1,56,8|0,0:0|0:0,0:0:0:0:
158,16,50322,2,0,L|102:18,2,56,8|0|0,0:0|0:0|0:0,0:0:0:0:
256,43,50840,1,0,3:0:0:0:
256,43,51012,6,0,L|330:44,2,56,8|0|0,0:0|0:0|0:0,0:0:0:0:
194,106,51529,1,0,3:0:0:0:
194,106,51702,2,0,L|120:107,2,56,8|0|8,0:0|0:0|0:0,0:0:0:0:
276,157,52219,1,8,0:0:0:0:
276,157,52391,6,0,P|296:188|303:223,1,56,0|8,3:0|0:0,0:0:0:0:
184,272,52736,2,0,P|193:245|209:222,1,56,0|8,3:0|0:0,0:0:0:0:
329,295,53081,2,0,P|301:297|273:291,1,56,0|8,3:0|0:0,0:0:0:0:
169,187,53426,2,0,P|141:185|113:191,1,56,0|8,3:0|0:0,0:0:0:0:
20,271,53771,5,0,3:0:0:0:
20,271,53943,1,8,0:0:0:0:
154,291,54115,1,8,0:0:0:0:
154,291,54288,1,8,0:0:0:0:
128,178,54460,5,8,0:0:0:0:
149,318,54633,1,8,0:0:0:0:
222,168,54805,1,8,0:0:0:0:
144,343,54978,1,0,3:0:0:0:
287,236,55150,6,0,P|338:268|432:236,1,140,4|8,3:0|0:0,0:0:0:0:
367,36,55667,2,0,L|361:175,1,140,0|8,0:0|0:3,0:0:0:0:
512,134,56184,2,0,P|462:118|424:125,1,70,8|0,0:0|0:0,0:0:0:0:
332,198,56529,2,0,P|275:219|183:191,1,140,8|8,0:3|0:0,0:0:0:0:
116,142,57046,1,0,0:0:0:0:
179,47,57219,5,0,0:0:0:0:
179,47,57391,1,8,0:3:0:0:
259,120,57564,1,8,0:0:0:0:
259,120,57736,1,0,0:0:0:0:
344,47,57909,6,0,P|382:31|481:73,1,140,8|8,0:3|0:0,0:0:0:0:
433,247,58426,2,0,B|400:220|400:220|403:108,1,140,0|8,0:0|0:3,0:0:0:0:
498,41,58943,2,0,L|497:135,1,70,8|0,0:0|0:0,0:0:0:0:
433,247,59288,6,0,L|268:242,1,140,8|8,0:3|0:0,0:0:0:0:
157,125,59805,2,0,P|205:176|204:251,1,140,0|8,0:0|0:3,0:0:0:0:
155,351,60322,1,8,0:0:0:0:
155,351,60495,1,0,0:0:0:0:
0,252,60667,6,0,B|32:210|32:210|134:213,1,140,8|8,0:3|0:0,0:0:0:0:
243,153,61184,2,0,P|271:120|254:7,1,140,0|8,0:0|0:3,0:0:0:0:
116,73,61702,2,0,L|207:77,1,70,8|0,0:0|0:0,0:0:0:0:
314,27,62046,6,0,L|479:38,1,140,8|8,0:3|0:0,0:0:0:0:
408,197,62564,2,0,P|379:152|396:54,1,140,0|8,0:0|0:3,0:0:0:0:
479,122,63081,1,8,0:0:0:0:
479,122,63253,1,0,0:0:0:0:
364,220,63426,6,0,B|328:261|328:261|338:376,1,140,8|8,0:3|0:0,0:0:0:0:
482,310,63943,2,0,P|446:293|403:301,1,70,0|0,0:0|0:0,0:0:0:0:
306,361,64288,2,0,P|270:378|227:370,1,70,8|8,0:3|0:0,0:0:0:0:
163,253,64633,6,0,L|157:324,1,70,0|8,0:0|0:3,0:0:0:0:
42,365,64978,2,0,L|36:295,1,70,0|8,0:0|0:0,0:0:0:0:
92,196,65322,1,0,0:0:0:0:
21,107,65495,5,8,0:3:0:0:
21,107,65667,1,8,0:3:0:0:
90,24,65840,1,8,0:0:0:0:
90,24,66012,1,8,0:3:0:0:
183,111,66184,6,0,P|239:141|331:121,1,140,4|8,3:0|0:0,0:0:0:0:
259,32,66702,2,0,L|259:177,1,140,0|8,0:0|0:3,0:0:0:0:
144,258,67219,2,0,L|232:264,1,70,8|0,0:0|0:0,0:0:0:0:
327,353,67564,6,0,L|162:358,1,140,8|8,0:3|0:0,0:0:0:0:
63,309,68081,2,0,P|45:256|93:175,1,140,0|8,0:0|0:3,0:0:0:0:
171,126,68598,1,8,0:0:0:0:
171,126,68771,1,0,0:0:0:0:
269,80,68943,6,0,P|240:40|128:25,1,140,8|8,0:3|0:0,0:0:0:0:
7,95,69460,2,0,L|16:243,1,140,0|8,0:0|0:3,0:0:0:0:
106,342,69978,2,0,L|108:262,1,70,8|0,0:0|0:0,0:0:0:0:
198,176,70322,6,0,P|241:156|336:202,1,140,8|8,0:3|0:0,0:0:0:0:
338,323,70840,2,0,P|355:272|456:227,1,140,0|8,0:0|0:3,0:0:0:0:
512,331,71357,2,0,L|428:327,1,70,8|0,0:0|0:0,0:0:0:0:
425,227,71702,5,0,3:0:0:0:
392,22,74460,6,0,L|395:115,1,77.0000023498536,8|0,0:3|0:0,0:0:0:0:
260,136,74805,2,0,L|261:57,1,77.0000023498536,8|8,0:0|0:3,0:0:0:0:
407,143,75150,6,0,P|362:164|315:152,1,77.0000023498536,8|8,0:0|0:3,0:0:0:0:
217,16,75495,2,0,P|255:15|288:34,1,77.0000023498536,8|8,0:0|0:3,0:0:0:0:
260,136,75840,5,8,0:0:0:0:
260,136,76012,1,8,0:3:0:0:
126,116,76184,1,8,0:0:0:0:
126,116,76357,1,8,0:0:0:0:
139,237,76529,5,8,0:3:0:0:
156,101,76702,1,8,0:3:0:0:
116,221,76874,1,8,0:0:0:0:
43,80,77046,1,8,0:3:0:0:
15,211,77219,6,0,L|21:382,1,154.000004699707,12|8,0:0|0:0,0:0:0:0:
144,242,77736,1,0,0:0:0:0:
144,242,77909,2,0,P|194:213|289:232,1,154.000004699707,0|8,0:0|0:0,0:0:0:0:
331,347,78426,1,0,0:0:0:0:
331,347,78598,6,0,L|337:182,1,154.000004699707,8|8,0:3|0:0,0:0:0:0:
426,105,79115,2,0,L|431:258,1,154.000004699707,0|8,0:0|0:3,0:0:0:0:
265,135,79633,1,8,0:0:0:0:
265,135,79805,2,0,P|305:106|360:105,1,77.0000023498536,0|8,0:0|0:3,0:0:0:0:
434,344,80322,1,8,0:0:0:0:
434,344,80495,1,0,0:0:0:0:
345,256,80667,6,0,L|175:259,1,154.000004699707,0|8,0:0|0:0,0:0:0:0:
48,208,81184,2,0,P|63:242|95:264,1,77.0000023498536,0|8,0:0|0:3,0:0:0:0:
167,329,81529,2,0,P|186:296|190:258,1,77.0000023498536,0|8,0:0|0:0,0:0:0:0:
202,163,81874,2,0,P|163:164|131:184,1,77.0000023498536,0|8,0:0|0:3,0:0:0:0:
150,356,82219,1,8,0:3:0:0:
150,356,82391,1,8,0:0:0:0:
190,258,82564,1,8,0:3:0:0:
236,349,82736,6,0,L|243:171,1,154.000004699707,4|8,0:0|0:0,0:0:0:0:
324,122,83253,1,0,0:0:0:0:
324,122,83426,2,0,P|371:144|465:90,1,154.000004699707,0|8,0:0|0:0,0:0:0:0:
283,23,83943,1,0,0:0:0:0:
283,23,84115,6,0,L|190:18,1,77.0000023498536,8|0,0:3|0:0,0:0:0:0:
67,86,84460,1,8,0:0:0:0:
67,86,84633,2,0,L|160:81,1,77.0000023498536,0|0,0:0|0:0,0:0:0:0:
231,133,84978,1,8,0:3:0:0:
149,187,85150,1,8,0:0:0:0:
149,187,85322,2,0,P|135:233|151:284,1,77.0000023498536,8|0,0:3|0:0,0:0:0:0:
283,23,85840,1,8,0:0:0:0:
283,23,86012,1,0,0:0:0:0:
332,103,86184,6,0,L|329:186,1,77.0000023498536,0|8,0:0|0:3,0:0:0:0:
233,209,86529,2,0,L|230:132,1,77.0000023498536,8|0,0:0|0:0,0:0:0:0:
341,219,86874,1,8,0:3:0:0:
341,219,87046,2,0,L|344:302,1,77.0000023498536,0|8,0:0|0:0,0:0:0:0:
246,342,87391,5,8,0:3:0:0:
246,342,87564,1,8,0:3:0:0:
155,293,87736,1,8,0:3:0:0:
155,293,87909,1,8,0:0:0:0:
59,334,88081,1,8,0:3:0:0:
98,209,88253,6,0,P|149:190|234:237,1,154.000004699707,12|8,0:3|0:0,0:0:0:0:
271,337,88771,1,0,0:0:0:0:
271,337,88943,2,0,P|323:300|421:307,1,154.000004699707,0|8,0:0|0:0,0:0:0:0:
501,365,89460,1,0,0:0:0:0:
501,365,89633,6,0,L|496:210,1,154.000004699707,8|8,0:3|0:0,0:0:0:0:
395,109,90150,2,0,L|391:210,1,77.0000023498536,0|8,0:0|0:3,0:0:0:0:
499,82,90495,1,8,0:3:0:0:
499,82,90667,1,8,0:0:0:0:
363,15,90840,2,0,L|262:11,1,77.0000023498536,8|8,0:3|0:3,0:0:0:0:
51,93,91357,1,8,0:0:0:0:
51,93,91529,1,0,0:0:0:0:
157,163,91702,6,0,L|317:157,1,154.000004699707,0|8,0:0|0:0,0:0:0:0:
207,66,92219,1,0,0:0:0:0:
207,66,92391,2,0,P|188:116|190:169,1,77.0000023498536,8|0,0:3|0:0,0:0:0:0:
258,244,92736,1,8,0:0:0:0:
258,244,92909,2,0,P|277:294|275:347,1,77.0000023498536,0|8,0:0|0:3,0:0:0:0:
182,370,93253,1,8,0:3:0:0:
182,370,93426,1,8,0:0:0:0:
101,294,93598,1,8,0:3:0:0:
101,294,93771,6,0,P|143:261|150:157,1,154.000004699707,8|8,0:3|0:0,0:0:0:0:
98,78,94288,2,0,P|139:115|262:103,1,154.000004699707,0|8,0:0|0:3,0:0:0:0:
321,55,94805,2,0,P|375:45|415:59,1,77.0000023498536,8|0,0:0|0:0,0:0:0:0:
429,222,95150,6,0,L|437:57,1,154.000004699707,8|8,0:3|0:0,0:0:0:0:
310,152,95667,2,0,L|314:248,1,77.0000023498536,0|0,0:0|0:0,0:0:0:0:
374,343,96012,1,8,0:3:0:0:
374,343,96184,1,8,0:0:0:0:
401,234,96357,1,0,0:0:0:0:
264,303,96529,6,0,L|104:300,1,154.000004699707,8|8,0:3|0:0,0:0:0:0:
220,210,97046,2,0,L|314:207,1,77.0000023498536,0|0,0:0|0:0,0:0:0:0:
213,119,97391,2,0,L|119:116,1,77.0000023498536,8|8,0:3|0:0,0:0:0:0:
204,20,97736,6,0,P|233:63|233:109,1,77.0000023498536,0|8,0:0|0:3,0:0:0:0:
104,161,98081,2,0,P|112:123|136:94,1,77.0000023498536,0|8,0:0|0:0,0:0:0:0:
220,210,98426,1,8,0:3:0:0:
220,210,98598,1,0,0:0:0:0:
125,274,98771,1,8,0:3:0:0:
231,319,98943,1,8,0:0:0:0:
124,366,99115,1,8,0:3:0:0:
260,335,99288,5,12,0:0:0:0:
256,192,99374,12,0,103426,0:0:0:0:
