osu file format v14

[General]
AudioFilename: audio.mp3
AudioLeadIn: 0
PreviewTime: 53512
Countdown: 0
SampleSet: Soft
StackLeniency: 0.7
Mode: 0
LetterboxInBreaks: 0
WidescreenStoryboard: 1

[Editor]
Bookmarks: 11012
DistanceSpacing: 1.2
BeatDivisor: 4
GridSize: 32
TimelineZoom: 1.8

[Metadata]
Title:Fire (feat. Max Marshall)
TitleUnicode:Fire (feat. Max Marshall)
Artist:Matrix & Futurebound
ArtistUnicode:Matrix & Futurebound
Creator:SquareTude
Version:Advanced
Source:
Tags:b00 liquicity liquid drum and n & bass dnb electronic english short ver
BeatmapID:2007693
BeatmapSetID:957835

[Difficulty]
HPDrainRate:4
CircleSize:3.2
OverallDifficulty:5
ApproachRate:7
SliderMultiplier:1.1
SliderTickRate:1

[Events]
//Background and Video events
0,0,"206977.jpg",0,0
//Break Periods
2,71902,73560
//Storyboard Layer 0 (Background)
//Storyboard Layer 1 (Fail)
//Storyboard Layer 2 (Pass)
//Storyboard Layer 3 (Foreground)
//Storyboard Sound Samples

[TimingPoints]
-22,344.827586206897,4,2,1,40,1,0
11012,-133.333333333333,4,2,3,40,0,0
33081,-117.647058823529,4,2,3,50,0,0
34288,-117.647058823529,4,2,3,50,0,0
35840,-117.647058823529,4,2,3,50,0,0
37046,-117.647058823529,4,2,3,50,0,0
38598,-117.647058823529,4,2,3,50,0,0
42736,-117.647058823529,4,2,3,50,0,0
44115,-117.647058823529,4,2,3,60,0,0
52391,-117.647058823529,4,2,3,60,0,0
55150,-86.9565217391304,4,2,1,75,0,1
71702,-86.9565217391304,4,2,3,75,0,0
74288,-86.9565217391304,4,2,1,75,0,0
76357,-86.9565217391304,4,2,1,75,0,0
77219,-86.9565217391304,4,2,1,75,0,1
99288,-86.9565217391304,4,2,1,60,0,0
99633,-86.9565217391304,4,2,1,50,0,0
99978,-86.9565217391304,4,2,1,40,0,0
100322,-86.9565217391304,4,2,1,30,0,0
101012,-86.9565217391304,4,2,1,20,0,0
102046,-86.9565217391304,4,2,1,10,0,0
103426,-86.9565217391304,4,2,1,5,0,0

[Colours]
Combo1 : 255,198,170
Combo2 : 170,213,255

[HitObjects]
61,335,11012,6,0,L|58:207,1,123.750004720688,0|0,3:0|0:0,0:0:0:0:
74,164,11702,1,0,0:0:0:0:
138,89,12046,1,2,0:0:0:0:
233,64,12391,2,0,L|333:68,1,82.5000031471254,2|2,0:0|0:0,0:0:0:0:
353,100,12909,1,2,0:0:0:0:
353,100,13081,2,0,P|381:140|383:188,1,82.5000031471254,2|2,0:0|0:0,0:0:0:0:
325,251,13771,5,0,0:0:0:0:
325,251,13943,2,0,L|330:336,1,82.5000031471254,0|0,0:0|0:0,0:0:0:0:
359,373,14460,2,0,P|385:353|438:337,1,82.5000031471254,0|2,0:0|0:0,0:0:0:0:
481,345,14978,1,2,0:0:0:0:
481,345,15150,2,0,L|481:253,1,82.5000031471254,2|0,0:0|0:0,0:0:0:0:
434,244,15667,2,0,L|430:150,1,82.5000031471254,2|2,0:0|0:0,0:0:0:0:
462,123,16184,2,0,P|475:104|482:83,1,41.2500015735627,2|2,0:0|0:0,0:0:0:0:
458,42,16529,6,0,P|421:26|328:27,2,123.750004720688,2|0|2,0:0|0:0|0:0,0:0:0:0:
196,74,19288,6,0,P|233:58|326:59,2,123.750004720688,2|0|2,0:0|0:0|0:0,0:0:0:0:
55,214,21012,6,0,L|51:274,1,41.2500015735627,0|2,0:0|0:0,0:0:0:0:
86,291,21357,2,0,L|88:332,2,41.2500015735627,2|2|2,0:0|0:0|0:0,0:0:0:0:
148,214,22046,6,0,L|281:209,1,123.750004720688,0|0,0:0|0:0,0:0:0:0:
316,231,22736,1,0,0:0:0:0:
354,139,23081,1,2,0:0:0:0:
299,56,23426,2,0,P|262:31|213:27,1,82.5000031471254,2|2,0:0|0:0,0:0:0:0:
178,42,23943,1,2,0:0:0:0:
178,42,24115,2,0,P|141:67|92:71,1,82.5000031471254,2|2,0:0|0:0,0:0:0:0:
17,24,24805,5,0,0:0:0:0:
17,24,24978,2,0,L|11:121,1,82.5000031471254,0|0,0:0|0:0,0:0:0:0:
47,140,25495,2,0,L|53:237,1,82.5000031471254,0|2,0:0|0:0,0:0:0:0:
23,263,26012,1,2,0:0:0:0:
23,263,26184,2,0,P|51:289|111:291,1,82.5000031471254,2|0,0:0|0:0,0:0:0:0:
135,268,26702,2,0,P|175:250|219:249,1,82.5000031471254,2|2,0:0|0:0,0:0:0:0:
250,280,27219,2,0,P|288:298|294:300,1,41.2500015735627,2|2,0:0|0:0,0:0:0:0:
334,283,27564,6,0,L|331:147,2,123.750004720688,2|0|2,0:0|0:0|0:0,0:0:0:0:
300,23,30322,6,0,L|297:146,2,123.750004720688,2|0|2,0:0|0:0|0:0,0:0:0:0:
193,189,32046,2,0,P|221:201|244:206,1,41.2500015735627,0|2,0:0|0:0,0:0:0:0:
280,195,32391,2,0,P|308:183|331:178,2,41.2500015735627,2|2|2,0:0|0:0|0:0,0:0:0:0:
267,243,32909,1,2,0:0:0:0:
267,243,33081,6,0,P|251:291|201:323,1,93.500001783371,4|0,3:0|0:0,0:0:0:0:
162,322,33598,2,0,P|134:298|72:283,1,93.500001783371,2|0,0:0|0:0,0:0:0:0:
25,297,34115,1,2,0:0:0:0:
25,297,34288,2,0,L|31:143,1,140.250002675057,2|0,0:0|0:0,0:0:0:0:
215,30,35495,2,0,P|243:50|262:53,1,46.7500008916855,2|2,0:0|0:0,0:0:0:0:
295,90,35840,6,0,P|305:117|295:196,1,93.500001783371,2|0,0:0|0:0,0:0:0:0:
266,224,36357,2,0,P|256:251|266:330,1,93.500001783371,2|0,0:0|0:0,0:0:0:0:
300,353,36874,1,2,0:0:0:0:
300,353,37046,2,0,L|442:343,1,140.250002675057,2|0,0:0|0:0,0:0:0:0:
483,122,38253,2,0,L|479:69,1,46.7500008916855,2|2,0:0|0:0,0:0:0:0:
450,27,38598,6,0,P|411:52|351:46,1,93.500001783371,2|0,0:0|0:0,0:0:0:0:
310,36,39115,2,0,P|271:61|211:55,1,93.500001783371,2|0,0:0|0:0,0:0:0:0:
173,36,39633,1,2,0:0:0:0:
38,255,41012,2,0,P|54:225|70:212,1,46.7500008916855,2|2,0:0|0:0,0:0:0:0:
113,192,41357,6,0,L|210:205,1,93.500001783371,2|2,0:0|0:0,0:0:0:0:
261,201,41874,2,0,L|353:188,1,93.500001783371,2|0,0:0|0:0,0:0:0:0:
407,205,42391,1,2,0:0:0:0:
498,139,42736,6,0,L|495:243,1,93.500001783371,0|0,0:0|0:0,0:0:0:0:
468,281,43253,1,2,0:0:0:0:
468,281,43426,2,0,P|431:305|407:308,1,46.7500008916855,0|2,3:0|0:0,0:0:0:0:
375,289,43771,2,0,P|330:287|308:297,1,46.7500008916855,2|2,0:0|0:0,0:0:0:0:
294,331,44115,6,0,L|195:325,2,93.500001783371,0|8|8,3:0|0:2|0:0,0:0:0:0:
166,221,45150,1,0,0:0:0:0:
166,221,45322,1,0,3:0:0:0:
166,221,45495,6,0,L|103:223,2,46.7500008916855,8|0|0,0:0|0:0|0:0,0:0:0:0:
269,177,46184,2,0,L|332:179,2,46.7500008916855,8|0|8,0:0|0:0|0:0,0:0:0:0:
228,137,46702,1,8,0:0:0:0:
228,137,46874,6,0,P|193:118|125:108,2,93.500001783371,8|8|8,0:0|0:0|0:0,0:0:0:0:
251,303,47909,1,0,0:0:0:0:
251,303,48081,1,0,3:0:0:0:
251,303,48253,6,0,L|246:364,2,46.7500008916855,8|0|0,0:0|0:0|0:0,0:0:0:0:
300,201,48943,2,0,L|296:154,2,46.7500008916855,8|0|8,0:0|0:0|0:0,0:0:0:0:
342,237,49460,1,8,0:0:0:0:
342,237,49633,6,0,P|360:284|361:337,1,93.500001783371,8|8,0:0|0:0,0:0:0:0:
260,375,50322,1,8,0:0:0:0:
103,311,50667,1,0,0:0:0:0:
103,311,50840,1,0,3:0:0:0:
103,311,51012,6,0,P|84:268|79:208,1,93.500001783371,8|0,0:0|0:0,0:0:0:0:
127,194,51529,1,0,3:0:0:0:
127,194,51702,2,0,P|146:151|151:91,1,93.500001783371,8|8,0:0|0:0,0:0:0:0:
134,51,52219,1,8,0:0:0:0:
134,51,52391,6,0,L|187:49,1,46.7500008916855,0|8,3:0|0:0,0:0:0:0:
236,46,52736,2,0,L|282:47,1,46.7500008916855,0|8,3:0|0:0,0:0:0:0:
322,87,53081,2,0,L|320:133,1,46.7500008916855,0|8,3:0|0:0,0:0:0:0:
295,184,53426,1,0,3:0:0:0:
319,281,53771,5,0,3:0:0:0:
319,281,53943,1,8,0:0:0:0:
319,281,54115,2,0,L|316:345,1,46.7500008916855,8|8,0:0|0:0,0:0:0:0:
275,365,54460,5,8,0:0:0:0:
275,365,54633,1,8,0:0:0:0:
275,365,54805,2,0,L|214:367,1,46.7500008916855,8|0,0:0|3:0,0:0:0:0:
153,346,55150,6,0,P|124:315|113:222,1,126.500002412796,4|8,3:0|0:0,0:0:0:0:
174,194,55667,2,0,P|203:163|214:70,1,126.500002412796,0|8,0:0|0:3,0:0:0:0:
164,27,56184,1,8,0:0:0:0:
40,116,56529,2,0,L|46:253,1,126.500002412796,8|8,0:3|0:0,0:0:0:0:
97,307,57046,1,0,0:0:0:0:
97,307,57219,2,0,L|173:303,1,63.250001206398,0|8,0:0|0:3,0:0:0:0:
231,338,57564,2,0,L|294:341,1,63.250001206398,8|0,0:0|0:0,0:0:0:0:
370,356,57909,6,0,P|398:292|384:229,1,126.500002412796,8|8,0:3|0:0,0:0:0:0:
342,173,58426,2,0,P|314:109|328:46,1,126.500002412796,0|8,0:0|0:3,0:0:0:0:
388,13,58943,1,8,0:0:0:0:
238,41,59288,2,0,L|98:37,1,126.500002412796,8|8,0:3|0:0,0:0:0:0:
52,85,59805,1,0,0:0:0:0:
52,85,59978,2,0,L|56:173,1,63.250001206398,0|8,0:0|0:3,0:0:0:0:
99,212,60322,2,0,L|95:300,1,63.250001206398,8|0,0:0|0:0,0:0:0:0:
38,328,60667,6,0,P|79:313|174:329,1,126.500002412796,8|8,0:3|0:0,0:0:0:0:
226,364,61184,2,0,P|267:379|362:363,1,126.500002412796,0|8,0:0|0:3,0:0:0:0:
410,323,61702,1,8,0:0:0:0:
280,244,62046,2,0,L|283:109,1,126.500002412796,8|8,0:3|0:0,0:0:0:0:
359,119,62564,2,0,L|357:245,1,126.500002412796,0|8,0:0|0:3,0:0:0:0:
356,321,63081,1,8,0:0:0:0:
224,245,63426,6,0,P|174:215|95:214,1,126.500002412796,8|8,0:3|0:0,0:0:0:0:
40,255,63943,2,0,P|71:200|74:138,1,126.500002412796,0|8,0:0|0:3,0:0:0:0:
71,62,64460,1,8,0:0:0:0:
71,62,64633,6,0,L|154:65,1,63.250001206398,0|8,0:0|0:3,0:0:0:0:
205,89,64978,2,0,L|268:86,1,63.250001206398,0|8,0:0|0:0,0:0:0:0:
340,62,65322,2,0,L|343:-7,2,63.250001206398,0|8|8,0:0|0:3|0:3,0:0:0:0:
402,109,65840,1,8,0:0:0:0:
435,176,66012,1,8,0:3:0:0:
433,251,66184,6,0,P|375:228|293:226,1,126.500002412796,4|8,3:0|0:0,0:0:0:0:
238,246,66702,2,0,P|214:187|210:124,1,126.500002412796,0|8,0:0|0:3,0:0:0:0:
178,55,67219,1,8,0:0:0:0:
66,165,67564,2,0,L|62:305,1,126.500002412796,8|8,0:3|0:0,0:0:0:0:
111,358,68081,1,0,0:0:0:0:
111,358,68253,2,0,L|198:358,1,63.250001206398,8|8,0:3|0:3,0:0:0:0:
240,320,68598,2,0,L|327:320,1,63.250001206398,8|0,0:0|0:0,0:0:0:0:
375,344,68943,6,0,P|351:294|364:216,1,126.500002412796,8|8,0:3|0:0,0:0:0:0:
421,181,69460,2,0,L|278:183,1,126.500002412796,0|8,0:0|0:3,0:0:0:0:
221,158,69978,1,8,0:0:0:0:
154,19,70322,2,0,P|106:7|25:28,1,126.500002412796,8|8,0:3|0:0,0:0:0:0:
2,94,70840,2,0,L|1:223,1,126.500002412796,0|8,0:0|0:3,0:0:0:0:
41,284,71357,2,0,P|78:307|111:308,1,63.250001206398,8|0,0:0|0:0,0:0:0:0:
170,291,71702,5,0,3:0:0:0:
80,140,74460,6,0,L|82:66,2,63.250001206398,8|0|8,0:3|0:0|0:0,0:0:0:0:
131,207,74978,1,8,0:3:0:0:
131,207,75150,2,0,L|201:207,2,63.250001206398,8|8|8,0:0|0:3|0:0,0:0:0:0:
61,244,75667,1,8,0:3:0:0:
61,244,75840,6,0,P|59:290|76:329,1,63.250001206398,8|8,0:0|0:3,0:0:0:0:
133,336,76184,2,0,L|221:325,1,63.250001206398,8|8,0:0|0:0,0:0:0:0:
268,306,76529,5,8,0:3:0:0:
341,326,76702,1,8,0:3:0:0:
409,358,76874,2,0,P|444:363|480:352,1,63.250001206398,8|8,0:0|0:3,0:0:0:0:
511,289,77219,6,0,L|502:156,1,126.500002412796,12|8,0:0|0:0,0:0:0:0:
407,43,77909,2,0,P|352:61|271:51,1,126.500002412796,0|8,0:0|0:0,0:0:0:0:
140,5,78598,2,0,L|147:137,1,126.500002412796,8|8,0:3|0:0,0:0:0:0:
90,182,79115,1,0,0:0:0:0:
90,182,79288,2,0,L|86:272,1,63.250001206398,8|8,0:3|0:3,0:0:0:0:
156,276,79633,2,0,L|160:366,1,63.250001206398,8|0,0:0|0:0,0:0:0:0:
94,380,79978,5,8,0:3:0:0:
278,139,80667,2,0,P|315:205|304:277,1,126.500002412796,0|8,0:0|0:0,0:0:0:0:
257,306,81184,2,0,L|193:309,1,63.250001206398,0|8,0:0|0:3,0:0:0:0:
122,335,81529,2,0,L|58:330,1,63.250001206398,0|8,0:0|0:0,0:0:0:0:
22,264,81874,1,0,0:0:0:0:
22,264,82046,2,0,P|4:231|0:184,1,63.250001206398,8|8,0:3|0:3,0:0:0:0:
48,147,82391,2,0,P|64:119|71:89,1,63.250001206398,8|8,0:0|0:3,0:0:0:0:
29,25,82736,5,4,0:0:0:0:
355,61,83426,2,0,P|306:83|230:60,1,126.500002412796,0|8,0:0|0:0,0:0:0:0:
143,185,84115,2,0,P|202:167|260:190,1,126.500002412796,8|8,0:3|0:0,0:0:0:0:
305,252,84633,2,0,L|303:332,1,63.250001206398,0|0,0:0|0:0,0:0:0:0:
260,378,84978,1,8,0:3:0:0:
260,378,85150,2,0,L|179:376,1,63.250001206398,8|8,0:0|0:3,0:0:0:0:
128,343,85495,5,0,0:0:0:0:
381,176,86184,2,0,L|453:172,1,63.250001206398,0|8,0:0|0:3,0:0:0:0:
459,97,86529,2,0,L|387:93,1,63.250001206398,8|0,0:0|0:0,0:0:0:0:
337,43,86874,1,8,0:3:0:0:
337,43,87046,2,0,L|273:46,1,63.250001206398,0|8,0:0|0:0,0:0:0:0:
207,84,87391,5,8,0:3:0:0:
133,64,87564,1,8,0:3:0:0:
66,99,87736,2,0,L|69:164,2,63.250001206398,8|8|8,0:3|0:0|0:3,0:0:0:0:
5,52,88253,5,12,0:3:0:0:
127,330,88943,2,0,L|271:328,1,126.500002412796,0|8,0:0|0:0,0:0:0:0:
340,203,89633,2,0,P|315:153|330:85,1,126.500002412796,8|8,0:3|0:0,0:0:0:0:
393,44,90150,1,0,0:0:0:0:
393,44,90322,2,0,L|458:47,1,63.250001206398,8|8,0:3|0:3,0:0:0:0:
500,108,90667,2,0,L|497:173,1,63.250001206398,8|8,0:0|0:3,0:0:0:0:
488,246,91012,5,8,0:3:0:0:
193,348,91702,2,0,L|200:210,1,126.500002412796,0|8,0:0|0:0,0:0:0:0:
53,190,92391,2,0,L|59:316,1,126.500002412796,8|8,0:3|0:0,0:0:0:0:
128,349,92909,1,0,0:0:0:0:
128,349,93081,2,0,P|166:330|198:327,1,63.250001206398,8|8,0:3|0:3,0:0:0:0:
259,346,93426,2,0,P|297:365|329:368,1,63.250001206398,8|8,0:0|0:3,0:0:0:0:
388,341,93771,6,0,L|383:207,1,126.500002412796,8|8,0:3|0:0,0:0:0:0:
444,169,94288,2,0,L|448:42,1,126.500002412796,0|8,0:0|0:3,0:0:0:0:
381,4,94805,1,8,0:0:0:0:
381,4,94978,2,0,P|347:37|250:36,1,126.500002412796,0|0,0:0|0:0,0:0:0:0:
202,12,95495,1,8,0:0:0:0:
202,12,95667,2,0,L|197:157,1,126.500002412796,0|8,0:0|0:3,0:0:0:0:
162,206,96184,1,8,0:0:0:0:
243,332,96529,6,0,P|302:365|380:347,1,126.500002412796,8|8,0:3|0:0,0:0:0:0:
425,322,97046,2,0,L|418:256,1,63.250001206398,0|0,0:0|0:0,0:0:0:0:
361,207,97391,2,0,L|367:144,1,63.250001206398,8|8,0:3|0:0,0:0:0:0:
317,87,97736,2,0,L|246:83,1,63.250001206398,0|8,0:0|0:3,0:0:0:0:
184,52,98081,2,0,L|120:55,1,63.250001206398,0|8,0:0|0:0,0:0:0:0:
69,112,98426,5,8,0:3:0:0:
33,178,98598,1,0,0:0:0:0:
55,250,98771,2,0,L|125:245,2,63.250001206398,8|8|8,0:3|0:0|0:3,0:0:0:0:
12,313,99288,5,12,0:0:0:0:
256,192,99374,12,0,103426,0:0:0:0:
