osu file format v14

[General]
AudioFilename: audio400.ogg
AudioLeadIn: 0
PreviewTime: 523
Countdown: 0
SampleSet: Normal
StackLeniency: 0.7
Mode: 1
LetterboxInBreaks: 0
WidescreenStoryboard: 1

[Editor]
DistanceSpacing: 1.9
BeatDivisor: 3
GridSize: 32
TimelineZoom: 1.7

[Metadata]
Title:hi.
TitleUnicode:hi.
Artist:Matoloid
ArtistUnicode:Matoloid
Creator:Cryceptio
Version:futsuu.
Source:
Tags:colleen ballinger miranda sings ukelele youtube apology song toxic gossip train english vocaloid tora_v4 jazz novelty meme hatsune miku 初音ミク
BeatmapID:4413962
BeatmapSetID:2103727

[Difficulty]
HPDrainRate:9.6
CircleSize:4
OverallDifficulty:3.5
ApproachRate:8
SliderMultiplier:1.4
SliderTickRate:1

[Events]
//Background and Video events
0,0,"WiwDG3aqh9Y-HD.jpg",0,50
//Break Periods
//Storyboard Layer 0 (Background)
//Storyboard Layer 1 (Fail)
//Storyboard Layer 2 (Pass)
//Storyboard Layer 3 (Foreground)
//Storyboard Layer 4 (Overlay)
//Storyboard Sound Samples

[TimingPoints]
95,428.571428571429,4,1,0,65,1,0
95,-100,4,1,0,65,0,0
1809,428.571428571429,4,1,0,65,1,0
1809,-100,4,1,0,65,0,0
29380,-100,4,1,0,50,0,0

[HitObjects]
448,64,523,5,8,0:0:0:0:
448,64,951,1,8,0:0:0:0:
448,320,1808,5,12,0:0:0:0:
448,64,2236,1,0,0:0:0:0:
224,320,2665,1,0,0:0:0:0:
224,320,3093,1,0,0:0:0:0:
448,64,3379,1,8,0:0:0:0:
448,64,3522,1,8,0:0:0:0:
224,320,4379,1,0,0:0:0:0:
224,320,4808,1,0,0:0:0:0:
224,320,5236,1,8,0:0:0:0:
448,64,5665,1,0,0:0:0:0:
224,320,6093,1,0,0:0:0:0:
224,320,6522,1,0,0:0:0:0:
448,64,6808,1,8,0:0:0:0:
448,64,6950,1,8,0:0:0:0:
224,320,7808,1,0,0:0:0:0:
224,320,8236,1,0,0:0:0:0:
448,64,8665,1,8,0:0:0:0:
224,320,9093,1,0,0:0:0:0:
448,64,9522,1,8,0:0:0:0:
224,320,9950,1,0,0:0:0:0:
224,320,10236,1,8,0:0:0:0:
224,320,10379,1,8,0:0:0:0:
224,320,11236,1,0,0:0:0:0:
224,320,11665,1,0,0:0:0:0:
448,320,12093,1,12,0:0:0:0:
448,320,12522,1,12,0:0:0:0:
64,320,12950,1,4,0:0:0:0:
64,320,13379,1,4,0:0:0:0:
448,320,13808,1,12,0:0:0:0:
448,64,14808,1,8,0:0:0:0:
224,320,15093,1,8,0:0:0:0:
448,320,15522,1,12,0:0:0:0:
448,64,15950,1,0,0:0:0:0:
224,320,16379,1,0,0:0:0:0:
224,320,16808,1,0,0:0:0:0:
448,64,17093,1,8,0:0:0:0:
448,64,17236,1,8,0:0:0:0:
224,320,18093,1,0,0:0:0:0:
224,320,18522,1,0,0:0:0:0:
224,320,18950,1,0,0:0:0:0:
448,64,19379,1,8,0:0:0:0:
224,320,19665,1,0,0:0:0:0:
224,320,19808,1,0,0:0:0:0:
448,64,20665,1,8,0:0:0:0:
448,64,21094,1,0,0:0:0:0:
224,320,21380,1,0,0:0:0:0:
224,320,21522,1,0,0:0:0:0:
448,64,22379,1,8,0:0:0:0:
224,320,22809,1,8,0:0:0:0:
224,320,23236,1,0,0:0:0:0:
224,320,23665,1,0,0:0:0:0:
224,320,24093,1,0,0:0:0:0:
448,64,24522,1,8,0:0:0:0:
224,320,24808,1,0,0:0:0:0:
224,320,24950,1,0,0:0:0:0:
448,64,25808,1,8,0:0:0:0:
448,64,26236,1,0,0:0:0:0:
224,320,26665,1,0,0:0:0:0:
224,320,27093,1,0,0:0:0:0:
448,64,27379,1,8,0:0:0:0:
448,64,27522,1,8,0:0:0:0:
224,320,28379,1,0,0:0:0:0:
448,64,28808,1,8,0:0:0:0:
224,320,29093,1,0,0:0:0:0:
224,320,29236,1,0,0:0:0:0:
448,64,30093,1,8,0:0:0:0:
448,64,30522,1,8,0:0:0:0:
448,64,30808,1,8,0:0:0:0:
