osu file format v14

[General]
AudioFilename: audio.mp3
AudioLeadIn: 0
PreviewTime: 67260
Countdown: 0
SampleSet: Soft
StackLeniency: 0.7
Mode: 0
LetterboxInBreaks: 0
WidescreenStoryboard: 1

[Editor]
Bookmarks: 61,28860,57660,72060,81660,91260,100860,110460,129660,148860,158460,168060,177660,187260,206460,220860,230460,240060,249660,259260
DistanceSpacing: 0.6
BeatDivisor: 8
GridSize: 8
TimelineZoom: 3.399999

[Metadata]
Title:Let It Go (Original Mix)
TitleUnicode:Let It Go (Original Mix)
Artist:Matduke
ArtistUnicode:Matduke
Creator:Aistre
Version:Release
Source:
Tags:Altai alphabet venax delusional unappreciative harepascals koda undeadphoneguy electronic glitch hop instrumental Midtempo dubstep osu! Featured artist mpg mappers guild
BeatmapID:3319012
BeatmapSetID:1625651

[Difficulty]
HPDrainRate:6
CircleSize:4
OverallDifficulty:8.5
ApproachRate:9.6
SliderMultiplier:3.59999990463257
SliderTickRate:1

[Events]
//Background and Video events
0,0,"Swarmsii.jpg",0,0
//Break Periods
2,110660,119551
//Storyboard Layer 0 (Background)
//Storyboard Layer 1 (Fail)
//Storyboard Layer 2 (Pass)
//Storyboard Layer 3 (Foreground)
//Storyboard Layer 4 (Overlay)
//Storyboard Sound Samples

[TimingPoints]
61,599.999999999999,4,2,1,40,1,0
61,-125,4,2,1,40,0,0
1260,-250,4,2,1,40,0,0
2010,-250,4,2,1,5,0,0
2160,-250,4,2,1,40,0,0
2460,-166.666666666667,4,2,1,40,0,0
3060,-333.333333333333,4,2,1,40,0,0
4860,-166.666666666667,4,2,1,40,0,0
6060,-250,4,2,1,40,0,0
7260,-153.846153846154,4,2,1,40,0,0
8310,-117.647058823529,4,2,1,40,0,0
9660,-83.3333333333333,4,2,1,45,0,0
10260,-125,4,2,1,45,0,0
17910,-166.666666666667,4,2,1,45,0,0
18510,-100,4,2,1,45,0,0
18960,-57.1428571428571,4,2,4,80,0,0
19260,-250,4,2,1,50,0,0
20610,-166.666666666667,4,2,1,50,0,0
21660,-200,4,2,1,50,0,0
23010,-142.857142857143,4,2,1,50,0,0
24060,-125,4,2,1,50,0,0
26460,-100,4,2,1,50,0,0
28560,-66.6666666666667,4,2,4,80,0,0
28860,-100,4,2,1,55,0,0
30360,-133.333333333333,4,2,2,55,0,0
31260,-100,4,2,1,55,0,0
32760,-133.333333333333,4,2,2,55,0,0
33360,-133.333333333333,4,2,2,55,0,0
33660,-100,4,2,1,55,0,0
35160,-133.333333333333,4,2,2,55,0,0
36060,-133.333333333333,4,2,2,60,0,0
38160,-133.333333333333,4,2,4,80,0,0
38460,-100,4,2,1,60,0,0
39060,-133.333333333333,4,2,1,60,0,0
46560,-111.111111111111,4,2,1,60,0,0
48360,-133.333333333333,4,2,1,60,0,0
57060,-100,4,2,1,60,0,0
57660,-66.6666666666667,4,2,1,65,0,0
58710,-83.3333333333333,4,2,1,65,0,0
60660,-83.3333333333333,4,2,1,65,0,0
62460,-66.6666666666667,4,2,1,65,0,0
64260,-58.8235294117647,4,2,1,65,0,0
64860,-66.6666666666667,4,2,1,65,0,0
65160,-66.6666666666667,4,2,2,65,0,0
69660,-333.333333333333,4,2,2,65,0,0
70860,-66.6666666666667,4,2,2,65,0,0
71760,-66.6666666666667,4,2,4,80,0,0
72060,-10.8108108108108,4,2,2,75,0,0
72660,-100,4,2,2,75,0,0
73110,-28.5714285714286,4,2,2,75,0,0
73560,-40,4,2,2,75,0,0
74010,-33.3333333333333,4,2,2,75,0,0
74310,-66.6666666666667,4,2,2,75,0,0
74460,-40,4,2,2,75,0,0
75060,-66.6666666666667,4,2,2,75,0,0
75510,-33.3333333333333,4,2,2,75,0,0
75810,-100,4,2,2,75,0,0
75960,-50,4,2,2,75,0,0
76560,-133.333333333333,4,2,2,75,0,0
76860,-30.7692307692308,4,2,2,75,0,0
77160,-50,4,2,2,75,0,0
77460,-44.4444444444445,4,2,2,75,0,0
77910,-66.6666666666667,4,2,2,75,0,0
78660,-50,4,2,2,75,0,0
78885,-80,4,2,2,75,0,0
79260,-30.7692307692308,4,2,2,75,0,0
79560,-50,4,2,2,75,0,0
79860,-44.4444444444445,4,2,2,75,0,0
80310,-66.6666666666667,4,2,2,75,0,0
81060,-44.4444444444445,4,2,2,75,0,0
81660,-11.4338335268653,4,2,2,75,0,0
82260,-100,4,2,2,75,0,0
82710,-36.3636363636364,4,2,2,75,0,0
83160,-33.3333333333333,4,2,2,75,0,0
83610,-50,4,2,2,75,0,0
84060,-100,4,2,2,75,0,0
84660,-33.3333333333333,4,2,2,75,0,0
85410,-50,4,2,2,75,0,0
85860,-33.3333333333333,4,2,2,75,0,0
86160,-133.333333333333,4,2,2,75,0,0
86460,-33.3333333333333,4,2,2,75,0,0
86760,-66.6666666666667,4,2,2,75,0,0
87060,-66.6666666666667,4,2,2,75,0,0
87210,-50,4,2,2,75,0,0
87360,-40,4,2,2,75,0,0
87510,-66.6666666666667,4,2,2,75,0,0
88260,-50,4,2,2,75,0,0
88485,-100,4,2,2,75,0,0
88710,-66.6666666666667,4,2,2,75,0,0
88860,-33.3333333333333,4,2,2,75,0,0
89160,-66.6666666666667,4,2,2,75,0,0
89460,-40,4,2,2,75,0,0
89910,-66.6666666666667,4,2,2,75,0,0
90660,-50,4,2,2,75,0,0
90960,-66.6666666666667,4,2,2,75,0,0
91260,-10.3626943005181,4,2,5,75,0,0
91860,-200,4,2,5,75,0,0
93060,-133.333333333333,4,2,5,75,0,0
93660,-44.4444444444445,4,2,5,75,0,0
94110,-66.6666666666667,4,2,5,75,0,0
94860,-66.6666666666667,4,2,2,75,0,0
95460,-66.6666666666667,4,2,5,75,0,0
95610,-66.6666666666667,4,2,2,75,0,0
95910,-66.6666666666667,4,2,5,75,0,0
96060,-10.3626943005181,4,2,5,75,0,0
96660,-200,4,2,5,75,0,0
97860,-133.333333333333,4,2,5,75,0,0
98460,-66.6666666666667,4,2,2,75,0,0
99060,-66.6666666666667,4,2,5,75,0,0
99210,-66.6666666666667,4,2,2,75,0,0
99660,-57.1428571428571,4,2,2,75,0,0
100260,-66.6666666666667,4,2,5,75,0,0
100860,-10.0432550795279,4,2,5,75,0,0
101460,-200,4,2,5,75,0,0
103260,-44.4444444444445,4,2,5,75,0,0
103710,-66.6666666666667,4,2,5,75,0,0
104160,-66.6666666666667,4,2,5,75,0,0
104460,-66.6666666666667,4,2,1,75,0,0
105060,-50,4,2,5,75,0,0
105210,-66.6666666666667,4,2,2,75,0,0
105510,-66.6666666666667,4,2,5,75,0,0
105660,-10.0290906623446,4,2,5,75,0,0
106260,-200,4,2,5,75,0,0
108060,-66.6666666666667,4,2,2,75,0,0
109260,-142.857142857143,4,2,2,75,0,0
109560,-142.857142857143,4,2,1,75,0,0
109710,-142.857142857143,4,2,2,75,0,0
110460,-142.857142857143,4,2,1,50,0,0
120060,-83.3333333333333,4,2,1,55,0,0
120660,-125,4,2,1,55,0,0
127260,-111.111111111111,4,2,1,55,0,0
128310,-100,4,2,1,55,0,0
128760,-90.9090909090909,4,2,1,55,0,0
129360,-57.1428571428571,4,2,4,80,0,0
129660,-100,4,2,1,60,0,0
131010,-133.333333333333,4,2,1,60,0,0
132060,-100,4,2,1,60,0,0
138960,-66.6666666666667,4,2,1,60,0,0
139260,-100,4,2,1,65,0,0
140760,-133.333333333333,4,2,2,65,0,0
141660,-100,4,2,1,65,0,0
143160,-133.333333333333,4,2,2,65,0,0
144060,-83.3333333333333,4,2,1,65,0,0
145560,-83.3333333333333,4,2,2,65,0,0
146460,-83.3333333333333,4,2,2,70,0,0
148110,-333.333333333333,4,2,2,70,0,0
148560,-333.333333333333,4,2,4,80,0,0
148860,-40,4,2,3,75,0,1
149460,-66.6666666666667,4,2,3,75,0,1
150060,-100,4,2,3,75,0,1
150660,-100,4,2,3,75,0,1
151260,-36.3636363636364,4,2,3,75,0,1
151860,-66.6666666666667,4,2,3,75,0,1
152460,-100,4,2,3,75,0,1
152760,-66.6666666666667,4,2,3,75,0,1
153660,-40,4,2,3,75,0,1
154260,-66.6666666666667,4,2,3,75,0,1
154860,-100,4,2,3,75,0,1
155460,-100,4,2,3,75,0,1
156060,-36.3636363636364,4,2,3,75,0,1
156660,-66.6666666666667,4,2,3,75,0,1
157260,-100,4,2,3,75,0,1
157560,-66.6666666666667,4,2,3,75,0,1
158460,-40,4,2,3,75,0,1
159060,-66.6666666666667,4,2,3,75,0,1
160260,-100,4,2,3,75,0,1
160935,-40,4,2,3,75,0,1
161460,-66.6666666666667,4,2,3,75,0,1
163260,-40,4,2,3,75,0,1
163860,-66.6666666666667,4,2,3,75,0,1
165060,-100,4,2,3,75,0,1
165660,-40,4,2,3,75,0,1
166260,-66.6666666666667,4,2,3,75,0,1
166860,-100,4,2,3,75,0,1
167160,-50,4,2,3,75,0,1
167460,-66.6666666666667,4,2,3,75,0,1
167760,-100,4,2,3,75,0,1
168060,-40,4,2,3,80,0,1
168660,-66.6666666666667,4,2,3,80,0,1
169260,-50,4,2,3,80,0,1
169860,-100,4,2,3,80,0,1
170460,-40,4,2,3,80,0,1
171060,-66.6666666666667,4,2,3,80,0,1
171660,-50,4,2,3,80,0,1
172260,-66.6666666666667,4,2,3,80,0,1
172860,-40,4,2,3,80,0,1
173460,-66.6666666666667,4,2,3,80,0,1
174060,-50,4,2,3,80,0,1
174660,-100,4,2,3,80,0,1
175260,-40,4,2,3,80,0,1
175860,-66.6666666666667,4,2,3,80,0,1
176460,-50,4,2,3,80,0,1
177060,-66.6666666666667,4,2,3,80,0,1
177660,-40,4,2,3,80,0,1
178260,-66.6666666666667,4,2,3,80,0,1
178860,-50,4,2,3,80,0,1
179460,-100,4,2,3,80,0,1
180060,-50,4,2,3,80,0,1
180660,-66.6666666666667,4,2,3,80,0,1
181260,-50,4,2,3,80,0,1
182460,-40,4,2,3,80,0,1
183060,-66.6666666666667,4,2,3,80,0,1
183660,-50,4,2,3,80,0,1
184260,-100,4,2,3,80,0,1
184860,-50,4,2,6,80,0,1
185460,-66.6666666666667,4,2,6,80,0,1
186060,-133.333333333333,4,2,2,80,0,1
187260,-100,4,2,1,65,0,0
187860,-133.333333333333,4,2,1,65,0,0
195360,-105.263157894737,4,2,1,65,0,0
197160,-133.333333333333,4,2,1,65,0,0
205860,-100,4,2,1,65,0,0
206460,-66.6666666666667,4,2,1,70,0,0
207510,-83.3333333333333,4,2,1,70,0,0
209460,-83.3333333333333,4,2,1,70,0,0
211260,-66.6666666666667,4,2,1,70,0,0
213060,-58.8235294117647,4,2,1,70,0,0
213660,-66.6666666666667,4,2,1,70,0,0
213960,-66.6666666666667,4,2,2,70,0,0
218460,-333.333333333333,4,2,2,70,0,0
219660,-66.6666666666667,4,2,2,70,0,0
220560,-66.6666666666667,4,2,4,80,0,0
220860,-10.8108108108108,4,2,2,75,0,0
221460,-200,4,2,2,75,0,0
221910,-28.5714285714286,4,2,2,75,0,0
222360,-40,4,2,2,75,0,0
222810,-28.5714285714286,4,2,2,75,0,0
223110,-66.6666666666667,4,2,2,75,0,0
223260,-40,4,2,2,75,0,0
223860,-66.6666666666667,4,2,2,75,0,0
224310,-33.3333333333333,4,2,2,75,0,0
224610,-100,4,2,2,75,0,0
224760,-50,4,2,2,75,0,0
225360,-133.333333333333,4,2,2,75,0,0
225660,-30.7692307692308,4,2,2,75,0,0
225960,-50,4,2,2,75,0,0
226260,-44.4444444444445,4,2,2,75,0,0
226710,-66.6666666666667,4,2,2,75,0,0
227460,-50,4,2,2,75,0,0
227685,-80,4,2,2,75,0,0
228060,-30.7692307692308,4,2,2,75,0,0
228360,-50,4,2,2,75,0,0
228660,-44.4444444444445,4,2,2,75,0,0
229110,-66.6666666666667,4,2,2,75,0,0
229860,-44.4444444444445,4,2,2,75,0,0
230460,-12.5786163522013,4,2,2,75,0,0
231060,-100,4,2,2,75,0,0
231510,-36.3636363636364,4,2,2,75,0,0
232410,-50,4,2,2,75,0,0
232860,-100,4,2,2,75,0,0
233460,-40,4,2,2,75,0,0
234210,-50,4,2,2,75,0,0
234660,-33.3333333333333,4,2,2,75,0,0
234960,-133.333333333333,4,2,2,75,0,0
235260,-33.3333333333333,4,2,2,75,0,0
235560,-66.6666666666667,4,2,2,75,0,0
235860,-66.6666666666667,4,2,2,75,0,0
236010,-50,4,2,2,75,0,0
236160,-40,4,2,2,75,0,0
236310,-66.6666666666667,4,2,2,75,0,0
237060,-50,4,2,2,75,0,0
237285,-100,4,2,2,75,0,0
237510,-66.6666666666667,4,2,2,75,0,0
237660,-33.3333333333333,4,2,2,75,0,0
237960,-66.6666666666667,4,2,2,75,0,0
238260,-40,4,2,2,75,0,0
238710,-66.6666666666667,4,2,2,75,0,0
239460,-50,4,2,2,75,0,0
239760,-66.6666666666667,4,2,2,75,0,0
240060,-10.9649122807018,4,2,5,75,0,0
240660,-200,4,2,5,75,0,0
241860,-133.333333333333,4,2,5,75,0,0
242460,-44.4444444444445,4,2,5,75,0,0
242910,-66.6666666666667,4,2,5,75,0,0
243660,-66.6666666666667,4,2,2,75,0,0
244260,-66.6666666666667,4,2,5,75,0,0
244410,-66.6666666666667,4,2,2,75,0,0
244710,-66.6666666666667,4,2,5,75,0,0
244860,-10.1010101010101,4,2,5,75,0,0
245460,-200,4,2,5,75,0,0
246660,-133.333333333333,4,2,5,75,0,0
247260,-66.6666666666667,4,2,2,75,0,0
247860,-66.6666666666667,4,2,5,75,0,0
248010,-66.6666666666667,4,2,2,75,0,0
248460,-57.1428571428571,4,2,2,75,0,0
249060,-66.6666666666667,4,2,5,75,0,0
249660,-12.5786163522013,4,2,5,75,0,0
250260,-200,4,2,5,75,0,0
252060,-44.4444444444445,4,2,5,75,0,0
252510,-66.6666666666667,4,2,5,75,0,0
252960,-66.6666666666667,4,2,5,75,0,0
253260,-66.6666666666667,4,2,1,75,0,0
253860,-50,4,2,5,75,0,0
254010,-66.6666666666667,4,2,2,75,0,0
254310,-66.6666666666667,4,2,5,75,0,0
254460,-12.5786163522013,4,2,5,75,0,0
255060,-200,4,2,5,75,0,0
256860,-66.6666666666667,4,2,2,75,0,0
258060,-142.857142857143,4,2,2,75,0,0
258360,-142.857142857143,4,2,1,75,0,0
258510,-142.857142857143,4,2,2,75,0,0
259260,-125,4,2,1,50,0,0
260459,-250,4,2,1,50,0,0
261209,-250,4,2,1,5,0,0
261359,-250,4,2,1,50,0,0
261659,-166.666666666667,4,2,1,50,0,0
262259,-333.333333333333,4,2,1,50,0,0
264059,-166.666666666667,4,2,1,50,0,0
265259,-250,4,2,1,50,0,0
266160,-250,4,2,1,35,0,0
266459,-333.333333333333,4,2,1,25,0,0

[Colours]
Combo1 : 117,126,189
Combo2 : 174,202,210
Combo3 : 251,116,70

[HitObjects]
142,160,61,6,0,P|119:86|46:87,2,143.999996185303,6|2|2,1:1|0:1|0:2,0:0:0:0:
142,160,960,1,2,1:2:0:0:
321,111,1260,6,0,B|406:126|406:126|408:131|408:131|498:148,1,179.999995231628,2|0,0:2|0:0,0:0:0:0:
489,162,2160,1,4,0:3:0:0:
261,198,2460,6,0,P|277:286|288:377,1,161.999990764618,2|0,1:1|0:0,0:0:0:0:
275,346,3060,2,0,P|284:305|292:277,2,53.9999969215394,2|0|0,0:1|1:0|0:0,0:0:0:0:
12,359,4260,5,2,0:1:0:0:
85,311,4560,1,2,0:1:0:0:
22,124,4860,6,0,P|13:71|76:46,2,107.999993843079,2|2|2,1:1|0:1|0:1,0:0:0:0:
22,124,5760,1,2,1:2:0:0:
159,268,6060,6,0,B|150:195|150:195|152:189|152:189|143:120,1,143.999996185303,2|8,0:2|0:1,0:0:0:0:
233,7,7110,5,2,0:2:0:0:
233,7,7260,2,0,P|277:11|291:82,1,116.999991544724,2|2,1:1|0:2,0:0:0:0:
373,187,7710,1,0,0:0:0:0:
366,179,7860,2,0,L|258:195,1,87.749993658543,2|0,3:1|0:0,0:0:0:0:
270,186,8160,1,2,1:2:0:0:
376,92,8310,6,0,B|420:77|446:113|446:119|446:124|473:150|515:138,2,152.999998865128,2|2|2,0:2|1:2|0:2,0:0:0:0:
463,71,9060,1,10,0:1:0:0:
458,61,9210,1,2,0:2:0:0:
435,286,9360,6,0,B|441:245|441:245|439:240|439:240|446:188,1,76.4999994325638,2|0,0:1|1:0,0:0:0:0:
471,366,9660,6,0,B|445:260|313:236|254:278|254:278|286:300|288:353,1,323.999981529237,6|0,1:1|0:0,0:0:0:0:
283,321,10260,2,0,P|309:268|280:222,1,107.999997138977,2|0,3:2|0:0,0:0:0:0:
292,215,10560,1,2,1:2:0:0:
151,343,10710,6,0,P|77:346|-9:361,2,143.999996185303,2|2|2,0:2|0:2|0:2,0:0:0:0:
198,277,11610,1,2,0:2:0:0:
144,220,11760,1,2,0:2:0:0:
144,220,11910,1,2,0:2:0:0:
264,41,12060,6,0,L|247:120,2,71.9999980926514,2|2|2,1:1|0:2|0:2,0:0:0:0:
235,184,12660,2,0,P|207:125|151:124,1,107.999997138977,2|0,3:1|0:0,0:0:0:0:
161,128,12960,1,2,1:2:0:0:
360,31,13110,6,0,L|514:47,2,143.999996185303,2|2|2,0:2|0:2|0:2,0:0:0:0:
224,194,13860,2,0,P|204:221|212:262,1,71.9999980926514,10|2,0:1|0:2,0:0:0:0:
289,306,14160,2,0,P|309:279|301:238,1,71.9999980926514,2|0,0:1|0:0,0:0:0:0:
299,237,14460,5,2,1:1:0:0:
146,377,14760,2,0,P|83:365|57:363,1,71.9999980926514,2|0,0:1|0:0,0:0:0:0:
111,179,15060,6,0,P|120:254|133:307,1,107.999997138977,2|0,3:1|0:0,0:0:0:0:
121,291,15360,1,2,1:2:0:0:
17,132,15510,6,0,P|63:102|51:-2,2,143.999996185303,2|2|2,0:2|0:2|0:2,0:0:0:0:
96,104,16410,1,2,0:2:0:0:
165,156,16560,1,2,0:2:0:0:
165,156,16710,1,2,0:2:0:0:
302,81,16860,6,0,L|377:74,2,71.9999980926514,2|2|2,1:1|0:2|0:2,0:0:0:0:
512,192,17460,2,0,L|390:172,1,107.999997138977,2|0,3:1|0:0,0:0:0:0:
398,179,17760,1,2,1:2:0:0:
449,17,17910,6,0,P|457:59|465:85,1,53.9999969215394,2|2,0:2|0:1,0:0:0:0:
283,141,18210,2,0,P|290:115|295:89,1,53.9999969215394,2|0,0:2|0:0,0:0:0:0:
456,342,18510,6,0,P|469:284|439:261,1,89.9999976158143,2|10,0:2|0:1,0:0:0:0:
449,255,18810,2,0,L|405:268,1,44.9999988079071
146,271,18960,6,2,P|306:313|379:345,1,236.249995994568,2|0,1:2|0:0,0:1:0:0:
59,147,19260,6,0,P|30:177|33:208,1,71.9999980926514,12|0,0:2|0:0,0:0:0:0:
128,171,19710,2,0,P|116:130|88:117,1,71.9999980926514,8|0,0:2|0:0,0:0:0:0:
72,218,20160,2,0,P|112:228|137:210,1,71.9999980926514,10|2,0:2|0:2,0:0:0:0:
293,45,20610,6,0,L|233:57,1,53.9999969215394,10|0,0:2|0:0,0:0:0:0:
368,112,20910,2,0,L|308:124,2,53.9999969215394,10|0|10,0:2|3:0|0:2,0:0:0:0:
501,291,21360,5,10,0:2:0:0:
504,275,21435,1,8,0:2:0:0:
508,259,21510,1,10,0:2:0:0:
511,243,21585,1,8,0:2:0:0:
464,175,21660,6,0,B|466:165|466:165|439:155|404:179|402:211,1,89.9999976158143,8|0,0:2|0:0,0:0:0:0:
341,239,22110,2,0,B|331:242|331:242|336:270|374:288|403:274,1,89.9999976158143,8|0,0:2|0:0,0:0:0:0:
457,313,22560,2,0,B|464:319|464:319|486:301|483:259|456:241,1,89.9999976158143,8|0,0:2|0:0,0:0:0:0:
252,375,23010,6,0,P|282:351|315:355,1,62.9999964084627,10|0,0:2|0:0,0:0:0:0:
174,221,23310,2,0,P|204:245|237:241,2,62.9999964084627,10|2|10,0:2|3:1|0:2,0:0:0:0:
47,354,23760,6,2,L|41:379,4,15.7499991021157,10|8|8|8|8,0:2|0:2|0:2|0:2|0:0,0:1:0:0:
0,150,24060,6,2,L|111:168,1,107.999997138977,10|0,0:2|0:0,0:1:0:0:
118,157,24360,1,2,0:2:0:0:
266,46,24510,2,0,B|199:54|199:54|191:59|191:59|108:71,1,143.999996185303,8|0,0:2|0:0,0:0:0:0:
407,8,24960,6,0,P|404:28|391:56,1,35.9999990463257,10|0,0:2|0:0,0:0:0:0:
336,85,25110,2,0,P|331:97|331:127,1,35.9999990463257,2|0,0:2|0:0,0:0:0:0:
467,320,25410,6,0,P|463:292|452:271,1,35.9999990463257,10|0,0:2|0:0,0:0:0:0:
374,230,25710,2,0,P|368:212|366:194,1,35.9999990463257,10|0,0:2|0:0,0:0:0:0:
454,132,26010,2,0,P|452:113|446:96,1,35.9999990463257,10|0,0:2|0:0,0:0:0:0:
348,326,26160,5,10,0:2:0:0:
332,322,26235,1,8,0:2:0:0:
316,318,26310,1,10,0:2:0:0:
300,314,26385,1,8,0:2:0:0:
219,341,26460,6,2,P|193:306|220:257,2,89.9999976158143,10|2|2,0:2|0:2|0:2,0:1:0:0:
381,237,26910,6,0,L|435:225,1,44.9999988079071,8|0,0:2|0:0,0:0:0:0:
322,182,27060,2,2,P|266:172|165:160,1,134.999996423721,2|0,0:2|0:0,0:1:0:0:
182,152,27360,1,10,0:2:0:0:
38,120,27510,6,0,B|86:143|119:95|119:88|119:82|148:48|199:66,2,179.999995231629,2|10|10,0:2|0:2|0:2,0:0:0:0:
84,356,28410,6,0,L|70:292,1,44.9999988079071,2|0,0:2|0:0,0:0:0:0:
58,233,28560,2,0,L|209:254,1,135.000001573563,2|0,0:2|0:0,0:0:0:0:
449,238,28860,6,0,B|412:259|421:317|421:317|411:259|370:250,1,179.999995231629,12|0,0:2|0:0,0:0:0:0:
355,81,29310,6,0,B|392:101|437:64|437:64|392:102|404:142,1,179.999995231629,8|0,0:2|0:0,0:0:0:0:
266,240,29760,6,0,B|264:197|210:177|210:177|265:197|294:167,1,179.999995231629,10|2,0:2|0:2,0:0:0:0:
495,79,30360,6,0,L|479:2,1,67.5000007867814,0|0,3:0|0:2,0:0:0:0:
454,148,30660,2,0,L|470:229,1,67.5000007867814,0|2,3:0|0:2,0:0:0:0:
317,51,30960,5,2,3:2:0:0:
304,48,31035,1,0,3:2:0:0:
291,45,31110,1,2,3:2:0:0:
278,42,31185,1,0,3:2:0:0:
212,75,31260,6,0,P|180:51|192:4,2,89.9999976158143,10|2|2,0:2|0:2|0:2,0:0:0:0:
297,183,31710,2,0,P|335:171|340:123,2,89.9999976158143,8|2|0,0:2|0:1|0:0,0:0:0:0:
101,234,32160,5,10,0:2:0:0:
244,250,32310,2,0,P|199:252|161:295,1,89.9999976158143,2|0,0:2|0:0,0:0:0:0:
400,312,32760,6,0,L|479:343,1,67.5000007867814,0|2,3:2|0:2,0:0:0:0:
333,372,33060,2,0,L|254:341,1,67.5000007867814,2|2,3:2|0:2,0:0:0:0:
481,199,33360,5,2,3:2:0:0:
484,186,33435,1,0,3:2:0:0:
487,173,33510,1,0,3:2:0:0:
490,160,33585,1,0,3:2:0:0:
465,88,33660,6,0,B|459:95|459:95|278:124,1,179.999995231629,10|2,0:2|0:1,0:0:0:0:
355,191,34110,1,8,0:2:0:0:
197,71,34260,2,0,B|205:81|205:81|218:167,1,89.9999976158143,2|0,0:1|0:0,0:0:0:0:
275,45,34560,1,10,0:2:0:0:
120,108,34710,2,0,B|112:98|112:98|99:12,1,89.9999976158143,2|0,0:2|0:0,0:0:0:0:
216,157,35010,1,2,0:2:0:0:
92,289,35160,6,0,L|173:278,1,67.5000007867814,0|2,3:0|0:2,0:0:0:0:
66,205,35460,2,0,L|-15:216,1,67.5000007867814,0|2,3:0|0:2,0:0:0:0:
224,359,35760,5,2,3:2:0:0:
227,346,35835,1,0,3:2:0:0:
230,333,35910,1,2,3:2:0:0:
233,320,35985,1,0,3:2:0:0:
294,279,36060,6,0,P|318:298|366:295,1,67.5000007867814,2|2,3:1|3:2,0:0:0:0:
444,52,36360,2,0,P|420:33|372:36,1,67.5000007867814,2|0,3:2|3:0,0:0:0:0:
497,186,36660,5,2,3:1:0:0:
350,212,36810,1,0,3:0:0:0:
411,130,36960,1,2,3:2:0:0:
437,277,37110,1,2,3:2:0:0:
131,237,37260,6,0,L|139:196,1,33.7500003933907,2|0,3:1|0:0,0:0:0:0:
170,22,37410,2,0,L|161:62,1,33.7500003933907,2|0,3:2|0:0,0:0:0:0:
289,155,37560,6,0,L|248:146,1,33.7500003933907,0|0,3:0|0:0,0:0:0:0:
12,104,37710,2,0,L|52:112,1,33.7500003933907,2|0,3:2|0:0,0:0:0:0:
156,133,37860,5,2,3:1:0:0:
156,133,38160,1,2,0:2:0:0:
502,370,38460,6,0,B|533:287|475:225|380:221|367:305|407:333|432:333,1,269.999992847443,6|0,1:1|0:0,0:0:0:0:
277,378,39060,6,0,P|309:349|335:347,1,67.5000007867814,2|0,0:2|0:0,0:0:0:0:
373,270,39360,2,0,P|339:246|328:217,1,67.5000007867814,2|0,0:2|0:0,0:0:0:0:
497,144,39660,6,0,P|437:138|410:215,1,135.000001573563,2|2,0:1|0:2,0:0:0:0:
232,18,40260,6,0,P|247:62|249:102,1,67.5000007867814,2|0,0:2|0:0,0:0:0:0:
255,80,40560,2,0,P|249:46|237:15,1,67.5000007867814,2|0,0:2|0:0,0:0:0:0:
404,196,40860,5,2,1:1:0:0:
111,227,41160,6,0,P|143:231|169:253,1,67.5000007867814,2|0,0:2|0:0,0:0:0:0:
258,350,41460,2,0,P|245:319|251:286,1,67.5000007867814,2|0,0:2|0:0,0:0:0:0:
290,161,41760,2,0,P|269:188|238:199,1,67.5000007867814,2|0,0:2|0:0,0:0:0:0:
8,126,42060,6,0,B|55:119|55:119|58:122|58:122|113:113,1,101.250001180172,2|0,0:1|0:0,0:0:0:0:
150,57,42360,1,2,0:2:0:0:
25,246,42660,1,2,0:1:0:0:
202,338,42960,5,2,0:2:0:0:
250,286,43110,1,0,0:0:0:0:
307,329,43260,1,2,1:1:0:0:
375,308,43410,1,0,0:0:0:0:
403,374,43560,2,0,P|476:359|474:295,1,135.000001573563
250,286,44160,5,0,0:0:0:0:
253,273,44235,1,0,0:0:0:0:
256,260,44310,1,0,0:0:0:0:
326,207,44460,1,2,0:1:0:0:
116,15,44760,6,0,P|161:32|168:62,1,67.5000007867814,2|0,0:2|0:0,0:0:0:0:
78,145,45060,2,0,P|28:135|-14:132,1,67.5000007867814,2|0,0:2|0:0,0:0:0:0:
230,135,45360,2,0,P|196:130|163:123,1,67.5000007867814,2|0,0:2|0:0,0:0:0:0:
82,375,45660,6,0,P|62:313|0:299,1,135.000001573563,2|0,1:1|0:0,0:0:0:0:
304,337,46260,6,0,P|312:290|316:266,1,67.5000007867814,2|0,0:2|0:0,0:0:0:0:
146,234,46560,6,0,P|100:245|77:287,1,80.9999953823091,2|0,0:2|0:0,0:0:0:0:
205,148,46860,2,0,P|165:141|139:111,1,80.9999953823091,2|0,0:1|0:0,0:0:0:0:
314,170,47160,2,0,P|274:193|257:231,1,80.9999953823091,0|2,0:0|0:1,0:0:0:0:
395,92,47460,2,0,P|334:80|313:72,1,80.9999953823091,2|0,0:2|0:0,0:0:0:0:
511,138,47760,2,0,P|460:156|430:174,1,80.9999953823091,2|0,0:1|0:0,0:0:0:0:
256,16,48060,5,2,1:1:0:0:
352,286,48360,6,0,P|366:238|379:213,1,67.5000007867814,2|0,0:2|0:0,0:0:0:0:
270,305,48660,2,0,P|256:353|243:378,1,67.5000007867814,2|0,0:2|0:0,0:0:0:0:
437,283,48960,2,0,P|485:297|510:310,1,67.5000007867814,2|0,0:2|0:0,0:0:0:0:
201,255,49260,6,0,P|118:273|50:291,1,135.000001573563,2|0,1:1|0:0,0:0:0:0:
232,10,49860,6,0,B|193:66|249:99|254:98|258:97|315:128|282:183,1,202.500002360344,2|2,0:2|0:2,0:0:0:0:
144,48,50460,5,2,1:1:0:0:
3,211,50760,6,0,P|86:193|97:190,1,67.5000007867814,2|0,0:2|0:0,0:0:0:0:
181,369,51060,2,0,P|204:334|198:297,1,67.5000007867814,2|0,0:2|0:0,0:0:0:0:
85,275,51360,2,0,P|62:310|68:347,1,67.5000007867814,2|0,0:2|0:0,0:0:0:0:
338,367,51660,6,0,P|320:269|316:246,1,101.250001180172,2|0,1:1|0:0,0:0:0:0:
367,209,51960,2,0,P|414:199|436:196,1,67.5000007867814,2|0,0:2|0:0,0:0:0:0:
246,147,52260,2,0,P|199:157|177:160,1,67.5000007867814,2|0,0:1|0:0,0:0:0:0:
471,18,52560,6,0,P|394:27|374:88,1,135.000001573563,2|2,0:2|1:1,0:0:0:0:
376,84,52935,1,0,0:0:0:0:
379,95,53010,2,0,P|433:111|433:194,1,135.000001573563
348,329,53460,6,0,P|331:285|348:257,1,67.5000007867814,2|0,1:2|0:0,0:0:0:0:
494,243,53760,2,0,P|510:286|493:314,1,67.5000007867814,2|0,0:2|0:0,0:0:0:0:
360,181,54060,5,2,1:1:0:0:
139,360,54360,6,0,P|180:338|206:339,1,67.5000007867814,2|0,0:2|0:0,0:0:0:0:
81,288,54660,2,0,P|39:268|31:245,1,67.5000007867814,2|0,1:2|0:0,0:0:0:0:
115,142,54960,2,0,P|157:162|165:185,1,67.5000007867814,2|0,0:2|0:0,0:0:0:0:
374,375,55260,6,0,B|382:326|382:326|386:324|386:324|397:262,1,101.250001180172,2|0,1:1|0:0,0:0:0:0:
349,216,55560,1,2,0:2:0:0:
505,57,55860,6,0,P|500:120|422:120,1,135.000001573563,2|2,1:2|0:2,0:0:0:0:
387,75,56260,5,0,0:0:0:0:
337,94,56360,1,0,0:0:0:0:
316,143,56460,1,0,1:0:0:0:
160,5,56760,6,0,B|171:11|171:11|187:98,1,67.5000007867814
18,185,57060,2,0,B|-1:144|-1:144|37:104,1,89.9999976158143,0|0,1:0|0:0,0:0:0:0:
221,143,57360,2,0,B|240:183|240:183|201:223,1,89.9999976158143,0|0,1:0|0:0,0:0:0:0:
92,343,57660,6,0,B|24:319|35:194|215:192|240:350,1,337.500003933907,14|0,1:2|0:0,0:0:0:0:
233,353,58110,1,8,0:2:0:0:
494,162,58260,6,0,B|453:196|462:253|462:253|442:198|377:185,1,202.500002360344,2|0,0:2|0:0,0:0:0:0:
324,222,58560,2,0,P|329:254|354:275,1,67.5000007867814,10|0,0:2|0:0,0:0:0:0:
369,351,58710,6,0,P|357:241|324:117,1,215.999987686158,2|10,0:2|0:2,0:0:0:0:
352,48,59085,1,8,0:2:0:0:
360,41,59160,2,0,P|405:53|406:121,1,107.999993843079,10|2,0:2|0:2,0:0:0:0:
156,239,59460,6,0,B|137:177|191:147|196:150|201:154|269:135|260:71,1,215.999987686158,10|10,0:2|0:2,0:0:0:0:
211,13,59835,1,8,0:2:0:0:
195,9,59910,1,10,0:2:0:0:
182,20,59985,1,8,0:2:0:0:
150,92,60060,6,0,P|200:151|239:287,1,215.999987686158,10|0,1:2|0:0,0:0:0:0:
331,141,60510,1,8,0:2:0:0:
145,87,60660,6,0,P|68:105|77:187,1,161.999990764618,2|0,0:2|0:0,0:0:0:0:
86,178,60960,2,0,P|115:196|139:195,1,53.9999969215394,10|0,0:2|0:0,0:0:0:0:
190,364,61110,6,0,P|250:313|390:313,1,215.999987686158,2|2,0:2|0:2,0:0:0:0:
471,270,61560,1,10,0:2:0:0:
422,185,61710,1,2,0:2:0:0:
330,218,61860,6,0,B|299:171|299:171|323:124,1,107.999993843079,10|2,0:2|0:2,0:0:0:0:
485,20,62160,2,0,B|516:67|516:67|492:114,1,107.999993843079,10|8,1:2|0:2,0:0:0:0:
328,128,62460,6,0,B|277:135|277:135|275:139|275:139|208:146|208:146|206:150|206:150|109:161|109:161|107:165|107:165|-7:177,1,337.500003933907,10|0,1:2|0:0,0:0:0:0:
0,176,62910,1,8,0:2:0:0:
251,33,63060,6,0,B|232:48|232:48|243:113,1,90.0000010490418,2|0,0:2|0:0,0:0:0:0:
137,53,63260,2,0,B|160:60|160:60|171:126,1,90.0000010490418,2|8,0:2|0:2,0:0:0:0:
224,186,63460,2,0,B|229:230|229:230|213:188,1,90.0000010490418,2|0,0:2|0:0,0:0:0:0:
55,310,63660,6,0,B|74:295|74:295|63:230,1,90.0000010490418,2|0,0:2|0:0,0:0:0:0:
169,290,63860,2,0,B|147:282|147:282|136:216,1,90.0000010490418,2|8,0:2|0:2,0:0:0:0:
82,157,64060,2,0,B|77:113|77:113|93:155,1,90.0000010490418,2|0,0:2|0:0,0:0:0:0:
321,370,64260,6,0,B|285:361|285:361|242:306|242:306|302:272|302:272|480:307|480:307|540:272|540:272|497:218|497:218|438:206,1,535.499996027947,10|8,0:2|0:2,0:0:0:0:
446,213,64860,5,10,1:2:0:0:
410,204,65010,1,0,0:0:0:0:
379,152,65160,1,0,3:0:0:0:
408,78,65310,1,0,3:0:0:0:
512,42,65460,5,4,3:0:0:0:
405,70,65610,1,4,3:0:0:0:
282,164,65760,5,4,3:0:0:0:
175,192,65910,1,4,3:0:0:0:
49,282,66060,5,4,3:0:0:0:
51,289,66260,5,4,0:3:0:0:
43,286,66460,5,4,0:3:0:0:
49,282,66660,5,4,0:3:0:0:
423,348,67260,1,4,0:2:0:0:
148,348,69660,2,0,P|180:360|206:346,1,53.9999969215394,2|0,0:1|0:0,0:0:0:0:
263,285,70110,6,0,P|285:258|280:229,1,53.9999969215394,2|0,0:1|0:0,0:0:0:0:
253,212,70485,6,0,P|234:182|204:178,1,53.9999969215394
170,107,70860,6,0,B|104:82|35:123|44:193|44:193|250:236|250:236|257:244|257:244|535:291|535:291|445:280|422:323,1,810.000009441377,2|2,0:2|0:2,0:0:0:0:
250,102,72060,6,0,B|251:100|251:100|250:99|250:99|252:100|252:100|253:99|253:99|254:100|254:100|253:98|253:98|254:97|254:97|253:96|253:96|254:97|254:97|256:96|256:96|258:97|258:97|257:95|257:95|257:94|257:94|256:93|256:93|258:94|258:94|259:93|259:93|261:94|261:94|259:92|259:92|260:91|260:91|259:90|259:90|261:90|261:90|263:91|263:91|262:89|262:89|262:88|262:88|261:86|261:86|263:87|263:87|264:87|264:87|266:88|266:88|264:86|264:86|265:85|265:85|264:83|264:83|266:84|266:84|268:84|268:84|267:83|267:83|268:82|268:82|266:80|266:80|268:81|268:81|269:80|269:80|271:81|271:81|269:80|269:80|270:79|270:79|269:77|269:77|271:78|271:78|271:77|271:77|273:78|273:78|272:77|272:77|273:76|273:76|271:74|271:74|273:75|273:75|274:74|274:74|276:75|276:75|275:74|275:74|275:73|275:73|274:71|274:71|276:72|276:72|276:71|276:71|278:72|278:72|277:70|277:70|278:70|278:70|277:68|277:68|278:69|278:69|279:68|279:68|281:69|281:69|280:67|280:67|281:65|281:65|281:67|281:67|282:67|282:67|283:70|283:70|283:68|283:68|284:68|284:68|285:66|285:66|285:68|285:68|286:68|286:68|287:70|287:70|287:68|287:68|288:69|288:69|289:67|289:67|289:69|289:69|290:69|290:69|290:71|290:71|291:69|291:69|292:69|292:69|293:67|293:67|293:69|293:69|294:70|294:70|294:72|294:72|295:70|295:70|296:70|296:70|297:68|297:68|297:70|297:70|298:70|298:70|298:72|298:72|299:71|299:71|300:71|300:71|301:69|301:69|301:71|301:71|302:71|302:71|302:73|302:73|303:71|303:71|304:71|304:71|305:70|305:70|305:72|305:72|306:72|306:72|306:74|306:74|307:72|307:72|308:72|308:72|309:70|309:70|309:72|309:72|310:73|310:73|310:75|310:75|311:73|311:73|312:73|312:73|313:71|313:71|313:73|313:73|314:73|314:73|314:75|314:75|315:73|315:73|316:74|316:74|317:72|317:72|317:74|317:74|318:74|318:74|318:76|318:76|319:74|319:74|320:74|320:74|321:72|321:72|321:74|321:74|322:75|322:75|322:77|322:77|323:75|323:75|324:75|324:75|324:73|324:73|325:75|325:75|326:75|326:75|326:77|326:77|327:76|327:76|328:76|328:76|328:74|328:74|329:76|329:76|330:76|330:76|330:78|330:78|331:76|331:76|332:75|332:75|332:77|332:77|333:77|333:77|334:79|334:79|334:77|334:77|335:77|335:77|336:75|336:75|336:77|336:77|337:78|337:78|337:80|337:80|338:78|338:78|339:78|339:78|340:76|340:76|340:78|340:78|341:78|341:78|341:80|341:80|342:78|342:78|343:79|343:79|344:77|344:77|344:79|344:79|345:79|345:79|345:81|345:81|346:79|346:79|347:79|347:79|348:78|348:78|348:80|348:80|349:80|349:80|349:82|349:82|350:80|350:80|351:80|351:80|352:78|352:78|352:80|352:80|353:80|353:80|353:83|353:83|354:81|354:81|356:81|356:81|355:81|355:81|356:79|356:79|356:81|356:81|356:82|356:82|355:83|355:83|357:83|357:83|357:84|357:84|359:84|359:84|357:85|357:85|358:86|358:86|356:87|356:87|358:87|358:87|358:88|358:88|360:87|360:87|359:89|359:89|359:90|359:90|357:91|357:91|359:90|359:90|360:91|360:91|362:91|362:91|360:92|360:92|360:93|360:93|358:94|358:94|360:94|360:94|361:95|361:95|363:95|363:95|361:96|361:96|361:97|361:97|360:98|360:98|362:98|362:98|362:99|362:99|364:99|364:99|362:100|362:100|363:101|363:101|361:102|361:102|363:102|363:102|363:103|363:103|365:103|365:103|364:104|364:104|364:105|364:105|362:106|362:106|364:106|364:106|365:107|365:107|367:106|367:106|365:107|365:107|365:108|365:108|364:110|364:110|366:109|366:109|366:110|366:110|368:110|368:110|366:111|366:111|367:112|367:112|365:113|365:113|367:113|367:113|367:114|367:114|369:114|369:114|367:115|367:115|368:116|368:116|366:117|366:117|368:117|368:117|368:118|368:118|371:118|371:118|369:119|369:119|369:120|369:120|367:121|367:121|369:121|369:121|370:122|370:122|372:122|372:122|370:123|370:123|370:124|370:124|369:125|369:125|371:125|371:125|373:125|373:125|371:126|371:126|372:127|372:127|370:128|370:128|372:128|372:128|372:129|372:129|374:129|374:129|373:130|373:130|373:131|373:131|371:132|371:132|373:132|373:132|374:133|374:133|376:133|376:133|374:134|374:134|374:135|374:135|372:136|372:136|375:136|375:136|375:137|375:137|377:137|377:137|375:138|375:138|375:139|375:139|374:140|374:140|376:140|376:140|376:141|376:141|378:140|378:140|376:142|376:142|377:142|377:142|375:144|375:144|377:143|377:143|377:144|377:144|379:144|379:144|378:145|378:145|378:146|378:146|376:147|376:147|378:147|378:147|379:148|379:148|381:148|381:148|379:149|379:149|379:150|379:150|378:151|378:151|380:151|380:151|380:152|380:152|382:152|382:152|380:153|380:153|381:154|381:154|379:155|379:155|381:155|381:155|381:156|381:156|383:156|383:156|382:157|382:157|382:158|382:158|380:159|380:159|382:159|382:159|385:159|385:159|383:160|383:160|383:161|383:161|381:163|381:163|383:162|383:162|384:163|384:163|386:163|386:163|384:164|384:164|384:165|384:165|383:166|383:166|385:166|385:166|385:167|385:167|387:167|387:167|385:168|385:168|386:169|386:169|384:170|384:170|386:170|386:170|386:171|386:171|388:171|388:171|387:172|387:172|387:173|387:173|385:174|385:174|387:174|387:174|388:175|388:175|390:174|390:174|388:176|388:176|388:177|388:177|387:178|387:178|389:177|389:177|389:178|389:178|391:178|391:178|389:179|389:179|390:180|390:180|388:181|388:181|390:181|390:181|390:182|390:182|392:182|392:182|390:183|390:183|391:184|391:184|389:185|389:185|391:185|391:185|391:186|391:186|393:186|393:186|392:187|392:187|392:188|392:188|390:189|390:189|392:189|392:189|393:190|393:190|395:190|395:190|393:192|393:192|393:193|393:193|392:194|392:194|394:194|394:194|394:195|394:195|396:194|396:194|394:195|394:195|395:196|395:196|393:198|393:198|395:197|395:197|395:198|395:198|397:198|397:198|396:199|396:199|396:200|396:200|394:201|394:201|396:201|396:201|397:202|397:202|400:202|400:202|397:203|397:203|397:204|397:204|395:205|395:205|398:205|398:205|398:206|398:206|401:206|401:206|398:207|398:207|400:208|400:208|397:209|397:209|400:209|400:209|400:210|400:210|402:210|402:210|401:211|401:211|401:212|401:212|398:213|398:213|401:213|401:213|402:214|402:214|404:214|404:214|402:215|402:215|402:216|402:216|400:217|400:217|402:217|402:217|403:218|403:218|405:218|405:218|403:219|403:219|403:220|403:220|402:221|402:221|404:221|404:221|404:222|404:222|406:221|406:221|404:222|404:222|405:223|405:223|403:225|403:225|405:224|405:224|405:225|405:225|407:225|407:225|406:226|406:226|406:227|406:227|404:228|404:228|406:228|406:228|407:229|407:229|409:229|409:229|407:230|407:230|407:231|407:231|406:232|406:232|408:232|408:232|408:233|408:233|410:233|410:233|408:234|408:234|409:235|409:235|407:236|407:236|409:236|409:236|409:237|409:237|411:236|411:236|410:238|410:238|410:239|410:239|410:242|410:242|411:239|411:239|412:239|412:239|412:238|412:238|412:239|412:239|413:240|413:240|414:242|414:242|414:240|414:240|415:240|415:240|416:238|416:238|416:240|416:240|417:240|417:240|417:242|417:242|418:241|418:241|419:241|419:241|420:239|420:239|420:241|420:241|421:241|421:241|421:243|421:243|422:241|422:241|423:242|423:242|424:240|424:240|424:242|424:242|425:242|425:242|425:244|425:244|426:242|426:242|427:242|427:242|428:241|428:241|428:243|428:243|429:243|429:243|429:245|429:245|430:243|430:243|431:243|431:243|432:241|432:241|432:243|432:243|433:244|433:244|433:246|433:246|434:244|434:244|435:244|435:244|436:242|436:242|436:244|436:244|437:244|437:244|437:246|437:246|438:244|438:244|439:245|439:245|440:243|440:243|440:245|440:245|441:245|441:245|441:247|441:247|442:245|442:245|443:245|443:245|444:244|444:244|444:246|444:246|445:246|445:246|445:248|445:248|446:246|446:246|447:246|447:246|448:244|448:244|448:246|448:246|449:247|449:247|449:249|449:249|450:247|450:247|451:247|451:247|451:245|451:245|452:247|452:247|453:247|453:247|453:249|453:249|454:248|454:248|455:248|455:248|455:246|455:246|455:248|455:248|456:248|456:248|457:250|457:250|457:248|457:248|458:249|458:249|459:247|459:247|459:249|459:249|460:249|460:249|460:251|460:251|461:249|461:249|462:249|462:249|463:247|463:247|463:249|463:249|464:250|464:250|464:252|464:252|465:250|465:250|466:250|466:250|467:248|467:248|467:250|467:250|468:250|468:250|468:252|468:252|469:251|469:251|470:251|470:251|471:249|471:249|471:251|471:251|472:251|472:251|472:253|472:253|473:251|473:251|474:252|474:252|475:250|475:250|475:252|475:252|476:252|476:252|476:254|476:254|477:252|477:252|478:252|478:252|479:250|479:250|479:253|479:253|480:253|480:253|480:255|480:255|481:253|481:253|482:253|482:253|483:251|483:251|483:253|483:253|484:254|484:254|484:256|484:256|485:254|485:254|486:254|486:254|487:252|487:252|487:254|487:254|488:254|488:254|488:256|488:256|489:254|489:254|490:255|490:255|491:253|491:253|491:255|491:255|492:255|492:255|492:257|492:257|493:255|493:255|494:255|494:255|495:254|495:254|495:256|495:256|496:256|496:256|496:258|496:258|497:256|497:256|498:256|498:256|498:254|498:254|499:256|499:256|500:257|500:257|500:259|500:259|500:257|500:257|501:257|501:257|502:255|502:255|502:257|502:257|503:257|503:257|504:259|504:259|504:258|504:258|505:258|505:258|506:256|506:256|506:258|506:258|507:258|507:258|507:260|507:260|508:258|508:258|509:259|509:259|510:257|510:257|510:259|510:259|511:259|511:259|511:261|511:261|512:259|512:259|513:259|513:259|514:257|514:257|514:259|514:259|515:260|515:260|515:262|515:262|516:260|516:260|517:260|517:260|518:258|518:258|518:260|518:260|519:260|519:260|519:262|519:262|520:261|520:261|522:261|522:261|521:261|521:261|522:259|522:259|522:261|522:261|522:260|522:260|523:259|523:259|521:259|521:259|521:258|521:258|519:258|519:258|521:257|521:257|520:256|520:256|522:255|522:255|520:255|520:255|519:255|519:255|517:255|517:255|519:254|519:254|519:253|519:253|520:251|520:251|518:252|518:252|518:251|518:251|516:251|516:251|518:250|518:250|517:249|517:249|519:248|519:248|517:248|517:248|517:247|517:247|514:247|514:247|516:246|516:246|516:245|516:245|517:244|517:244|515:244|515:244|515:243|515:243|513:243|513:243|515:242|515:242|514:241|514:241|516:240|516:240|514:240|514:240|513:239|513:239|511:240|511:240|513:238|513:238|513:237|513:237|514:236|514:236|512:236|512:236|510:236|510:236|512:235|512:235|511:234|511:234|513:232|513:232|511:233|511:233|510:232|510:232|508:232|508:232|510:231|510:231|510:230|510:230|511:229|511:229|509:229|509:229|509:228|509:228|507:228|507:228|509:227|509:227|508:226|508:226|510:225|510:225|508:225|508:225|508:224|508:224|506:225|506:225|507:224|507:224|507:223|507:223|508:221|508:221|506:222|506:222|506:221|506:221|504:221|504:221|506:220|506:220|505:219|505:219|507:218|507:218|505:218|505:218|505:217|505:217|503:217|503:217|504:216|504:216|504:215|504:215|506:214|506:214|504:214|504:214|503:213|503:213|501:214|501:214|503:212|503:212|502:211|502:211|504:210|504:210|502:211|502:211|502:210|502:210|500:210|500:210|501:209|501:209|501:208|501:208|503:207|503:207|501:207|501:207|500:206|500:206|498:206|498:206|500:205|500:205|500:204|500:204|501:203|501:203|499:203|499:203|499:202|499:202|497:202|497:202|498:201|498:201|498:200|498:200|500:199|500:199|498:199|498:199|497:199|497:199|495:199|495:199|497:198|497:198|497:197|497:197|498:195|498:195|496:196|496:196|496:195|496:195|494:195|494:195|495:194|495:194|495:193|495:193|497:192|497:192|495:192|495:192|494:190|494:190|492:190|492:190|494:189|494:189|494:188|494:188|495:187|495:187|493:187|493:187|493:186|493:186|491:187|491:187|493:185|493:185|492:185|492:185|494:183|494:183|492:184|492:184|491:183|491:183|489:183|489:183|491:182|491:182|491:181|491:181|492:180|492:180|490:180|490:180|490:179|490:179|489:181|489:181|489:179|489:179|488:179|488:179|488:177|488:177|487:178|487:178|486:178|486:178|485:180|485:180|485:178|485:178|484:178|484:178|484:176|484:176|483:178|483:178|482:178|482:178|481:180|481:180|481:177|481:177|480:177|480:177|480:175|480:175|479:177|479:177|478:177|478:177|477:179|477:179|477:177|477:177|476:177|476:177|476:175|476:175|475:176|475:176|474:176|474:176|473:178|473:178|473:176|473:176|472:176|472:176|472:174|472:174|471:176|471:176|470:176|470:176|469:177|469:177|469:175|469:175|468:175|468:175|468:173|468:173|467:175|467:175|466:175|466:175|466:177|466:177|465:175|465:175|464:175|464:175|464:172|464:172|463:174|463:174|462:174|462:174|462:176|462:176|461:174|461:174|460:174|460:174|460:172|460:172|459:174|459:174|458:174|458:174|458:175|458:175|458:173|458:173|457:173|457:173|456:171|456:171|456:173|456:173|455:173|455:173|454:175|454:175|454:173|454:173|453:172|453:172|452:170|452:170|452:172|452:172|451:172|451:172|450:174|450:174|450:172|450:172|449:172|449:172|448:170|448:170|448:172|448:172|447:171|447:171|446:173|446:173|446:171|446:171|445:171|445:171|445:169|445:169|444:171|444:171|443:171|443:171|442:173|442:173|442:171|442:171|441:170|441:170|441:168|441:168|440:170|440:170|439:170|439:170|438:172|438:172|438:170|438:170|437:170|437:170|437:168|437:168|436:170|436:170|435:169|435:169|434:171|434:171|434:169|434:169|433:169|433:169|433:167|433:167|432:169|432:169|431:169|431:169|430:171|430:171|430:169|430:169|429:168|429:168|429:166|429:166|428:168|428:168|427:168|427:168|426:170|426:170|426:168|426:168|425:168|425:168|425:166|425:166|424:167|424:167|423:167|423:167|422:169|422:169|422:167|422:167|421:167|421:167|421:165|421:165|420:167|420:167|419:167|419:167|418:169|418:169|418:166|418:166|417:166|417:166|417:164|417:164|416:166|416:166|415:166|415:166|414:168|414:168|414:166|414:166|413:166|413:166|413:164|413:164|412:165|412:165|411:165|411:165|410:167|410:167|410:165|410:165|409:165|409:165|409:163|409:163|408:165|408:165|407:165|407:165|406:166|406:166|406:164|406:164|405:164|405:164|405:162|405:162|404:164|404:164|403:164|403:164|403:166|403:166|402:164|402:164|401:164|401:164|401:161|401:161|400:163|400:163|398:163|398:163|398:165|398:165|397:163|397:163|396:163|396:163|396:161|396:161|395:163|395:163|394:163|394:163|394:164|394:164|393:162|393:162|392:160|392:160|392:162|392:162|391:162|391:162|390:164|390:164|390:162|390:162|389:161|389:161|388:159|388:159|388:161|388:161|387:161|387:161|386:163|386:163|386:161|386:161|385:161|385:161|384:159|384:159|384:161|384:161|383:160|383:160|382:162|382:162|382:160|382:160|381:160|381:160|381:158|381:158|380:160|380:160|379:160|379:160|378:162|378:162|378:160|378:160|377:159|377:159|377:157|377:157|376:159|376:159|375:159|375:159|374:161|374:161|374:159|374:159|373:159|373:159|373:157|373:157|372:159|372:159|371:158|371:158|370:160|370:160|370:158|370:158|369:158|369:158|369:156|369:156|368:158|368:158|367:158|367:158|366:160|366:160|366:158|366:158|365:157|365:157|365:155|365:155|364:157|364:157|363:157|363:157|362:159|362:159|362:157|362:157|361:157|361:157|361:155|361:155|360:156|360:156|359:156|359:156|358:158|358:158|358:156|358:156|357:156|357:156|357:154|357:154|356:156|356:156|355:156|355:156|354:158|354:158|354:155|354:155|353:155|353:155|353:153|353:153|352:155|352:155|351:155|351:155|350:157|350:157|350:155|350:155|349:155|349:155|349:153|349:153|348:154|348:154|347:154|347:154|346:156|346:156|346:154|346:154|345:154|345:154|345:152|345:152|344:154|344:154|343:154|343:154|342:155|342:155|342:153|342:153|341:153|341:153|341:151|341:151|340:153|340:153|339:153|339:153|339:155|339:155|338:153|338:153|337:153|337:153|337:150|337:150|336:152|336:152|335:152|335:152|335:154|335:154|334:152|334:152|333:152|333:152|333:150|333:150|332:152|332:152|331:152|331:152|331:153|331:153|330:151|330:151|329:151|329:151|329:149|329:149|329:151|329:151|328:151|328:151|327:153|327:153|327:151|327:151|326:150|326:150|325:148|325:148|325:150|325:150|324:150|324:150|323:152|323:152|323:150|323:150|322:150|322:150|321:148|321:148|321:150|321:150|320:149|320:149|319:151|319:151|319:149|319:149|318:149|318:149|318:147|318:147|317:149|317:149|316:149|316:149|315:151|315:151|315:149|315:149|314:148|314:148|314:146|314:146|313:148|313:148|312:148|312:148|311:150|311:150|311:148|311:148|310:148|310:148|310:146|310:146|309:148|309:148|308:147|308:147|307:149|307:149|307:147|307:147|306:147|306:147|306:145|306:145|305:147|305:147|304:147|304:147|303:149|303:149|303:147|303:147|302:146|302:146|302:144|302:144|301:146|301:146|300:146|300:146|299:148|299:148|299:146|299:146|298:146|298:146|298:144|298:144|297:145|297:145|296:145|296:145|295:147|295:147|295:145|295:145|294:145|294:145|294:143|294:143|293:145|293:145|292:145|292:145|291:147|291:147|291:144|291:144|290:144|290:144|290:142|290:142|289:144|289:144|288:144|288:144|287:146|287:146|287:144|287:144|286:144|286:144|286:142|286:142|285:143|285:143|284:143|284:143|283:145|283:145|283:143|283:143|282:143|282:143|282:141|282:141|281:143|281:143|280:143|280:143|279:144|279:144|279:142|279:142|278:142|278:142|278:140|278:140|277:142|277:142|276:142|276:142|275:144|275:144|275:142|275:142|274:142|274:142|274:139|274:139|273:141|273:141|272:141|272:141|272:143|272:143|271:141|271:141|270:141|270:141|270:139|270:139|269:141|269:141|268:141|268:141|268:142|268:142|267:140|267:140|266:140|266:140|266:138|266:138|266:140|266:140|265:140|265:140|264:142|264:142|264:140|264:140|263:139|263:139|262:137|262:137|262:139|262:139|261:139|261:139|260:141|260:141|260:139|260:139|259:139|259:139|258:137|258:137|258:139|258:139|257:138|257:138|256:140|256:140|256:138|256:138|254:138|254:138|254:136|254:136|253:138|253:138|252:138|252:138|251:140|251:140|251:138|251:138|250:137|250:137|250:135|250:135|249:137|249:137|248:137|248:137|247:139|247:139|247:137|247:137|246:137|246:137|246:135|246:135|245:137|245:137|244:136|244:136|243:138|243:138|243:136|243:136|242:136|242:136|242:134|242:134|241:136|241:136|240:136|240:136|239:138|239:138|239:136|239:136|238:135|238:135|238:133|238:133|237:135|237:135|236:135|236:135|235:137|235:137|235:135|235:135|234:135|234:135|234:133|234:133|233:135|233:135|232:134|232:134|231:136|231:136|231:134|231:134|230:134|230:134|230:132|230:132|229:134|229:134|228:134|228:134|227:136|227:136|227:133|227:133|226:133|226:133|226:131|226:131|225:133|225:133|224:133|224:133|223:135|223:135|223:133|223:133|222:133|222:133|222:131|222:131|221:132|221:132|220:132|220:132|219:134|219:134|219:132|219:132|218:132|218:132|218:130|218:130|217:132|217:132|216:132|216:132|215:133|215:133|215:131|215:131|214:131|214:131|214:129|214:129|213:131|213:131|212:131|212:131|211:133|211:133|211:131|211:131|210:131|210:131|210:128|210:128|209:130|209:130|208:130|208:130|208:132|208:132|207:130|207:130|206:130|206:130|206:128|206:128|205:130|205:130|204:130|204:130|204:131|204:131|203:129|203:129|202:129|202:129|202:127|202:127|201:129|201:129|200:131|200:131|200:129|200:129|199:128|199:128|198:126|198:126|198:128|198:128|197:128|197:128|196:130|196:130|196:128|196:128|195:128|195:128|194:126|194:126|194:128|194:128|193:127|193:127|192:129|192:129|192:127|192:127|191:127|191:127|191:125|191:125|190:127|190:127|189:127|189:127|188:129|188:129|188:127|188:127|187:126|187:126|187:124|187:124|186:126|186:126|185:126|185:126|184:128|184:128|184:126|184:126|183:126|183:126|183:124|183:124|182:126|182:126|180:125|180:125|179:127|179:127|179:125|179:125|178:125|178:125|178:123|178:123|177:125|177:125|176:125|176:125|176:127|176:127|175:124|175:124|174:124|174:124|174:122|174:122|173:124|173:124|172:124|172:124|172:126|172:126|171:124|171:124|170:124|170:124|170:122|170:122|169:123|169:123|168:125|168:125|168:123|168:123|167:123|167:123|166:121|166:121|166:123|166:123|165:123|165:123|164:124|164:124|164:122|164:122|163:122|163:122|162:120|162:120|162:122|162:122|161:122|161:122|160:124|160:124|160:122|160:122|159:122|159:122|159:119|159:119|158:121|158:121|157:121|157:121|156:123|156:123|156:121|156:121|155:121|155:121|155:119|155:119|154:121|154:121|153:121|153:121|152:122|152:122|152:120|152:120|151:120|151:120|151:118|151:118|150:120|150:120|149:120|149:120|148:122|148:122|148:120|148:120|147:119|147:119|147:117|147:117|146:119|146:119|145:119|145:119|144:121|144:121|144:119|144:119|143:119|143:119|143:117|143:117|142:119|142:119|141:118|141:118|140:120|140:120|140:118|140:118|139:118|139:118|139:116|139:116|138:118|138:118|137:118|137:118|136:120|136:120|136:118|136:118|135:117|135:117|135:115|135:115|134:117|134:117|133:117|133:117|132:119|132:119|132:117|132:117|131:117|131:117|131:115|131:115|130:117|130:117|129:116|129:116|128:118|128:118|128:116|128:116|127:116|127:116|127:114|127:114|126:116|126:116|125:116|125:116|124:118|124:118|124:116|124:116|123:115|123:115|123:113|123:113|122:115|122:115|121:115|121:115|120:117|120:117|120:115|120:115|119:115|119:115|119:113|119:113|118:114|118:114|117:114|117:114|116:116|116:116|116:114|116:114|115:114|115:114|115:112|115:112|114:114|114:114|113:114|113:114|113:116|113:116|111:113|111:113|110:113|110:113|110:111|110:111|109:113|109:113|108:113|108:113|108:115|108:115|107:113|107:113|106:113|106:113|106:111|106:111|105:112|105:112|104:112|104:112|104:114|104:114|104:112|104:112|103:112|103:112|102:110|102:110|102:112|102:112|101:112|101:112|100:113|100:113|100:111|100:111|99:111|99:111|98:109|98:109|98:111|98:111|97:111|97:111|96:113|96:113|96:111|96:111|95:111|95:111|94:108|94:108|94:110|94:110|93:110|93:110|92:112|92:112|92:110|92:110|91:110|91:110|91:108|91:108|90:110|90:110|89:110|89:110|88:111|88:111|88:109|88:109|87:109|87:109|87:107|87:107|86:109|86:109|85:109|85:109|84:111|84:111|84:109|84:109|83:108|83:108|83:106|83:106|82:108|82:108|81:108|81:108|80:110|80:110|80:108|80:108|79:108|79:108|79:106|79:106|78:108|78:108|77:107|77:107|76:109|76:109|76:107|76:107|75:107|75:107|75:105|75:105|74:107|74:107|73:107|73:107|72:109|72:109|72:107|72:107|71:106|71:106|71:104|71:104|70:106|70:106|69:106|69:106|68:108|68:108|68:106|68:106|67:106|67:106|67:104|67:104|66:106|66:106|65:105|65:105|64:107|64:107|64:105|64:105|63:105|63:105|63:103|63:103|62:105|62:105|61:105|61:105|60:107|60:107|60:105|60:105|59:104|59:104|59:102|59:102|58:104|58:104|57:104|57:104|56:106|56:106|56:104|56:104|55:104|55:104|55:102|55:102|54:103|54:103|53:103|53:103|52:105|52:105|52:103|52:103|51:103|51:103|51:101|51:101|50:103|50:103|49:103|49:103|49:105|49:105|48:102|48:102|47:102|47:102|47:100|47:100|46:102|46:102|45:102|45:102|45:104|45:104|44:102|44:102|43:102|43:102|43:100|43:100|42:101|42:101|41:101|41:101|41:103|41:103|40:101|40:101|39:103|39:103|41:102|41:102|41:103|41:103|43:102|43:102|42:104|42:104|42:105|42:105|41:106|41:106|43:106|43:106|44:106|44:106|45:106|45:106|44:107|44:107|45:108|45:108|43:110|43:110|45:109|45:109|46:110|46:110|48:109|48:109|46:111|46:111|47:111|47:111|45:113|45:113|47:112|47:112|48:113|48:113|50:112|50:112|48:114|48:114|49:115|49:115|48:116|48:116|49:116|49:116|50:116|50:116|52:116|52:116|51:117|51:117|51:118|51:118|50:120|50:120|52:119|52:119|52:120|52:120|54:119|54:119|53:121|53:121|53:122|53:122|52:123|52:123|54:122|54:122|54:123|54:123|56:123|56:123|55:124|55:124|55:125|55:125|54:126|54:126|56:126|56:126|57:127|57:127|58:126|58:126|57:127|57:127|58:128|58:128|56:130|56:130|58:129|58:129|59:130|59:130|61:129|61:129|59:131|59:131|60:132|60:132|58:133|58:133|60:132|60:132|61:133|61:133|63:133|63:133|61:134|61:134|62:135|62:135|61:136|61:136|62:136|62:136|63:137|63:137|65:136|65:136|64:137|64:137|64:138|64:138|63:140|63:140|65:139|65:139|65:140|65:140|67:139|67:139|66:141|66:141|66:142|66:142|65:143|65:143|67:142|67:142|67:143|67:143|69:143|69:143|68:144|68:144|68:145|68:145|67:146|67:146|69:146|69:146|70:147|70:147|71:146|71:146|70:147|70:147|71:148|71:148|69:150|69:150|71:149|71:149|72:150|72:150|74:149|74:149|72:151|72:151|73:152|73:152|71:153|71:153|73:153|73:153|74:153|74:153|76:153|76:153|74:154|74:154|75:155|75:155|74:157|74:157|75:156|75:156|76:157|76:157|78:156|78:156|77:158|77:158|76:160|76:160|78:159|78:159|78:160|78:160|80:159|80:159|79:161|79:161|79:162|79:162|78:163|78:163|80:163|80:163|82:163|82:163|81:164|81:164|81:165|81:165|80:167|80:167|82:166|82:166|83:167|83:167|84:166|84:166|83:168|83:168|84:168|84:168|82:170|82:170|84:169|84:169|85:170|85:170|87:169|87:169|85:171|85:171|86:172|86:172|84:173|84:173|86:173|86:173|87:173|87:173|89:173|89:173|87:174|87:174|88:175|88:175|87:177|87:177|88:176|88:176|89:177|89:177|91:176|91:176|90:178|90:178|89:180|89:180|91:179|91:179|91:180|91:180|93:179|93:179|92:181|92:181|92:182|92:182|91:183|91:183|93:183|93:183|95:183|95:183|94:184|94:184|95:186|95:186|94:185|94:185|93:187|93:187|95:186|95:186|96:186|96:186|97:184|97:184|97:186|97:186|98:187|98:187|98:189|98:189|99:187|99:187|100:187|100:187|101:185|101:185|101:187|101:187|102:187|102:187|102:189|102:189|103:187|103:187|104:188|104:188|105:186|105:186|105:188|105:188|106:188|106:188|106:190|106:190|107:188|107:188|108:188|108:188|109:186|109:186|109:188|109:188|110:189|110:189|110:192|110:192|111:189|111:189|113:189|113:189|114:187|114:187|114:189|114:189|115:189|115:189|115:192|115:192|116:189|116:189|117:190|117:190|118:188|118:188|118:190|118:190|119:190|119:190|119:193|119:193|120:190|120:190|121:190|121:190|121:188|121:188|122:190|122:190|123:192|123:192|123:194|123:194|124:192|124:192|125:192|125:192|125:189|125:189|126:192|126:192|127:192|127:192|127:194|127:194|127:192|127:192|128:193|128:193|129:190|129:190|129:193|129:193|130:193|130:193|131:195|131:195|131:193|131:193|132:193|132:193|133:190|133:190|133:194|133:194|134:194|134:194|135:196|135:196|135:194|135:194|136:194|136:194|137:192|137:192|137:194|137:194|138:194|138:194|138:196|138:196|139:195|139:195|140:195|140:195|141:193|141:193|141:195|141:195|142:195|142:195|142:197|142:197|143:195|143:195|144:195|144:195|145:194|145:194|145:196|145:196|146:196|146:196|146:198|146:198|147:196|147:196|148:196|148:196|149:194|149:194|149:196|149:196|150:196|150:196|150:199|150:199|151:197|151:197|153:197|152:197|152:197|153:195|153:195|153:197,1,2913.7498602897,6|0,1:0|0:0,0:0:0:0:
341,289,72660,6,0,B|284:291|270:365|270:365|284:291|231:269,1,224.999994039536,10|0,0:2|0:0,0:0:0:0:
484,208,73110,6,0,B|412:222|412:222|411:226|411:226|179:270|179:270|176:266|176:266|12:298,1,472.499991989136,2|0,1:0|0:0,0:0:0:0:
0,368,73410,1,4,0:3:0:0:
124,62,73560,6,0,L|137:138,6,56.2499985098839,2|0|0|0|0|0|0,1:0|0:0|0:0|0:0|0:0|0:0|0:0,0:0:0:0:
49,103,73860,5,10,0:2:0:0:
251,358,74010,6,0,B|219:391|176:373|144:350|139:291|181:248|234:264|235:269|234:274|288:292|330:250|324:196|303:166|253:144|218:180,1,405.000004720688,2|0,0:0|0:0,0:0:0:0:
212,177,74310,2,0,P|246:158|273:163,1,67.5000007867814,4|0,0:3|0:0,0:0:0:0:
508,154,74460,6,0,B|515:147|515:147|468:104|480:-1|480:-1|455:102|397:126|397:126|400:138,1,337.499991059303,2|0,1:0|0:0,0:0:0:0:
493,234,74760,2,0,B|497:246|497:246|437:269|413:372|413:372|426:267|379:225|379:225|386:216,1,337.499991059303,2|0,0:1|0:0,0:0:0:0:
195,373,75060,6,0,L|165:236,1,135.000001573563,10|0,0:2|0:0,0:0:0:0:
87,231,75285,2,0,L|101:301,1,67.5000007867814
16,293,75435,5,2,0:0:0:0:
24,291,75510,2,0,B|78:280|78:280|88:283|88:283|105:275|105:275|155:266|155:266|160:218|160:218|159:213|159:213|165:151|165:151|222:140|222:140|238:129|238:129|247:134|247:134|319:121,1,405.000004720688,2|0,1:1|0:0,0:0:0:0:
311,0,75810,6,0,L|301:52,1,44.9999988079071
385,216,75960,6,0,B|415:182|415:182|394:139,1,89.9999976158143,2|0,1:2|0:0,0:0:0:0:
466,108,76110,2,0,B|451:65|451:65|403:61,1,89.9999976158143,2|0,0:2|0:0,0:0:0:0:
175,0,76260,6,0,B|145:34|145:34|166:77,1,89.9999976158143,10|0,0:2|0:0,0:0:0:0:
94,108,76410,2,0,B|108:150|108:150|156:154,1,89.9999976158143,2|0,0:2|0:0,0:0:0:0:
312,122,76560,6,0,B|308:126|308:126|304:123|304:123|300:128|300:128|296:124|296:124|292:129|292:129|288:126|288:126|285:130|285:130|280:127|280:127|277:132|277:132|272:128|272:128|269:133|269:133|264:130|264:130|261:134|261:134|256:131|256:131|253:136|253:136|248:133|248:133|245:137|245:137|241:134|241:134|237:139|237:139|233:135|233:135|229:140|229:140|225:137|225:137|222:141,1,101.250001180172,2|0,0:2|0:0,0:0:0:0:
158,67,76860,6,0,B|140:35|87:18|87:18|422:127,1,438.750000929833,2|0,1:0|0:0,0:0:0:0:
385,216,77160,6,0,B|186:256|186:256|190:299|152:314,1,269.999992847443,2|0,0:1|0:0,0:0:0:0:
286,379,77460,6,0,P|330:346|312:295,1,101.250001180172,10|0,0:2|0:0,0:0:0:0:
109,233,77610,2,0,P|115:287|168:297,1,101.250001180172,2|0,0:2|0:0,0:0:0:0:
323,152,77760,2,0,P|272:130|237:171,1,101.250001180172,2|0,0:2|0:0,0:0:0:0:
450,243,77910,6,0,L|372:225,1,67.5000007867814,2|0,1:3|0:0,0:0:0:0:
166,147,78060,2,0,L|244:165,1,67.5000007867814,2|0,0:3|0:0,0:0:0:0:
455,117,78210,2,0,L|377:99,1,67.5000007867814,2|0,0:3|0:0,0:0:0:0:
291,29,78360,5,2,1:3:0:0:
322,305,78510,1,2,0:3:0:0:
84,35,78660,6,0,P|160:50|158:141,1,179.999995231629,10|0,0:2|0:0,0:0:0:0:
54,187,78885,6,0,P|6:177|7:120,1,112.499997019768,2|0,0:3|0:0,0:0:0:0:
84,117,79110,5,6,0:3:0:0:
176,374,79260,6,0,B|509:265|509:265|457:283|447:322,1,438.750000929833,2|0,1:0|0:0,0:0:0:0:
251,281,79560,6,0,L|514:374,1,269.999992847443,2|0,0:1|0:0,0:0:0:0:
447,322,79860,6,0,P|484:269|457:230,1,101.250001180172,10|0,0:2|0:0,0:0:0:0:
257,147,80010,2,0,P|284:205|331:201,1,101.250001180172,2|0,0:2|0:0,0:0:0:0:
504,70,80160,2,0,P|439:64|419:107,1,101.250001180172,2|0,0:2|0:0,0:0:0:0:
360,358,80310,6,0,L|344:282,1,67.5000007867814,2|0,1:3|0:0,0:0:0:0:
156,215,80460,2,0,L|172:291,1,67.5000007867814,2|0,0:3|0:0,0:0:0:0:
75,372,80610,2,0,L|59:296,1,67.5000007867814,2|0,0:3|0:0,0:0:0:0:
1,233,80760,5,2,1:3:0:0:
265,301,80910,1,2,0:3:0:0:
157,21,81060,6,0,B|144:79|37:101|37:101|145:87|176:134,1,303.750003540516,10|0,0:2|0:0,0:0:0:0:
357,116,81360,2,0,B|369:57|476:35|476:35|368:49|337:2,1,303.750003540516,2|0,0:3|0:0,0:0:0:0:
267,114,81660,6,0,B|267:116|267:116|269:117|269:117|265:117|265:117|267:117|267:117|266:120|266:120|268:121|268:121|264:120|264:120|266:121|266:121|266:123|266:123|268:124|268:124|264:124|264:124|266:124|266:124|266:127|266:127|268:128|268:128|264:127|264:127|266:128|266:128|266:130|266:130|268:131|268:131|264:131|264:131|266:131|266:131|265:134|265:134|267:135|267:135|263:134|263:134|265:135|265:135|265:137|265:137|267:138|267:138|263:138|263:138|265:138|265:138|265:141|265:141|267:142|267:142|263:141|263:141|265:142|265:142|264:144|264:144|266:145|266:145|262:145|262:145|264:145|264:145|264:148|264:148|266:149|266:149|262:148|262:148|264:149|264:149|264:151|264:151|266:152|266:152|262:152|262:152|264:152|264:152|264:155|264:155|265:156|265:156|261:155|261:155|263:156|263:156|263:158|263:158|265:159|265:159|261:159|261:159|263:159|263:159|263:162|263:162|265:162|265:162|261:162|261:162|263:163|263:163|263:165|263:165|265:166|265:166|261:166|261:166|263:166|263:166|262:169|262:169|264:169|264:169|260:169|260:169|262:170|262:170|262:172|262:172|264:173|264:173|260:173|260:173|262:173|262:173|262:176|262:176|264:176|264:176|260:176|260:176|262:177|262:177|261:179|261:179|263:180|263:180|259:180|259:180|261:180|261:180|261:183|261:183|263:183|263:183|259:183|259:183|261:184|261:184|261:186|261:186|263:187|263:187|259:187|259:187|261:187|261:187|261:190|261:190|262:190|262:190|258:190|258:190|260:191|260:191|260:193|260:193|262:194|262:194|258:194|258:194|260:194|260:194|260:197|260:197|262:197|262:197|258:197|258:197|260:198|260:198|260:200|260:200|262:201|262:201|258:201|258:201|260:201|260:201|259:204|259:204|261:204|261:204|257:204|257:204|259:205|259:205|259:207|259:207|261:208|261:208|257:207|257:207|259:208|259:208|259:211|259:211|261:211|261:211|257:211|257:211|259:212|259:212|258:214|258:214|260:215|260:215|256:214|256:214|258:215|258:215|258:218|258:218|260:218|260:218|256:218|256:218|258:219|258:219|258:221|258:221|260:222|260:222|256:221|256:221|258:222|258:222|258:225|258:225|259:225|259:225|256:225|256:225|257:226|257:226|257:228|257:228|259:229|259:229|255:228|255:228|257:229|257:229|257:232|257:232|259:232|259:232|255:232|255:232|257:233|257:233|257:235|257:235|259:236|259:236|255:235|255:235|257:236|257:236|256:239|256:239|258:239|258:239|254:239|254:239|256:240|256:240|256:242|256:242|258:243|258:243|254:242|254:242|256:243|256:243|256:246|256:246|258:246|258:246|254:246|254:246|256:247|256:247|255:249|255:249|257:250|257:250|253:249|253:249|255:250|255:250|255:252|255:252|257:253|257:253|253:253|253:253|255:253|255:253|255:256|255:256|257:257|257:257|253:256|253:256|255:257|255:257|255:259|255:259|257:260|257:260|253:260|253:260|254:260|254:260|254:263|254:263|256:264|256:264|252:263|252:263|254:264|254:264|254:266|254:266|256:267|256:267|252:267|252:267|254:267|254:267|254:270|254:270|256:271|256:271|252:270|252:270|254:271|254:271|253:273|253:273|255:274|255:274|251:274|251:274|253:274|253:274|253:277|253:277|255:278|255:278|251:277|251:277|253:278|253:278|253:280|253:280|255:281|255:281|251:281|251:281|253:281|253:281|252:284|252:284|254:285|254:285|250:284|250:284|252:285|252:285|252:287|252:287|254:288|254:288|250:288|250:288|252:288|252:288|252:291|252:291|254:292|254:292|250:291|250:291|252:292|252:292|252:294|252:294|254:295|254:295|250:295|250:295|251:295|251:295|251:298|251:298|253:298|253:298|249:298|249:298|251:299|251:299|251:301|251:301|253:302|253:302|249:302|249:302|251:302|251:302|251:305|251:305|253:305|253:305|249:305|249:305|251:306|251:306|250:308|250:308|252:309|252:309|248:309|248:309|250:309|250:309|250:312|250:312|252:312|252:312|248:312|248:312|250:313|250:313|250:315|250:315|252:316|252:316|248:316|248:316|250:316|250:316|249:319|249:319|251:319|251:319|247:319|247:319|249:320|249:320|249:322|249:322|251:323|251:323|247:323|247:323|249:323|249:323|249:326|249:326|251:326|251:326|247:326|247:326|249:327|249:327|249:329|249:329|251:330|251:330|247:330|247:330|249:330|249:330|248:333|248:333|250:333|250:333|246:333|246:333|248:334|248:334|248:336|248:336|250:337|250:337|246:337|246:337|248:337|248:337|248:340|248:340|250:340|250:340|246:340|246:340|248:341|248:341|247:343|247:343|249:344|249:344|245:343|245:343|247:344|247:344|247:347|247:347|249:347|249:347|245:347|245:347|247:348|247:348|247:350|247:350|249:351|249:351|245:350|245:350|247:351|247:351|247:354|247:354|248:354|248:354|244:354|244:354|246:355|246:355|246:357|246:357|248:358|248:358|244:357|244:357|246:358|246:358|246:361|246:361|248:361|248:361|244:361|244:361|246:362|246:362|246:364|246:364|248:365|248:365|244:364|244:364|246:365|246:365|245:368|245:368|247:368|247:368|243:368|243:368|245:369|245:369|245:371|245:371|247:372|247:372|243:371|243:371|245:372|245:372|245:375|245:375|247:375|247:375|243:375|243:375|245:376|245:376|244:378|244:378|246:379|246:379|242:378|242:378|244:379|244:379|244:382|244:382|246:382|246:382|242:382|242:382|244:383|244:383|242:382|242:382|241:383|241:383|243:380|243:380|242:381|242:381|240:380|240:380|238:381|238:381|241:378|241:378|239:379|239:379|237:377|237:377|235:379|235:379|238:376|238:376|236:377|236:377|234:375|234:375|233:377|233:377|235:373|235:373|233:375|233:375|231:373|231:373|230:374|230:374|232:371|232:371|231:372|231:372|229:371|229:371|227:372|227:372|230:369|230:369|228:370|228:370|226:369|226:369|224:370|224:370|227:367|227:367|225:368|225:368|223:367|223:367|222:368|222:368|224:365|224:365|222:366|222:366|220:364|220:364|219:366|219:366|221:363|221:363|220:364|220:364|218:362|218:362|216:364|216:364|219:360|219:360|217:362|217:362|215:360|215:360|213:361|213:361|216:358|216:358|214:359|214:359|212:358|212:358|211:359|211:359|213:356|213:356|211:357|211:357|209:356|209:356|208:357|208:357|210:354|210:354|209:355|209:355|207:354|207:354|205:355|205:355|208:352|208:352|206:353|206:353|204:351|204:351|202:353|202:353|205:350|205:350|203:351|203:351|201:349|201:349|200:351|200:351|202:347|202:347|200:349|200:349|198:347|198:347|197:348|197:348|199:345|199:345|198:346|198:346|196:345|196:345|194:346|194:346|197:343|197:343|195:344|195:344|193:343|193:343|191:344|191:344|194:341|194:341|192:342|192:342|190:341|190:341|189:342|189:342|191:339|191:339|189:340|189:340|188:338|188:338|186:340|186:340|188:337|188:337|187:338|187:338|185:336|185:336|183:338|183:338|186:334|186:334|184:336|184:336|182:334|182:334|180:335|180:335|183:332|183:332|181:333|181:333|179:332|179:332|178:333|178:333|180:330|180:330|178:331|178:331|177:330|177:330|175:331|175:331|177:328|177:328|176:329|176:329|173:327|173:327|171:326|171:326|175:327|175:327|173:326|173:326|173:324|173:324|171:323|171:323|175:323|175:323|174:323|174:323|174:320|174:320|172:319|172:319|176:320|176:320|174:319|174:319|174:317|174:317|172:316|172:316|176:316|176:316|174:316|174:316|175:313|175:313|173:312|173:312|177:313|177:313|175:312|175:312|175:310|175:310|173:309|173:309|177:309|177:309|175:309|175:309|175:306|175:306|173:305|173:305|177:306|177:306|175:305|175:305|176:303|176:303|174:302|174:302|178:302|178:302|176:302|176:302|176:299|176:299|174:298|174:298|178:299|178:299|176:298|176:298|177:296|177:296|175:295|175:295|179:295|179:295|177:295|177:295|177:292|177:292|175:292|175:292|179:292|179:292|177:291|177:291|177:289|177:289|175:288|175:288|179:288|179:288|177:288|177:288|178:285|178:285|176:285|176:285|180:285|180:285|178:284|178:284|178:282|178:282|176:281|176:281|180:282|180:282|178:281|178:281|178:278|178:278|177:278|177:278|181:278|181:278|179:277|179:277|179:275|179:275|177:274|177:274|181:275|181:275|179:274|179:274|179:271|179:271|177:271|177:271|181:271|181:271|179:270|179:270|180:268|180:268|178:267|178:267|182:268|182:268|180:267|180:267|180:264|180:264|178:264|178:264|182:264|182:264|180:263|180:263|180:261|180:261|179:260|179:260|182:261|182:261|181:260|181:260|181:257|181:257|179:257|179:257|183:257|183:257|181:256|181:256|183:256|183:256|183:254|183:254|184:258|184:258|184:255|184:255|186:255|186:255|187:253|187:253|187:257|187:257|187:255|187:255|190:254|190:254|190:252|190:252|191:256|191:256|191:254|191:254|193:254|193:254|193:252|193:252|194:256|194:256|194:254|194:254|197:253|197:253|197:251|197:251|198:255|198:255|198:253|198:253|200:253|200:253|200:251|200:251|201:255|201:255|201:252|201:252|204:252|204:252|204:250|204:250|204:254|204:254|205:252|205:252|207:251|207:251|207:249|207:249|208:253|208:253|208:251|208:251|210:251|210:251|211:249|211:249|211:253|211:253|211:251|211:251|214:250|214:250|214:248|214:248|215:252|215:252|215:250|215:250|217:250|217:250|218:248|218:248|218:251|218:251|218:249|218:249|221:249|221:249|221:247|221:247|222:251|222:251|222:249|222:249|224:248|224:248|224:246|224:246|225:250|225:250|225:248|225:248|228:248|228:248|228:246|228:246|229:250|229:250|229:248|229:248|231:247|231:247|231:245|231:245|232:249|232:249|232:247|232:247|235:247|235:247|235:245|235:245|235:248|235:248|236:246|236:246|238:246|238:246|238:244|238:244|239:248|239:248|239:246|239:246|241:245|241:245|242:243|242:243|242:247|242:247|242:245|242:245|245:245|245:245|245:243|245:243|246:247|246:247|246:245|246:245|248:244|248:244|248:242|248:242|249:246|249:246|249:244|249:244|252:244|252:244|252:241|252:241|253:245|253:245|253:243|253:243|255:243|255:243|255:241|255:241|256:245|256:245|256:243|256:243|259:242|259:242|259:240|259:240|259:244|259:244|260:242|260:242|262:242|262:242|262:240|262:240|263:244|263:244|263:242|263:242|266:241|266:241|266:239|266:239|266:243|266:243|266:241|266:241|269:241|269:241|269:238|269:238|270:242|270:242|270:240|270:240|272:240|272:240|273:238|273:238|273:242|273:242|273:240|273:240|276:239|276:239|276:237|276:237|277:241|277:241|277:239|277:239|279:239|279:239|279:237|279:237|280:241|280:241|280:239|280:239|283:238|283:238|283:236|283:236|284:240|284:240|284:238|284:238|286:237|286:237|286:235|286:235|287:239|287:239|287:237|287:237|290:237|290:237|290:235|290:235|290:239|290:239|291:237|291:237|293:236|293:236|293:234|293:234|294:238|294:238|294:236|294:236|296:236|296:236|297:234|297:234|297:238|297:238|297:235|297:235|300:235|300:235|300:233|300:233|301:237|301:237|301:235|301:235|303:234|303:234|303:232|303:232|304:236|304:236|304:234|304:234|307:234|307:234|307:232|307:232|308:236|308:236|308:234|308:234|310:233|310:233|310:231|310:231|311:235|311:235|311:233|311:233|314:233|314:233|314:231|314:231|315:235|315:235|315:232|315:232|317:232|317:232|317:230|317:230|318:234|318:234|318:232|318:232|321:231|321:231|321:229|321:229|321:233|321:233|322:231|322:231|323:231|323:231|324:231|324:231|325:230|325:230|324:233|324:233|325:232|325:232|327:232|327:232|328:231|328:231|327:235|327:235|328:233|328:233|331:234|331:234|332:232|332:232|330:236|330:236|331:234|331:234|334:235|334:235|335:233|335:233|334:237|334:237|335:235|335:235|337:236|337:236|338:234|338:234|337:238|337:238|338:236|338:236|340:237|340:237|342:235|342:235|340:239|340:239|341:237|341:237|344:238|344:238|345:237|345:237|343:240|343:240|345:239|345:239|347:239|347:239|348:238|348:238|347:241|347:241|348:240|348:240|350:241|350:241|351:239|351:239|350:243|350:243|351:241|351:241|354:242|354:242|355:240|355:240|353:244|353:244|354:242|354:242|357:243|357:243|358:241|358:241|357:245|357:245|358:243|358:243|360:244|360:244|361:242|361:242|360:246|360:246|361:244|361:244|363:245|363:245|365:243|365:243|363:247|363:247|364:246|364:246|367:246|367:246|368:245|368:245|366:248|366:248|368:247|368:247|370:248|370:248|371:246|371:246|370:250|370:250|371:248|371:248|373:249|373:249|374:247|374:247|373:251|373:251|374:249|374:249|377:250|377:250|377:248|377:248|378:252|378:252|378:250|378:250|380:249|380:249|381:247|381:247|381:251|381:251|381:249|381:249|384:249|384:249|384:247|384:247|385:251|385:251|385:249|385:249|387:248|387:248|388:246|388:246|388:250|388:250|388:248|388:248|391:248|391:248|391:246|391:246|392:250|392:250|392:248|392:248|394:247|394:247|395:245|395:245|395:249|395:249|395:247|395:247|398:247|398:247|398:245|398:245|399:249|399:249|399:247|399:247|401:246|401:246|401:244|401:244|402:248|402:248|402:246|402:246|405:246|405:246|405:244|405:244|405:248|405:248|406:246|406:246|408:245|408:245|408:243|408:243|409:247|409:247|409:245|409:245|412:245|412:245|412:243|412:243|412:247|412:247|413:245|413:245|415:244|415:244|415:242|415:242|416:246|416:246|416:244|416:244|419:244|419:244|419:242|419:242|419:246|419:246|420:244|420:244|422:243|422:243|422:241|422:241|423:245|423:245|423:243|423:243|425:243|425:243|426:241|426:241|426:245|426:245|426:243|426:243|429:242|429:242|429:240|429:240|430:244|430:244|430:242|430:242|432:242|432:242|433:240|433:240|433:244|433:244|433:242|433:242|436:241|436:241|436:239|436:239|437:243|437:243|437:241|437:241|439:241|439:241|440:239|440:239|440:243|440:243|440:241|440:241|443:240|443:240|443:238|443:238|444:242|444:242|444:240|444:240|446:240|446:240|446:238|446:238|447:242|447:242|447:240|447:240|450:239|450:239|450:237|450:237|450:241|450:241|451:239|451:239|453:239|453:239|453:237|453:237|454:241|454:241|454:239|454:239|457:238|457:238|457:236|457:236|457:240|457:240|458:238|458:238|460:238|460:238|460:236|460:236|461:240|461:240|461:238|461:238|464:237|464:237|464:235|464:235|464:239|464:239|465:237|465:237|467:237|467:237|467:235|467:235|468:239|468:239|468:237|468:237|470:236|470:236|471:234|471:234|471:238|471:238|471:236|471:236|474:236|474:236|474:234|474:234|475:238|475:238|475:235|475:235|477:235|477:235|478:233|478:233|478:237|478:237|478:235|478:235|481:235|481:235|481:233|481:233|482:237|482:237|482:234|482:234|484:234|484:234|485:232|485:232|485:236|485:236|485:234|485:234|488:234|488:234|488:232|488:232|489:235|489:235|489:233|489:233|491:233|491:233|491:231|491:231|492:235|492:235|492:233|492:233|495:233|495:233|495:231|495:231|495:234|495:234|496:232|496:232|498:232|498:232|498:230|498:230|499:234|499:234|499:232|499:232|502:232|502:232|502:229|502:229|502:233|502:233|503:231|503:231|505:231|505:231|505:229|505:229|506:233|506:233|506:231|506:231|509:231|509:231|509:228|509:228|509:232|509:232|510:230|510:230|512:230|512:230|510:231|510:231|513:228|513:228|511:229|511:229|510:227|510:227|508:228|508:228|511:226|511:226|509:226|509:226|508:225|508:225|506:225|506:225|509:223|509:223|507:224|507:224|505:222|505:222|504:223|504:223|507:220|507:220|505:221|505:221|503:219|503:219|501:220|501:220|505:217|505:217|503:218|503:218|501:216|501:216|499:217|499:217|502:215|502:215|501:216|501:216|499:214|499:214|497:214|497:214|500:212|500:212|498:213|498:213|497:211|497:211|495:212|495:212|498:209|498:209|496:210|496:210|495:208|495:208|493:209|493:209|496:207|496:207|494:207|494:207|492:205|492:205|491:206|491:206|494:204|494:204|492:205|492:205|490:203|490:203|488:204|488:204|491:201|491:201|490:202|490:202|488:200|488:200|486:201|486:201|489:198|489:198|487:199|487:199|486:197|486:197|484:198|484:198|487:196|487:196|485:196|485:196|484:195|484:195|482:195|482:195|485:193|485:193|483:194|483:194|482:192|482:192|480:193|480:193|483:190|483:190|481:191|481:191|479:189|479:189|478:190|478:190|481:187|481:187|479:188|479:188|477:186|477:186|475:187|475:187|478:185|478:185|477:186|477:186|475:184|475:184|473:184|473:184|476:182|476:182|474:183|474:183|473:181|473:181|471:182|471:182|474:179|474:179|472:180|472:180|471:178|471:178|469:179|469:179|472:177|472:177|470:177|470:177|468:175|468:175|467:176|467:176|470:174|470:174|468:175|468:175|466:173|466:173|464:174|464:174|468:171|468:171|466:172|466:172|464:170|464:170|462:171|462:171|465:168|465:168|464:169|464:169|462:167|462:167|460:168|460:168|463:166|463:166|461:166|461:166|460:165|460:165|458:165|458:165|461:163|461:163|459:164|459:164|457:161|457:161|457:163|457:163|456:159|456:159|456:161|456:161|454:161|454:161|453:164|453:164|453:160|453:160|453:162|453:162|450:162|450:162|450:164|450:164|449:160|449:160|449:162|449:162|447:162|447:162|446:165|446:165|446:161|446:161|446:163|446:163|443:163|443:163|443:165|443:165|442:161|442:161|442:163|442:163|440:163|440:163|439:165|439:165|439:162|439:162|439:164|439:164|436:164|436:164|436:166|436:166|435:162|435:162|435:164|435:164|433:164|433:164|433:166|433:166|432:162|432:162|432:165|432:165|429:165|429:165|429:167|429:167|429:163|429:163|428:165|428:165|426:165|426:165|426:167|426:167|425:163|425:163|425:166|425:166|422:166|422:166|422:168|422:168|422:164|422:164|421:166|421:166|419:166|419:166|419:168|419:168|418:164|418:164|418:166|418:166|417:167,1,2754.98146723309,6|0,1:0|0:0,0:0:0:0:
257,26,82260,6,0,P|158:16|188:110,1,224.999994039536,10|0,0:2|0:0,0:0:0:0:
26,41,82710,6,0,B|-18:75|6:139|6:139|76:78|216:113|242:212,1,371.24999370575,2|0,1:0|0:0,0:0:0:0:
254,255,83010,1,4,0:3:0:0:
15,334,83160,6,0,P|-6:333|16:338,6,67.5000007867814,2|0|0|0|0|0|0,1:0|0:0|0:0|0:0|0:0|0:0|0:0,0:0:0:0:
81,288,83460,5,10,0:2:0:0:
268,351,83610,6,0,B|331:386|390:336|390:336|386:330|386:330|449:284|516:325,1,269.999992847443,2|0,0:0|0:0,0:0:0:0:
504,339,83910,2,0,P|456:319|414:336,1,89.9999976158143,4|0,0:3|0:0,0:0:0:0:
327,36,84060,6,0,P|348:118|362:225,1,179.999995231629,2|2,1:0|0:1,0:0:0:0:
375,223,84660,6,0,B|428:183|428:183|167:99|167:99|179:169,1,405.000004720688,10|2,0:2|0:2,0:0:0:0:
177,162,84923,1,2,0:0:0:0:
177,162,84960,2,0,B|236:147|236:147|241:149|241:149|329:127,1,135.000001573563,2|0,0:2|0:0,0:0:0:0:
501,72,85110,6,0,B|487:80|487:80|487:85|487:85|482:85|482:85|461:95|461:95|413:82|413:82|399:83|399:83|393:75|393:75|273:37|273:37|263:27|263:27|248:29|248:29|168:0|168:0|124:23,1,405.000004720688,2|0,1:1|0:0,0:0:0:0:
42,25,85410,6,0,B|23:63|23:63|50:102,1,89.9999976158143
13,172,85560,2,0,B|43:201|43:201|88:188,1,89.9999976158143,2|0,1:2|0:0,0:0:0:0:
291,341,85710,6,0,L|270:226,1,89.9999976158143,2|0,0:2|0:0,0:0:0:0:
171,83,85860,6,0,B|250:54|250:54|142:367,1,405.000004720688,10|0,0:2|0:0,0:0:0:0:
71,378,86160,2,0,P|35:350|60:292,1,101.250001180172,2|0,0:2|0:0,0:0:0:0:
169,185,86460,6,0,B|106:184|60:287|176:375|310:269|241:219|324:132|411:181,1,405.000004720688,2|0,1:0|0:0,0:0:0:0:
372,266,86760,6,0,P|352:145|308:41,1,202.500002360344,2|0,0:1|0:0,0:0:0:0:
372,6,87060,6,0,P|413:14|427:50,1,67.5000007867814,10|0,0:2|0:0,0:0:0:0:
512,102,87210,2,0,P|517:150|482:178,1,89.9999976158143,2|0,0:2|0:0,0:0:0:0:
306,334,87360,6,0,P|263:302|262:248,1,112.499997019768,2|0,0:2|0:0,0:0:0:0:
504,98,87510,6,0,L|485:168,1,67.5000007867814,2|0,1:3|0:0,0:0:0:0:
372,266,87660,2,0,L|391:196,1,67.5000007867814,2|0,0:3|0:0,0:0:0:0:
269,72,87810,2,0,L|250:142,1,67.5000007867814,2|0,0:3|0:0,0:0:0:0:
76,238,87960,5,2,1:3:0:0:
356,119,88110,1,2,0:3:0:0:
177,44,88260,6,0,B|131:76|131:76|163:227,1,179.999995231629,10|0,0:2|0:0,0:0:0:0:
83,245,88485,2,0,B|106:261|106:261|90:339,1,89.9999976158143,2|0,0:3|0:0,0:0:0:0:
23,341,88710,2,0,B|-17:352|-17:352|26:364,1,67.5000007867814,6|0,0:3|0:0,0:0:0:0:
263,365,88860,6,0,B|240:231|240:231|325:125|325:125|297:-7,1,405.000004720688,2|0,1:0|0:0,0:0:0:0:
235,93,89160,6,0,B|246:135|246:135|322:222|322:222|332:265,1,202.500002360344,2|0,0:1|0:0,0:0:0:0:
397,373,89460,6,0,P|440:351|444:283,1,112.499997019768,10|0,0:2|0:0,0:0:0:0:
512,219,89610,2,0,P|504:171|440:146,1,112.499997019768,2|0,0:2|0:0,0:0:0:0:
420,56,89760,2,0,P|372:48|329:101,1,112.499997019768,2|0,0:2|0:0,0:0:0:0:
65,172,89910,6,0,L|-9:156,1,67.5000007867814,2|0,1:3|0:0,0:0:0:0:
171,69,90060,2,0,L|245:85,1,67.5000007867814,2|0,0:3|0:0,0:0:0:0:
134,263,90210,2,0,L|60:247,1,67.5000007867814,2|0,0:3|0:0,0:0:0:0:
251,173,90360,5,2,1:3:0:0:
251,173,90510,1,2,0:3:0:0:
462,345,90660,6,0,B|399:386|342:316|345:309|347:302|307:219|217:273,1,269.999992847443,10|0,0:2|0:0,0:0:0:0:
261,349,90960,2,0,B|310:371|343:314|340:310|337:305|357:241|427:270,1,202.500002360344,2|0,0:3|0:0,0:0:0:0:
384,155,91260,6,2,B|385:155|385:155|386:153|386:153|386:155|386:155|387:155|387:155|387:157|387:157|388:155|388:155|389:155|389:155|390:154|390:154|390:155|390:155|391:155|391:155|391:157|391:157|392:155|392:155|393:156|393:156|394:155|394:155|394:156|394:156|395:156|395:156|395:158|395:158|396:156|396:156|397:156|397:156|398:155|398:155|398:157|398:157|399:157|399:157|399:159|399:159|400:157|400:157|401:157|401:157|402:155|402:155|402:157|402:157|403:157|403:157|403:159|403:159|404:157|404:157|405:158|405:158|405:156|405:156|406:158|406:158|407:158|407:158|407:160|407:160|408:158|408:158|409:158|409:158|409:156|409:156|410:159|410:159|411:159|411:159|411:161|411:161|412:159|412:159|413:157|413:157|413:159|413:159|414:159|414:159|415:161|415:161|415:159|415:159|416:160|416:160|417:158|417:158|417:160|417:160|418:160|418:160|418:162|418:162|418:160|418:160|419:160|419:160|420:158|420:158|420:161|420:161|421:161|421:161|421:163|421:163|422:161|422:161|423:161|423:161|424:159|424:159|424:161|424:161|425:161|425:161|425:163|425:163|426:161|426:161|427:162|427:162|428:160|428:160|428:162|428:162|429:162|429:162|429:164|429:164|430:162|430:162|431:162|431:162|432:160|432:160|432:163|432:163|433:163|433:163|433:165|433:165|434:163|434:163|435:163|435:163|436:161|436:161|436:163|436:163|437:163|437:163|437:165|437:165|438:163|438:163|439:164|439:164|440:162|440:162|440:164|440:164|441:164|441:164|443:165|443:165|442:163|442:163|442:162|442:162|441:161|441:161|443:162|443:162|444:161|444:161|445:162|445:162|444:160|444:160|445:159|445:159|444:158|444:158|446:159|446:159|446:158|446:158|448:159|448:159|447:157|447:157|447:156|447:156|446:155|446:155|448:156|448:156|449:155|449:155|451:156|451:156|449:155|449:155|450:154|450:154|449:153|449:153|451:154|451:154|451:153|451:153|453:154|453:154|452:152|452:152|453:151|453:151|451:150|451:150|453:151|453:151|453:150|453:150|455:151|455:151|454:149|454:149|454:148|454:148|453:147|453:147|455:148|455:148|456:147|456:147|457:148|457:148|456:146|456:146|457:145|457:145|456:144|456:144|458:145|458:145|458:144|458:144|460:145|460:145|459:143|459:143|459:142|459:142|458:141|458:141|460:142|460:142|461:141|461:141|463:142|463:142|461:140|461:140|462:139|462:139|461:138|461:138|463:139|463:139|463:138|463:138|465:139|465:139|464:137|464:137|465:136|465:136|463:135|463:135|465:136|465:136|466:135|466:135|468:136|468:136|467:134|467:134|467:133|467:133|466:132|466:132|468:133|468:133|469:132|469:132|470:133|470:133|469:131|469:131|470:130|470:130|469:129|469:129|470:130|470:130|471:129|471:129|473:130|473:130|472:128|472:128|472:127|472:127|471:126|471:126|473:126|473:126|474:126|474:126|476:127|476:127|474:125|474:125|475:124|475:124|474:123|474:123|476:123|476:123|478:124|478:124|477:122|477:122|478:121|478:121|476:120|476:120|478:120|478:120|479:120|479:120|481:121|481:121|480:120|480:120|480:119|480:119|479:117|479:117|481:118|481:118|482:118|482:118|483:119|483:119|482:117|482:117|483:116|483:116|482:114|482:114|483:115|483:115|484:115|484:115|486:116|486:116|485:114|485:114|485:113|485:113|484:111|484:111|486:112|486:112|487:112|487:112|488:113|488:113|487:111|487:111|488:110|488:110|487:108|487:108|488:109|488:109|490:110|490:110|489:108|489:108|490:107|490:107|488:105|488:105|490:106|490:106|491:106|491:106|493:106|493:106|492:105|492:105|493:104|493:104|491:102|491:102|493:103|493:103|494:102|494:102|496:103|496:103|494:101|494:101|495:101|495:101|494:99|494:99|496:100|496:100|496:99|496:99|498:100|498:100|497:98|497:98|498:98|498:98|497:96|497:96|498:97|498:97|499:96|499:96|501:97|501:97|500:95|500:95|499:97|499:97|499:95|499:95|498:95|498:95|497:93|497:93|497:94|497:94|496:94|496:94|495:96|495:96|495:94|495:94|494:94|494:94|493:92|493:92|493:94|493:94|492:94|492:94|491:95|491:95|491:93|491:93|490:93|490:93|490:91|490:91|489:93|489:93|488:93|488:93|488:95|488:95|488:93|488:93|487:93|487:93|487:91|487:91|486:92|486:92|485:92|485:92|484:94|484:94|484:92|484:92|483:92|483:92|483:90|483:90|482:92|482:92|481:92|481:92|480:93|480:93|480:91|480:91|479:91|479:91|479:89|479:89|478:91|478:91|477:91|477:91|476:93|476:93|476:91|476:91|475:91|475:91|475:88|475:88|474:90|474:90|473:90|473:90|472:92|472:92|472:90|472:90|471:90|471:90|471:88|471:88|470:90|470:90|469:90|469:90|468:91|468:91|468:89|468:89|467:89|467:89|467:87|467:87|466:89|466:89|465:89|465:89|464:91|464:91|464:89|464:89|463:89|463:89|463:86|463:86|462:88|462:88|461:88|461:88|460:90|460:90|460:88|460:88|459:88|459:88|459:86|459:86|458:88|458:88|457:88|457:88|456:89|456:89|456:87|456:87|455:87|455:87|455:85|455:85|454:87|454:87|453:87|453:87|453:89|453:89|453:87|453:87|452:87|452:87|452:85|452:85|451:86|451:86|450:86|450:86|449:88|449:88|449:86|449:86|448:86|448:86|448:85|448:85|447:86|447:86|446:85|446:85|446:87|446:87|445:85|445:85|444:85|444:85|444:84|444:84|443:85|443:85|442:85|442:85|442:87|442:87|441:85|441:85|440:85|440:85|440:83|440:83|439:85|439:85|438:86|438:86|438:85|438:85|437:85|437:85|436:83|436:83|436:85|436:85|435:84|435:84|434:85|434:85|434:84|434:84|433:84|433:84|432:82|432:82|432:84|432:84|431:84|431:84|430:85|430:85|430:84|430:84|429:83|429:83|429:81|429:81|428:83|428:83|427:83|427:83|426:85|426:85|426:83|426:83|425:83|425:83|425:81|425:81|424:83|424:83|423:82|423:82|422:84|422:84|422:82|422:82|421:82|421:82|421:80|421:80|420:82|420:82|419:82|419:82|418:84|418:84|418:82|418:82|418:81|418:81|418:79|418:79|417:81|417:81|416:81|416:81|415:83|415:83|415:81|415:81|414:81|414:81|414:79|414:79|413:81|413:81|412:80|412:80|411:82|411:82|411:80|411:80|410:80|410:80|410:78|410:78|409:80|409:80|408:80|408:80|407:82|407:82|407:80|407:80|406:79|406:79|406:77|406:77|405:79|405:79|404:79|404:79|403:81|403:81|403:79|403:79|402:79|402:79|402:77|402:77|401:79|401:79|400:78|400:78|399:80|399:80|399:78|399:78|398:78|398:78|398:76|398:76|397:78|397:78|396:78|396:78|395:80|395:80|395:78|395:78|394:77|394:77|394:75|394:75|393:77|393:77|392:77|392:77|391:79|391:79|391:77|391:77|390:77|390:77|390:75|390:75|389:77|389:77|388:76|388:76|387:78|387:78|387:76|387:76|386:76|386:76|386:74|386:74|385:76|385:76|384:76|384:76|384:78|384:78|384:76|384:76|383:75|383:75|383:73|383:73|382:75|382:75|381:75|381:75|381:77|381:77|380:75|380:75|379:75|379:75|379:73|379:73|378:75|378:75|378:74|378:74|377:76|377:76|377:74|377:74|376:74|376:74|375:72|375:72|375:74|375:74|374:74|374:74|373:76|373:76|373:74|373:74|372:73|372:73|371:71|371:71|371:73|371:73|370:73|370:73|369:75|369:75|369:73|369:73|368:73|368:73|368:71|368:71|367:73|367:73|366:72|366:72|365:74|365:74|365:72|365:72|364:72|364:72|364:70|364:70|363:72|363:72|362:72|362:72|361:74|361:74|361:72|361:72|360:71|360:71|360:69|360:69|359:71|359:71|358:71|358:71|357:73|357:73|357:71|357:71|356:71|356:71|356:69|356:69|355:71|355:71|354:70|354:70|353:72|353:72|353:70|353:70|352:70|352:70|352:68|352:68|351:70|351:70|350:70|350:70|349:72|349:72|349:70|349:70|349:69|349:69|349:67|349:67|348:69|348:69|347:69|347:69|348:71|348:71|346:70|346:70|346:71|346:71|344:70|344:70|345:71|345:71|345:72|345:72|346:74|346:74|344:73|344:73|344:74|344:74|342:73|342:73|343:75|343:75|342:76|342:76|344:77|344:77|342:76|342:76|341:77|341:77|339:76|339:76|341:78|341:78|340:79|340:79|342:80|342:80|340:80|340:80|339:80|339:80|337:80|337:80|338:81|338:81|338:82|338:82|339:84|339:84|337:83|337:83|337:84|337:84|335:83|335:83|336:85|336:85|337:86|337:86|335:85|335:85|335:86|335:86|333:85|333:85|334:87|334:87|333:88|333:88|335:89|335:89|333:89|333:89|332:89|332:89|330:89|330:89|332:90|332:90|331:91|331:91|332:93|332:93|331:92|331:92|330:93|330:93|328:92|328:92|329:93|329:93|329:94|329:94|330:96|330:96|328:95|328:95|328:96|328:96|326:95|326:95|327:97|327:97|327:98|327:98|328:99|328:99|326:98|326:98|325:99|325:99|324:98|324:98|325:100|325:100|324:101|324:101|326:102|326:102|324:102|324:102|323:102|323:102|321:102|321:102|323:103|323:103|322:104|322:104|323:106|323:106|321:105|321:105|321:106|321:106|319:105|319:105|320:107|320:107|321:109|321:109|319:108|319:108|319:109|319:109|317:108|317:108|318:110|318:110|317:111|317:111|319:112|319:112|317:112|317:112|316:112|316:112|314:112|314:112|316:113|316:113|315:114|315:114|317:116|317:116|315:115|315:115|314:116|314:116|313:115|313:115|314:116|314:116|314:117|314:117|314:119|314:119|313:118|313:118|313:119|313:119|311:118|311:118|312:120|312:120|312:120|312:120|313:121|313:121|311:120|311:120|311:121|311:121|309:120|309:120|310:122|310:122|309:123|309:123|311:124|311:124|309:124|309:124|308:124|308:124|306:124|306:124|308:125|308:125|307:126|307:126|308:128|308:128|307:127|307:127|306:128|306:128|304:127|304:127|305:129|305:129|306:131|306:131|304:130|304:130|304:131|304:131|302:130|302:130|303:132|303:132|303:133|303:133|304:134|304:134|302:133|302:133|301:134|301:134|300:134|300:134|301:135|301:135|300:136|300:136|302:138|302:138|300:137|300:137|299:138|299:138|297:137|297:137|299:138|299:138|298:139|298:139|299:141|299:141|297:140|297:140|297:141|297:141|295:140|295:140|296:142|296:142|296:143|296:143|297:144|297:144|295:143|295:143|295:144|295:144|293:143|293:143|294:145|294:145|294:146|294:146|295:147|295:147|293:147|293:147|292:147|292:147|290:147|290:147|292:148|292:148|291:149|291:149|293:151|293:151|291:150|291:150|290:151|290:151|288:150|288:150|290:152|290:152|289:152|289:152|290:154|290:154|288:153|288:153|288:154|288:154|286:153|286:153|287:155|287:155|287:155|287:155|288:156|288:156|286:155|286:155|286:156|286:156|284:156|284:156|285:157|285:157|284:158|284:158|286:159|286:159|284:159|284:159|283:160|283:160|281:159|281:159|283:160|283:160|282:161|282:161|284:163|284:163|282:162|282:162|281:163|281:163|279:162|279:162|280:164|280:164|280:165|280:165|281:166|281:166|279:165|279:165|279:166|279:166|278:165|278:165|279:167|279:167|279:168|279:168|279:169|279:169|278:169|278:169|277:169|277:169|275:168|275:168|277:171|277:171|276:171|276:171|277:173|277:173|275:172|275:172|275:173|275:173|273:172|273:172|274:174|274:174|274:175|274:175|275:176|275:176|273:176|273:176|271:176|271:176|272:177|272:177|272:178|272:178|273:180|273:180|271:179|271:179|270:180|270:180|268:179|268:179|270:181|270:181|269:181|269:181|271:183|271:183|269:182|269:182|268:183|268:183|266:182|266:182|268:184|268:184|267:185|267:185|268:186|268:186|266:185|266:185|266:186|266:186|264:186|264:186|265:187|265:187|265:188|265:188|266:189|266:189|264:189|264:189|264:189|264:189|262:189|262:189|263:189|263:189|262:190|262:190|264:192|264:192|262:191|262:191|261:192|261:192|259:191|259:191|261:193|261:193|260:193|260:193|262:195|262:195|260:194|260:194|259:195|259:195|257:194|257:194|258:196|258:196|258:197|258:197|259:198|259:198|257:198|257:198|255:198|255:198|256:199|256:199|256:200|256:200|257:202|257:202|255:201|255:201|254:202|254:202|253:201|253:201|254:203|254:203|253:203|253:203|255:205|255:205|253:204|253:204|252:205|252:205|250:204|250:204|252:206|252:206|251:207|251:207|252:208|252:208|251:207|251:207|250:208|250:208|248:208|248:208|249:209|249:209|249:210|249:210|250:211|250:211|248:211|248:211|248:212|248:212|246:211|246:211|247:212|247:212|247:213|247:213|248:215|248:215|246:214|246:214|245:215|245:215|244:214|244:214|245:216|245:216|245:216|245:216|246:218|246:218|245:217|245:217|244:218|244:218|242:217|242:217|244:219|244:219|243:220|243:220|244:221|244:221|242:221|242:221|240:221|240:221|241:222|241:222|241:223|241:223|242:224|242:224|240:224|240:224|240:224|240:224|238:224|238:224|239:224|239:224|238:225|238:225|240:227|240:227|238:226|238:226|237:227|237:227|235:226|235:226|237:228|237:228|236:229|236:229|238:230|238:230|236:229|236:229|235:230|235:230|233:230|233:230|234:231|234:231|234:232|234:232|235:233|235:233|233:233|233:233|233:234|233:234|231:233|231:233|232:234|232:234|232:235|232:235|233:237|233:237|231:236|231:236|231:237|231:237|229:236|229:236|230:238|230:238|229:238|229:238|231:240|231:240|229:239|229:239|228:240|228:240|226:239|226:239|228:241|228:241|227:242|227:242|228:243|228:243|227:243|227:243|226:243|226:243|224:243|224:243|225:244|225:244|225:245|225:245|226:247|226:247|224:246|224:246|224:247|224:247|222:246|222:246|223:247|223:247|223:248|223:248|224:250|224:250|222:249|222:249|221:250|221:250|219:249|219:249|221:251|221:251|220:252|220:252|219:255|219:255|219:252|219:252|218:252|218:252|218:251|218:251|218:252|218:252|217:251|217:251|216:253|216:253|216:251|216:251|215:251|215:251|214:249|214:249|214:251|214:251|213:251|213:251|212:253|212:253|212:251|212:251|211:250|211:250|211:248|211:248|210:250|210:250|210:250|210:250|209:252|209:252|209:250|209:250|208:250|208:250|208:248|208:248|207:249|207:249|206:249|206:249|205:251|205:251|205:249|205:249|204:249|204:249|204:247|204:247|203:249|203:249|202:249|202:249|201:250|201:250|201:248|201:248|200:248|200:248|200:246|200:246|199:248|199:248|198:248|198:248|197:250|197:250|197:248|197:248|196:248|196:248|196:245|196:245|195:247|195:247|194:247|194:247|193:249|193:249|193:247|193:247|192:247|192:247|192:245|192:245|191:247|191:247|190:246|190:246|189:248|189:248|189:246|189:246|188:246|188:246|188:244|188:244|187:246|187:246|186:246|186:246|185:248|185:248|185:246|185:246|184:245|184:245|184:243|184:243|183:245|183:245|182:245|182:245|181:247|181:247|181:245|181:245|180:245|180:245|180:243|180:243|179:245|179:245|178:244|178:244|177:246|177:246|177:244|177:244|176:244|176:244|176:242|176:242|175:244|175:244|175:244|175:244|174:246|174:246|174:244|174:244|173:243|173:243|173:241|173:241|172:243|172:243|171:243|171:243|171:245|171:245|170:243|170:243|169:243|169:243|169:241|169:241|168:242|168:242|167:242|167:242|167:244|167:244|166:242|166:242|165:242|165:242|165:240|165:240|164:242|164:242|163:243|163:243|163:241|163:241|162:241|162:241|161:239|161:239|161:241|161:241|160:241|160:241|159:243|159:243|159:241|159:241|158:241|158:241|157:238|157:238|157:240|157:240|156:240|156:240|155:242|155:242|155:240|155:240|154:240|154:240|154:238|154:238|153:240|153:240|152:239|152:239|151:241|151:241|151:239|151:239|150:239|150:239|150:237|150:237|149:239|149:239|148:239|148:239|147:241|147:241|147:239|147:239|146:238|146:238|146:236|146:236|145:238|145:238|144:238|144:238|143:240|143:240|143:238|143:238|142:238|142:238|142:236|142:236|141:238|141:238|140:237|140:237|140:239|140:239|140:237|140:237|139:237|139:237|139:235|139:235|138:237|138:237|137:237|137:237|136:239|136:239|136:237|136:237|135:236|135:236|135:234|135:234|134:236|134:236|133:236|133:236|132:238|132:238|132:236|132:236|131:236|131:236|131:234|131:234|130:235|130:235|129:235|129:235|128:237|128:237|128:235|128:235|127:235|127:235|127:233|127:233|126:235|126:235|125:235|125:235|124:236|124:236|124:234|124:234|123:234|123:234|123:232|123:232|122:234|122:234|121:234|121:234|120:236|120:236|120:234|120:234|119:234|119:234|119:231|119:231|118:233|118:233|117:233|117:233|116:235|116:235|116:233|116:233|115:233|115:233|115:231|115:231|114:233|114:233|113:232|113:232|113:234|113:234|112:232|112:232|111:232|111:232|111:230|111:230|110:232|110:232|109:232|109:232|109:234|109:234|108:232|108:232|107:231|107:231|107:229|107:229|107:231|107:231|106:231|106:231|106:233|106:233|106:231|106:231|105:231|105:231|104:229|104:229|104:231|104:231|103:230|103:230|102:232|102:232|102:230|102:230|101:230|101:230|100:228|100:228|100:230|100:230|99:230|99:230|98:232|98:232|98:229|98:229|97:229|97:229|97:227|97:227|96:229|96:229|95:229|95:229|94:231|94:231|94:229|94:229|93:229|93:229|93:227|93:227|92:228|92:228|91:228|91:228|90:230|90:230|90:228|90:228|89:228|89:228|89:226|89:226|88:228|88:228|87:228|87:228|86:229|86:229|86:227|86:227|85:227|85:227|85:225|85:225|84:227|84:227|83:227|83:227|82:229|82:229|82:227|82:227|81:227|81:227|81:224|81:224|80:226|80:226|79:226|79:226|78:228|78:228|78:226|78:226|77:226|77:226|77:224|77:224|76:226|76:226|75:225|75:225|74:227|74:227|74:225|74:225|73:225|73:225|73:224|73:224|72:225|72:225|71:225|71:225|71:227|71:227|71:225|71:225|70:224|70:224|70:223|70:223|69:224|69:224|68:224|68:224|67:226|67:226|67:224|67:224|66:224|66:224|66:223|66:223|65:224|65:224|64:224|64:224|63:225|63:225|63:224|63:224|62:224|62:224|62:222|62:222|61:224|61:224|60:224|60:224|59:225|59:225|59:223|59:223|58:223|58:223|58:221|58:221|57:223|57:223|56:223|56:223|56:224|56:224|55:223|55:223|54:223|54:223|54:221|54:221|53:222|53:222|52:222|52:222|52:224|52:224|51:222|51:222|53:220|53:220|50:221|50:221|50:220|50:220|48:220|48:220|50:219|50:219|49:218|49:218|51:217|51:217|49:217|49:217|49:216|49:216|47:216|47:216|48:215|48:215|48:214|48:214|50:213|50:213|48:213|48:213|47:212|47:212|45:212|45:212|47:211|47:211|46:210|46:210|48:209|48:209|46:209|46:209|46:208|46:208|44:208|44:208|45:207|45:207|45:206|45:206|47:205|47:205|45:205|45:205|44:204|44:204|42:205|42:205|44:203|44:203|44:202|44:202|45:201|45:201|43:202|43:202|43:201|43:201|41:201|41:201|43:200|43:200|42:199|42:199|44:198|44:198|42:198|42:198|41:197|41:197|39:197|39:197|41:196|41:196|41:195|41:195|42:194|42:194|40:194|40:194|40:193|40:193|38:193|38:193|40:192|40:192|39:191|39:191|41:190|41:190|39:190|39:190|39:189|39:189|37:190|37:190|38:189|38:189|38:189|38:189|40:187|40:187|38:188|38:188|37:187|37:187|36:187|36:187|37:186|37:186|37:185|37:185|38:184|38:184|36:184|36:184|36:183|36:183|35:183|35:183|36:182|36:182|36:181|36:181|37:180|37:180|36:180|36:180|35:179|35:179|33:180|33:180|35:178|35:178|35:177|35:177|36:176|36:176|34:176|34:176|32:176|32:176|34:175|34:175|33:174|33:174|35:173|35:173|33:173|33:173|33:172|33:172|31:172|31:172|32:171|32:171|32:170|32:170|34:169|34:169|32:169|32:169|31:168|31:168|29:168|29:168|31:167|31:167|30:166|30:166|32:165|32:165|30:165|30:165|30:164|30:164|28:165|28:165|29:163|29:163|31:161|31:161|29:162|29:162|28:161|28:161|26:161|26:161|28:160|28:160|28:159|28:159|29:158|29:158|27:158|27:158|27:157|27:157|25:157|25:157|27:156|27:156|26:155|26:155|28:155|28:155|26:155|26:155|26:154|26:154|23:154|23:154|25:153|25:153|25:152|25:152|27:151|27:151|24:151|24:151|24:150|24:150|22:151|22:151|24:150|24:150|23:149|23:149|25:147|25:147|23:148|23:148|23:147|23:147|21:147|21:147|22:146|22:146|22:145|22:145|24:144|24:144|22:144|22:144|21:143|21:143|19:143|19:143|21:142|21:142|21:141|21:141|22:140|22:140|20:140|20:140|20:139|20:139|18:140|18:140|20:138|20:138|19:137|19:137|19:140|19:140|20:137|20:137|21:137|21:137|21:136|21:136|21:137|21:137|22:138|22:138|23:140|23:140|23:138|23:138|24:138|24:138|25:136|25:136|25:138|25:138|26:138|26:138|27:140|27:140|27:139|27:139|28:139|28:139|29:137|29:137|29:139|29:139|30:139|30:139|30:141|30:141|31:139|31:139|32:139|32:139|33:138|33:138|33:140|33:140|34:140|34:140|34:142|34:142|35:140|35:140|36:140|36:140|36:138|36:138|36:140|36:140|37:140|37:140|37:143|37:143|38:141|38:141|39:141|39:141|40:139|40:139|40:141|40:141|41:141|41:141|41:143|41:143|42:141|42:141|43:142|43:142|44:140|44:140|44:142|44:142|45:142|45:142|45:144|45:144|46:142|46:142|47:142|47:142|48:140|48:140|48:142|48:142|49:143|49:143|49:145|49:145|50:143|50:143|51:143|51:143|52:141|52:141|52:143|52:143|53:143|53:143|53:145|53:145|54:144|54:144|55:144|55:144|56:142|56:142|56:144|56:144|57:144|57:144|57:146|57:146|58:144|58:144|59:144|59:144|60:143|60:143|60:145|60:145|61:145|61:145|61:147|61:147|62:145|62:145|63:145|63:145|64:143|64:143|64:145|64:145|65:145|65:145|65:148|65:148|66:146|66:146|67:146|67:146|67:144|67:144|68:146|68:146|69:146|69:146|69:148|69:148|70:146|70:146|71:147|71:147|71:144|71:144|71:147|71:147|72:147|72:147|72:149|72:149|73:147|73:147|74:147|74:147|75:145|75:145|75:148|75:148|76:148|76:148|76:150|76:150|77:148|77:148|78:148|78:148|79:146|79:146|79:148|79:148|80:148|80:148|80:150|80:150|81:149|81:149|82:149|82:149|83:147|83:147|83:149|83:149|84:149|84:149|84:151|84:151|85:149|85:149|86:150|86:150|87:148|87:148|87:150|87:150|88:150|88:150|88:152|88:152|89:150|89:150|90:150|90:150|91:148|91:148|91:150|91:150|92:151|92:151|92:153|92:153|93:151|93:151|94:151|94:151|94:149|94:149|95:151|95:151|96:151|96:151|96:153|96:153|97:151|97:151|98:152|98:152|98:150|98:150|99:152|99:152|100:154|100:154|100:152|100:152|101:152|101:152|102:150|102:150|102:153|102:153|103:153|103:153|104:155|104:155|104:153|104:153|105:153|105:153|106:151|106:151|106:153|106:153|106:153|106:153|106:155|106:155|107:154|107:154|108:154|108:154|109:152|109:152|109:154|109:154|110:154|110:154|110:155|110:155|111:154|111:154|112:154|112:154|113:153|113:153|113:155|113:155|114:155|114:155|114:156|114:156|115:155|115:155|116:155|116:155|117:153|117:153|117:155|117:155|118:155|118:155|118:157|118:157|119:155|119:155|120:155|120:155|121:154|121:154|121:155|121:155|122:155|122:155|122:157|122:157|123:155|123:155|124:156|124:156|125:155|125:155|125:156|125:156|126:156|126:156|124:157|124:157|126:157|126:157|127:158|127:158|129:158|129:158|127:159|127:159|127:160|127:160|126:161|126:161|128:161|128:161|128:162|128:162|130:161|130:161|129:163|129:163|127:165|127:165|129:164|129:164|130:165|130:165|132:165|132:165|130:166|130:166|130:167|130:167|129:168|129:168|131:168|131:168|131:169|131:169|133:169|133:169|131:170|131:170|132:171|132:171|130:172|130:172|132:172|132:172|132:173|132:173|135:173|135:173|133:174|133:174|133:175|133:175|131:176|131:176|134:176|134:176|134:177|134:177|136:176|136:176|134:177|134:177|135:178|135:178|133:180|133:180|135:179|135:179|135:180|135:180|137:180|137:180|136:181|136:181|136:182|136:182|134:183|134:183|136:183|136:183|137:184|137:184|139:184|139:184|137:185|137:185|137:186|137:186|136:187|136:187|138:187|138:187|138:188|138:188|140:187|140:187|139:189|139:189|139:189|139:189|137:190|137:190|139:190|139:190|140:190|140:190|141:190|141:190|140:191|140:191|140:192|140:192|139:194|139:194|140:193|140:193|140:194|140:194|142:194|142:194|140:195|140:195|141:196|141:196|140:197|140:197|141:197|141:197|142:198|142:198|144:198|144:198|142:199|142:199|142:200|142:200|141:201|141:201|143:201|143:201|143:202|143:202|145:201|145:201|143:203|143:203|144:204|144:204|142:205|142:205|144:204|144:204|144:205|144:205|146:205|146:205|145:206|145:206|145:207|145:207|143:208|143:208|145:208|145:208|146:209|146:209|148:209|148:209|146:210|146:210|147:211|147:211|145:212|145:212|147:212|147:212|147:213|147:213|149:213|149:213|148:214|148:214|148:215|148:215|146:216|146:216|148:216|148:216|149:217|149:217|151:216|151:216|149:218|149:218|148:220|148:220|150:219|150:219|150:220|150:220|152:220|152:220|151:221|151:221|151:222|151:222|149:223|149:223|151:223|151:223|152:224|152:224|154:224|154:224|152:224|152:224|152:225|152:225|151:226|151:226|153:226|153:226|153:227|153:227|155:227|155:227|153:228|153:228|154:229|154:229|152:230|152:230|154:230|154:230|154:231|154:231|157:230|157:230|155:231|155:231|155:232|155:232|153:234|153:234|156:233|156:233|156:234|156:234|158:234|158:234|156:235|156:235|157:236|157:236|155:237|155:237|157:237|157:237|157:238|157:238|159:238|159:238|158:239|158:239|158:240|158:240|156:241|156:241|158:241|158:241|159:242|159:242|161:241|161:241|159:243|159:243|159:244|159:244|158:245|158:245|160:244|160:244|160:245|160:245|162:245|162:245|161:246|161:246|161:247|161:247|159:248|159:248|161:248|161:248|162:249|162:249|164:249|164:249|162:250|162:250|162:251|162:251|161:252|161:252|163:252|163:252|163:253|163:253|165:253|165:253|163:254|163:254|164:255|164:255|162:256|162:256|164:256|164:256|165:257|165:257|167:256|167:256|165:258|165:258|164:259|164:259|166:259|166:259|166:259|166:259|168:259|168:259|166:260|166:260|167:261|167:261|165:262|165:262|167:262|167:262|167:263|167:263|169:263|169:263|168:264|168:264|168:265|168:265|166:266|166:266|168:266|168:266|169:267|169:267|171:267|171:267|169:268|169:268|170:269|170:269|168:270|168:270|170:270|170:270|170:271|170:271|172:270|172:270|171:271|171:271|171:272|171:272|169:274|169:274|171:273|171:273|172:274|172:274|174:274|174:274|172:275|172:275|172:276|172:276|171:277|171:277|173:277|173:277|173:278|173:278|175:278|175:278|173:279|173:279|174:280|174:280|172:281|172:281|174:281|174:281|175:282|175:282|176:281|176:281|175:283|175:283|175:284|175:284|174:285|174:285|175:285|175:285|177:285|177:285|175:286|175:286|176:287|176:287|175:289|175:289|176:288|176:288|176:289|176:289|178:289|178:289|177:290|177:290|177:291|177:291|175:292|175:292|178:292|178:292|178:293|178:293|180:293|180:293|178:293|178:293|179:294|179:294|177:295|177:295|179:295|179:295|179:296|179:296|181:295|181:295|180:297|180:297|180:298|180:298|178:299|178:299|180:298|180:298|181:299|181:299|183:299|183:299|181:300|181:300|181:301|181:301|180:302|180:302|182:302|182:302|182:303|182:303|184:303|184:303|183:304|183:304|183:305|183:305|181:306|181:306|183:306|183:306|184:307|184:307|186:307|186:307|184:308|184:308|184:309|184:309|183:310|183:310|185:310|185:310|185:311|185:311|187:310|187:310|185:312|185:312|186:312|186:312|184:314|184:314|186:313|186:313|187:314|187:314|189:314|189:314|187:315|187:315|187:316|187:316|186:317|186:317|188:317|188:317|188:318|188:318|190:318|190:318|188:319|188:319|189:320|189:320|187:321|187:321|189:321|189:321|189:322|189:322|191:322|191:322|190:323|190:323|190:324|190:324|188:325|188:325|190:325|190:325|191:326|191:326|192:323|192:323|192:326|192:326|193:326|193:326|193:327|193:327|193:326|193:326|194:327|194:327|195:325|195:325|195:327|195:327|196:327|196:327|197:328|197:328|197:327|197:327|198:327|198:327|199:325|199:325|199:327|199:327|200:328|200:328|200:329|200:329|201:328|201:328|202:328|202:328|203:326|203:326|203:328|203:328|204:328|204:328|204:329|204:329|205:328|205:328|206:328|206:328|207:327|207:327|207:328|207:328|208:328|208:328|208:330|208:330|209:328|209:328|210:328|210:328|210:327|210:327|210:328|210:328|211:329|211:329|211:331|211:331|212:329|212:329|213:329|213:329|214:328|214:328|214:329|214:329|215:329|215:329|215:331|215:331|216:329|216:329|217:330|217:330|218:328|218:328|218:330|218:330|219:330|219:330|219:332|219:332|220:330|220:330|221:330|221:330|222:328|222:328|222:330|222:330|223:331|223:331|223:333|223:333|224:331|224:331|225:331|225:331|226:329|226:329|226:331|226:331|227:331|227:331|227:333|227:333|228:331|228:331|229:332|229:332|229:330|229:330|230:332|230:332|231:332|231:332|231:334|231:334|232:332|232:332|233:332|233:332|233:330|233:330|234:332|234:332|235:333|235:333|235:335|235:335|236:333|236:333|237:333|237:333|237:331|237:331|237:333|237:333|238:333|238:333|239:335|239:335|239:333|239:333|240:334|240:334|241:332|241:332|241:334|241:334|243:334|243:334|243:336|243:336|244:334|244:334|245:334|245:334|245:333|245:333|245:335|245:335|246:335|246:335|246:337|246:337|247:335|247:335|248:335|248:335|249:333|249:333|249:335|249:335|250:335|250:335|250:337|250:337|251:336|251:336|252:336|252:336|252:334|252:334|253:336|253:336|254:336|254:336|254:338|254:338|255:336|255:336|256:336|256:336|256:335|256:335|257:337|257:337|258:337|258:337|258:339|258:339|259:337,1,3039.74979047168,2|0,1:0|0:0,0:1:0:0:
304,170,91860,6,0,L|274:91,1,67.4999982118607,10|0,0:2|0:0,0:0:0:0:
359,314,92160,2,0,L|389:393,1,67.4999982118607
63,264,92460,6,0,L|-16:294,1,67.4999982118607,0|0,1:0|0:0,0:0:0:0:
214,272,92760,2,0,L|293:242,1,67.4999982118607
60,14,93060,6,0,L|100:153,1,135.000001573563,10|0,0:2|0:0,0:0:0:0:
0,94,93510,1,0,1:0:0:0:
387,215,93660,6,0,B|380:161|425:135|425:135|317:134|237:232|257:353|257:353|287:285|337:292,1,506.25000590086,6|0,1:3|0:0,0:0:0:0:
370,354,94110,2,0,L|440:341,1,67.5000007867814,6|0,0:3|0:0,0:0:0:0:
0,249,94260,5,10,0:2:0:0:
0,249,94560,2,0,B|23:267|21:312|21:312|35:266|78:259,1,135.000001573563,6|0,0:3|0:0,0:0:0:0:
122,86,94860,5,2,1:2:0:0:
134,157,94935,1,2,0:2:0:0:
145,219,95010,1,2,0:2:0:0:
154,271,95085,1,2,0:2:0:0:
160,311,95160,1,2,0:2:0:0:
166,342,95235,1,2,0:2:0:0:
170,362,95310,1,2,0:2:0:0:
173,376,95385,1,2,0:2:0:0:
143,352,95460,6,0,L|216:339,1,67.5000007867814,10|0,0:2|0:0,0:0:0:0:
438,69,95610,6,0,P|398:67|368:91,1,67.5000007867814,2|0,0:2|0:0,0:0:0:0:
308,210,95760,2,0,P|329:176|323:138,1,67.5000007867814,2|0,0:2|0:0,0:0:0:0:
251,26,95910,2,0,P|269:61|305:75,1,67.5000007867814,10|0,0:2|0:0,0:0:0:0:
463,204,96060,6,2,B|463:206|463:206|461:205|461:205|460:205|460:205|459:202|459:202|459:205|459:205|458:205|458:205|458:207|458:207|457:205|457:205|456:205|456:205|455:202|455:202|455:206|455:206|454:206|454:206|454:208|454:208|453:206|453:206|452:206|452:206|451:204|451:204|451:206|451:206|450:206|450:206|450:208|450:208|449:207|449:207|448:207|448:207|447:205|447:205|447:207|447:207|446:207|446:207|446:209|446:209|445:207|445:207|444:207|444:207|443:206|443:206|443:208|443:208|442:208|442:208|442:210|442:210|441:208|441:208|440:208|440:208|440:206|440:206|439:208|439:208|438:208|438:208|438:211|438:211|437:209|437:209|436:209|436:209|436:207|436:207|435:209|435:209|434:209|434:209|434:211|434:211|433:209|433:209|432:208|432:208|432:210|432:210|431:210|431:210|430:212|430:212|430:210|430:210|429:210|429:210|428:208|428:208|428:210|428:210|427:211|427:211|426:213|426:213|426:211|426:211|425:211|425:211|424:209|424:209|424:211|424:211|423:211|423:211|423:213|423:213|422:211|422:211|421:212|421:212|420:210|420:210|420:212|420:212|419:212|419:212|419:214|419:214|418:212|418:212|417:212|417:212|416:210|416:210|416:212|416:212|415:213|415:213|415:215|415:215|414:213|414:213|413:213|413:213|412:211|412:211|412:213|412:213|411:213|411:213|411:215|411:215|410:213|410:213|409:214|409:214|408:212|408:212|408:214|408:214|407:214|407:214|407:216|407:216|406:214|406:214|405:214|405:214|404:212|404:212|404:214|404:214|403:215|403:215|403:217|403:217|402:215|402:215|401:215|401:215|400:213|400:213|400:215|400:215|399:215|399:215|399:217|399:217|398:215|398:215|397:216|397:216|396:214|396:214|396:216|396:216|395:216|395:216|395:218|395:218|394:216|394:216|393:216|393:216|392:214|392:214|392:217|392:217|391:217|391:217|391:219|391:219|390:217|390:217|389:217|389:217|388:215|388:215|388:217|388:217|387:217|387:217|387:219|387:219|386:218|386:218|385:218|385:218|384:216|384:216|384:218|384:218|383:218|383:218|383:220|383:220|382:218|382:218|381:218|381:218|380:217|380:217|380:219|380:219|379:219|379:219|379:221|379:221|378:219|378:219|377:219|377:219|377:217|377:217|376:219|376:219|375:219|375:219|375:221|375:221|374:220|374:220|373:220|373:220|373:218|373:218|372:220|372:220|371:220|371:220|371:222|371:222|371:220|371:220|370:220|370:220|369:219|369:219|369:221|369:221|368:221|368:221|367:223|367:223|367:221|367:221|366:221|366:221|365:219|365:219|365:221|365:221|364:221|364:221|363:224|363:224|363:222|363:222|362:222|362:222|361:220|361:220|361:222|361:222|360:222|360:222|360:224|360:224|359:222|359:222|358:223|358:223|357:221|357:221|357:223|357:223|356:223|356:223|356:225|356:225|355:223|355:223|354:223|354:223|353:221|353:221|353:223|353:223|352:224|352:224|352:226|352:226|351:224|351:224|350:224|350:224|349:222|349:222|349:224|349:224|348:224|348:224|348:226|348:226|347:224|347:224|346:225|346:225|345:223|345:223|345:225|345:225|344:225|344:225|344:227|344:227|343:225|343:225|342:225|342:225|341:223|341:223|341:225|341:225|340:226|340:226|340:228|340:228|339:226|339:226|338:226|338:226|337:224|337:224|337:226|337:226|336:226|336:226|336:228|336:228|335:226|335:226|334:227|334:227|333:225|333:225|333:227|333:227|332:227|332:227|332:229|332:229|331:227|331:227|330:227|330:227|329:225|329:225|329:227|329:227|328:228|328:228|328:230|328:230|327:228|327:228|326:228|326:228|325:226|325:226|325:228|325:228|324:228|324:228|324:230|324:230|323:229|323:229|322:229|322:229|321:227|321:227|321:229|321:229|320:229|320:229|320:231|320:231|319:229|319:229|318:229|318:229|318:227|318:227|317:230|317:230|316:230|316:230|316:232|316:232|315:230|315:230|314:230|314:230|314:228|314:228|313:230|313:230|312:230|312:230|312:232|312:232|311:231|311:231|310:231|310:231|310:229|310:229|309:231|309:231|308:233|308:233|308:231|308:231|307:231|307:231|306:230|306:230|306:232|306:232|305:232|305:232|304:234|304:234|304:232|304:232|303:232|303:232|302:230|302:230|302:232|302:232|301:232|301:232|300:235|300:235|300:233|300:233|299:233|299:233|298:231|298:231|298:233|298:233|297:233|297:233|297:235|297:235|296:233|296:233|295:233|295:233|294:232|294:232|294:234|294:234|293:234|293:234|293:236|293:236|292:234|292:234|291:234|291:234|290:232|290:232|290:234|290:234|289:235|289:235|289:237|289:237|288:235|288:235|287:235|287:235|286:233|286:233|286:235|286:235|285:235|285:235|285:237|285:237|284:235|284:235|283:236|283:236|282:234|282:234|282:236|282:236|281:236|281:236|281:238|281:238|280:236|280:236|279:236|279:236|278:234|278:234|278:236|278:236|277:237|277:237|277:239|277:239|276:237|276:237|275:237|275:237|274:235|274:235|274:237|274:237|273:237|273:237|273:239|273:239|272:237|272:237|271:238|271:238|270:236|270:236|270:238|270:238|269:238|269:238|269:240|269:240|268:238|268:238|267:238|267:238|266:236|266:236|266:238|266:238|265:239|265:239|265:241|265:241|264:239|264:239|263:239|263:239|262:237|262:237|262:239|262:239|261:239|261:239|261:241|261:241|260:239|260:239|258:240|258:240|257:238|257:238|257:240|257:240|256:240|256:240|256:242|256:242|255:240|255:240|254:240|254:240|254:238|254:238|253:241|253:241|252:241|252:241|252:243|252:243|251:241|251:241|250:241|250:241|250:239|250:239|249:241|249:241|248:241|248:241|248:243|248:243|247:242|247:242|246:242|246:242|246:240|246:240|246:242|246:242|245:242|245:242|244:244|244:244|244:242|244:242|243:242|243:242|242:241|242:241|242:243|242:243|241:243|241:243|240:245|240:245|240:243|240:243|239:243|239:243|238:241|238:241|238:243|238:243|237:243|237:243|237:245|237:245|236:244|236:244|235:244|235:244|234:242|234:242|234:244|234:244|233:244|233:244|233:246|233:246|232:244|232:244|231:244|231:244|230:243|230:243|230:245|230:245|229:245|229:245|229:247|229:247|228:245|228:245|227:245|227:245|226:243|226:243|226:245|226:245|225:245|225:245|225:248|225:248|224:246|224:246|223:246|223:246|222:244|222:244|222:246|222:246|221:246|221:246|221:248|221:248|220:246|220:246|219:247|219:247|218:245|218:245|218:247|218:247|217:247|217:247|217:249|217:249|216:247|216:247|215:247|215:247|214:245|214:245|214:247|214:247|213:248|213:248|213:250|213:250|212:248|212:248|211:248|211:248|210:246|210:246|210:248|210:248|209:248|209:248|209:250|209:250|208:248|208:248|207:249|207:249|206:247|206:247|206:249|206:249|205:249|205:249|205:251|205:251|204:249|204:249|203:249|203:249|202:247|202:247|202:249|202:249|201:250|201:250|201:252|201:252|200:250|200:250|199:250|199:250|198:248|198:248|198:250|198:250|197:250|197:250|197:252|197:252|196:250|196:250|195:251|195:251|194:249|194:249|194:251|194:251|193:251|193:251|193:253|193:253|192:251|192:251|191:251|191:251|191:249|191:249|190:251|190:251|189:252|189:252|189:254|189:254|188:252|188:252|187:252|187:252|187:250|187:250|186:252|186:252|185:252|185:252|185:254|185:254|184:253|184:253|183:251|183:251|183:253|183:253|182:253|182:253|181:255|181:255|181:253|181:253|180:253|180:253|179:251|179:251|179:254|179:254|178:254|178:254|177:256|177:256|177:254|177:254|176:254|176:254|175:252|175:252|175:254|175:254|174:254|174:254|174:256|174:256|173:255|173:255|172:255|172:255|171:253|171:253|171:255|171:255|170:255|170:255|170:257|170:257|169:255|169:255|168:255|168:255|167:254|167:254|167:256|167:256|166:256|166:256|166:258|166:258|165:256|165:256|164:256|164:256|163:254|163:254|163:256|163:256|162:256|162:256|162:259|162:259|161:257|161:257|160:257|160:257|159:255|159:255|159:257|159:257|158:257|158:257|158:259|158:259|157:257|157:257|156:257|156:257|155:256|155:256|155:258|155:258|154:258|154:258|154:260|154:260|153:258|153:258|152:258|152:258|151:256|151:256|151:258|151:258|150:259|150:259|150:261|150:261|149:259|149:259|148:259|148:259|147:257|147:257|147:259|147:259|146:259|146:259|146:261|146:261|145:259|145:259|144:260|144:260|143:258|143:258|143:260|143:260|142:260|142:260|142:262|142:262|141:260|141:260|140:260|140:260|139:258|139:258|139:260|139:260|138:261|138:261|138:263|138:263|137:261|137:261|136:261|136:261|135:259|135:259|135:261|135:261|134:261|134:261|134:263|134:263|133:261|133:261|132:262|132:262|131:260|131:260|131:262|131:262|130:262|130:262|130:264|130:264|129:262|129:262|128:262|128:262|128:260|128:260|127:262|127:262|126:263|126:263|126:265|126:265|125:263|125:263|124:263|124:263|124:261|124:261|123:263|123:263|122:263|122:263|122:265|122:265|122:263|122:263|121:264|121:264|120:262|120:262|120:264|120:264|119:264|119:264|118:266|118:266|118:264|118:264|117:264|117:264|116:262|116:262|116:265|116:265|115:265|115:265|114:267|114:267|114:265|114:265|113:265|113:265|112:263|112:263|112:265|112:265|111:265|111:265|111:267|111:267|110:266|110:266|109:266|109:266|108:264|108:264|108:266|108:266|107:266|107:266|107:268|107:268|106:266|106:266|105:266|105:266|104:265|104:265|104:267|104:267|103:267|103:267|103:269|103:269|102:267|102:267|101:267|101:267|100:265|100:265|100:267|100:267|99:267|99:267|99:269|99:269|98:268|98:268|97:268|97:268|96:266|96:266|96:268|96:268|95:268|95:268|95:270|95:270|94:268|94:268|93:268|93:268|92:267|92:267|92:269|92:269|91:269|91:269|91:271|91:271|90:269|90:269|89:269|89:269|88:267|88:267|88:269|88:269|87:269|87:269|87:272|87:272|86:270|86:270|85:270|85:270|84:268|84:268|84:270|84:270|83:270|83:270|83:272|83:272|82:270|82:270|81:271|81:271|80:269|80:269|80:271|80:271|79:271|79:271|79:273|79:273|78:271|78:271|77:271|77:271|76:269|76:269|76:271|76:271|75:272|75:272|75:274|75:274|74:272|74:272|73:272|73:272|72:270|72:270|72:272|72:272|71:272|71:272|71:274|71:274|70:272|70:272|69:273|69:273|69:271|69:271|68:273|68:273|67:273|67:273|67:275|67:275|66:273|66:273|65:273|65:273|65:271|65:271|64:273|64:273|63:274|63:274|63:276|63:276|62:274|62:274|61:274|61:274|61:272|61:272|60:274|60:274|59:276|59:276|59:274|59:274|58:275|58:275|57:273|57:273|57:275|57:275|55:275|55:275|54:277|54:277|54:275|54:275|53:275|53:275|52:273|52:273|52:275|52:275|51:276|51:276|50:278|50:278|50:276|50:276|49:276|49:276|48:274|48:274|48:276|48:276|47:276|47:276|47:278|47:278|46:277|46:277|45:277|45:277|44:275|44:275|44:277|44:277|43:277|43:277|43:279|43:279|42:277|42:277|41:277|41:277|40:275|40:275|40:278|40:278|39:278|39:278|39:280|39:280|38:278|38:278|37:278|37:278|36:276|36:276|36:278|36:278|35:278|35:278|35:280|35:280|34:279|34:279|33:279|33:279|32:277|32:277|32:279|32:279|31:279|31:279|31:281|31:281|30:279|30:279|29:279|29:279|28:278|28:278|28:280|28:280|27:280|27:280|27:282|27:282|26:280|26:280|25:280|25:280|24:278|24:278|24:280|24:280|23:280|23:280|23:283|23:283|22:281|22:281|21:281|21:281|20:279|20:279|20:281|20:281|19:281|19:281|19:283|19:283|18:281|18:281|17:281|17:281|16:280|16:280|16:282|16:282|15:282|15:282|15:284|15:284|14:282|14:282|13:282|13:282|12:280|12:280|12:282|12:282|11:283|11:283|11:285|11:285|10:283|10:283|9:283|9:283|8:281|8:281|8:283|8:283|7:283|7:283|7:285|7:285|6:283|6:283|5:284|5:284|5:282|5:282|4:284|4:284|3:284|3:284|3:286|3:286|2:284|2:284|1:284|1:284|1:282|1:282|0:284|0:284|0:285|0:285|0:287|0:287|-1:285|-1:285|-2:285|-2:285|1:287|1:287|-1:283|-1:283|0:283|0:283|-1:282|-1:282|0:283|0:283|0:282|0:282|1:283|1:283|0:281|0:281|1:280|1:280|0:279|0:279|2:280|2:280|2:279|2:279|4:280|4:280|3:278|3:278|4:277|4:277|2:276|2:276|4:277|4:277|5:276|5:276|7:277|7:277|6:275|6:275|6:274|6:274|5:273|5:273|7:274|7:274|7:273|7:273|9:274|9:274|8:272|8:272|9:271|9:271|8:270|8:270|9:271|9:271|10:270|10:270|12:271|12:271|11:269|11:269|11:268|11:268|10:267|10:267|12:268|12:268|13:267|13:267|15:268|15:268|13:266|13:266|14:265|14:265|13:264|13:264|15:265|15:265|15:264|15:264|17:265|17:265|16:263|16:263|17:262|17:262|15:261|15:261|17:262|17:262|18:261|18:261|20:262|20:262|19:260|19:260|19:259|19:259|18:258|18:258|20:259|20:259|21:258|21:258|22:259|22:259|21:257|21:257|22:256|22:256|21:255|21:255|23:256|23:256|23:255|23:255|25:256|25:256|24:254|24:254|25:253|25:253|23:252|23:252|25:253|25:253|26:252|26:252|28:253|28:253|26:251|26:251|27:250|27:250|26:249|26:249|28:250|28:250|28:249|28:249|30:250|30:250|29:248|29:248|30:247|30:247|29:246|29:246|30:247|30:247|31:246|31:246|33:247|33:247|32:245|32:245|32:244|32:244|31:243|31:243|33:244|33:244|34:243|34:243|36:244|36:244|34:242|34:242|35:241|35:241|34:240|34:240|36:241|36:241|36:240|36:240|38:241|38:241|37:239|37:239|38:238|38:238|36:237|36:237|38:238|38:238|39:237|39:237|41:238|41:238|40:236|40:236|40:235|40:235|39:234|39:234|41:235|41:235|42:234|42:234|43:235|43:235|42:233|42:233|43:232|43:232|42:231|42:231|44:232|44:232|44:231|44:231|46:232|46:232|45:230|45:230|45:229|45:229|44:228|44:228|46:229|46:229|47:228|47:228|49:229|49:229|47:227|47:227|48:226|48:226|47:225|47:225|49:226|49:226|49:225|49:225|51:226|51:226|50:224|50:224|51:223|51:223|50:222|50:222|51:223|51:223|52:222|52:222|54:223|54:223|53:221|53:221|53:220|53:220|52:219|52:219|54:220|54:220|55:219|55:219|57:220|57:220|55:218|55:218|57:217|57:217|55:216|55:216|58:217|58:217|58:216|58:216|60:217|60:217|59:215|59:215|60:214|60:214|58:213|58:213|60:214|60:214|61:213|61:213|63:214|63:214|62:212|62:212|62:211|62:211|61:210|61:210|63:211|63:211|64:210|64:210|65:211|65:211|64:209|64:209|65:208|65:208|64:207|64:207|65:208|65:208|66:207|66:207|68:208|68:208|67:206|67:206|67:205|67:205|66:204|66:204|68:205|68:205|69:204|69:204|71:205|71:205|69:202|69:202|70:201|70:201|69:200|69:200|71:201|71:201|71:200|71:200|73:201|73:201|72:199|72:199|73:198|73:198|73:195|73:195|74:198|74:198|75:198|75:198|75:199|75:199|75:198|75:198|76:197|76:197|77:195|77:195|77:197|77:197|78:197|78:197|79:199|79:199|79:197|79:197|80:197|80:197|81:195|81:195|81:197|81:197|82:196|82:196|83:198|83:198|83:196|83:196|84:196|84:196|84:194|84:194|85:196|85:196|86:196|86:196|87:198|87:198|87:195|87:195|88:195|88:195|88:193|88:193|89:195|89:195|90:195|90:195|91:197|91:197|91:195|91:195|92:195|92:195|92:193|92:193|93:194|93:194|94:194|94:194|95:196|95:196|95:194|95:194|96:194|96:194|96:192|96:192|97:194|97:194|98:194|98:194|99:195|99:195|99:193|99:193|100:193|100:193|100:191|100:191|101:193|101:193|102:193|102:193|103:195|103:195|103:193|103:193|104:193|104:193|104:190|104:190|105:192|105:192|106:192|106:192|107:194|107:194|107:192|107:192|108:192|108:192|108:190|108:190|109:192|109:192|110:191|110:191|111:193|111:193|111:191|111:191|112:191|112:191|112:189|112:189|113:191|113:191|114:191|114:191|115:193|115:193|115:191|115:191|116:190|116:190|116:188|116:188|117:190|117:190|118:190|118:190|119:192|119:192|119:190|119:190|120:190|120:190|120:188|120:188|121:189|121:189|122:189|122:189|123:191|123:191|123:189|123:189|124:189|124:189|124:187|124:187|125:189|125:189|126:189|126:189|127:190|127:190|127:188|127:188|128:188|128:188|128:186|128:186|129:188|129:188|130:188|130:188|131:190|131:190|131:188|131:188|132:188|132:188|132:186|132:186|133:187|133:187|134:187|134:187|135:189|135:189|135:187|135:187|136:187|136:187|136:185|136:185|137:187|137:187|138:187|138:187|139:188|139:188|139:186|139:186|140:186|140:186|140:184|140:184|141:186|141:186|142:186|142:186|143:188|143:188|143:186|143:186|144:185|144:185|144:183|144:183|145:185|145:185|146:185|146:185|146:187|146:187|147:185|147:185|148:185|148:185|148:183|148:183|149:185|149:185|150:184|150:184|150:186|150:186|151:184|151:184|152:184|152:184|155:183|155:183|153:185|153:185|153:186|153:186|152:186|152:186|153:186|153:186|154:187|154:187|156:186|156:186|155:188|155:188|154:190|154:190|156:189|156:189|156:190|156:190|158:189|158:189|157:191|157:191|158:192|158:192|156:193|156:193|158:193|158:193|159:193|159:193|161:193|161:193|159:194|159:194|160:195|160:195|158:197|158:197|160:196|160:196|161:197|161:197|163:196|163:196|162:197|162:197|162:198|162:198|161:200|161:200|163:199|163:199|163:200|163:200|165:199|165:199|164:201|164:201|164:202|164:202|163:204|163:204|165:202|165:202|166:204|166:204|168:202|168:202|166:205|166:205|167:206|167:206|165:207|165:207|167:207|167:207|168:207|168:207|170:207|170:207|169:208|169:208|169:209|169:209|168:211|168:211|170:210|170:210|170:211|170:211|172:210|172:210|171:211|171:211|171:212|171:212|170:214|170:214|172:213|172:213|173:214|173:214|175:213|175:213|173:215|173:215|174:216|174:216|172:217|172:217|174:216|174:216|175:217|175:217|177:216|177:216|176:218|176:218|176:219|176:219|175:220|175:220|177:220|177:220|179:220|179:220|178:221|178:221|178:222|178:222|177:224|177:224|179:223|179:223|180:224|180:224|181:223|181:223|180:224|180:224|181:225|181:225|179:227|179:227|181:226|181:226|182:227|182:227|184:226|184:226|182:228|182:228|183:229|183:229|182:230|182:230|184:229|184:229|184:230|184:230|186:229|186:229|185:231|185:231|185:232|185:232|184:233|184:233|186:233|186:233|187:233|187:233|188:233|188:233|187:234|187:234|188:235|188:235|186:237|186:237|188:236|188:236|189:237|189:237|191:236|191:236|189:238|189:238|190:238|190:238|189:240|189:240|191:239|191:239|191:240|191:240|193:239|193:239|192:241|192:241|192:242|192:242|191:243|191:243|193:242|193:242|193:243|193:243|195:242|195:242|194:244|194:244|195:245|195:245|193:246|193:246|195:246|195:246|196:246|196:246|198:246|198:246|196:247|196:247|197:248|197:248|196:250|196:250|198:249|198:249|198:250|198:250|200:249|200:249|199:251|199:251|198:253|198:253|200:252|200:252|200:253|200:253|202:252|202:252|201:254|201:254|202:255|202:255|200:256|200:256|202:255|202:255|203:256|203:256|205:255|205:255|203:257|203:257|204:258|204:258|203:259|203:259|205:259|205:259|207:259|207:259|206:260|206:260|206:261|206:261|205:263|205:263|207:262|207:262|207:263|207:263|209:262|209:262|208:264|208:264|209:264|209:264|207:266|207:266|209:265|209:265|210:266|210:266|212:265|212:265|210:267|210:267|211:268|211:268|210:269|210:269|211:268|211:268|212:269|212:269|214:269|214:269|213:270|213:270|213:271|213:271|212:272|212:272|214:272|214:272|214:273|214:273|216:272|216:272|215:273|215:273|216:274|216:274|214:276|214:276|216:275|216:275|217:276|217:276|219:275|219:275|217:277|217:277|218:277|218:277|217:279|217:279|218:278|218:278|219:279|219:279|221:278|221:278|220:280|220:280|220:281|220:281|219:282|219:282|221:281|221:281|221:282|221:282|223:282|223:282|222:283|222:283|223:284|223:284|221:285|221:285|223:285|223:285|224:286|224:286|226:285|226:285|224:286|224:286|225:287|225:287|223:289|223:289|225:288|225:288|226:289|226:289|228:288|228:288|227:290|227:290|226:292|226:292|228:291|228:291|228:292|228:292|230:291|230:291|229:293|229:293|229:294|229:294|228:295|228:295|230:295|230:295|231:295|231:295|233:295|233:295|231:296|231:296|232:297|232:297|230:299|230:299|232:298|232:298|233:299|233:299|235:298|235:298|234:299|234:299|234:300|234:300|233:302|233:302|235:301|235:301|235:302|235:302|237:301|237:301|236:303|236:303|235:305|235:305|237:304|237:304|238:305|238:305|240:304|240:304|238:306|238:306|239:307|239:307|237:308|237:308|239:308|239:308|240:308|240:308|242:308|242:308|241:309|241:309|241:310|241:310|240:312|240:312|242:311|242:311|242:312|242:312|244:311|244:311|243:312|243:312|243:313|243:313|242:315|242:315|244:314|244:314|245:315|245:315|246:314|246:314|245:316|245:316|246:316|246:316|244:318|244:318|246:317|246:317|247:318|247:318|249:317|249:317|247:319|247:319|248:320|248:320|247:321|247:321|249:321|249:321|251:321|251:321|250:322|250:322|250:323|250:323|249:325|249:325|251:324|251:324|252:325|252:325|253:324|253:324|252:325|252:325|253:326|253:326|251:328|251:328|253:327|253:327|254:328|254:328|256:327|256:327|254:329|254:329|255:330|255:330|254:331|254:331|256:330|256:330|256:331|256:331|258:330|258:330|257:332|257:332|257:333|257:333|256:334|256:334|258:334|258:334|261:334|261:334|260:335|260:335|261:336|261:336|258:338|258:338|261:337|261:337|262:338|262:338|264:337|264:337|262:338|262:338|263:339|263:339|262:341|262:341|264:340|264:340|264:341|264:341|266:340|266:340|265:342|265:342|265:343|265:343|264:344|264:344|266:343|266:343|266:344|266:344|268:343|268:343|267:345|267:345|268:346|268:346|266:347|266:347|268:347|268:347|269:347|269:347|271:347|271:347|269:348|269:348|270:349|270:349|269:351|269:351|271:350|271:350|271:351|271:351|273:350|273:350|272:352|272:352|271:354|271:354|273:353|273:353|273:354|273:354|275:353|275:353|274:355|274:355|275:356|275:356|273:357|273:357|275:356|275:356|276:357|276:357|278:356|278:356|276:358|276:358|277:359|277:359|276:360|276:360|277:360|277:360|278:360|278:360|280:360|280:360|279:361|279:361|279:362|279:362|278:364|278:364|280:363|280:363|280:364|280:364|282:363|282:363|281:365|281:365|282:365|282:365|280:367|280:367|282:366|282:366|283:367|283:367|285:366|285:366|283:368|283:368|284:369|284:369|283:370|283:370|284:369|284:369|285:370|285:370|287:369|287:369|286:371|286:371|286:372|286:372|285:373|285:373|287:373|287:373|289:373|289:373|288:374|288:374|289:375|289:375|287:377|287:377|289:376|289:376|290:377|290:377|292:376|292:376|290:378|290:378|291:378|291:378|290:380|290:380|291:379|291:379|292:380|292:380|292:378|292:378|293:380|293:380|294:380|294:380|295:382|295:382|295:379|295:379|296:379|296:379|296:377|296:377|297:379|297:379|298:379|298:379|299:381|299:381|299:379|299:379|300:379|300:379|300:377|300:377|301:378|301:378|302:378|302:378|303:380|303:380|303:378|303:378|304:378|304:378|304:376|304:376|305:378|305:378|306:378|306:378|307:379|307:379|307:377|307:377|308:377|308:377|308:375|308:375|309:377|309:377|310:377|310:377|311:379|311:379|311:377|311:377|312:377|312:377|312:374|312:374|313:376|313:376|314:376|314:376|314:378|314:378|315:376|315:376|316:376|316:376|316:374|316:374|317:376|317:376|318:375|318:375|318:377|318:377|319:375|319:375|320:375|320:375|320:373|320:373|320:375|320:375|321:375|321:375|322:377|322:377|322:375|322:375|323:374|323:374|324:372|324:372|324:374|324:374|325:374|325:374|326:376|326:376|326:374|326:374|327:374|327:374|328:372|328:372|328:374|328:374|329:373|329:373|330:375|330:375|330:373|330:373|331:373|331:373|331:371|331:371|332:373|332:373|333:373|333:373|334:375|334:375|334:373|334:373|335:372|335:372|335:370|335:370|336:372|336:372|337:372|337:372|338:374|338:374|338:372|338:372|339:372|339:372|339:370|339:370|340:371|340:371|341:371|341:371|342:373|342:373|342:371|342:371|343:371|343:371|343:369|343:369|344:371|344:371|345:371|345:371|346:372|346:372|346:370|346:370|347:370|347:370|347:368|347:368|348:370|348:370|349:370|349:370|350:372|350:372|350:370|350:370|351:370|351:370|351:367|351:367|352:369|352:369|353:369|353:369|354:371|354:371|354:369|354:369|355:369|355:369|355:367|355:367|356:369|356:369|357:369|357:369|358:370|358:370|358:368|358:368|359:368|359:368|359:366|359:366|360:368|360:368|361:368|361:368|362:370|362:370|362:368|362:368|363:367|363:367|363:365|363:365|364:367|364:367|365:367|365:367|366:369|366:369|366:367|366:367|367:367|367:367|367:365|367:365|368:367|368:367|369:366|369:366|369:368|369:368|370:366|370:366|371:366|371:366|371:364|371:364|372:366|372:366|373:366|373:366|373:368|373:368|374:366|374:366|375:365|375:365|375:363|375:363|376:365|376:365|377:365|377:365|377:367|377:367|377:365|377:365|378:365|378:365|379:363|379:363|379:364|379:364|380:364|380:364|381:366|381:366|381:364|381:364|382:364|382:364|383:362|383:362|383:364|383:364|384:364|384:364|385:366|385:366|385:363|385:363|386:363|386:363|386:361|386:361|387:363|387:363|388:363|388:363|389:365|389:365|389:363|389:363|390:363|390:363|390:361|390:361|391:362|391:362|392:362|392:362|393:364|393:364|393:362|393:362|394:362|394:362|394:360|394:360|395:362|395:362|396:362|396:362|397:363|397:363|397:361|397:361|398:361|398:361|398:359|398:359|399:361|399:361|400:361|400:361|401:363|401:363|401:361|401:361|402:360|402:360|402:358|402:358|403:360|403:360|404:360|404:360|405:362|405:362|405:360|405:360|406:360|406:360|406:358|406:358|407:360|407:360|408:359|408:359|409:361|409:361|409:359|409:359|410:359|410:359|410:357|410:357|411:359|411:359|412:359|412:359|413:361|413:361|413:359|413:359|414:358|414:358|414:356|414:356|415:358|415:358|416:358|416:358|417:360|417:360|417:358|417:358|418:358|418:358|418:356|418:356|419:358|419:358|420:357|420:357|421:359|421:359|421:357|421:357|422:357|422:357|422:355|422:355|423:357|423:357|424:357|424:357|425:359|425:359|425:356|425:356|426:356|426:356|426:354|426:354|427:356|427:356|428:356|428:356|428:358|428:358|429:356|429:356|430:356|430:356|430:354|430:354|431:355|431:355|432:355|432:355|432:357|432:357|433:355|433:355|431:356|431:356|432:354|432:354|431:353|431:353|433:351|433:351|431:352|431:352|430:352|430:352|428:353|428:353|429:351|429:351|429:350|429:350|430:348|430:348|428:349|428:349|427:348|427:348|425:349|425:349|426:348|426:348|426:347|426:347|427:345|427:345|425:346|425:346|424:345|424:345|423:346|423:346|424:345|424:345|423:344|423:344|424:342|424:342|422:343|422:343|422:342|422:342|420:343|420:343|421:342|421:342|420:341|420:341|422:339|422:339|420:340|420:340|419:339|419:339|417:340|417:340|418:339|418:339|418:338|418:338|419:336|419:336|417:337|417:337|416:336|416:336|415:337|415:337|416:336|416:336|415:335|415:335|416:333|416:333|414:334|414:334|414:333|414:333|412:334|412:334|413:333|413:333|412:332|412:332|414:330|414:330|412:331|412:331|411:330|411:330|409:331|409:331|410:330|410:330|410:329|410:329|411:327|411:327|409:328|409:328|408:327|408:327|407:328|407:328|408:327|408:327|407:326|407:326|408:324|408:324|406:325|406:325|406:324|406:324|404:325|404:325|405:324|405:324|405:323|405:323|406:321|406:321|404:322|404:322|403:321|403:321|401:322|401:322|403:321|403:321|402:320|402:320|403:318|403:318|401:319|401:319|401:318|401:318|399:319|399:319|400:318|400:318|399:317|399:317|400:315|400:315|399:316|399:316|398:315|398:315|396:316|396:316|397:315|397:315|397:314|397:314|398:312|398:312|396:313|396:313|395:312|395:312|393:313|393:313|395:312|395:312|394:311|394:311|395:309|395:309|393:310|393:310|393:309|393:309|391:310|391:310|392:309|392:309|391:308|391:308|392:306|392:306|391:307|391:307|390:306|390:306|388:307|388:307|389:306|389:306|389:305|389:305|390:303|390:303|388:304|388:304|387:303|387:303|385:304|385:304|387:303|387:303|386:302|386:302|387:300|387:300|385:301|385:301|385:300|385:300|383:301|383:301|384:300|384:300|383:299|383:299|384:297|384:297|383:298|383:298|382:297|382:297|380:298|380:298|381:297|381:297|381:296|381:296|382:294|382:294|380:295|380:295|379:294|379:294|378:295|378:295|379:294|379:294|378:293|378:293|377:291|377:291|377:293|377:293|376:293|376:293|376:295|376:295|375:293|375:293|374:294|374:294|373:292|373:292|373:294|373:294|372:294|372:294|372:296|372:296|371:294|371:294|370:294|370:294|369:292|369:292|369:294|369:294|368:295|368:295|368:297|368:297|367:295|367:295|366:295|366:295|365:293|365:293|365:295|365:295|364:295|364:295|364:297|364:297|363:295|363:295|362:295|362:295|361:294|361:294|361:296|361:296|360:296|360:296|360:298|360:298|359:296|359:296|358:296|358:296|358:294|358:294|357:296|357:296|356:296|356:296|356:298|356:298|355:297|355:297|354:297|354:297|354:295|354:295|353:297|353:297|352:297|352:297|352:299|352:299|351:297|351:297|350:297|350:297|350:295|350:295|349:297|349:297|349:298|349:298|348:300|348:300|348:298|348:298|347:298|347:298|346:296|346:296|346:298|346:298|345:298|345:298|344:300|344:300|344:298|344:298|343:298|343:298|342:297|342:297|342:299|342:299|341:299|341:299|340:301|340:301|340:299|340:299|339:299|339:299|338:297|338:297|338:299|338:299|337:299|337:299|337:301|337:301|336:300|336:300|335:300|335:300|334:298|334:298|334:300|334:300|333:300|333:300|333:302|333:302|332:300|332:300|331:300|331:300|330:298|330:298|330:300|330:300|329:301,1,3039.74979047168,2|0,1:0|0:0,0:1:0:0:
95,284,96660,6,0,L|81:360,1,67.4999982118607,10|0,0:2|0:0,0:0:0:0:
125,129,96960,2,0,L|139:53,1,67.4999982118607
381,204,97260,6,0,L|457:190,1,67.4999982118607,0|0,1:0|0:0,0:0:0:0:
205,196,97560,2,0,L|129:210,1,67.4999982118607
505,346,97860,6,0,B|461:271|461:271|385:332,1,168.750001966953,10|0,0:2|0:0,0:0:0:0:
440,381,98310,1,0,1:0:0:0:
254,76,98460,6,0,L|270:147,1,67.5000007867814,6|0,1:3|0:0,0:0:0:0:
281,146,98610,2,0,L|297:217,1,67.5000007867814,2|0,0:2|0:0,0:0:0:0:
159,353,98760,6,0,L|144:287,1,67.5000007867814,6|0,0:3|0:0,0:0:0:0:
68,246,98910,2,0,L|53:180,1,67.5000007867814,2|0,0:2|0:0,0:0:0:0:
327,14,99060,6,0,L|343:85,1,67.5000007867814,10|0,0:2|0:0,0:0:0:0:
354,84,99210,2,0,L|370:155,1,67.5000007867814,6|0,0:3|0:0,0:0:0:0:
381,154,99360,2,0,L|397:225,1,67.5000007867814,2|0,0:2|0:0,0:0:0:0:
408,224,99510,2,0,L|424:295,1,67.5000007867814,2|0,0:2|0:0,0:0:0:0:
500,100,99660,6,0,B|348:26|205:164|257:311|257:311|336:299|368:368,1,551.249990653992,2|0,1:2|0:0,0:0:0:0:
414,294,100260,6,0,L|63:228,1,337.500003933907,10|0,0:2|0:0,0:0:0:0:
178,324,100710,1,10,0:2:0:0:
172,77,100860,6,2,B|170:78|170:78|170:80|170:80|169:76|169:76|169:78|169:78|166:79|166:79|166:81|166:81|165:77|165:77|165:79|165:79|163:80|163:80|163:82|163:82|162:78|162:78|162:80|162:80|160:81|160:81|160:83|160:83|158:79|158:79|159:81|159:81|156:82|156:82|156:84|156:84|155:80|155:80|155:82|155:82|153:82|153:82|153:85|153:85|152:81|152:81|152:83|152:83|149:83|149:83|150:86|150:86|148:82|148:82|148:84|148:84|146:84|146:84|146:86|146:86|145:83|145:83|145:85|145:85|143:85|143:85|143:87|143:87|142:84|142:84|142:86|142:86|139:86|139:86|139:88|139:88|138:85|138:85|138:87|138:87|136:87|136:87|136:89|136:89|135:86|135:86|135:88|135:88|133:88|133:88|133:90|133:90|132:86|132:86|132:89|132:89|129:89|129:89|129:91|129:91|128:87|128:87|128:89|128:89|126:90|126:90|126:92|126:92|125:88|125:88|125:90|125:90|123:91|123:91|123:93|123:93|122:89|122:89|122:91|122:91|119:92|119:92|119:94|119:94|118:90|118:90|118:92|118:92|116:93|116:93|116:95|116:95|115:91|115:91|115:93|115:93|112:94|112:94|113:96|113:96|111:92|111:92|112:94|112:94|109:95|109:95|109:97|109:97|108:93|108:93|108:95|108:95|106:96|106:96|106:98|106:98|105:94|105:94|105:96|105:96|102:97|102:97|102:99|102:99|101:95|101:95|101:97|101:97|99:98|99:98|99:100|99:100|98:96|98:96|98:98|98:98|96:99|96:99|96:101|96:101|95:97|95:97|95:99|95:99|92:100|92:100|92:102|92:102|91:98|91:98|91:100|91:100|89:101|89:101|89:103|89:103|88:99|88:99|88:101|88:101|86:102|86:102|86:104|86:104|85:100|85:100|85:102|85:102|82:103|82:103|82:105|82:105|81:101|81:101|81:103|81:103|79:104|79:104|79:106|79:106|78:102|78:102|78:104|78:104|75:105|75:105|76:107|76:107|74:103|74:103|75:105|75:105|72:106|72:106|72:108|72:108|71:104|71:104|71:106|71:106|69:106|69:106|69:109|69:109|68:105|68:105|68:107|68:107|65:107|65:107|65:110|65:110|64:106|64:106|64:108|64:108|62:108|62:108|62:110|62:110|61:107|61:107|61:109|61:109|59:109|59:109|59:111|59:111|58:108|58:108|58:110|58:110|55:110|55:110|55:112|55:112|54:109|54:109|54:111|54:111|52:111|52:111|52:113|52:113|51:110|51:110|51:112|51:112|49:112|49:112|49:114|49:114|48:110|48:110|48:113|48:113|45:113|45:113|45:115|45:115|44:111|44:111|44:113|44:113|42:114|42:114|42:116|42:116|41:112|41:112|41:114|41:114|39:115|39:115|40:117|40:117|37:115|37:115|38:116|38:116|38:119|38:119|39:120|39:120|35:118|35:118|37:120|37:120|36:122|36:122|38:123|38:123|34:122|34:122|36:123|36:123|35:125|35:125|37:126|37:126|33:125|33:125|35:126|35:126|34:128|34:128|35:130|35:130|32:128|32:128|33:129|33:129|32:132|32:132|34:133|34:133|30:131|30:131|32:133|32:133|31:135|31:135|33:136|33:136|29:135|29:135|31:136|31:136|30:138|30:138|31:139|31:139|28:138|28:138|29:139|29:139|29:141|29:141|30:143|30:143|26:141|26:141|28:142|28:142|27:145|27:145|29:146|29:146|25:144|25:144|27:146|27:146|26:148|26:148|28:149|28:149|24:148|24:148|26:149|26:149|25:151|25:151|26:152|26:152|23:151|23:151|24:152|24:152|23:154|23:154|25:156|25:156|21:154|21:154|23:155|23:155|22:158|22:158|24:159|24:159|20:157|20:157|22:159|22:159|21:161|21:161|22:162|22:162|19:161|19:161|20:162|20:162|20:164|20:164|21:165|21:165|18:164|18:164|19:165|19:165|18:167|18:167|20:169|20:169|16:167|16:167|18:168|18:168|17:171|17:171|19:172|19:172|15:170|15:170|17:172|17:172|16:174|16:174|17:175|17:175|14:174|14:174|15:175|15:175|14:177|14:177|16:178|16:178|12:177|12:177|14:178|14:178|13:180|13:180|15:182|15:182|11:180|11:180|13:181|13:181|12:184|12:184|14:185|14:185|10:183|10:183|11:185|11:185|11:187|11:187|12:188|12:188|9:187|9:187|10:188|10:188|9:190|9:190|11:191|11:191|7:190|7:190|9:191|9:191|8:193|8:193|10:195|10:195|6:193|6:193|8:194|8:194|7:197|7:197|8:198|8:198|5:196|5:196|6:198|6:198|5:200|5:200|7:201|7:201|3:200|3:200|5:201|5:201|4:203|4:203|6:204|6:204|2:203|2:203|4:204|4:204|3:206|3:206|5:208|5:208|1:206|1:206|2:207|2:207|2:210|2:210|3:211|3:211|0:209|0:209|1:211|1:211|3:210|3:210|3:208|3:208|4:212|4:212|4:210|4:210|6:209|6:209|6:207|6:207|7:211|7:211|7:209|7:209|10:209|10:209|10:206|10:206|11:210|11:210|11:208|11:208|13:208|13:208|13:206|13:206|14:209|14:209|14:207|14:207|16:207|16:207|16:205|16:205|17:208|17:208|17:206|17:206|20:206|20:206|20:204|20:204|21:207|21:207|21:205|21:205|23:205|23:205|23:203|23:203|24:206|24:206|24:204|24:204|26:204|26:204|26:202|26:202|27:205|27:205|27:203|27:203|30:203|30:203|30:201|30:201|31:205|31:205|31:202|31:202|33:202|33:202|33:200|33:200|34:204|34:204|34:202|34:202|37:201|37:201|36:199|36:199|38:203|38:203|37:201|37:201|40:200|40:200|40:198|40:198|41:202|41:202|41:200|41:200|43:199|43:199|43:197|43:197|44:201|44:201|44:199|44:199|47:198|47:198|47:196|47:196|48:200|48:200|48:198|48:198|50:197|50:197|50:195|50:195|51:199|51:199|51:197|51:197|53:196|53:196|53:194|53:194|54:198|54:198|54:196|54:196|57:195|57:195|57:193|57:193|58:197|58:197|58:195|58:195|60:194|60:194|60:192|60:192|61:196|61:196|61:194|61:194|63:193|63:193|63:191|63:191|64:195|64:195|64:193|64:193|67:192|67:192|67:190|67:190|68:194|68:194|68:192|68:192|70:191|70:191|70:189|70:189|71:193|71:193|71:191|71:191|73:190|73:190|73:188|73:188|74:192|74:192|74:190|74:190|77:189|77:189|77:187|77:187|78:191|78:191|78:189|78:189|80:188|80:188|80:186|80:186|81:190|81:190|81:188|81:188|84:187|84:187|83:185|83:185|85:189|85:189|85:187|85:187|87:186|87:186|87:184|87:184|88:188|88:188|88:186|88:186|90:185|90:185|90:183|90:183|91:187|91:187|91:185|91:185|94:184|94:184|94:182|94:182|95:186|95:186|95:184|95:184|97:184|97:184|97:181|97:181|98:185|98:185|98:183|98:183|100:183|100:183|100:180|100:180|101:184|101:184|101:182|101:182|104:182|104:182|104:180|104:180|105:183|105:183|105:181|105:181|107:181|107:181|107:179|107:179|108:182|108:182|108:180|108:180|110:180|110:180|110:178|110:178|111:181|111:181|111:179|111:179|114:179|114:179|114:177|114:177|115:180|115:180|115:178|115:178|117:178|117:178|117:176|117:176|118:180|118:180|118:177|118:177|120:177|120:177|120:175|120:175|122:179|122:179|121:177|121:177|124:176|124:176|124:174|124:174|125:178|125:178|125:176|125:176|127:175|127:175|127:173|127:173|128:177|128:177|128:175|128:175|131:174|131:174|131:172|131:172|132:176|132:176|132:174|132:174|134:173|134:173|134:171|134:171|135:175|135:175|135:173|135:173|137:172|137:172|137:170|137:170|138:174|138:174|138:172|138:172|141:171|141:171|141:169|141:169|142:173|142:173|142:171|142:171|144:170|144:170|144:168|144:168|145:172|145:172|145:170|145:170|147:169|147:169|147:167|147:167|148:171|148:171|148:169|148:169|151:168|151:168|151:166|151:166|152:170|152:170|152:168|152:168|154:167|154:167|154:165|154:165|155:169|155:169|155:167|155:167|157:166|157:166|157:164|157:164|158:168|158:168|158:166|158:166|161:165|161:165|161:163|161:163|162:167|162:167|162:165|162:165|164:164|164:164|164:162|164:162|165:166|165:166|165:164|165:164|168:163|168:163|167:161|167:161|169:165|169:165|168:163|168:163|171:162|171:162|171:160|171:160|172:164|172:164|172:162|172:162|174:161|174:161|174:159|174:159|175:163|175:163|175:161|175:161|178:160|178:160|178:158|178:158|179:162|179:162|179:160|179:160|181:159|181:159|181:157|181:157|182:161|182:161|182:159|182:159|184:159|184:159|184:156|184:156|185:160|185:160|185:158|185:158|188:158|188:158|188:155|188:155|189:159|189:159|189:157|189:157|191:157|191:157|191:155|191:155|192:158|192:158|192:156|192:156|194:156|194:156|194:154|194:154|195:157|195:157|195:155|195:155|198:155|198:155|198:153|198:153|199:156|199:156|199:154|199:154|201:154|201:154|201:152|201:152|202:155|202:155|202:153|202:153|204:153|204:153|204:151|204:151|206:155|206:155|205:152|205:152|208:152|208:152|208:150|208:150|209:154|209:154|209:151|209:151|211:151|211:151|211:149|211:149|212:153|212:153|212:151|212:151|215:150|215:150|214:148|214:148|216:152|216:152|216:150|216:150|218:149|218:149|218:147|218:147|219:151|219:151|219:149|219:149|221:148|221:148|221:146|221:146|222:150|222:150|222:148|222:148|225:147|225:147|225:145|225:145|226:149|226:149|226:147|226:147|228:146|228:146|227:145|227:145|230:147|230:147|229:145|229:145|230:143|230:143|228:142|228:142|232:144|232:144|230:142|230:142|232:140|232:140|230:139|230:139|234:141|234:141|232:139|232:139|233:137|233:137|232:136|232:136|235:138|235:138|234:136|234:136|235:134|235:134|234:133|234:133|237:135|237:135|236:133|236:133|237:131|237:131|236:130|236:130|239:132|239:132|237:130|237:130|239:128|239:128|237:127|237:127|241:129|241:129|239:127|239:127|241:125|241:125|239:124|239:124|243:126|243:126|241:124|241:124|242:122|242:122|241:121|241:121|244:123|244:123|243:121|243:121|244:119|244:119|243:118|243:118|246:120|246:120|245:118|245:118|246:116|246:116|244:115|244:115|248:117|248:117|246:115|246:115|248:113|248:113|246:112|246:112|250:114|250:114|248:112|248:112|250:110|250:110|248:109|248:109|251:111|251:111|250:109|250:109|251:107|251:107|250:106|250:106|253:108|253:108|252:106|252:106|253:104|253:104|252:103|252:103|255:105|255:105|254:103|254:103|255:101|255:101|253:100|253:100|257:102|257:102|255:100|255:100|257:98|257:98|255:97|255:97|259:99|259:99|257:97|257:97|258:95|258:95|257:94|257:94|260:96|260:96|259:94|259:94|260:92|260:92|259:91|259:91|262:93|262:93|261:91|261:91|262:89|262:89|261:88|261:88|264:90|264:90|263:88|263:88|264:86|264:86|262:85|262:85|266:87|266:87|264:85|264:85|266:83|266:83|264:82|264:82|268:84|268:84|266:82|266:82|267:80|267:80|266:79|266:79|269:81|269:81|268:79|268:79|269:77|269:77|268:76|268:76|271:78|271:78|270:76|270:76|271:74|271:74|270:73|270:73|273:75|273:75|272:73|272:73|273:71|273:71|271:70|271:70|275:72|275:72|273:70|273:70|275:68|275:68|273:67|273:67|277:69|277:69|275:67|275:67|276:65|276:65|275:64|275:64|278:66|278:66|277:64|277:64|278:62|278:62|277:61|277:61|280:63|280:63|279:61|279:61|281:61|281:61|282:59|282:59|281:63|281:63|282:62|282:62|284:62|284:62|285:60|285:60|285:64|285:64|285:62|285:62|288:63|288:63|289:61|289:61|288:65|288:65|289:63|289:63|291:63|291:63|292:61|292:61|291:65|291:65|292:63|292:63|295:64|295:64|296:62|296:62|295:66|295:66|296:64|296:64|298:64|298:64|299:62|299:62|298:66|298:66|299:65|299:65|302:65|302:65|302:63|302:63|302:67|302:67|303:65|303:65|305:66|305:66|306:64|306:64|305:68|305:68|306:66|306:66|309:66|309:66|309:64|309:64|309:68|309:68|310:66|310:66|312:67|312:67|313:65|313:65|312:69|312:69|313:67|313:67|315:67|315:67|316:65|316:65|316:69|316:69|316:68|316:68|319:68|319:68|320:66|320:66|319:70|319:70|320:68|320:68|322:69|322:69|323:67|323:67|322:71|322:71|323:69|323:69|326:69|326:69|327:67|327:67|326:71|326:71|327:69|327:69|329:70|329:70|330:68|330:68|329:72|329:72|330:70|330:70|333:70|333:70|333:68|333:68|333:72|333:72|334:70|334:70|336:71|336:71|337:69|337:69|336:73|336:73|337:71|337:71|340:72|340:72|340:70|340:70|340:74|340:74|340:72|340:72|343:72|343:72|344:70|344:70|343:74|343:74|344:72|344:72|346:73|346:73|347:71|347:71|347:75|347:75|347:73|347:73|350:73|350:73|351:71|351:71|350:75|350:75|351:73|351:73|353:74|353:74|354:72|354:72|353:76|353:76|354:74|354:74|357:75|357:75|358:73|358:73|357:77|357:77|358:75|358:75|360:75|360:75|361:73|361:73|360:77|360:77|361:75|361:75|364:76|364:76|364:74|364:74|364:78|364:78|365:76|365:76|367:76|367:76|368:74|368:74|367:78|367:78|368:76|368:76|371:77|371:77|371:75|371:75|371:79|371:79|371:77|371:77|374:78|374:78|375:76|375:76|374:80|374:80|375:78|375:78|377:78|377:78|378:76|378:76|378:80|378:80|378:78|378:78|381:79|381:79|382:77|382:77|381:81|381:81|382:79|382:79|384:79|384:79|385:77|385:77|384:81|384:81|385:79|385:79|388:80|388:80|389:78|389:78|388:82|388:82|389:80|389:80|391:81|391:81|392:79|392:79|391:83|391:83|392:81|392:81|395:81|395:81|395:79|395:79|395:83|395:83|396:81|396:81|398:82|398:82|399:80|399:80|398:84|398:84|399:82|399:82|402:82|402:82|402:80|402:80|402:84|402:84|402:82|402:82|405:83|405:83|406:81|406:81|405:85|405:85|406:83|406:83|408:84|408:84|409:82|409:82|409:86|409:86|409:84|409:84|412:84|412:84|413:82|413:82|412:86|412:86|413:84|413:84|415:85|415:85|416:83|416:83|415:87|415:87|416:85|416:85|419:85|419:85|420:83|420:83|419:87|419:87|420:85|420:85|422:86|422:86|423:84|423:84|422:88|422:88|423:86|423:86|426:86|426:86|426:85|426:85|426:89|426:89|427:87|427:87|429:87|429:87|430:85|430:85|429:89|429:89|430:87|430:87|432:88|432:88|433:86|433:86|433:90|433:90|433:88|433:88|436:88|436:88|437:86|437:86|436:90|436:90|437:88|437:88|439:89|439:89|440:87|440:87|440:91|440:91|440:89|440:89|443:89|443:89|444:88|444:88|443:92|443:92|444:90|444:90|446:90|446:90|447:88|447:88|446:92|446:92|447:90|447:90|450:91|450:91|451:89|451:89|450:93|450:93|451:91|451:91|453:91|453:91|454:89|454:89|453:93|453:93|454:91|454:91|457:92|457:92|457:90|457:90|457:94|457:94|458:92|458:92|460:92|460:92|461:91|461:91|460:95|460:95|461:93|461:93|463:93|463:93|465:93|465:93|462:95|462:95|464:94|464:94|465:97|465:97|467:96|467:96|463:98|463:98|465:98|465:98|466:100|466:100|468:100|468:100|464:101|464:101|466:101|466:101|467:103|467:103|469:103|469:103|466:104|466:104|468:104|468:104|469:106|469:106|471:106|471:106|467:108|467:108|469:107|469:107|470:110|470:110|472:109|472:109|468:111|468:111|470:110|470:110|471:113|471:113|473:112|473:112|470:114|470:114|472:114|472:114|473:116|473:116|475:116|475:116|471:117|471:117|473:117|473:117|474:119|474:119|476:119|476:119|472:120|472:120|474:120|474:120|475:122|475:122|477:122|477:122|474:124|474:124|476:123|476:123|477:126|477:126|479:125|479:125|475:127|475:127|477:127|477:127|478:129|478:129|480:129|480:129|477:130|477:130|479:130|479:130|480:132|480:132|482:132|482:132|478:133|478:133|480:133|480:133|481:135|481:135|483:135|483:135|479:137|479:137|481:136|481:136|482:138|482:138|484:138|484:138|481:140|481:140|483:139|483:139|484:142|484:142|486:141|486:141|482:143|482:143|484:143|484:143|485:145|485:145|487:145|487:145|483:146|483:146|485:146|485:146|486:148|486:148|488:148|488:148|485:149|485:149|487:149|487:149|488:151|488:151|490:151|490:151|486:153|486:153|488:152|488:152|489:155|489:155|491:154|491:154|487:156|487:156|489:155|489:155|490:158|490:158|492:157|492:157|489:159|489:159|491:159|491:159|492:161|492:161|494:161|494:161|490:162|490:162|492:162|492:162|493:164|493:164|495:164|495:164|492:165|492:165|494:165|494:165|495:167|495:167|497:167|497:167|493:169|493:169|495:168|495:168|496:171|496:171|498:170|498:170|494:172|494:172|496:172|496:172|497:174|497:174|499:174|499:174|496:175|496:175|498:175|498:175|499:178|499:178|498:180|498:180|499:176|499:176|498:178|498:178|496:177|496:177|495:179|495:179|495:175|495:175|495:177|495:177|492:177|492:177|491:179|491:179|492:175|492:175|491:177|491:177|489:176|489:176|488:178|488:178|488:174|488:174|488:176|488:176|485:176|485:176|484:178|484:178|485:174|485:174|484:176|484:176|482:175|482:175|481:177|481:177|482:173|482:173|481:175|481:175|478:175|478:175|477:176|477:176|478:172|478:172|477:174|477:174|475:174|475:174|474:176|474:176|475:172|475:172|474:174|474:174|471:173|471:173|471:175|471:175|471:171|471:171|470:173|470:173|468:173|468:173|467:175|467:175|468:171|468:171|467:173|467:173|465:172|465:172|464:174|464:174|464:170|464:170|464:172|464:172|461:172|461:172|460:173|460:173|461:170|461:170|460:171|460:171|458:171|458:171|457:173|457:173|457:169|457:169|457:171|457:171|454:170|454:170|453:172|453:172|454:168|454:168|453:170|453:170|451:170|451:170|450:172|450:172|451:168|451:168|450:170|450:170|447:169|447:169|446:171|446:171|447:167|447:167|446:169|446:169|444:169|444:169|443:171|443:171|444:167|444:167|443:169|443:169|440:168|440:168|440:170|440:170|440:166|440:166|439:168|439:168|437:168|437:168|436:169|436:169|437:165|437:165|436:167|436:167|433:167|433:167|433:169|433:169|433:165|433:165|432:167|432:167|430:166|430:166|429:168|429:168|430:164|430:164|429:166|429:166|427:166|427:166|426:168|426:168|426:164|426:164|426:166|426:166|423:165|423:165|422:167|422:167|423:163|423:163|422:165|422:165|420:165|420:165|419:167|419:167|419:163|419:163|419:164|419:164|416:164|416:164|415:166|415:166|416:162|416:162|415:164|415:164|413:163|413:163|412:165|412:165|413:161|413:161|412:163|412:163|409:163|409:163|408:165|408:165|409:161|409:161|408:163|408:163|406:162|406:162|405:164|405:164|406:160|406:160|405:162|405:162|402:162|402:162|402:164|402:164|402:160|402:160|401:162|401:162|399:161|399:161|398:163|398:163|399:159|399:159|398:161|398:161|396:161|396:161|395:162|395:162|395:158|395:158|395:160|395:160|392:160|392:160|391:162|391:162|392:158|392:158|391:160|391:160|389:159|389:159|388:161|388:161|388:157|388:157|388:159|388:159|385:159|385:159|384:161|384:161|385:157|385:157|384:159|384:159|382:158|382:158|381:160|381:160|382:156|382:156|381:158|381:158|378:158|378:158|377:160|377:160|378:156|378:156|377:157|377:157|375:157|375:157|374:159|374:159|375:155|375:155|374:157|374:157|371:156|371:156|371:158|371:158|371:154|371:154|370:156|370:156|368:156|368:156|367:158|367:158|368:154|368:154|367:156|367:156|364:155|364:155|364:157|364:157|364:153|364:153|363:155|363:155|361:155|361:155|360:157|360:157|361:153|361:153|360:155|360:155|358:154|358:154|357:156|357:156|357:152|357:152|357:154|357:154|354:154|354:154|353:155|353:155|354:152|354:152|353:153|353:153|351:153|351:153|350:155|350:155|350:151|350:151|350:153|350:153|347:152|347:152|346:154|346:154|347:150|347:150|346:152|346:152|344:152|344:152|343:154|343:154|344:150|344:150|343:152|343:152|340:151|340:151|339:153|339:153|340:149|340:149|339:151|339:151|337:151|337:151|336:153|336:153|337:149|337:149|336:150|336:150|333:150,1,3136.4333393231,2|0,1:1|0:0,0:1:0:0:
172,316,101460,6,0,P|187:293|237:282,1,67.4999982118607,10|0,0:2|0:0,0:0:0:0:
264,347,101760,2,0,P|249:370|199:381,1,67.4999982118607,0|0,3:0|0:0,0:0:0:0:
471,233,102060,6,0,P|456:210|406:199,1,67.4999982118607,0|0,1:0|0:0,0:0:0:0:
379,264,102360,2,0,P|394:287|444:298,1,67.4999982118607,0|0,3:0|0:0,0:0:0:0:
384,21,102660,6,0,P|333:32|316:69,1,89.9999976158143,10|0,0:2|0:0,0:0:0:0:
331,139,103110,1,0,1:0:0:0:
76,176,103260,6,0,B|72:228|14:257|14:257|99:303|241:237|241:117|241:117|186:104|182:46,1,506.25000590086,6|0,1:3|0:0,0:0:0:0:
258,36,103710,2,0,P|254:27|261:38,1,67.5000007867814,6|0,3:3|0:0,0:0:0:0:
408,297,103860,5,10,0:2:0:0:
408,297,104160,2,0,P|377:224|259:229,1,202.500002360344,6|0,3:3|0:0,0:0:0:0:
206,275,104460,5,2,1:2:0:0:
201,271,104535,1,2,0:2:0:0:
193,274,104610,1,2,0:2:0:0:
186,292,104685,1,2,0:2:0:0:
210,320,104760,1,10,0:2:0:0:
257,305,104835,1,2,0:2:0:0:
279,249,104910,1,2,0:2:0:0:
251,180,104985,1,2,0:2:0:0:
179,153,105060,6,0,P|111:172|95:197,1,89.9999976158143,10|0,0:2|0:0,0:0:0:0:
30,372,105210,6,0,L|15:285,1,67.5000007867814,2|0,0:2|0:0,0:0:0:0:
106,192,105360,2,0,L|121:279,1,67.5000007867814,2|0,0:2|0:0,0:0:0:0:
19,378,105510,2,0,L|4:291,1,67.5000007867814,10|0,0:2|0:0,0:0:0:0:
106,82,105660,6,2,B|108:81|108:81|108:79|108:79|110:82|110:82|109:80|109:80|111:79|111:79|111:77|111:77|113:81|113:81|112:79|112:79|114:78|114:78|114:76|114:76|116:79|116:79|115:77|115:77|118:76|118:76|117:74|117:74|119:78|119:78|118:76|118:76|121:75|121:75|120:73|120:73|122:76|122:76|122:74|122:74|124:73|124:73|123:71|123:71|125:75|125:75|125:72|125:72|127:71|127:71|126:69|126:69|128:73|128:73|128:71|128:71|130:70|130:70|130:68|130:68|131:71|131:71|131:69|131:69|133:68|133:68|133:66|133:66|135:70|135:70|134:68|134:68|136:67|136:67|136:65|136:65|138:68|138:68|137:66|137:66|139:65|139:65|139:63|139:63|141:67|141:67|140:65|140:65|143:63|143:63|142:61|142:61|144:65|144:65|143:63|143:63|146:62|146:62|145:60|145:60|147:63|147:63|147:61|147:61|149:60|149:60|148:58|148:58|150:62|150:62|150:60|150:60|152:59|152:59|151:57|151:57|153:60|153:60|153:58|153:58|155:57|155:57|155:55|155:55|156:59|156:59|156:57|156:57|158:56|158:56|158:54|158:54|159:57|159:57|159:55|159:55|161:54|161:54|161:52|161:52|163:55|163:55|162:53|162:53|164:52|164:52|164:50|164:50|166:54|166:54|165:52|165:52|167:51|167:51|169:49|169:49|167:53|167:53|168:51|168:51|171:52|171:52|172:51|172:51|171:54|171:54|172:53|172:53|174:53|174:53|175:52|175:52|174:55|174:55|175:54|175:54|177:54|177:54|179:53|179:53|177:57|177:57|178:55|178:55|181:56|181:56|182:54|182:54|181:58|181:58|182:56|182:56|184:57|184:57|185:55|185:55|184:59|184:59|185:57|185:57|187:58|187:58|188:56|188:56|187:60|187:60|188:58|188:58|191:59|191:59|192:57|192:57|191:61|191:61|192:59|192:59|194:60|194:60|195:58|195:58|194:62|194:62|195:60|195:60|197:61|197:61|198:59|198:59|197:63|197:63|198:61|198:61|201:62|201:62|202:60|202:60|200:64|200:64|202:63|202:63|204:63|204:63|205:62|205:62|204:65|204:65|205:64|205:64|207:64|207:64|208:63|208:63|207:66|207:66|208:65|208:65|211:66|211:66|212:64|212:64|210:68|210:68|212:66|212:66|214:67|214:67|215:65|215:65|214:69|214:69|215:67|215:67|217:68|217:68|218:66|218:66|217:70|217:70|218:68|218:68|221:69|221:69|222:67|222:67|220:71|220:71|221:69|221:69|224:70|224:70|225:68|225:68|224:72|224:72|225:70|225:70|227:71|227:71|228:69|228:69|227:73|227:73|228:71|228:71|230:72|230:72|232:70|232:70|230:74|230:74|231:72|231:72|234:73|234:73|235:72|235:72|234:75|234:75|235:74|235:74|237:74|237:74|238:73|238:73|237:76|237:76|238:75|238:75|240:75|240:75|242:74|242:74|240:78|240:78|241:76|241:76|244:77|244:77|245:75|245:75|244:79|244:79|245:77|245:77|248:78|248:78|250:78|250:78|246:79|246:79|248:79|248:79|250:81|250:81|252:81|252:81|248:82|248:82|250:82|250:82|251:84|251:84|253:84|253:84|250:86|250:86|252:85|252:85|253:87|253:87|255:87|255:87|251:89|251:89|253:88|253:88|255:90|255:90|257:90|257:90|253:92|253:92|255:91|255:91|256:93|256:93|258:93|258:93|255:95|255:95|257:94|257:94|258:97|258:97|260:96|260:96|256:98|256:98|258:97|258:97|259:100|259:100|261:99|261:99|258:101|258:101|260:101|260:101|261:103|261:103|263:102|263:102|260:104|260:104|262:104|262:104|263:106|263:106|265:105|265:105|261:107|261:107|263:107|263:107|264:109|264:109|266:108|266:108|263:110|263:110|265:110|265:110|266:112|266:112|268:112|268:112|264:113|264:113|266:113|266:113|268:115|268:115|270:115|270:115|266:116|266:116|268:116|268:116|269:118|269:118|271:118|271:118|268:120|268:120|270:119|270:119|271:121|271:121|273:121|273:121|269:123|269:123|271:122|271:122|272:124|272:124|274:124|274:124|271:126|271:126|273:125|273:125|274:127|274:127|276:127|276:127|273:129|273:129|275:128|275:128|276:131|276:131|278:130|278:130|274:132|274:132|276:131|276:131|277:134|277:134|279:133|279:133|276:135|276:135|278:135|278:135|279:137|279:137|281:136|281:136|277:138|277:138|279:138|279:138|281:140|281:140|283:139|283:139|279:141|279:141|281:141|281:141|282:143|282:143|284:142|284:142|281:144|281:144|283:144|283:144|284:146|284:146|286:146|286:146|282:147|282:147|284:147|284:147|286:149|286:149|288:149|288:149|284:150|284:150|286:150|286:150|287:152|287:152|289:152|289:152|286:154|286:154|288:153|288:153|289:155|289:155|291:155|291:155|287:157|287:157|289:156|289:156|290:158|290:158|292:158|292:158|289:160|289:160|291:159|291:159|292:161|292:161|294:161|294:161|291:163|291:163|293:162|293:162|294:165|294:165|296:164|296:164|292:166|292:166|294:165|294:165|295:168|295:168|297:167|297:167|294:169|294:169|296:169|296:169|297:171|297:171|299:170|299:170|295:172|295:172|297:172|297:172|299:174|299:174|301:173|301:173|297:175|297:175|299:175|299:175|300:177|300:177|302:176|302:176|299:178|299:178|301:178|301:178|302:180|302:180|304:180|304:180|300:181|300:181|302:181|302:181|304:183|304:183|306:183|306:183|302:184|302:184|304:184|304:184|305:186|305:186|307:186|307:186|304:188|304:188|306:187|306:187|307:189|307:189|309:189|309:189|305:191|305:191|307:190|307:190|308:192|308:192|310:192|310:192|307:194|307:194|309:193|309:193|310:195|310:195|312:195|312:195|309:197|309:197|311:196|311:196|312:199|312:199|314:198|314:198|310:200|310:200|312:199|312:199|313:202|313:202|315:201|315:201|312:203|312:203|314:203|314:203|315:205|315:205|317:204|317:204|313:206|313:206|315:206|315:206|317:208|317:208|319:207|319:207|315:209|315:209|317:209|317:209|318:211|318:211|320:210|320:210|317:212|317:212|319:212|319:212|320:214|320:214|322:214|322:214|318:215|318:215|320:215|320:215|321:217|321:217|323:217|323:217|320:219|320:219|322:218|322:218|323:220|323:220|325:220|325:220|322:222|322:222|324:221|324:221|325:223|325:223|327:223|327:223|323:225|323:225|325:224|325:224|326:226|326:226|328:226|328:226|325:228|325:228|327:227|327:227|328:230|328:230|330:229|330:229|326:231|326:231|328:230|328:230|330:233|330:233|332:232|332:232|328:234|328:234|330:233|330:233|331:236|331:236|333:235|333:235|330:237|330:237|332:237|332:237|333:239|333:239|335:238|335:238|331:240|331:240|333:240|333:240|335:242|335:242|337:241|337:241|333:243|333:243|335:243|335:243|336:245|336:245|338:244|338:244|335:246|335:246|337:246|337:246|338:248|338:248|340:248|340:248|336:249|336:249|338:249|338:249|339:251|339:251|341:251|341:251|338:253|338:253|340:252|340:252|341:254|341:254|343:254|343:254|340:256|340:256|342:255|342:255|343:257|343:257|345:257|345:257|341:259|341:259|343:258|343:258|344:260|344:260|346:260|346:260|343:262|343:262|345:261|345:261|346:264|346:264|348:263|348:263|344:265|344:265|346:264|346:264|348:267|348:267|350:266|350:266|346:268|346:268|348:267|348:267|349:270|349:270|351:269|351:269|348:271|348:271|350:271|350:271|351:273|351:273|353:272|353:272|349:274|349:274|351:274|351:274|352:276|352:276|354:275|354:275|351:277|351:277|353:277|353:277|354:279|354:279|356:278|356:278|353:280|353:280|355:280|355:280|356:282|356:282|358:282|358:282|354:283|354:283|356:283|356:283|357:285|357:285|359:285|359:285|356:287|356:287|358:286|358:286|359:288|359:288|361:288|361:288|357:290|357:290|359:289|359:289|361:291|361:291|363:291|363:291|359:293|359:293|361:292|361:292|362:294|362:294|364:294|364:294|361:296|361:296|363:295|363:295|364:298|364:298|366:297|366:297|362:299|362:299|364:298|364:298|366:301|366:301|368:300|368:300|364:302|364:302|366:301|366:301|367:304|367:304|369:303|369:303|366:305|366:305|368:305|368:305|369:307|369:307|371:306|371:306|367:308|367:308|369:308|369:308|370:310|370:310|372:309|372:309|369:311|369:311|371:311|371:311|372:313|372:313|374:312|374:312|371:314|371:314|373:314|373:314|374:316|374:316|376:316|376:316|372:317|372:317|374:317|374:317|375:319|375:319|377:319|377:319|374:321|374:321|376:320|376:320|377:322|377:322|379:322|379:322|375:324|375:324|377:323|377:323|379:325|379:325|381:325|381:325|377:327|377:327|379:326|379:326|380:328|380:328|382:326|382:326|380:330|380:330|381:329|381:329|384:329|384:329|385:328|385:328|383:331|383:331|385:330|385:330|387:331|387:331|388:329|388:329|387:333|387:333|388:331|388:331|390:332|390:332|391:330|391:330|390:334|390:334|391:332|391:332|394:333|394:333|395:331|395:331|393:335|393:335|394:334|394:334|397:334|397:334|398:333|398:333|397:336|397:336|398:335|398:335|400:336|400:336|401:334|401:334|400:338|400:338|401:336|401:336|403:337|403:337|404:335|404:335|403:339|403:339|404:337|404:337|407:338|407:338|408:336|408:336|406:340|406:340|408:338|408:338|410:339|410:339|411:338|411:338|410:341|410:341|411:340|411:340|413:341|413:341|414:339|414:339|413:343|413:343|414:341|414:341|416:342|416:342|418:340|418:340|416:344|416:344|417:342|417:342|420:343|420:343|421:341|421:341|419:345|419:345|421:343|421:343|423:344|423:344|424:343|424:343|423:346|423:346|424:345|424:345|426:346|426:346|427:344|427:344|426:348|426:348|427:346|427:346|429:347|429:347|431:345|431:345|429:349|429:349|430:347|430:347|433:348|433:348|434:346|434:346|432:350|432:350|434:348|434:348|436:349|436:349|437:348|437:348|436:351|436:351|437:350|437:350|439:351|439:351|440:349|440:349|439:353|439:353|440:351|440:351|442:352|442:352|444:350|444:350|442:354|442:354|443:352|443:352|446:353|446:353|447:351|447:351|446:355|446:355|447:353|447:353|449:354|449:354|450:353|450:353|449:356|449:356|450:355|450:355|452:356|452:356|453:354|453:354|452:358|452:358|453:356|453:356|456:357|456:357|457:355|457:355|455:359|455:359|456:357|456:357|459:358|459:358|460:356|460:356|459:360|459:360|460:358|460:358|462:359|462:359|463:358|463:358|462:361|462:361|463:360|463:360|465:361|465:361|467:359|467:359|465:363|465:363|466:361|466:361|469:362|469:362|470:360|470:360|468:364|468:364|470:362|470:362|472:363|472:363|473:361|473:361|472:365|472:365|473:363|473:363|475:364|475:364|476:363|476:363|475:366|475:366|476:365|476:365|477:365|477:365|478:364|478:364|477:362|477:362|480:365|480:365|479:363|479:363|481:362|481:362|480:360|480:360|482:363|482:363|481:361|481:361|483:359|483:359|482:357|482:357|485:360|485:360|484:359|484:359|486:357|486:357|485:355|485:355|487:358|487:358|486:356|486:356|488:355|488:355|487:353|487:353|490:356|490:356|489:354|489:354|491:352|491:352|490:350|490:350|493:353|493:353|492:351|492:351|493:350|493:350|492:348|492:348|495:351|495:351|494:349|494:349|496:347|496:347|495:346|495:346|498:349|498:349|497:347|497:347|499:345|499:345|498:343|498:343|500:346|500:346|499:344|499:344|501:343|501:343|500:341|500:341|503:344|503:344|502:342|502:342|504:340|504:340|503:338|503:338|505:341|505:341|504:340|504:340|506:338|506:338|505:336|505:336|508:339|508:339|507:337|507:337|509:336|509:336|508:334|508:334|510:337|510:337|509:335|509:335|511:333|511:333|510:331|510:331|513:334|513:334|512:332|512:332|514:331|514:331|513:329|513:329|516:332|516:332|515:330|515:330|516:328|516:328|515:327|515:327|518:330|518:330|517:328|517:328|519:326|519:326|518:324|518:324|521:327|521:327|520:325|520:325|522:324|522:324|521:322|521:322|523:325|523:325|522:323|522:323|524:321|524:321|523:320|523:320|526:322|526:322|525:321|525:321|527:319|527:319|526:317|526:317|528:320|528:320|527:318|527:318|529:317|529:317|528:315|528:315|531:318|531:318|530:316|530:316|532:314|532:314|531:312|531:312|533:315|533:315|532:314|532:314|534:312|534:312|533:310|533:310|536:313|536:313|535:311|535:311|537:309|537:309|536:308|536:308|539:311|539:311|538:309|538:309|539:307|539:307|538:305|538:305|541:308|541:308|540:306|540:306|542:305|542:305|541:303|541:303|544:306|544:306|543:304|543:304|545:302|545:302|544:301|544:301|546:303|546:303|545:302|545:302|546:301|546:301|545:300|545:300|543:302|543:302|545:298|545:298|544:300|544:300|541:299|541:299|540:301|540:301|542:297|542:297|540:299|540:299|538:298|538:298|537:299|537:299|538:296|538:296|537:297|537:297|535:296|535:296|534:298|534:298|535:294|535:294|534:296|534:296|532:295|532:295|530:297|530:297|532:293|532:293|531:295|531:295|528:294|528:294|527:295|527:295|529:292|529:292|528:293|528:293|525:292|525:292|524:294|524:294|526:290|526:290|524:292|524:292|522:291|522:291|521:293|521:293|522:289|522:289|521:291|521:291|519:290|519:290|518:291|518:291|519:288|519:288|518:289|518:289|516:288|516:288|514:290|514:290|516:286|516:286|515:288|515:288|512:287|512:287|511:289|511:289|513:285|513:285|511:287|511:287|509:286|509:286|508:287|508:287|509:284|509:284|508:285|508:285|506:284|506:284|505:286|505:286|506:282|506:282|505:284|505:284|503:283|503:283|501:285|501:285|503:281|503:281|502:283|502:283|499:282|499:282|498:283|498:283|500:280|500:280|498:281|498:281|496:280|496:280|495:282|495:282|496:278|496:278|495:280|495:280|493:279|493:279|492:281|492:281|493:277|493:277|492:279|492:279|490:278|490:278|488:279|488:279|490:276|490:276|489:277|489:277|486:276|486:276|485:278|485:278|487:274|487:274|485:276|485:276|483:275|483:275|482:277|482:277|483:273|483:273|482:275|482:275|480:274|480:274|479:275|479:275|480:272|480:272|479:273|479:273|477:272|477:272|475:274|475:274|477:270|477:270|476:272|476:272|473:271|473:271|472:273|472:273|474:269|474:269|473:271|473:271|470:270|470:270|469:271|469:271|471:268|471:268|469:269|469:269|467:268|467:268|466:270|466:270|467:266|467:266|466:268|466:268|464:267|464:267|463:269|463:269|464:265|464:265|463:267|463:267|461:266|461:266|459:267|459:267|461:264|461:264|460:265|460:265|457:264|457:264|456:266|456:266|458:262|458:262|456:264|456:264|454:263|454:263|453:265|453:265|454:261|454:261|453:263|453:263|451:262|451:262|450:263|450:263|451:260|451:260|450:261|450:261|448:260|448:260|446:262|446:262|448:258|448:258|447:260|447:260|444:259|444:259|443:261|443:261|445:257|445:257|443:259|443:259|441:258|441:258|440:259|440:259|441:256|441:256|440:257|440:257|438:256|438:256|437:258|437:258|438:254|438:254|437:256|437:256|435:255|435:255|433:257|433:257|435:253|435:253|434:255|434:255|431:254|431:254|430:255|430:255|432:252|432:252|430:253|430:253|428:252|428:252|427:254|427:254|428:250|428:250|427:252|427:252|425:251|425:251|424:253|424:253|425:249|425:249|424:251|424:251|422:250|422:250|420:251|420:251|422:248|422:248|421:249|421:249|418:248|418:248|417:250|417:250|419:246|419:246|418:248|418:248|415:247|415:247|414:249|414:249|416:245|416:245|414:247|414:247|412:246|412:246|411:247|411:247|412:244|412:244|411:245|411:245|409:244|409:244|408:246|408:246|409:242|409:242|408:244|408:244|406:243|406:243|404:245|404:245|406:241|406:241|405:243|405:243|402:242|402:242|401:243|401:243|403:240|403:240|401:241|401:241|399:240|399:240|398:242|398:242|399:238|399:238|398:240|398:240|396:239|396:239|395:241|395:241|396:237|396:237|395:239|395:239|393:238|393:238|391:239|391:239|393:236|393:236|392:237|392:237|389:236|389:236|388:238|388:238|390:234|390:234|388:236|388:236|386:235|386:235|385:237|385:237|386:233|386:233|385:235|385:235|383:234|383:234|382:235|382:235|383:232|383:232|382:233|382:233|380:232|380:232|378:234|378:234|380:230|380:230|379:232|379:232|376:231|376:231|375:233|375:233|377:229|377:229|375:231|375:231|373:230|373:230|372:231|372:231|373:228|373:228|372:229|372:229|370:228|370:228|369:230|369:230|370:226|370:226|369:228|369:228|367:227|367:227|365:229|365:229|367:225|367:225|366:227|366:227|363:226|363:226|362:227|362:227|364:224|364:224|363:225|363:225|360:224|360:224|359:226|359:226|361:222|361:222|359:224|359:224|357:223|357:223|356:225|356:225|357:221|357:221|356:223|356:223|354:222|354:222|353:223|353:223|354:220|354:220|353:221|353:221|351:220|351:220|349:222|349:222|351:218|351:218|350:220|350:220|347:219|347:219|346:221|346:221|348:217|348:217|346:219|346:219|344:218|344:218|343:219|343:219|344:216|344:216|343:217|343:217|341:216|341:216|340:218|340:218|341:214|341:214|340:216|340:216|338:215|338:215|336:217|336:217|338:213|338:213|337:215|337:215|334:214|334:214|333:215|333:215|335:212|335:212|333:213|333:213|331:212|331:212|330:214|330:214|331:210|331:210|330:212|330:212|328:211|328:211|327:213|327:213|328:209|328:209|327:211|327:211|325:210|325:210|323:211|323:211|325:208|325:208|324:209|324:209|321:208|321:208|320:210|320:210|322:206|322:206|320:208|320:208|318:207|318:207|317:209|317:209|318:205|318:205|317:207|317:207|315:206|315:206|314:207|314:207|315:204|315:204|314:205|314:205|312:204|312:204|310:206|310:206|312:202|312:202|311:204|311:204|308:203|308:203|307:205|307:205|309:201|309:201|308:203|308:203|305:202|305:202|304:203|304:203|306:200|306:200|304:201|304:201|302:200|302:200|301:202|301:202|302:198|302:198|301:200|301:200|299:199|299:199|298:201|298:201|299:197|299:197|298:199|298:199|296:198|296:198|294:199|294:199|296:196|296:196|295:197|295:197|292:196|292:196|291:198|291:198|293:194|293:194|291:196|291:196|289:195|289:195|288:197|288:197|289:193|289:193|288:195|288:195|286:194|286:194|285:195|285:195|286:192|286:192|285:193|285:193|283:192|283:192|281:194|281:194|283:190|283:190|282:192|282:192|279:191|279:191|278:193|278:193|280:189|280:189|278:191|278:191|276:190|276:190|275:191|275:191|276:188|276:188|275:189|275:189|273:188|273:188|272:190|272:190|273:186|273:186|272:188|272:188|270:187|270:187|268:189|268:189|270:185|270:185|269:187|269:187|266:186|266:186|265:187|265:187|267:184|267:184|266:185|266:185|263:184|263:184|262:186|262:186|263:182|263:182|262:184|262:184|260:183|260:183|259:185|259:185|260:181|260:181|259:183|259:183|257:182|257:182|255:183|255:183|257:180|257:180|256:181|256:181|253:180|253:180|252:182|252:182|254:178|254:178|253:180|253:180|250:179|250:179|249:181|249:181|251:177|251:177|249:179|249:179|247:178|247:178|246:179|246:179|247:176|247:176|246:177|246:177|244:176|244:176|243:178|243:178|244:174|244:174|243:176|243:176|241:175|241:175|239:177|239:177|241:173|241:173|240:175|240:175|237:174|237:174|236:175|236:175|238:172|238:172|236:173|236:173|234:172|234:172|233:174|233:174|234:170|234:170|233:172|233:172|231:171|231:171|230:173|230:173|231:169|231:169|230:171|230:171|228:170|228:170|226:171|226:171|228:168|228:168|227:169|227:169|224:168|224:168|223:170|223:170|225:166|225:166|223:168|223:168|221:167|221:167|220:169|220:169|221:165|221:165|220:167|220:167|218:166|218:166|217:167|217:167|218:164|218:164|217:165|217:165|215:164|215:164|213:166|213:166|215:162|215:162|214:164|214:164|211:163|211:163|210:165|210:165|212:161|212:161|211:163|211:163|208:162|208:162|207:163|207:163|209:160|209:160|207:161|207:161|205:160|205:160|204:162|204:162|205:158|205:158|204:160|204:160|202:159|202:159|201:161|201:161|202:157|202:157|201:159|201:159|198:158|198:158|197:159|197:159|199:156|199:156|198:157|198:157|195:156|195:156|194:158|194:158|196:154|196:154|194:156|194:156|192:155|192:155|191:157|191:157|192:153|192:153|191:155|191:155|189:154|189:154|188:155|188:155|189:152|189:152|188:153|188:153|186:152,1,3140.86302809363,2|0,1:0|0:0,0:1:0:0:
49,23,106260,6,0,P|-3:45|0:87,2,89.9999976158143,10|0|0,0:2|3:0|1:0,0:0:0:0:
383,119,107160,6,0,P|404:87|391:51,1,67.4999982118607,0|0,3:0|0:0,0:0:0:0:
325,15,107460,2,0,P|304:47|317:83,1,67.4999982118607,10|0,0:2|0:0,0:0:0:0:
477,138,107760,5,0,0:0:0:0:
477,138,107910,1,0,1:0:0:0:
397,342,108060,6,0,P|381:300|354:285,1,67.5000007867814,2|0,1:2|0:0,0:0:0:0:
357,256,108210,2,0,P|312:258|289:279,1,67.5000007867814,2|0,0:2|0:0,0:0:0:0:
29,334,108360,6,0,P|57:351|90:349,1,67.5000007867814,6|0,0:3|0:0,0:0:0:0:
118,360,108510,2,0,P|143:338|151:306,1,67.5000007867814,2|0,0:3|0:0,0:0:0:0:
171,276,108660,2,0,P|158:245|130:227,1,67.5000007867814,2|0,0:3|0:0,0:0:0:0:
114,202,108810,2,0,P|80:204|55:225,1,67.5000007867814,6|0,0:3|0:0,0:0:0:0:
229,120,108960,6,0,P|196:117|171:96,1,67.5000007867814,2|0,0:2|0:0,0:0:0:0:
354,247,109110,2,0,P|320:249|295:270,1,67.5000007867814,2|0,0:2|0:0,0:0:0:0:
471,179,109260,6,0,L|479:116,4,62.9999964084627,0|0|0|0|0,3:0|3:0|3:0|3:0|3:0,0:0:0:0:
482,189,110160,1,2,0:3:0:0:
47,206,110460,5,6,1:1:0:0:
424,377,120060,6,0,B|378:369|365:337|370:293|370:293|390:178|390:178|396:149|418:123|459:130,1,323.999981529237,6|0,1:1|0:0,0:0:0:0:
459,130,120660,2,0,P|490:151|481:227,1,107.999997138977,2|0,3:2|0:0,0:0:0:0:
498,223,120960,1,2,1:2:0:0:
434,28,121110,6,0,P|377:75|299:85,2,143.999996185303,2|2|2,0:2|0:2|0:2,0:0:0:0:
365,230,122010,5,2,0:2:0:0:
396,302,122160,1,2,0:2:0:0:
471,296,122310,1,2,0:2:0:0:
257,382,122460,6,0,P|262:344|282:303,2,71.9999980926514,2|2|2,1:1|0:2|0:2,0:0:0:0:
126,235,123060,2,0,P|149:294|152:350,1,107.999997138977,2|0,3:1|0:0,0:0:0:0:
145,342,123360,1,2,1:2:0:0:
282,230,123510,6,0,B|330:239|342:198|338:197|334:195|345:152|389:157,1,143.999996185303,2|2,0:2|0:2,0:0:0:0:
437,215,123960,2,0,P|480:222|514:241,1,71.9999980926514,0|2,1:0|0:2,0:0:0:0:
412,22,124260,6,0,P|407:60|434:89,1,71.9999980926514,10|2,0:1|0:2,0:0:0:0:
512,65,124560,2,0,P|517:27|490:-2,1,71.9999980926514,2|0,0:1|1:0,0:0:0:0:
282,230,124860,5,2,1:1:0:0:
282,230,125160,2,0,P|241:200|203:199,1,71.9999980926514,2|0,0:1|0:0,0:0:0:0:
111,145,125460,2,0,P|190:122|203:52,1,143.999996185303,2|2,3:1|1:2,0:0:0:0:
54,75,125910,6,0,P|81:11|149:0,2,143.999996185303,2|2|2,0:2|0:2|0:2,0:0:0:0:
270,28,126810,5,2,0:2:0:0:
206,69,126960,1,2,0:2:0:0:
253,130,127110,1,2,0:2:0:0:
75,232,127260,6,0,P|35:239|0:273,2,80.9999953823091,2|2|2,1:1|0:2|0:2,0:0:0:0:
75,319,127860,2,0,P|107:365|184:336,1,121.499993073464,2|0,3:1|0:0,0:0:0:0:
159,352,128160,1,2,1:2:0:0:
294,375,128310,6,0,P|307:283|366:199,1,179.999995231629,2|2,0:2|0:2,0:0:0:0:
431,239,128760,2,0,P|433:291|415:338,1,99.0000003986359,0|2,1:0|0:2,0:0:0:0:
507,365,129060,5,10,0:1:0:0:
507,365,129210,1,0,0:0:0:0:
259,198,129360,6,0,B|467:152|467:152|478:132,1,236.249995994568,2|0,1:3|0:0,0:0:0:0:
469,126,129660,6,0,B|493:79|449:41|449:41|386:48|384:101,1,179.999995231629,12|0,0:2|0:0,0:0:0:0:
337,167,130110,6,0,B|361:214|317:252|317:252|254:245|252:192,1,179.999995231629,8|0,0:2|0:0,0:0:0:0:
211,124,130560,6,0,B|235:77|191:39|191:39|128:46|126:99,1,179.999995231629,10|2,0:2|0:2,0:0:0:0:
82,204,131010,6,0,L|-1:195,1,67.5000007867814,10|0,0:2|0:0,0:0:0:0:
92,195,131310,2,0,L|175:204,2,67.5000007867814,10|0|10,0:2|3:0|0:2,0:0:0:0:
4,301,131760,5,10,0:2:0:0:
7,317,131835,1,8,0:2:0:0:
10,333,131910,1,10,0:2:0:0:
13,349,131985,1,8,0:2:0:0:
82,382,132060,6,2,P|119:375|134:319,2,89.9999976158143,10|2|2,0:2|0:2|0:2,0:1:0:0:
235,273,132510,1,8,0:0:0:0:
235,273,132660,2,0,P|272:280|287:336,1,89.9999976158143,2|0,0:1|0:1,0:0:0:0:
364,375,132960,5,10,0:2:0:0:
364,375,133110,2,0,L|462:362,1,89.9999976158143,2|0,0:2|0:0,0:0:0:0:
400,241,133410,2,0,L|498:254,1,89.9999976158143,10|0,0:2|0:0,0:0:0:0:
369,114,133710,2,0,L|467:101,2,89.9999976158143,10|2|10,0:2|3:1|0:2,0:0:0:0:
200,20,134160,6,2,L|170:14,4,22.4999994039536,10|8|8|8|8,0:2|0:2|0:2|0:2|0:2,0:1:0:0:
283,66,134460,6,2,P|214:48|167:136,1,179.999995231629,10|2,0:2|0:1,0:1:0:0:
214,189,134910,1,8,0:2:0:0:
38,285,135060,2,0,P|46:217|36:138,1,134.999996423721,2|0,0:1|0:0,0:0:0:0:
33,146,135360,1,10,0:2:0:0:
131,250,135510,6,0,P|167:269|173:321,1,89.9999976158143,2|0,0:2|0:0,0:0:0:0:
248,379,135810,2,0,P|284:360|290:308,1,89.9999976158143,10|0,0:2|0:0,0:0:0:0:
365,250,136110,2,0,P|401:269|407:321,2,89.9999976158143,10|0|10,0:2|3:0|0:2,0:0:0:0:
286,71,136560,5,10,0:2:0:0:
290,88,136635,1,8,0:2:0:0:
294,105,136710,1,10,0:2:0:0:
298,122,136785,1,8,0:2:0:0:
373,163,136860,6,2,L|476:150,1,89.9999976158143,10|2,0:2|0:2,0:1:0:0:
208,115,137160,2,0,L|105:128,1,89.9999976158143,2|8,0:2|0:2,0:0:0:0:
11,240,137460,2,0,P|88:274|86:345,1,134.999996423721,2|0,0:1|0:0,0:0:0:0:
86,323,137760,1,8,0:2:0:0:
333,384,137910,5,2,0:2:0:0:
333,384,138210,2,0,P|312:334|276:322,1,89.9999976158143,10|0,0:2|0:0,0:0:0:0:
416,222,138510,2,0,P|383:265|390:302,1,89.9999976158143,10|0,0:2|0:0,0:0:0:0:
220,268,138810,6,0,P|239:241|258:233,1,44.9999988079071,2|0,0:2|0:0,0:0:0:0:
421,232,138960,2,0,P|304:197|222:172,1,202.500002360344,2|0,0:2|0:0,0:0:0:0:
202,101,139260,6,0,B|157:61|106:96|106:96|157:90|178:133,1,179.999995231629,14|2,0:2|0:1,0:0:0:0:
281,99,139710,2,0,B|338:80|333:18|333:18|313:65|265:62,1,179.999995231629,8|0,0:2|0:0,0:0:0:0:
244,169,140160,2,0,B|231:227|287:254|287:254|256:213|283:173,1,179.999995231629,10|2,0:2|0:2,0:0:0:0:
68,284,140760,6,0,L|-22:273,1,67.5000007867814,0|2,3:0|0:2,0:0:0:0:
123,358,141060,2,0,L|213:369,1,67.5000007867814,0|2,3:0|0:2,0:0:0:0:
371,341,141360,5,2,3:2:0:0:
368,327,141435,1,0,3:2:0:0:
365,313,141510,1,2,3:2:0:0:
362,299,141585,1,0,3:2:0:0:
387,223,141660,6,0,P|422:230|443:281,2,89.9999976158143,10|2|2,0:2|0:2|0:2,0:0:0:0:
292,122,142110,1,8,0:0:0:0:
292,122,142260,2,0,P|327:115|348:64,1,89.9999976158143,2|0,0:1|0:1,0:0:0:0:
170,215,142560,5,10,0:2:0:0:
242,335,142710,2,0,L|258:238,1,89.9999976158143,0|2,0:0|0:2,0:0:0:0:
65,29,143160,6,0,B|58:24|58:24|-5:46,1,67.5000007867814,2|0,3:2|0:0,0:0:0:0:
194,65,143460,2,2,B|201:70|201:70|264:48,1,67.5000007867814,2|2,3:2|0:2,0:2:0:0:
74,175,143760,6,0,L|66:133,3,33.7500003933907,2|0|0|0,3:2|3:0|3:0|3:0,0:0:0:0:
0,217,144060,6,0,B|5:201|5:201|216:248,1,215.999987686158,10|2,0:2|0:1,0:0:0:0:
237,311,144510,1,8,0:2:0:0:
425,143,144660,6,0,P|442:168|441:194,3,53.9999969215394,2|0|0|0,0:1|0:0|0:0|0:0,0:0:0:0:
371,218,144960,2,0,P|352:241|327:248,1,53.9999969215394,10|0,0:2|0:0,0:0:0:0:
282,189,145110,2,0,P|253:178|239:157,1,53.9999969215394
317,12,145260,6,0,L|305:79,3,53.9999969215394,2|0|0|0,0:2|0:0|0:0|0:0,0:0:0:0:
438,140,145560,2,0,L|450:207,3,53.9999969215394,2|0|0|0,3:2|0:0|0:0|0:0,0:0:0:0:
421,290,145860,5,2,3:2:0:0:
476,355,146460,5,2,3:2:0:0:
409,305,146610,1,0,3:0:0:0:
237,255,146760,5,2,3:2:0:0:
304,305,146910,1,0,3:0:0:0:
382,213,147060,5,2,3:2:0:0:
340,383,147210,1,0,3:0:0:0:
382,213,147360,1,2,3:2:0:0:
340,383,147510,1,0,3:0:0:0:
187,368,147660,5,2,3:2:0:0:
161,274,147810,1,0,3:0:0:0:
131,153,147960,1,0,3:0:0:0:
101,9,148110,6,0,B|112:17|112:17|109:44|109:44|94:20|94:20|99:10,1,80.9999953823091,0|2,3:0|0:2,0:0:0:0:
161,274,148860,5,6,3:1:0:0:
184,348,148935,2,2,B|222:334|244:297|233:256|233:256|206:171|206:171|193:133|226:93|272:101|272:101|490:142|490:142|398:150|388:208,1,674.999982118607,0|0,3:0|3:0,0:2:0:0:
430,284,149460,5,8,3:2:0:0:
439,281,149535,1,0,3:0:0:0:
450,280,149610,2,0,P|473:248|449:212,1,67.5000007867814,0|0,3:0|3:0,0:0:0:0:
304,186,149760,1,6,3:0:0:0:
295,189,149835,1,0,3:0:0:0:
284,190,149910,2,0,P|261:222|285:258,1,67.5000007867814,0|0,3:0|3:0,0:0:0:0:
422,88,150060,6,0,L|408:19,3,44.9999988079071,2|2|2|2,3:2|0:0|3:0|0:0,0:0:0:0:
490,141,150360,2,0,B|522:109|522:109|487:42,1,89.9999976158143,6|0,3:3|3:0,0:0:0:0:
142,188,150660,6,0,L|133:143,3,44.9999988079071,10|0|2|0,3:2|3:0|3:0|3:0,0:0:0:0:
66,199,150960,2,0,L|57:154,3,44.9999988079071,0|2|0|0,3:0|3:0|3:0|3:0,0:0:0:0:
304,186,151260,5,6,3:0:0:0:
365,241,151335,2,2,B|227:215|227:215|119:297|119:297|177:388|177:388|261:319|261:319|201:235|201:235|50:206,1,742.499987411499,0|0,3:0|3:0,0:2:0:0:
16,271,151860,5,8,3:2:0:0:
7,279,151935,1,0,3:0:0:0:
0,288,152010,2,0,P|-3:327|34:346,1,67.5000007867814,0|0,3:0|3:0,0:0:0:0:
142,188,152160,1,6,3:0:0:0:
151,180,152235,1,0,3:0:0:0:
158,171,152310,2,0,P|161:131|123:112,1,67.5000007867814,0|0,3:0|3:0,0:0:0:0:
281,332,152460,6,0,L|273:394,3,44.9999988079071,2|0|0|0,3:1|0:0|3:0|0:0,0:0:0:0:
365,241,152760,6,0,B|419:283|419:283|380:347,1,135.000001573563,6|0,3:0|3:0,0:0:0:0:
123,274,153060,6,0,L|74:285,6,33.7500003933907,8|0|0|0|0|0|0,3:2|3:0|3:0|3:0|3:0|3:0|3:0,0:0:0:0:
203,252,153360,2,0,L|252:241,6,33.7500003933907,2|0|0|0|0|0|0,3:1|3:0|3:0|3:0|3:0|3:0|3:0,0:0:0:0:
112,39,153660,5,6,3:0:0:0:
34,66,153735,2,2,B|269:106|269:106|316:114|339:167|339:167|363:220|410:228|410:228|441:234|441:234|362:221|293:260|279:335,1,674.999982118607,0|0,3:0|3:0,0:2:0:0:
352,379,154260,5,8,3:2:0:0:
363,376,154335,1,0,3:0:0:0:
374,373,154410,2,0,L|443:359,1,67.5000007867814,0|0,3:0|3:0,0:0:0:0:
235,244,154560,1,6,3:0:0:0:
224,247,154635,1,0,3:0:0:0:
213,250,154710,2,0,L|144:264,1,67.5000007867814,0|0,3:0|3:0,0:0:0:0:
421,107,154860,6,0,L|516:88,1,89.9999976158143,0|0,3:0|3:0,0:0:0:0:
354,60,155160,6,0,B|322:92|322:92|357:159,1,89.9999976158143,6|0,3:0|3:0,0:0:0:0:
436,347,155460,6,0,L|492:337,3,44.9999988079071,10|0|2|0,3:2|3:0|3:0|3:0,0:0:0:0:
424,274,155760,2,0,L|480:264,3,44.9999988079071,0|2|0|0,3:0|3:0|3:0|3:0,0:0:0:0:
214,264,156060,5,6,3:0:0:0:
276,314,156135,2,2,B|67:277|67:277|25:269|21:233|37:198|78:206|78:206|285:241|285:241|337:250|351:301|351:301|362:345|412:354|412:354|458:362,1,742.499987411499,0|0,3:0|3:0,0:2:0:0:
468,266,156660,5,8,3:2:0:0:
465,255,156735,1,0,3:0:0:0:
462,244,156810,2,0,L|448:175,1,67.5000007867814,0|0,3:0|3:0,0:0:0:0:
270,292,156960,1,6,3:0:0:0:
273,303,157035,1,0,3:0:0:0:
276,314,157110,2,0,L|290:383,1,67.5000007867814,0|0,3:0|3:0,0:0:0:0:
108,284,157260,6,0,B|86:244|86:244|126:208,1,89.9999976158143,2|0,3:1|3:0,0:0:0:0:
254,209,157560,6,0,B|240:143|240:143|244:138|244:138|229:64,1,135.000001573563,6|0,3:0|3:0,0:0:0:0:
336,186,157860,6,0,L|379:196,6,33.7500003933907,8|0|0|0|0|0|0,3:2|3:0|3:0|3:0|3:0|3:0|3:0,0:0:0:0:
156,107,158160,6,0,L|113:97,2,33.7500003933907,2|0|0,3:1|3:0|3:0,0:0:0:0:
288,23,158310,1,8,3:2:0:0:
431,256,158460,5,4,3:3:0:0:
478,189,158535,2,2,B|431:199|431:199|392:208|373:270|373:270|355:332|308:343|308:343|253:355|253:355|214:364|178:348|167:301|167:301|154:247|154:247|145:208|163:179|194:172|194:172|226:165|254:183|263:221|263:221|274:268,1,674.999982118607,0|0,3:0|3:0,0:2:0:0:
198,281,159060,5,8,3:2:0:0:
187,275,159135,1,0,3:0:0:0:
180,268,159210,2,0,P|168:226|182:193,1,67.5000007867814,0|0,3:0|3:0,0:0:0:0:
335,151,159360,1,6,3:0:0:0:
346,157,159435,1,0,3:0:0:0:
353,164,159510,2,0,P|365:206|351:239,1,67.5000007867814,0|0,3:0|3:0,0:0:0:0:
143,123,159660,6,0,P|119:101|16:118,2,135.000001573563,0|0|6,3:0|3:0|3:3,0:0:0:0:
429,19,160260,5,10,3:2:0:0:
440,31,160335,2,0,L|498:37,2,44.9999988079071,0|2|0,3:0|3:0|3:0,0:0:0:0:
423,105,160560,2,0,L|481:111,3,44.9999988079071,0|2|0|0,3:0|3:0|3:0|3:0,0:0:0:0:
432,254,160860,5,6,3:0:0:0:
484,196,160935,2,2,B|337:212|337:212|281:221|267:287|267:287|252:361|191:373|191:373|119:385|119:385|48:331|72:208|170:205,1,674.999982118607,0|0,3:0|3:0,0:2:0:0:
202,262,161460,5,8,3:2:0:0:
210,269,161535,1,0,3:0:0:0:
215,280,161610,2,0,P|210:314|182:336,1,67.5000007867814,0|0,3:0|3:0,0:0:0:0:
71,223,161760,1,6,3:0:0:0:
63,216,161835,1,0,3:0:0:0:
58,205,161910,2,0,P|63:171|91:149,1,67.5000007867814,0|0,3:0|3:0,0:0:0:0:
209,70,162060,6,0,L|201:-5,3,67.5000007867814,2|0|0|0,3:1|0:0|3:0|0:0,0:0:0:0:
160,127,162360,2,0,L|293:91,1,135.000001573563,6|0,3:0|3:0,0:0:0:0:
331,307,162660,6,0,L|325:340,6,33.7500003933907,8|0|0|0|0|0|0,3:2|3:0|3:0|3:0|3:0|3:0|3:0,0:0:0:0:
350,173,162960,2,0,L|355:139,6,33.7500003933907,2|0|0|0|0|0|0,3:1|3:0|3:0|3:0|3:0|3:0|3:0,0:0:0:0:
62,115,163260,5,6,3:0:0:0:
92,43,163335,2,2,B|141:191|141:191|158:238|223:250|223:250|282:256|298:301|298:301|319:367|319:367|263:178|263:178|250:145|212:146,1,674.999982118607,0|0,3:0|3:0,0:2:0:0:
210,68,163860,5,8,3:2:0:0:
217,55,163935,1,0,3:0:0:0:
227,48,164010,2,0,P|261:52|285:79,1,67.5000007867814,0|0,3:0|3:0,0:0:0:0:
163,238,164160,1,6,3:0:0:0:
161,252,164235,1,0,3:0:0:0:
166,264,164310,2,0,P|196:279|231:269,1,67.5000007867814,0|0,3:0|3:0,0:0:0:0:
354,184,164460,6,0,P|411:232|402:302,2,135.000001573563,0|0|6,3:0|3:0|3:0,0:0:0:0:
82,333,165060,5,10,3:2:0:0:
73,323,165135,2,0,L|21:333,2,44.9999988079071,0|2|0,3:0|3:0|3:0,0:0:0:0:
53,246,165360,2,0,L|1:256,3,44.9999988079071,0|2|0|0,3:0|3:0|3:0|3:0,0:0:0:0:
144,85,165660,5,6,3:0:0:0:
80,136,165735,2,2,B|33:123|33:123|-21:108|-27:57|3:16|58:31|58:31|114:46|114:46|150:55|166:109|166:109|181:163|246:180|246:180|301:195|307:246|277:287|221:272|221:272|184:263,1,674.999982118607,0|0,3:0|3:0,0:2:0:0:
298,164,166260,5,8,3:2:0:0:
309,172,166335,1,0,3:0:0:0:
317,185,166410,2,0,P|329:220|319:254,1,67.5000007867814,0|0,3:0|3:0,0:0:0:0:
125,329,166560,1,6,3:0:0:0:
114,321,166635,1,0,3:0:0:0:
106,308,166710,2,0,P|94:273|104:239,1,67.5000007867814,0|0,3:0|3:0,0:0:0:0:
348,326,166860,6,0,B|390:330|390:330|396:334|396:334|447:339,1,89.9999976158143,2|0,3:1|3:0,0:0:0:0:
219,113,167160,6,0,B|162:162|162:162|190:281,1,179.999995231629,6|0,3:0|3:0,0:0:0:0:
485,273,167460,6,0,L|499:205,1,67.5000007867814,8|0,3:2|3:0,0:0:0:0:
322,16,167610,2,0,L|335:82,1,67.5000007867814,4|0,3:0|3:0,0:0:0:0:
429,107,167760,6,0,L|477:114,3,44.9999988079071,2|0|0|0,3:1|3:0|3:0|3:0,0:0:0:0:
410,252,168060,5,6,3:1:0:0:
362,313,168135,2,2,B|331:286|323:244|347:209|347:209|401:139|401:139|427:107|409:59|363:50|363:50|144:14|144:14|228:53|218:111,1,674.999982118607,0|0,3:0|3:0,0:1:0:0:
156,172,168660,5,10,3:2:0:0:
148,166,168735,1,0,3:0:0:0:
138,161,168810,2,0,P|127:123|162:97,1,67.5000007867814,0|0,3:0|3:0,0:0:0:0:
335,82,168960,1,6,3:0:0:0:
343,87,169035,1,0,3:0:0:0:
353,92,169110,2,0,P|363:129|328:155,1,67.5000007867814,0|0,3:0|3:0,0:0:0:0:
226,290,169260,6,0,B|307:325|332:241|329:239|326:236|361:141|446:186,1,269.999992847443,2|0,3:0|0:0,0:0:0:0:
480,358,169560,2,0,B|498:270|498:270|405:251,1,179.999995231629,6|0,3:3|3:0,0:0:0:0:
93,279,169860,5,10,3:2:0:0:
100,284,169935,2,0,L|156:272,2,44.9999988079071,0|2|0,3:0|3:0|3:0,0:0:0:0:
116,356,170160,2,0,L|172:344,3,44.9999988079071,0|2|0|0,3:0|3:0|3:0|3:0,0:0:0:0:
61,122,170460,5,6,3:0:0:0:
88,193,170535,2,0,B|107:82|107:82|217:102,1,224.999994039536,0|0,3:0|3:0,0:0:0:0:
226,290,170760,2,0,B|289:301|289:301|319:127|319:127|193:105,1,337.499991059303,2|0,3:2|3:0,0:0:0:0:
61,122,171060,5,10,3:2:0:0:
50,122,171135,1,0,3:0:0:0:
41,124,171210,2,0,B|17:96|17:96|34:48,1,67.5000007867814,0|0,3:0|3:0,0:0:0:0:
218,102,171360,1,6,3:0:0:0:
228,99,171435,1,0,3:0:0:0:
238,97,171510,2,0,B|250:63|250:63|218:24,1,67.5000007867814,0|0,3:0|3:0,0:0:0:0:
270,215,171660,6,0,B|380:234|380:234|383:241|383:241|380:235|380:235|406:85,1,269.999992847443,2|0,3:2|0:0,0:0:0:0:
385,22,171960,2,0,P|483:20|480:106,1,179.999995231629,6|0,3:0|3:0,0:0:0:0:
497,215,172260,6,0,L|464:221,6,33.7500003933907,10|0|0|0|0|0|0,3:2|3:0|3:0|3:0|3:0|3:0|3:0,0:0:0:0:
395,357,172560,2,0,L|356:364,6,33.7500003933907,2|0|0|0|0|0|0,3:1|3:0|3:0|3:0|3:0|3:0|3:0,0:0:0:0:
270,215,172860,5,6,3:1:0:0:
340,185,172935,2,2,B|280:173|280:173|209:159|160:225|183:303|254:315|254:315|433:347|433:347|471:353|505:314|485:266|448:259|448:259|377:247,1,674.999982118607,0|0,3:0|3:0,0:1:0:0:
396,89,173460,5,10,3:2:0:0:
404,93,173535,1,0,3:0:0:0:
415,96,173610,2,0,P|432:131|402:163,1,67.5000007867814,0|0,3:0|3:0,0:0:0:0:
194,197,173760,1,6,3:0:0:0:
186,194,173835,1,0,3:0:0:0:
175,191,173910,2,0,P|158:156|188:124,1,67.5000007867814,0|0,3:0|3:0,0:0:0:0:
332,37,174060,6,0,P|277:162|262:298,1,269.999992847443,2|0,3:2|0:0,0:0:0:0:
201,369,174360,2,0,P|118:340|144:269,1,179.999995231629,6|0,3:0|3:0,0:0:0:0:
96,27,174660,5,10,3:2:0:0:
91,34,174735,2,0,L|103:90,2,44.9999988079071,0|2|0,3:0|3:0|3:0,0:0:0:0:
19,50,174960,2,0,L|31:106,3,44.9999988079071,0|2|0|0,3:0|3:0|3:0|3:0,0:0:0:0:
327,152,175260,5,6,3:0:0:0:
300,223,175335,2,0,B|281:112|281:112|171:132,1,224.999994039536,0|0,3:0|3:0,0:0:0:0:
102,257,175560,2,0,B|6:240|6:240|36:66|36:66|99:77,1,337.499991059303,2|0,3:2|3:0,0:0:0:0:
205,47,175860,5,10,3:2:0:0:
213,38,175935,1,0,3:0:0:0:
221,30,176010,2,0,B|247:7|247:7|283:22,1,67.5000007867814,0|0,3:0|3:0,0:0:0:0:
399,124,176160,1,6,3:0:0:0:
391,133,176235,1,0,3:0:0:0:
383,141,176310,2,0,B|356:163|356:163|320:148,1,67.5000007867814,0|0,3:0|3:0,0:0:0:0:
502,15,176460,6,0,B|483:142|483:142|487:138|487:138|464:291,1,269.999992847443,2|0,3:2|0:0,0:0:0:0:
395,369,176760,2,0,B|315:329|315:329|355:243,1,179.999995231629,6|0,3:0|3:0,0:0:0:0:
170,354,177060,6,0,L|127:364,6,33.7500003933907,10|0|0|0|0|0|0,3:2|3:0|3:0|3:0|3:0|3:0|3:0,0:0:0:0:
286,167,177360,6,0,L|329:157,2,33.7500003933907,2|0|0,3:3|3:0|3:0,0:0:0:0:
203,106,177510,1,8,3:2:0:0:
0,278,177660,5,12,3:3:0:0:
57,222,177735,2,2,B|341:366|341:366|327:285|327:285|250:227|250:227|64:301,1,674.999982118607,2|0,3:0|3:0,0:1:0:0:
4,159,178260,5,10,3:2:0:0:
0,149,178335,1,0,3:0:0:0:
3,140,178410,2,0,P|28:107|58:102,1,67.5000007867814,0|0,3:0|3:0,0:0:0:0:
141,247,178560,1,14,3:0:0:0:
145,257,178635,1,0,3:0:0:0:
142,266,178710,2,0,P|117:299|87:304,1,67.5000007867814,0|0,3:0|3:0,0:0:0:0:
116,140,178860,6,0,L|392:107,1,269.999992847443,2|0,3:0|0:0,0:0:0:0:
324,161,179160,2,0,B|274:181|247:138|248:131|251:124|236:78|179:88,1,179.999995231629,14|0,3:3|3:0,0:0:0:0:
403,13,179460,5,10,3:2:0:0:
412,23,179535,2,0,L|399:76,2,44.9999988079071,0|2|0,3:0|3:0|3:0,0:0:0:0:
484,66,179760,2,0,L|471:119,3,44.9999988079071,0|2|0|0,3:0|3:0|3:0|3:0,0:0:0:0:
360,248,180060,5,14,3:0:0:0:
436,186,180135,2,0,B|373:201|373:201|396:329,1,179.999995231629,0|0,3:0|3:0,0:0:0:0:
339,383,180360,2,0,L|372:73,1,269.999992847443,2|0,3:2|3:0,0:0:0:0:
306,40,180660,5,10,3:2:0:0:
298,33,180735,1,0,3:0:0:0:
291,25,180810,2,0,B|255:21|255:21|234:54,1,67.5000007867814,0|0,3:0|3:0,0:0:0:0:
97,158,180960,1,14,3:0:0:0:
105,151,181035,1,0,3:0:0:0:
112,143,181110,2,0,B|148:139|148:139|164:165,1,67.5000007867814,0|0,3:0|3:0,0:0:0:0:
202,322,181260,6,0,B|182:222|182:222|186:213|186:213|149:39,1,269.999992847443,2|0,3:2|0:0,0:0:0:0:
85,9,181560,2,0,P|-5:41|12:119,1,179.999995231629,14|0,3:0|3:0,0:0:0:0:
262,168,181860,6,0,L|311:161,6,44.9999988079071,10|0|0|0|0|0|0,3:2|3:0|3:0|3:0|3:0|3:0|3:0,0:0:0:0:
154,253,182160,2,0,L|105:260,6,44.9999988079071,2|0|0|0|0|0|0,3:1|3:0|3:0|3:0|3:0|3:0|3:0,0:0:0:0:
430,306,182460,5,14,3:0:0:0:
365,354,182535,2,2,B|338:270|338:270|486:150|486:150|495:170|495:170|478:302|478:302|252:174,1,674.999982118607,0|0,3:0|3:0,3:1:0:0:
207,103,183060,5,10,3:2:0:0:
202,93,183135,1,0,3:0:0:0:
203,82,183210,2,0,P|224:46|263:36,1,67.5000007867814,0|0,3:0|3:0,0:0:0:0:
393,129,183360,1,14,3:0:0:0:
398,139,183435,1,0,3:0:0:0:
397,151,183510,2,0,P|376:187|337:197,1,67.5000007867814,0|0,3:0|3:0,0:0:0:0:
247,347,183660,6,0,B|197:270|259:227|267:223|275:220|344:177|297:105,1,269.999992847443,2|0,3:2|0:0,0:0:0:0:
206,178,183960,2,0,B|212:233|259:230|265:229|271:228|317:234|324:298,1,179.999995231629,14|0,3:0|3:0,0:0:0:0:
88,357,184260,5,10,3:2:0:0:
78,347,184335,2,0,L|21:343,2,44.9999988079071,0|2|0,3:0|3:0|3:0,0:0:0:0:
60,269,184560,2,0,L|3:265,3,44.9999988079071,0|2|0|0,3:0|3:0|3:0|3:0,0:0:0:0:
164,102,184860,5,6,3:0:0:0:
131,33,184935,2,0,B|120:113|120:113|116:99|116:99|101:194,1,179.999995231629,0|0,3:0|0:0,0:0:0:0:
0,97,185160,2,0,L|278:46,1,269.999992847443,10|0,3:3|3:0,0:0:0:0:
445,132,185460,5,10,3:2:0:0:
443,145,185535,1,0,3:0:0:0:
441,158,185610,2,0,L|427:242,1,67.5000007867814,8|0,3:0|3:0,0:0:0:0:
291,150,185761,1,10,3:0:0:0:
289,137,185836,1,0,3:0:0:0:
287,124,185911,2,0,L|275:57,1,67.5000007867814,8|0,3:0|3:0,0:0:0:0:
381,9,186060,6,0,L|372:78,1,67.5000007867814,2|0,3:2|3:0,0:0:0:0:
354,218,186360,2,0,L|345:287,1,67.5000007867814,2|0,3:2|3:0,0:0:0:0:
335,375,186660,1,0,3:0:0:0:
80,51,187260,6,0,B|105:51|145:79|132:163|37:159|-21:97|10:14,1,269.999992847443,6|0,1:1|0:0,0:0:0:0:
23,298,187860,6,0,P|17:264|3:234,1,67.5000007867814,2|0,0:2|0:0,0:0:0:0:
106,206,188160,2,0,P|111:239|125:269,1,67.5000007867814,2|0,0:2|0:0,0:0:0:0:
237,373,188460,6,0,P|309:341|295:292,1,135.000001573563,2|2,0:1|0:2,0:0:0:0:
495,184,189060,6,0,P|451:199|411:201,1,67.5000007867814,2|0,0:2|0:0,0:0:0:0:
433,207,189360,2,0,P|467:201|498:189,1,67.5000007867814,2|0,0:2|0:0,0:0:0:0:
338,32,189660,5,2,1:1:0:0:
106,206,189960,6,0,P|123:161|123:134,1,67.5000007867814,2|0,0:2|0:0,0:0:0:0:
259,85,190260,2,0,P|212:93|189:107,1,67.5000007867814,2|0,0:2|0:0,0:0:0:0:
78,13,190560,2,0,P|109:51|132:64,1,67.5000007867814,2|0,0:2|0:0,0:0:0:0:
418,111,190860,6,0,P|364:123|299:137,1,101.250001180172,2|0,0:1|0:0,0:0:0:0:
259,85,191160,1,2,0:2:0:0:
496,226,191460,1,2,0:1:0:0:
302,332,191760,5,2,0:2:0:0:
254,280,191910,1,0,0:0:0:0:
197,323,192060,1,2,1:1:0:0:
129,302,192210,1,0,0:0:0:0:
101,368,192360,2,0,P|28:353|30:289,1,135.000001573563
254,280,192960,5,0,0:0:0:0:
257,267,193035,1,0,0:0:0:0:
260,254,193110,1,0,0:0:0:0:
338,214,193260,1,2,0:1:0:0:
124,25,193560,6,0,P|136:55|142:100,1,67.5000007867814,2|0,0:2|0:0,0:0:0:0:
84,148,193860,2,0,P|41:131|34:104,1,67.5000007867814,2|0,0:2|0:0,0:0:0:0:
216,41,194160,2,0,P|259:58|266:85,1,67.5000007867814,2|0,0:2|0:0,0:0:0:0:
338,214,194460,6,0,P|358:152|420:138,1,135.000001573563,2|0,1:1|0:0,0:0:0:0:
201,374,195060,6,0,P|209:327|213:303,1,67.5000007867814,2|0,0:2|0:0,0:0:0:0:
80,61,195360,6,0,P|67:94|97:138,1,85.4999954519273,2|0,0:2|0:0,0:0:0:0:
190,118,195660,2,0,P|196:78|166:40,1,85.4999954519273,2|0,0:1|0:0,0:0:0:0:
12,210,195960,2,0,P|83:225|99:248,1,85.4999954519273,0|2,0:0|0:1,0:0:0:0:
338,214,196260,2,0,P|282:236|266:275,1,85.4999954519273,2|0,0:2|0:0,0:0:0:0:
0,373,196560,2,0,P|58:349|78:322,1,85.4999954519273,2|0,0:1|0:0,0:0:0:0:
0,131,196860,5,2,1:1:0:0:
343,13,197160,6,0,P|302:17|281:50,1,67.5000007867814,2|0,0:2|0:0,0:0:0:0:
207,19,197460,2,0,P|189:56|208:91,1,67.5000007867814,2|0,0:2|0:0,0:0:0:0:
144,139,197760,2,0,P|167:172|207:174,1,67.5000007867814,2|0,0:2|0:0,0:0:0:0:
270,255,198060,6,0,P|346:206|409:219,1,135.000001573563,2|0,1:1|0:0,0:0:0:0:
215,356,198660,6,0,B|159:395|126:339|127:334|128:330|97:273|42:306,1,202.500002360344,2|2,0:2|0:2,0:0:0:0:
191,177,199260,5,2,1:1:0:0:
361,367,199560,6,0,P|370:323|381:284,1,67.5000007867814,2|0,0:2|0:0,0:0:0:0:
452,193,199860,2,0,P|487:201|509:240,1,67.5000007867814,2|0,0:2|0:0,0:0:0:0:
375,124,200160,2,0,P|410:116|432:77,1,67.5000007867814,2|0,0:2|0:0,0:0:0:0:
191,177,200460,6,0,P|178:102|173:70,1,101.250001180172,2|0,1:1|0:0,0:0:0:0:
111,38,200760,2,0,P|74:16|46:28,1,67.5000007867814,2|0,0:2|0:0,0:0:0:0:
249,235,201060,2,0,P|274:255|307:250,1,67.5000007867814,2|0,0:1|0:0,0:0:0:0:
26,366,201360,6,0,P|52:298|108:292,1,135.000001573563,2|2,0:2|1:1,0:0:0:0:
113,281,201735,1,0,0:0:0:0:
121,271,201810,2,0,P|175:290|169:367,1,135.000001573563
351,371,202260,6,0,P|381:347|418:346,1,67.5000007867814,2|0,1:2|0:0,0:0:0:0:
507,255,202560,2,0,P|474:250|448:228,1,67.5000007867814,2|0,0:2|0:0,0:0:0:0:
366,127,202860,5,2,1:1:0:0:
122,187,203160,6,0,P|82:173|40:165,1,67.5000007867814,2|0,0:2|0:0,0:0:0:0:
175,247,203460,2,0,P|218:228|226:196,1,67.5000007867814,2|0,1:2|0:0,0:0:0:0:
146,63,203760,2,0,P|103:82|95:114,1,67.5000007867814,2|0,0:2|0:0,0:0:0:0:
38,326,204060,6,0,B|30:277|30:277|26:275|26:275|15:213,1,101.250001180172,2|0,1:1|0:0,0:0:0:0:
57,167,204360,1,2,0:2:0:0:
227,371,204660,6,0,P|324:344|359:344,1,135.000001573563,2|2,1:2|0:2,0:0:0:0:
426,373,205060,5,0,0:0:0:0:
476,354,205160,1,0,0:0:0:0:
497,305,205260,1,0,1:0:0:0:
356,5,205560,6,0,B|367:11|367:11|383:98,1,67.5000007867814
263,114,205860,6,0,B|219:104|219:104|216:108|216:108|161:97,1,89.9999976158143,0|0,1:0|0:0,0:0:0:0:
390,211,206160,2,0,B|433:220|433:220|437:217|437:217|492:228,1,89.9999976158143,0|0,1:0|0:0,0:0:0:0:
248,303,206460,6,0,B|106:332|106:332|60:342|15:328|11:242|72:227|107:251,1,337.500003933907,14|0,1:2|0:0,0:0:0:0:
110,255,206910,1,8,0:2:0:0:
174,93,207060,2,0,P|282:147|269:234,1,202.500002360344,2|0,0:2|0:0,0:0:0:0:
267,227,207360,2,0,P|225:215|212:188,1,67.5000007867814,10|0,0:2|0:0,0:0:0:0:
275,22,207510,6,0,B|334:-10|370:42|371:50|372:58|406:102|470:77,1,215.999987686158,2|10,0:2|0:2,0:0:0:0:
505,146,207885,1,8,0:2:0:0:
512,154,207960,2,0,P|497:194|426:199,1,107.999993843079,10|2,0:2|0:2,0:0:0:0:
303,103,208260,2,0,P|293:171|275:328,1,215.999987686158,10|10,0:2|0:2,0:0:0:0:
205,346,208635,1,8,0:2:0:0:
178,326,208710,1,10,0:2:0:0:
178,293,208785,1,8,0:2:0:0:
246,240,208860,6,0,P|278:180|169:101,1,215.999987686158,10|0,1:2|0:0,0:0:0:0:
121,187,209310,1,8,0:2:0:0:
0,104,209460,2,0,P|-1:37|98:31,1,161.999990764618,2|0,0:2|0:0,0:0:0:0:
84,35,209760,2,0,P|94:65|87:95,1,53.9999969215394,10|0,0:2|0:0,0:0:0:0:
3,212,209910,6,0,P|78:219|151:338,1,215.999987686158,2|2,0:2|0:2,0:0:0:0:
247,377,210360,1,10,0:2:0:0:
330,309,210510,1,2,0:2:0:0:
481,241,210660,6,0,B|500:293|500:293|478:351,1,107.999993843079,10|2,0:2|0:2,0:0:0:0:
251,245,210960,2,0,B|232:193|232:193|254:135,1,107.999993843079,10|8,1:2|0:2,0:0:0:0:
471,84,211260,6,0,B|420:77|420:77|418:73|418:73|351:66|351:66|349:62|349:62|252:51|252:51|250:47|250:47|136:35,1,337.500003933907,10|0,1:2|0:0,0:0:0:0:
136,43,211710,1,8,0:2:0:0:
24,167,211860,6,0,B|0:208|0:208|28:254,1,90.0000010490418,2|0,0:2|0:0,0:0:0:0:
180,200,212060,2,0,B|181:152|181:152|135:125,1,90.0000010490418,0|8,0:0|0:2,0:0:0:0:
97,273,212260,2,0,B|125:310|125:310|125:261,1,90.0000010490418
384,234,212460,6,0,B|408:275|408:275|380:321,1,90.0000010490418,2|0,0:2|0:0,0:0:0:0:
228,267,212660,2,0,B|226:219|226:219|272:192,1,90.0000010490418,0|8,0:0|0:2,0:0:0:0:
311,340,212860,2,0,B|282:377|282:377|282:328,1,90.0000010490418
386,123,213060,6,0,B|491:153|491:153|499:145|499:145|426:53|426:53|200:117|200:117|181:100|181:100|220:53,1,535.499996027947,10|8,0:2|0:2,0:0:0:0:
216,66,213660,5,10,1:2:0:0:
128,25,213810,1,0,0:0:0:0:
61,199,213960,5,0,3:0:0:0:
35,111,214110,1,0,3:0:0:0:
121,293,214260,5,4,3:0:0:0:
159,196,214410,1,4,3:0:0:0:
300,153,214560,5,4,3:0:0:0:
431,220,214710,1,4,3:0:0:0:
461,362,214860,5,4,3:0:0:0:
467,355,215060,5,4,0:3:0:0:
461,352,215260,5,4,0:3:0:0:
457,356,215460,5,4,0:3:0:0:
413,60,216060,1,4,0:2:0:0:
413,60,218460,6,0,P|382:72|367:95,1,53.9999969215394,2|0,0:1|0:0,0:0:0:0:
307,144,218910,6,0,P|338:156|353:179,1,53.9999969215394,2|0,0:1|0:0,0:0:0:0:
380,209,219285,6,0,P|349:221|334:244,1,53.9999969215394
342,327,219660,6,0,B|196:240|-12:237|-12:237|183:237|282:191|265:77|189:43|109:86|136:161|170:160,1,810.000009441377,2|2,0:2|0:2,0:0:0:0:
360,165,220860,6,2,B|362:165|362:165|362:163|362:163|363:164|363:164|364:164|364:164|365:166|365:166|365:164|365:164|366:164|366:164|366:162|366:162|367:164|367:164|368:164|368:164|369:165|369:165|369:163|369:163|370:163|370:163|370:161|370:161|371:163|371:163|372:163|372:163|373:165|373:165|373:163|373:163|374:163|374:163|374:161|374:161|375:162|375:162|376:162|376:162|377:164|377:164|377:162|377:162|378:162|378:162|378:160|378:160|379:162|379:162|380:161|380:161|380:163|380:163|381:161|381:161|382:161|382:161|382:159|382:159|383:161|383:161|384:161|384:161|384:163|384:163|384:161|384:161|385:160|385:160|386:158|386:158|386:160|386:160|387:160|387:160|388:162|388:162|388:160|388:160|389:160|389:160|390:158|390:158|390:160|390:160|391:159|391:159|392:161|392:161|392:159|392:159|393:159|393:159|393:157|393:157|394:159|394:159|395:159|395:159|396:161|396:161|396:159|396:159|397:158|397:158|397:156|397:156|398:158|398:158|399:158|399:158|400:160|400:160|400:158|400:158|401:158|401:158|401:156|401:156|402:157|402:157|403:157|403:157|404:159|404:159|404:157|404:157|405:157|405:157|405:155|405:155|406:157|406:157|407:157|407:157|408:158|408:158|408:156|408:156|409:156|409:156|409:154|409:154|410:156|410:156|412:156|412:156|413:158|413:158|413:156|413:156|414:156|414:156|414:153|414:153|415:155|415:155|416:155|416:155|417:157|417:157|417:155|417:155|418:155|418:155|418:153|418:153|419:155|419:155|420:154|420:154|421:156|421:156|421:154|421:154|422:154|422:154|422:152|422:152|423:154|423:154|424:154|424:154|425:156|425:156|425:154|425:154|426:153|426:153|426:151|426:151|427:153|427:153|428:153|428:153|428:155|428:155|429:153|429:153|430:153|430:153|430:151|430:151|431:153|431:153|432:152|432:152|432:154|432:154|432:152|432:152|433:152|433:152|434:150|434:150|434:152|434:152|435:152|435:152|436:154|436:154|436:152|436:152|437:151|437:151|438:149|438:149|438:151|438:151|439:151|439:151|440:153|440:153|440:151|440:151|441:151|441:151|441:149|441:149|442:150|442:150|443:150|443:150|444:152|444:152|444:150|444:150|445:150|445:150|445:148|445:148|446:150|446:150|447:150|447:150|448:151|448:151|448:149|448:149|449:149|449:149|449:147|449:147|450:149|450:149|451:149|451:149|452:151|452:151|452:149|452:149|453:149|453:149|453:146|453:146|454:148|454:148|456:148|456:148|455:148|455:148|456:150|456:150|456:148|456:148|457:147|457:147|455:146|455:146|457:146|457:146|458:145|458:145|460:146|460:146|458:145|458:145|459:144|459:144|457:142|457:142|459:143|459:143|460:142|460:142|462:142|462:142|461:141|461:141|461:140|461:140|460:139|460:139|462:139|462:139|462:138|462:138|464:139|464:139|463:137|463:137|462:135|462:135|464:136|464:136|464:135|464:135|466:136|466:136|465:134|465:134|465:133|465:133|464:132|464:132|466:132|466:132|467:132|467:132|468:132|468:132|467:131|467:131|468:130|468:130|466:128|466:128|468:129|468:129|469:128|469:128|471:129|471:129|469:127|469:127|470:127|470:127|468:125|468:125|470:126|470:126|471:125|471:125|473:126|473:126|471:124|471:124|472:123|472:123|471:122|471:122|472:122|472:122|473:122|473:122|475:122|475:122|474:121|474:121|474:120|474:120|473:118|473:118|475:119|475:119|475:118|475:118|477:119|477:119|476:117|476:117|475:115|475:115|477:116|477:116|477:115|477:115|479:115|479:115|478:113|478:113|478:112|478:112|477:111|477:111|479:111|479:111|479:110|479:110|481:111|481:111|480:110|480:110|481:109|481:109|479:107|479:107|481:108|481:108|482:107|482:107|484:108|484:108|482:106|482:106|483:105|483:105|481:104|481:104|483:105|483:105|484:104|484:104|486:104|486:104|484:103|484:103|485:102|485:102|483:101|483:101|485:101|485:101|486:100|486:100|488:101|488:101|487:100|487:100|487:99|487:99|486:97|486:97|488:98|488:98|488:97|488:97|491:98|491:98|490:96|490:96|490:95|490:95|488:94|488:94|491:94|491:94|493:94|493:94|492:93|492:93|492:92|492:92|491:90|491:90|493:91|493:91|493:90|493:90|495:91|495:91|494:89|494:89|495:89|495:89|493:87|493:87|495:88|495:88|496:87|496:87|498:88|498:88|496:86|496:86|497:85|497:85|495:84|495:84|497:84|497:84|498:84|498:84|500:84|500:84|498:83|498:83|499:82|499:82|497:80|497:80|499:81|499:81|500:80|500:80|502:81|502:81|500:79|500:79|501:79|501:79|500:77|500:77|502:78|502:78|502:77|502:77|504:78|504:78|503:76|503:76|503:75|503:75|502:74|502:74|504:74|504:74|506:74|506:74|505:73|505:73|505:72|505:72|504:70|504:70|506:71|506:71|506:70|506:70|508:71|508:71|507:69|507:69|507:68|507:68|506:67|506:67|508:68|508:68|509:67|509:67|511:67|511:67|509:66|509:66|510:65|510:65|508:64|508:64|510:64|510:64|511:63|511:63|510:60|510:60|510:63|510:63|509:63|509:63|509:64|509:64|509:63|509:63|508:64|508:64|507:62|507:62|507:64|507:64|506:64|506:64|505:66|505:66|505:64|505:64|504:64|504:64|503:62|503:62|503:65|503:65|502:65|502:65|502:67|502:67|501:65|501:65|500:65|500:65|499:63|499:63|499:65|499:65|498:65|498:65|498:67|498:67|497:66|497:66|496:66|496:66|495:64|495:64|495:66|495:66|494:66|494:66|494:68|494:68|493:66|493:66|492:67|492:67|491:65|491:65|491:67|491:67|490:67|490:67|490:69|490:69|488:67|488:67|487:67|487:67|486:65|486:65|486:67|486:67|485:68|485:68|485:70|485:70|484:68|484:68|483:68|483:68|482:66|482:66|482:68|482:68|481:68|481:68|481:70|481:70|480:69|480:69|479:69|479:69|478:67|478:67|478:69|478:69|477:69|477:69|477:71|477:71|476:69|476:69|475:69|475:69|474:68|474:68|474:70|474:70|473:70|473:70|473:72|473:72|472:70|472:70|471:70|471:70|470:68|470:68|470:70|470:70|469:70|469:70|469:73|469:73|468:71|468:71|467:71|467:71|466:69|466:69|466:71|466:71|465:71|465:71|465:73|465:73|464:71|464:71|463:72|463:72|462:70|462:70|462:72|462:72|461:72|461:72|461:74|461:74|460:72|460:72|459:72|459:72|459:70|459:70|458:72|458:72|457:73|457:73|457:75|457:75|456:73|456:73|455:73|455:73|455:71|455:71|454:73|454:73|453:73|453:73|453:75|453:75|453:74|453:74|452:74|452:74|451:72|451:72|451:74|451:74|450:74|450:74|449:76|449:76|449:74|449:74|448:74|448:74|447:73|447:73|447:75|447:75|446:75|446:75|446:77|446:77|445:75|445:75|444:75|444:75|443:73|443:73|443:75|443:75|442:76|442:76|442:78|442:78|441:76|441:76|440:76|440:76|439:74|439:74|439:76|439:76|438:76|438:76|438:78|438:78|437:76|437:76|436:77|436:77|435:75|435:75|435:77|435:77|434:77|434:77|434:79|434:79|433:77|433:77|432:77|432:77|431:75|431:75|431:78|431:78|430:78|430:78|430:80|430:80|429:78|429:78|428:78|428:78|427:76|427:76|427:78|427:78|426:78|426:78|426:81|426:81|425:79|425:79|424:79|424:79|423:77|423:77|423:79|423:79|422:79|422:79|422:81|422:81|421:79|421:79|420:80|420:80|419:78|419:78|419:80|419:80|418:80|418:80|418:82|418:82|417:80|417:80|416:80|416:80|415:78|415:78|415:80|415:80|414:81|414:81|414:83|414:83|413:81|413:81|412:81|412:81|410:79|410:79|410:81|410:81|409:81|409:81|409:83|409:83|408:82|408:82|407:82|407:82|406:80|406:80|406:82|406:82|405:82|405:82|405:84|405:84|404:82|404:82|403:82|403:82|403:81|403:81|402:83|402:83|401:83|401:83|401:85|401:85|400:83|400:83|399:83|399:83|399:81|399:81|398:83|398:83|397:84|397:84|397:86|397:86|396:84|396:84|395:84|395:84|395:82|395:82|395:84|395:84|394:84|394:84|393:86|393:86|393:84|393:84|392:85|392:85|391:83|391:83|391:85|391:85|390:85|390:85|389:87|389:87|389:85|389:85|388:85|388:85|387:83|387:83|387:85|387:85|386:86|386:86|386:88|386:88|385:86|385:86|384:86|384:86|383:84|383:84|383:86|383:86|382:86|382:86|382:88|382:88|381:87|381:87|380:87|380:87|379:85|379:85|379:87|379:87|378:87|378:87|378:89|378:89|377:87|377:87|376:87|376:87|375:86|375:86|375:88|375:88|374:88|374:88|374:90|374:90|373:88|373:88|372:88|372:88|371:86|371:86|371:88|371:88|370:89|370:89|370:91|370:91|369:89|369:89|368:89|368:89|367:87|367:87|367:89|367:89|366:89|366:89|366:91|366:91|365:89|365:89|364:90|364:90|363:88|363:88|363:90|363:90|362:90|362:90|362:92|362:92|361:90|361:90|360:90|360:90|359:89|359:89|359:91|359:91|358:91|358:91|358:93|358:93|357:91|357:91|356:91|356:91|355:89|355:89|355:91|355:91|354:91|354:91|354:94|354:94|353:92|353:92|352:92|352:92|351:90|351:90|351:92|351:92|350:92|350:92|350:94|350:94|349:92|349:92|348:93|348:93|347:91|347:91|347:93|347:93|346:93|346:93|346:95|346:95|345:93|345:93|344:93|344:93|344:91|344:91|343:93|343:93|342:94|342:94|342:96|342:96|341:94|341:94|340:94|340:94|340:92|340:92|339:94|339:94|338:94|338:94|338:96|338:96|338:95|338:95|337:95|337:95|336:93|336:93|336:95|336:95|335:95|335:95|334:97|334:97|334:95|334:95|332:95|332:95|331:94|331:94|331:96|331:96|330:96|330:96|330:98|330:98|329:96|329:96|328:96|328:96|327:94|327:94|327:96|327:96|326:97|326:97|326:99|326:99|325:97|325:97|324:97|324:97|323:95|323:95|323:97|323:97|322:97|322:97|322:99|322:99|321:97|321:97|320:98|320:98|319:96|319:96|319:98|319:98|318:98|318:98|318:100|318:100|317:98|317:98|316:98|316:98|315:96|315:96|315:99|315:99|314:99|314:99|314:101|314:101|313:99|313:99|312:99|312:99|311:97|311:97|311:99|311:99|310:99|310:99|310:101|310:101|309:100|309:100|308:100|308:100|307:98|307:98|307:100|307:100|306:100|306:100|306:102|306:102|305:100|305:100|304:100|304:100|303:99|303:99|303:101|303:101|302:101|302:101|302:103|302:103|301:101|301:101|300:101|300:101|299:99|299:99|299:101|299:101|298:102|298:102|298:104|298:104|297:102|297:102|296:102|296:102|295:100|295:100|295:102|295:102|294:102|294:102|294:104|294:104|293:102|293:102|292:103|292:103|291:101|291:101|291:103|291:103|290:103|290:103|290:105|290:105|289:103|289:103|288:103|288:103|288:102|288:102|287:104|287:104|286:104|286:104|286:106|286:106|285:104|285:104|284:104|284:104|284:102|284:102|283:104|283:104|282:104|282:104|282:107|282:107|281:105|281:105|280:105|280:105|280:103|280:103|280:105|280:105|279:105|279:105|278:107|278:107|278:105|278:105|277:106|277:106|276:104|276:104|276:106|276:106|275:106|275:106|274:108|274:108|274:106|274:106|273:106|273:106|272:104|272:104|272:106|272:106|271:107|271:107|271:109|271:109|270:107|270:107|269:107|269:107|268:105|268:105|268:107|268:107|267:107|267:107|267:109|267:109|266:108|266:108|265:108|265:108|264:106|264:106|264:108|264:108|263:108|263:108|263:110|263:110|262:108|262:108|261:108|261:108|260:107|260:107|260:109|260:109|259:109|259:109|259:111|259:111|258:109|258:109|257:109|257:109|256:107|256:107|256:109|256:109|254:110|254:110|254:112|254:112|253:110|253:110|252:110|252:110|251:108|251:108|251:110|251:110|250:110|250:110|250:112|250:112|249:110|249:110|248:111|248:111|247:109|247:109|247:111|247:111|246:111|246:111|246:113|246:113|245:111|245:111|244:111|244:111|243:109|243:109|243:112|243:112|242:112|242:112|242:115|242:115|241:112|241:112|240:112|240:112|239:110|239:110|239:112|239:112|238:112|238:112|238:115|238:115|237:113|237:113|236:113|236:113|235:111|235:111|235:113|235:113|234:113|234:113|234:116|234:116|233:113|233:113|232:115|232:115|231:112|231:112|231:115|231:115|230:115|230:115|230:117|230:117|229:115|229:115|228:115|228:115|228:112|228:112|227:115|227:115|226:116|226:116|226:118|226:118|225:116|225:116|224:116|224:116|224:113|224:113|223:116|223:116|222:116|222:116|222:118|222:118|222:116|222:116|221:117|221:117|220:115|220:115|220:117|220:117|219:117|219:117|218:119|218:119|218:117|218:117|217:117|217:117|216:116|216:116|216:118|216:118|215:118|215:118|215:120|215:120|214:118|214:118|213:118|213:118|212:116|212:116|212:118|212:118|211:118|211:118|211:121|211:121|210:119|210:119|209:119|209:119|208:117|208:117|208:119|208:119|207:119|207:119|207:121|207:121|206:119|206:119|205:120|205:120|204:118|204:118|204:120|204:120|203:120|203:120|203:122|203:122|202:120|202:120|201:120|201:120|200:118|200:118|200:120|200:120|199:121|199:121|199:123|199:123|198:121|198:121|197:121|197:121|196:119|196:119|196:121|196:121|195:121|195:121|195:123|195:123|194:122|194:122|193:122|193:122|192:120|192:120|192:122|192:122|191:122|191:122|191:124|191:124|190:122|190:122|189:122|189:122|188:121|188:121|188:123|188:123|187:123|187:123|187:125|187:125|186:123|186:123|185:123|185:123|184:121|184:121|184:123|184:123|183:124|183:124|183:126|183:126|182:124|182:124|181:124|181:124|180:122|180:122|180:124|180:124|179:124|179:124|179:126|179:126|177:124|177:124|176:125|176:125|175:123|175:123|175:125|175:125|174:125|174:125|174:127|174:127|173:125|173:125|172:125|172:125|172:123|172:123|171:126|171:126|170:126|170:126|170:128|170:128|169:126|169:126|168:126|168:126|168:124|168:124|167:126|167:126|166:126|166:126|166:128|166:128|165:127|165:127|164:127|164:127|164:125|164:125|164:127|164:127|163:127|163:127|162:129|162:129|162:127|162:127|161:128|161:128|160:126|160:126|160:128|160:128|159:128|159:128|158:130|158:130|158:128|158:128|157:128|157:128|156:126|156:126|156:128|156:128|155:129|155:129|155:131|155:131|154:129|154:129|153:129|153:129|152:127|152:127|152:129|152:129|151:129|151:129|151:131|151:131|150:130|150:130|149:130|149:130|148:128|148:128|148:130|148:130|147:130|147:130|147:132|147:132|146:130|146:130|145:130|145:130|144:129|144:129|144:131|144:131|143:131|143:131|143:133|143:133|142:131|142:131|141:131|141:131|140:129|140:129|140:131|140:131|139:131|139:131|139:134|139:134|138:132|138:132|137:132|137:132|136:130|136:130|136:132|136:132|135:132|135:132|135:134|135:134|134:132|134:132|133:133|133:133|132:131|132:131|132:133|132:133|131:133|131:133|131:135|131:135|130:133|130:133|129:133|129:133|128:131|128:131|128:133|128:133|127:134|127:134|127:136|127:136|126:134|126:134|125:134|125:134|124:132|124:132|124:134|124:134|123:134|123:134|123:136|123:136|122:135|122:135|121:135|121:135|120:133|120:133|120:135|120:135|119:135|119:135|119:137|119:137|118:135|118:135|117:135|117:135|116:134|116:134|116:136|116:136|115:136|115:136|115:138|115:138|114:136|114:136|113:136|113:136|113:134|113:134|112:136|112:136|111:137|111:137|111:139|111:139|110:137|110:137|109:137|109:137|109:135|109:135|108:137|108:137|107:137|107:137|107:139|107:139|107:137|107:137|106:138|106:138|105:136|105:136|105:138|105:138|104:138|104:138|103:140|103:140|103:138|103:138|102:138|102:138|101:136|101:136|101:139|101:139|99:139|99:139|99:141|99:141|98:139|98:139|97:139|97:139|96:137|96:137|96:139|96:139|95:139|95:139|95:142|95:142|94:140|94:140|93:140|93:140|92:138|92:138|92:140|92:140|91:140|91:140|91:142|91:142|90:140|90:140|89:141|89:141|88:139|88:139|88:141|88:141|87:141|87:141|87:143|87:143|86:141|86:141|85:141|85:141|84:139|84:139|84:141|84:141|83:142|83:142|83:144|83:144|82:142|82:142|81:142|81:142|80:140|80:140|80:142|80:142|79:142|79:142|79:144|79:144|78:143|78:143|77:143|77:143|76:141|76:141|76:143|76:143|75:143|75:143|75:145|75:145|74:143|74:143|73:143|73:143|72:142|72:142|72:144|72:144|71:144|71:144|71:146|71:146|70:144|70:144|69:144|69:144|68:142|68:142|68:144|68:144|67:145|67:145|67:147|67:147|66:145|66:145|65:145|65:145|64:143|64:143|64:145|64:145|63:145|63:145|63:147|63:147|62:145|62:145|61:146|61:146|60:144|60:144|60:146|60:146|59:146|59:146|59:148|59:148|58:146|58:146|57:146|57:146|57:144|57:144|56:146|56:146|55:147|55:147|55:149|55:149|54:147|54:147|53:147|53:147|53:145|53:145|52:147|52:147|51:147|51:147|51:149|51:149|50:148|50:148|49:148|49:148|49:146|49:146|49:148|49:148|48:148|48:148|47:150|47:150|47:148|47:148|46:148|46:148|45:147|45:147|45:149|45:149|44:149|44:149|43:151|43:151|43:149|43:149|42:149|42:149|40:146|40:146|40:149|40:149|39:150|39:150|39:152|39:152|38:150|38:150|37:150|37:150|36:148|36:148|36:150|36:150|35:150|35:150|35:152|35:152|34:151|34:151|33:151|33:151|32:149|32:149|32:151|32:151|31:151|31:151|31:153|31:153|30:151|30:151|29:151|29:151|29:150|29:150|28:152|28:152|27:152|27:152|27:154|27:154|26:152|26:152|25:152|25:152|25:150|25:150|24:152|24:152|23:153|23:153|23:155|23:155|21:153|21:153|20:153|20:153|18:156|18:156|21:154|21:154|23:154|23:154|23:155|23:155|23:156|23:156|21:157|21:157|24:156|24:156|25:157|25:157|27:156|27:156|26:158|26:158|25:160|25:160|27:159|27:159|28:160|28:160|29:159|29:159|28:161|28:161|29:161|29:161|28:163|28:163|30:162|30:162|30:163|30:163|32:162|32:162|31:163|31:163|32:164|32:164|31:166|31:166|32:165|32:165|33:166|33:166|35:165|35:165|34:166|34:166|35:167|35:167|33:169|33:169|35:168|35:168|36:168|36:168|38:167|38:167|37:169|37:169|37:170|37:170|36:172|36:172|38:171|38:171|39:171|39:171|40:170|40:170|39:172|39:172|40:173|40:173|39:175|39:175|41:173|41:173|41:174|41:174|43:173|43:173|42:175|42:175|43:176|43:176|42:177|42:177|44:176|44:176|44:177|44:177|46:176|46:176|45:178|45:178|46:179|46:179|45:180|45:180|46:179|46:179|47:180|47:180|49:179|49:179|48:181|48:181|47:183|47:183|49:182|49:182|50:183|50:183|52:182|52:182|50:184|50:184|51:184|51:184|50:186|50:186|52:185|52:185|53:186|53:186|54:185|54:185|53:186|53:186|54:187|54:187|53:189|53:189|55:188|55:188|55:189|55:189|57:188|57:188|56:189|56:189|57:190|57:190|56:193|56:193|57:192|57:192|58:192|58:192|60:190|60:190|59:193|59:193|59:194|59:194|58:196|58:196|60:195|60:195|61:195|61:195|63:194|63:194|62:196|62:196|62:197|62:197|61:199|61:199|63:197|63:197|64:198|64:198|65:197|65:197|64:199|64:199|65:200|65:200|64:201|64:201|66:200|66:200|66:201|66:201|68:200|68:200|67:202|67:202|68:203|68:203|67:204|67:204|69:203|69:203|69:204|69:204|71:203|71:203|70:205|70:205|71:205|71:205|69:207|69:207|71:206|71:206|72:207|72:207|74:206|74:206|73:208|73:208|72:210|72:210|74:209|74:209|75:210|75:210|77:209|77:209|75:210|75:210|76:211|76:211|75:213|75:213|77:212|77:212|78:213|78:213|79:212|79:212|78:213|78:213|79:214|79:214|78:216|78:216|80:215|80:215|82:214|82:214|81:216|81:216|82:217|82:217|81:219|81:219|82:218|82:218|83:218|83:218|85:217|85:217|84:219|84:219|84:220|84:220|83:222|83:222|85:220|85:220|86:221|86:221|88:220|88:220|87:222|87:222|87:223|87:223|86:224|86:224|88:223|88:223|89:224|89:224|90:223|90:223|89:225|89:225|90:226|90:226|89:227|89:227|91:226|91:226|91:227|91:227|93:226|93:226|92:228|92:228|93:228|93:228|92:230|92:230|93:229|93:229|94:230|94:230|96:229|96:229|95:231|95:231|96:231|96:231|94:233|94:233|96:232|96:232|97:233|97:233|99:232|99:232|98:233|98:233|98:234|98:234|97:236|97:236|99:235|99:235|101:236|101:236|102:235|102:235|101:236|101:236|102:237|102:237|101:239|101:239|103:238|103:238|105:237|105:237|104:239|104:239|105:240|105:240|104:242|104:242|106:241|106:241|108:240|108:240|107:242|107:242|108:243|108:243|107:245|107:245|108:243|108:243|109:244|109:244|111:243|111:243|110:245|110:245|110:246|110:246|109:247|109:247|111:246|111:246|112:247|112:247|114:246|114:246|112:248|112:248|113:249|113:249|112:250|112:250|114:249|114:249|115:250|115:250|116:249|116:249|115:251|115:251|116:251|116:251|115:253|115:253|117:252|117:252|117:253|117:253|119:252|119:252|118:254|118:254|119:254|119:254|118:256|118:256|119:255|119:255|120:256|120:256|122:255|122:255|121:256|121:256|122:257|122:257|120:259|120:259|122:258|122:258|123:259|123:259|125:258|125:258|124:259|124:259|124:260|124:260|123:262|123:262|125:261|125:261|126:261|126:261|127:260|127:260|126:262|126:262|127:263|127:263|126:265|126:265|128:264|128:264|130:263|130:263|129:265|129:265|130:266|130:266|129:268|129:268|131:266|131:266|131:267|131:267|133:266|133:266|132:268|132:268|133:270|133:270|132:271|132:271|133:270|133:270|134:271|134:271|136:270|136:270|135:272|135:272|135:273|135:273|134:274|134:274|136:273|136:273|137:274|137:274|139:273|139:273|137:275|137:275|138:275|138:275|137:277|137:277|139:276|139:276|140:277|140:277|141:276|141:276|140:278|140:278|141:278|141:278|140:280|140:280|142:279|142:279|142:280|142:280|144:279|144:279|143:280|143:280|144:281|144:281|143:283|143:283|144:282|144:282|145:283|145:283|147:282|147:282|146:283|146:283|146:284|146:284|145:286|145:286|147:285|147:285|148:285|148:285|150:284|150:284|149:286|149:286|149:287|149:287|148:289|148:289|150:288|150:288|151:288|151:288|152:287|152:287|151:289|151:289|152:290|152:290|151:292|151:292|153:290|153:290|153:291|153:291|155:290|155:290|154:292|154:292|155:293|155:293|154:294|154:294|155:293|155:293|156:294|156:294|158:293|158:293|157:295|157:295|158:296|158:296|156:297|156:297|158:296|158:296|159:297|159:297|161:296|161:296|160:298|160:298|159:300|159:300|161:299|161:299|162:300|162:300|164:299|164:299|162:301|162:301|163:301|163:301|162:303|162:303|164:302|164:302|165:303|165:303|166:302|166:302|165:303|165:303|166:304|166:304|165:306|165:306|167:305|167:305|167:306|167:306|169:305|169:305|168:306|168:306|169:307|169:307|168:309|168:309|169:308|169:308|170:308|170:308|172:307|172:307|171:309|171:309|171:310|171:310|170:312|170:312|172:311|172:311|173:311|173:311|175:310|175:310|174:312|174:312|174:313|174:313|173:315|173:315|175:313|175:313|176:314|176:314|177:313|177:313|176:315|176:315|177:316|177:316|176:317|176:317|179:316|179:316|179:317|179:317|181:316|181:316|180:318|180:318|181:319|181:319|180:320|180:320|181:319|181:319|182:320|182:320|184:319|184:319|183:321|183:321|184:321|184:321|182:323|182:323|184:322|184:322|185:323|185:323|187:322|187:322|186:324|186:324|187:325|187:325|186:324|186:324|185:326|185:326|187:325|187:325|187:324|187:324|186:323|186:323|188:323|188:323|188:322|188:322|190:323|190:323|189:321|189:321|189:320|189:320|187:319|187:319|189:319|189:319|190:319|190:319|192:319|192:319|190:318|190:318|190:317|190:317|189:315|189:315|191:316|191:316|191:315|191:315|193:315|193:315|192:314|192:314|192:313|192:313|190:312|190:312|192:312|192:312|193:311|193:311|195:311|195:311|193:310|193:310|194:309|194:309|192:308|192:308|194:308|194:308|194:307|194:307|196:308|196:308|195:307|195:307|195:306|195:306|193:304|193:304|196:305|196:305|196:304|196:304|198:304|198:304|196:303|196:303|197:302|197:302|195:301|195:301|197:301|197:301|197:300|197:300|199:300|199:300|198:299|198:299|198:298|198:298|197:297|197:297|199:297|199:297|199:296|199:296|201:297|201:297|199:296|199:296|200:295|200:295|198:293|198:293|200:294|200:294|201:293|201:293|203:293|203:293|201:292|201:292|201:291|201:291|200:290|200:290|202:290|202:290|202:289|202:289|204:289|204:289|202:288|202:288|203:287|203:287|201:286|201:286|203:286|203:286|204:285|204:285|206:286|206:286|204:284|204:284|203:282|203:282|205:283|205:283|205:282|205:282|207:282|207:282|206:281|206:281|206:280|206:280|204:279|204:279|206:279|206:279|207:278|207:278|209:278|209:278|207:277|207:277|208:276|208:276|206:275|206:275|208:275|208:275|208:274|208:274|210:275|210:275|209:273|209:273|209:272|209:272|207:271|207:271|209:272|209:272|210:271|210:271|212:271|212:271|210:270|210:270|211:268|211:268|209:267|209:267|211:267|211:267|211:266|211:266|213:266|213:266|212:265|212:265|212:264|212:264|211:263|211:263|213:263|213:263|213:262|213:262|215:263|215:263|213:261|213:261|214:260|214:260|212:259|212:259|214:259|214:259|215:259|215:259|217:259|217:259|215:258|215:258|215:257|215:257|214:255|214:255|216:256|216:256|216:255|216:255|218:255|218:255|216:254|216:254|217:253|217:253|215:252|215:252|217:252|217:252|218:251|218:251|220:252|220:252|218:250|218:250|218:249|218:249|217:248|217:248|219:248|219:248|221:248|221:248|220:247|220:247|220:246|220:246|218:244|218:244|220:245|220:245|221:244|221:244|223:244|223:244|221:243|221:243|221:242|221:242|220:241|220:241|222:241|222:241|222:240|222:240|224:240|224:240|223:239|223:239|223:238|223:238|221:237|221:237|223:237|223:237|224:236|224:236|226:237|226:237|224:236|224:236|225:235|225:235|223:233|223:233|225:234|225:234|225:233|225:233|227:233|227:233|226:232|226:232|226:231|226:231|224:230|224:230|227:230|227:230|227:229|227:229|229:229|229:229|227:228|227:228|228:227|228:227|226:226|226:226|228:226|228:226|228:225|228:225|230:226|230:226|229:224|229:224|228:222|228:222|230:223|230:223|230:222|230:222|232:222|232:222|230:221|230:221|231:220|231:220|229:219|229:219|231:219|231:219|232:218|232:218|234:218|234:218|232:217|232:217|232:216|232:216|231:215|231:215|233:215|233:215|233:214|233:214|235:215|235:215|233:213|233:213|234:213|234:213|232:211|232:211|234:212|234:212|235:211|235:211|237:211|237:211|235:210|235:210|235:209|235:209|234:208|234:208|236:208|236:208|236:207|236:207|238:207|238:207|237:206|237:206|237:205|237:205|235:204|235:204|237:204|237:204|238:203|238:203|240:204|240:204|238:202|238:202|239:201|239:201|237:200|237:200|239:201|239:201|239:200|239:200|241:200|241:200|240:199|240:199|240:198|240:198|238:197|238:197|240:197|240:197|241:196|241:196|243:196|243:196|241:195|241:195|242:194|242:194|240:193|240:193|242:193|242:193|242:192|242:192|244:193|244:193|243:190|243:190|243:189|243:189|242:188|242:188|244:188|244:188|246:188|246:188|244:187|244:187|245:186|245:186|243:184|243:184|245:185|245:185|246:184|246:184|248:184|248:184|246:183|246:183|246:182|246:182|245:181|245:181|247:181|247:181|247:180|247:180|249:180|249:180|247:179|247:179|248:178|248:178|246:177|246:177|248:177|248:177|249:176|249:176|251:177|251:177|249:176|249:176|249:175|249:175|248:173|248:173|250:174|250:174|250:173|250:173|252:173|252:173|251:172|251:172|251:171|251:171|249:170|249:170|251:170|251:170|252:169|252:169|254:169|254:169|252:168|252:168|252:167|252:167|251:166|251:166|253:166|253:166|253:165|253:165|256:166|256:166|254:165|254:165|254:164|254:164|252:162|252:162|254:163|254:163|256:162|256:162|258:162|258:162|256:161|256:161|257:159|257:160|257:160|254:159|254:159|257:159,1,2913.7498602897,6|0,1:0|0:0,0:2:0:0:
18,71,221460,6,0,B|69:79|69:79|72:83|72:83|141:95,1,112.499997019768,10|0,0:2|0:0,0:0:0:0:
198,26,221910,6,0,B|172:45|172:45|107:369|107:369|120:303|181:295,1,472.499991989136,2|0,1:0|0:0,0:0:0:0:
188,372,222210,1,4,0:3:0:0:
35,161,222360,6,0,B|60:176|60:176|54:213,6,56.2499985098839,2|0|0|0|0|0|0,1:0|0:0|0:0|0:0|0:0|0:0|0:0,0:0:0:0:
127,92,222660,5,10,0:2:0:0:
251,321,222810,6,0,B|212:283|233:233|260:196|329:190|379:239|360:301|354:302|348:301|327:364|376:413|439:406|474:381|500:323|458:282,1,472.499991989136,2|0,0:0|0:0,0:0:0:0:
482,202,223110,2,0,P|446:208|400:221,1,67.5000007867814,4|0,0:3|0:0,0:0:0:0:
83,357,223260,6,0,B|45:350|25:317|32:277|32:277|55:150|55:150|62:110|92:84|129:92,1,337.499991059303,2|0,1:0|0:0,0:0:0:0:
185,15,223560,2,0,B|222:21|242:54|235:94|235:94|212:221|212:221|205:261|175:287|138:279,1,337.499991059303,2|0,0:1|0:0,0:0:0:0:
132,169,223860,6,0,B|205:157|205:157|207:162|207:162|270:151,1,135.000001573563,10|0,0:2|0:0,0:0:0:0:
321,204,224085,2,0,B|342:179|342:179|332:137,1,67.5000007867814
304,10,224235,5,0,0:0:0:0:
296,18,224310,2,0,B|251:64|251:64|347:326|347:326|303:374,1,405.000004720688,2|0,1:1|0:0,0:0:0:0:
259,312,224610,6,0,L|187:302,1,44.9999988079071
83,357,224760,6,0,B|53:323|53:323|74:280,1,89.9999976158143,2|0,1:2|0:0,0:0:0:0:
2,249,224910,2,0,B|17:206|17:206|65:202,1,89.9999976158143,2|0,0:2|0:0,0:0:0:0:
296,18,225060,6,0,B|326:52|326:52|305:95,1,89.9999976158143,10|0,0:2|0:0,0:0:0:0:
377,126,225210,2,0,B|363:168|363:168|315:172,1,89.9999976158143,2|0,0:2|0:0,0:0:0:0:
173,203,225360,6,0,B|177:199|177:199|174:195|174:195|179:191|179:191|175:187|175:187|180:183|180:183|177:179|177:179|181:176|181:176|178:171|178:171|183:168|183:168|179:163|179:163|184:160|184:160|181:155|181:155|185:152|185:152|182:147|182:147|187:144|187:144|184:139|184:139|188:136|188:136|185:132|185:132|190:128|190:128|186:124|186:124|191:120|191:120|188:116|188:116|192:113,1,101.250001180172,2|0,0:2|0:0,0:0:0:0:
90,126,225660,6,0,B|84:88|48:71|48:71|213:49|296:153|267:281,1,438.750000929833,2|0,1:0|0:0,0:0:0:0:
376,357,225960,6,0,P|500:310|444:218,1,269.999992847443,2|0,0:1|0:0,0:0:0:0:
474,98,226260,6,0,P|421:113|371:127,1,101.250001180172,10|0,0:2|0:0,0:0:0:0:
88,312,226410,2,0,P|141:297|191:283,1,101.250001180172,2|0,0:2|0:0,0:0:0:0:
473,329,226560,2,0,P|420:344|370:358,1,101.250001180172,2|0,0:2|0:0,0:0:0:0:
121,194,226710,6,0,P|131:162|172:144,1,67.5000007867814,2|0,1:3|0:0,0:0:0:0:
314,63,226860,2,0,P|336:88|331:132,1,67.5000007867814,2|0,0:3|0:0,0:0:0:0:
328,288,227010,2,0,P|295:294|259:268,1,67.5000007867814,2|0,0:3|0:0,0:0:0:0:
213,63,227160,5,2,1:3:0:0:
263,292,227310,1,2,0:3:0:0:
90,126,227460,6,0,P|5:137|49:186,1,179.999995231629,10|0,0:2|0:0,0:0:0:0:
23,365,227685,6,0,P|81:341|64:285,1,112.499997019768,2|0,0:3|0:0,0:0:0:0:
12,261,227910,5,6,0:3:0:0:
352,376,228060,6,0,B|230:349|230:349|288:31,1,438.750000929833,2|0,1:0|0:0,0:0:0:0:
374,0,228360,6,0,B|339:197|339:197|414:216,1,269.999992847443,2|0,0:1|0:0,0:0:0:0:
512,101,228660,6,0,B|502:123|502:123|420:140,1,101.250001180172,10|0,0:2|0:0,0:0:0:0:
90,126,228810,2,0,B|100:103|100:103|182:87,1,101.250001180172,2|0,0:2|0:0,0:0:0:0:
462,262,228960,2,0,B|452:284|452:284|370:301,1,101.250001180172,2|0,0:2|0:0,0:0:0:0:
286,40,229110,6,0,P|327:81|320:113,1,67.5000007867814,2|0,1:3|0:0,0:0:0:0:
157,157,229260,2,0,P|172:100|203:91,1,67.5000007867814,2|0,0:3|0:0,0:0:0:0:
322,210,229410,2,0,P|265:225|241:202,1,67.5000007867814,2|0,0:3|0:0,0:0:0:0:
256,135,229560,5,2,1:3:0:0:
218,361,229710,1,2,0:3:0:0:
6,322,229860,6,0,B|192:285|192:285|127:313|137:375,1,303.750003540516,10|0,0:2|0:0,0:0:0:0:
294,375,230160,2,0,B|476:340|476:340|403:341|393:274,1,303.750003540516,2|0,0:2|0:0,0:0:0:0:
470,243,230460,6,2,B|468:242|468:242|467:244|467:244|467:242|467:242|466:242|466:242|466:240|466:240|465:242|465:242|464:241|464:241|463:243|463:243|463:241|463:241|462:241|462:241|462:239|462:239|461:240|461:240|460:240|460:240|459:242|459:242|459:240|459:240|458:240|458:240|459:238|459:238|458:239|458:239|457:239|457:239|456:241|456:241|456:239|456:239|455:239|455:239|455:236|455:236|454:238|454:238|453:238|453:238|452:240|452:240|452:238|452:238|451:237|451:237|451:235|451:235|450:237|450:237|449:237|449:237|448:239|448:239|448:237|448:237|447:236|447:236|447:234|447:234|446:236|446:236|445:236|445:236|444:237|444:237|444:235|444:235|443:235|443:235|443:233|443:233|442:235|442:235|441:235|441:235|440:236|440:236|440:234|440:234|439:234|439:234|439:232|439:232|438:234|438:234|437:233|437:233|436:235|436:235|436:233|436:233|435:233|435:233|436:231|436:231|435:233|435:233|434:232|434:232|433:234|433:234|433:232|433:232|432:232|432:232|432:230|432:230|431:231|431:231|430:231|430:231|429:233|429:233|429:231|429:231|428:231|428:231|428:229|428:229|427:230|427:230|426:230|426:230|425:232|425:232|425:230|425:230|424:230|424:230|424:227|424:227|423:229|423:229|422:229|422:229|421:231|421:231|421:229|421:229|420:228|420:228|420:226|420:226|419:228|419:228|418:228|418:228|417:230|417:230|417:228|417:228|416:227|416:227|416:225|416:225|415:227|415:227|414:227|414:227|413:228|413:228|413:226|413:226|412:226|412:226|413:224|413:224|411:226|411:226|409:227|409:227|410:225|410:225|409:225|409:225|409:223|409:223|408:225|408:225|407:224|407:224|406:226|406:226|406:224|406:224|405:224|405:224|405:222|405:222|404:224|404:224|403:223|403:223|402:225|402:225|402:223|402:223|401:223|401:223|401:221|401:221|400:222|400:222|399:222|399:222|398:224|398:224|398:222|398:222|397:222|397:222|397:220|397:220|396:221|396:221|395:221|395:221|394:223|394:223|394:221|394:221|393:221|393:221|393:218|393:218|392:220|392:220|391:220|391:220|390:222|390:222|390:220|390:220|389:219|389:219|389:217|389:217|388:219|388:219|387:219|387:219|386:221|386:221|387:219|387:219|386:218|386:218|386:216|386:216|385:218|385:218|384:218|384:218|383:219|383:219|383:217|383:217|382:217|382:217|382:215|382:215|381:217|381:217|380:217|380:217|379:218|379:218|379:216|379:216|378:216|378:216|378:214|378:214|377:216|377:216|376:215|376:215|375:217|375:217|375:215|375:215|374:215|374:215|374:213|374:213|373:215|373:215|372:214|372:214|371:216|371:216|371:214|371:214|370:214|370:214|370:212|370:212|369:213|369:213|368:213|368:213|367:215|367:215|367:213|367:213|366:213|366:213|366:211|366:211|365:212|365:212|364:212|364:212|363:214|363:214|364:212|364:212|363:212|363:212|363:209|363:209|362:211|362:211|361:211|361:211|360:213|360:213|360:211|360:211|359:210|359:210|359:208|359:208|358:210|358:210|357:210|357:210|356:212|356:212|356:210|356:210|355:209|355:209|355:207|355:207|354:209|354:209|353:209|353:209|352:210|352:210|352:208|352:208|351:208|351:208|351:206|351:206|350:208|350:208|349:208|349:208|348:209|348:209|348:207|348:207|347:207|347:207|347:205|347:205|346:207|346:207|345:206|345:206|344:208|344:208|344:206|344:206|343:206|343:206|343:204|343:204|342:206|342:206|341:205|341:205|340:207|340:207|340:205|340:205|340:203|340:203|339:205|339:205|338:204|338:204|337:206|337:206|337:204|337:204|336:204|336:204|336:202|336:202|335:203|335:203|334:203|334:203|333:205|333:205|333:203|333:203|332:203|332:203|332:200|332:200|331:202|331:202|330:202|330:202|329:204|329:204|329:202|329:202|328:201|328:201|328:199|328:199|327:201|327:201|326:201|326:201|325:203|325:203|325:201|325:201|324:200|324:200|324:198|324:198|323:200|323:200|322:200|322:200|321:202|321:202|321:199|321:199|320:199|320:199|320:197|320:197|319:199|319:199|318:199|318:199|317:200|317:200|317:198|317:198|316:198|316:198|317:196|317:196|316:198|316:198|315:197|315:197|314:199|314:199|314:197|314:197|313:197|313:197|313:195|313:195|312:197|312:197|311:196|311:196|310:198|310:198|310:196|310:196|309:196|309:196|309:194|309:194|308:196|308:196|307:195|307:195|306:197|306:197|306:195|306:195|305:195|305:195|305:193|305:193|304:194|304:194|303:194|303:194|302:196|302:196|302:194|302:194|301:194|301:194|301:191|301:191|300:193|300:193|299:193|299:193|298:195|298:195|298:193|298:193|297:192|297:192|297:190|297:190|296:192|296:192|295:192|295:192|294:194|294:194|294:192|294:192|293:191|293:191|294:189|294:189|293:191|293:191|292:191|292:191|291:193|291:193|291:190|291:190|290:190|290:190|290:188|290:188|289:190|289:190|288:190|288:190|287:191|287:191|287:189|287:189|286:189|286:189|286:187|286:187|285:189|285:189|284:188|284:188|283:190|283:190|283:188|283:188|282:188|282:188|282:186|282:186|281:188|281:188|280:187|280:187|279:189|279:189|279:187|279:187|278:187|278:187|278:185|278:185|277:187|277:187|276:186|276:186|275:188|275:188|275:186|275:186|274:186|274:186|274:184|274:184|273:185|273:185|272:185|272:185|271:187|271:187|271:185|271:185|270:185|270:185|271:182|271:182|269:184|269:184|267:186|267:186|268:184|268:184|267:183|267:183|267:181|267:181|266:183|266:183|265:183|265:183|264:185|264:185|264:183|264:183|263:182|263:182|263:180|263:180|262:182|262:182|261:182|261:182|260:184|260:184|260:181|260:181|259:181|259:181|259:179|259:179|258:181|258:181|257:181|257:181|256:182|256:182|256:180|256:180|255:180|255:180|255:178|255:178|254:180|254:180|253:179|253:179|252:181|252:181|252:179|252:179|251:179|251:179|251:177|251:177|250:179|250:179|249:178|249:178|248:180|248:180|248:178|248:178|247:178|247:178|248:176|248:176|246:178|246:178|246:177|246:177|244:179|244:179|245:177|245:177|244:177|244:177|244:175|244:175|243:176|243:176|242:176|242:176|241:178|241:178|241:176|241:176|240:176|240:176|240:173|240:173|239:175|239:175|238:175|238:175|237:177|237:177|237:175|237:175|236:174|236:174|236:172|236:172|235:174|235:174|234:174|234:174|233:176|233:176|233:174|233:174|232:173|232:173|232:171|232:171|231:173|231:173|230:173|230:173|229:175|229:175|229:172|229:172|228:172|228:172|228:170|228:170|227:172|227:172|226:172|226:172|225:173|225:173|225:171|225:171|224:171|224:171|224:169|224:169|223:171|223:171|222:170|222:170|221:172|221:172|222:170|222:170|221:170|221:170|221:168|221:168|220:170|220:170|219:169|219:169|218:171|218:171|218:169|218:169|217:169|217:169|217:167|217:167|216:169|216:169|215:168|215:168|214:170|214:170|214:168|214:168|213:168|213:168|213:166|213:166|212:167|212:167|211:167|211:167|210:169|210:169|210:167|210:167|209:167|209:167|209:165|209:165|208:166|208:166|207:166|207:166|206:168|206:168|206:166|206:166|205:165|205:165|205:163|205:163|204:165|204:165|203:165|203:165|202:167|202:167|202:165|202:165|201:164|201:164|201:162|201:162|200:164|200:164|199:164|199:164|198:166|198:166|198:163|198:163|198:161|198:161|197:163|197:163|196:163|196:163|195:164|195:164|195:162|195:162|194:162|194:162|194:160|194:160|193:162|193:162|192:162|192:162|191:163|191:163|191:161|191:161|190:161|190:161|190:159|190:159|189:161|189:161|188:160|188:160|187:162|187:162|187:160|187:160|186:160|186:160|186:158|186:158|185:160|185:160|184:159|184:159|183:161|183:161|183:159|183:159|182:159|182:159|182:157|182:157|181:158|181:158|180:158|180:158|179:160|179:160|179:158|179:158|178:158|178:158|178:156|178:156|177:157|177:157|176:157|176:157|175:159|175:159|175:157|175:157|175:156|175:156|175:154|175:154|174:156|174:156|173:156|173:156|172:158|172:158|172:156|172:156|171:155|171:155|171:153|171:153|170:155|170:155|169:155|169:155|168:157|168:157|168:154|168:154|167:154|167:154|167:152|167:152|166:154|166:154|165:154|165:154|164:155|164:155|164:153|164:153|163:153|163:153|163:151|163:151|162:153|162:153|161:153|161:153|160:154|160:154|160:152|160:152|159:152|159:152|159:150|159:150|158:152|158:152|157:151|157:151|156:153|156:153|156:151|156:151|155:151|155:151|155:149|155:149|154:151|154:151|153:150|153:150|152:152|152:152|152:150|152:150|151:150|151:150|152:148|152:148|151:149|151:149|150:149|150:149|149:151|149:151|149:149|149:149|148:149|148:149|148:147|148:147|147:148|147:148|146:148|146:148|145:150|145:150|145:148|145:148|144:147|144:147|144:145|144:145|143:147|143:147|142:147|142:147|141:149|141:149|141:147|141:147|140:146|140:146|140:144|140:144|139:146|139:146|138:146|138:146|137:148|137:148|137:145|137:145|136:145|136:145|136:143|136:143|135:145|135:145|134:145|134:145|133:146|133:146|133:144|133:144|132:144|132:144|132:142|132:142|131:144|131:144|130:144|130:144|129:145|129:145|129:143|129:143|128:143|128:143|129:141|129:141|127:143|127:143|127:142|127:142|125:144|125:144|126:142|126:142|125:142|125:142|125:140|125:140|124:142|124:142|123:141|123:141|122:143|122:143|122:141|122:141|121:141|121:141|121:139|121:139|120:140|120:140|119:140|119:140|118:142|118:142|118:140|118:140|117:140|117:140|117:138|117:138|116:139|116:139|115:139|115:139|114:141|114:141|114:139|114:139|113:138|113:138|113:136|113:136|112:138|112:138|111:138|111:138|110:140|110:140|110:138|110:138|109:137|109:137|109:135|109:135|108:137|108:137|107:137|107:137|106:139|106:139|106:136|106:136|105:136|105:136|106:134|106:134|104:136|104:136|102:137|102:137|103:135|103:135|102:135|102:135|102:133|102:133|101:135|101:135|100:135|100:135|99:136|99:136|99:134|99:134|98:134|98:134|98:132|98:132|97:134|97:134|96:133|96:133|95:135|95:135|95:133|95:133|94:133|94:133|94:131|94:131|93:133|93:133|92:132|92:132|91:134|91:134|91:132|91:132|90:132|90:132|90:130|90:130|89:131|89:131|88:131|88:131|87:133|87:133|87:131|87:131|86:131|86:131|86:129|86:129|85:130|85:130|84:130|84:130|83:132|83:132|83:130|83:130|82:129|82:129|82:127|82:127|81:129|81:129|80:129|80:129|79:131|79:131|80:129|80:129|79:128|79:128|79:126|79:126|78:128|78:128|77:128|77:128|76:130|76:130|76:128|76:128|75:127|75:127|75:125|75:125|74:127|74:127|73:127|73:127|72:128|72:128|72:126|72:126|71:126|71:126|71:124|71:124|70:126|70:126|69:126|69:126|68:127|68:127|68:125|68:125|67:125|67:125|67:123|67:123|66:125|66:125|65:124|65:124|64:126|64:126|64:124|64:124|63:124|63:124|63:122|63:122|62:124|62:124|61:123|61:123|60:125|60:125|60:123|60:123|59:123|59:123|59:121|59:121|58:122|58:122|57:122|57:122|56:124|56:124|57:122|57:122|56:122|56:122|56:120|56:120|55:121|55:121|54:121|54:121|53:123|53:123|53:121|53:121|52:120|52:120|52:118|52:118|51:120|51:120|50:120|50:120|49:122|49:122|49:120|49:120|48:119|48:119|48:117|48:117|47:119|47:119|46:119|46:119|45:121|45:121|45:119|45:119|44:118|44:118|44:116|44:116|43:118|43:118|42:118|42:118|41:119|41:119|41:117|41:117|40:117|40:117|40:115|40:115|39:117|39:117|38:117|38:117|37:118|37:118|37:116|37:116|36:116|36:116|36:114|36:114|35:116|35:116|34:115|34:115|33:117|33:117|33:115|33:115|32:117|32:117|34:116|34:116|34:117|34:117|36:117|36:117|34:118|34:118|35:119|35:119|33:120|33:120|35:120|35:120|36:121|36:121|38:121|38:121|36:122|36:122|36:123|36:123|35:124|35:124|37:124|37:124|37:125|37:125|39:124|39:124|38:126|38:126|36:128|36:128|38:127|38:127|39:128|39:128|41:128|41:128|39:129|39:129|40:130|40:130|38:131|38:131|40:131|40:131|40:132|40:132|42:132|42:132|41:133|41:133|41:134|41:134|40:135|40:135|42:135|42:135|42:136|42:136|44:135|44:135|42:136|42:136|43:137|43:137|41:139|41:139|43:138|43:138|44:139|44:139|46:139|46:139|44:140|44:140|44:141|44:141|43:142|43:142|45:142|45:142|45:143|45:143|47:143|47:143|46:144|46:144|46:145|46:145|44:146|44:146|46:146|46:146|47:147|47:147|49:146|49:146|47:147|47:147|48:148|48:148|46:150|46:150|48:149|48:149|48:150|48:150|50:150|50:150|49:151|49:151|49:152|49:152|48:153|48:153|50:153|50:153|50:154|50:154|52:153|52:153|50:155|50:155|51:156|51:156|49:157|49:157|51:157|51:157|52:157|52:157|54:157|54:157|52:158|52:158|52:159|52:159|51:161|51:161|53:160|53:160|53:161|53:161|55:161|55:161|54:162|54:162|54:163|54:163|52:164|52:164|54:164|54:164|55:165|55:165|57:164|57:164|55:166|55:166|56:167|56:167|54:168|54:168|56:168|56:168|57:168|57:168|59:168|59:168|57:169|57:169|57:170|57:170|56:172|56:172|58:171|58:171|58:172|58:172|60:172|60:172|59:173|59:173|59:174|59:174|57:175|57:175|59:175|59:175|60:176|60:176|62:175|62:175|60:177|60:177|61:178|61:178|59:179|59:179|61:178|61:178|61:179|61:179|63:179|63:179|62:180|62:180|62:181|62:181|61:182|61:182|63:182|63:182|63:183|63:183|65:183|65:183|63:184|63:184|64:185|64:185|62:186|62:186|64:186|64:186|65:187|65:187|67:186|67:186|65:188|65:188|65:189|65:189|64:190|64:190|66:189|66:189|66:190|66:190|68:190|68:190|67:191|67:191|67:192|67:192|65:193|65:193|67:193|67:193|68:194|68:194|70:194|70:194|68:195|68:195|69:196|69:196|67:197|67:197|69:197|69:197|69:198|69:198|71:197|71:197|70:199|70:199|69:201|69:201|71:200|71:200|71:201|71:201|73:201|73:201|71:202|71:202|72:203|72:203|70:204|70:204|72:204|72:204|73:205|73:205|75:205|75:205|73:206|73:206|73:207|73:207|72:208|72:208|74:208|74:208|74:209|74:209|76:208|76:208|75:210|75:210|73:212|73:212|75:211|75:211|76:212|76:212|78:212|78:212|76:213|76:213|77:215|77:215|77:214|77:214|75:215|75:215|77:215|77:215|78:215|78:215|79:214|79:214|79:216|79:216|80:216|80:216|80:218|80:218|81:216|81:216|82:216|82:216|83:215|83:215|83:217|83:217|84:217|84:217|84:219|84:219|85:217|85:217|86:218|86:218|87:216|87:216|87:218|87:218|88:218|88:218|87:220|87:220|88:218|88:218|89:219|89:219|90:217|90:217|90:219|90:219|91:219|91:219|91:221|91:221|92:220|92:220|93:220|93:220|94:218|94:218|94:220|94:220|95:221|95:221|95:223|95:223|96:221|96:221|97:221|97:221|98:219|98:219|98:221|98:221|99:222|99:222|99:224|99:224|100:222|100:222|101:222|101:222|102:220|102:220|102:223|102:223|103:223|103:223|103:225|103:225|104:223|104:223|105:223|105:223|106:222|106:222|106:224|106:224|107:224|107:224|107:226|107:226|108:224|108:224|109:225|109:225|110:223|110:223|110:225|110:225|110:227|110:227|111:225|111:225|112:226|112:226|113:224|113:224|113:226|113:226|114:226|114:226|114:228|114:228|115:227|115:227|116:227|116:227|117:225|117:225|117:227|117:227|118:227|118:227|118:230|118:230|119:228|119:228|120:228|120:228|121:226|121:226|121:228|121:228|122:229|122:229|122:231|122:231|123:229|123:229|124:229|124:229|125:227|125:227|125:230|125:230|126:230|126:230|126:232|126:232|127:230|127:230|128:230|128:230|129:229|129:229|129:231|129:231|130:231|130:231|130:233|130:233|131:231|131:231|132:232|132:232|133:230|133:230|132:232|132:232|133:232|133:232|133:234|133:234|134:232|134:232|135:233|135:233|136:231|136:231|136:233|136:233|137:233|137:233|137:235|137:235|138:234|138:234|139:234|139:234|140:232|140:232|140:234|140:234|141:234|141:234|141:236|141:236|142:235|142:235|143:235|143:235|144:233|144:233|144:235|144:235|145:236|145:236|145:238|145:238|146:236|146:236|147:236|147:236|148:234|148:234|148:236|148:236|149:237|149:237|149:239|149:239|150:237|150:237|151:237|151:237|152:236|152:236|152:238|152:238|153:238|153:238|152:240|152:240|154:238|154:238|156:237|156:237|155:239|155:239|156:239|156:239|156:241|156:241|157:239|157:239|158:240|158:240|159:238|159:238|159:240|159:240|160:240|160:240|160:242|160:242|161:241|161:241|162:241|162:241|163:239|163:239|163:241|163:241|164:241|164:241|164:243|164:243|165:242|165:242|166:242|166:242|167:240|167:240|167:242|167:242|168:243|168:243|168:245|168:245|169:243|169:243|170:243|170:243|171:241|171:241|171:243|171:243|172:244|172:244|172:246|172:246|173:244|173:244|174:244|174:244|175:243|175:243|175:245|175:245|176:245|176:245|175:247|175:247|177:245|177:245|179:244|179:244|178:246|178:246|179:246|179:246|179:248|179:248|180:246|180:246|181:247|181:247|182:245|182:245|182:247|182:247|183:247|183:247|183:249|183:249|184:247|184:247|185:248|185:248|186:246|186:246|186:248|186:248|187:248|187:248|187:250|187:250|188:249|188:249|189:249|189:249|190:247|190:247|190:249|190:249|191:250|191:250|191:252|191:252|192:250|192:250|193:250|193:250|194:248|194:248|194:250|194:250|195:251|195:251|195:253|195:253|196:251|196:251|197:251|197:251|198:249|198:249|198:252|198:252|199:252|199:252|198:254|198:254|199:252|199:252|200:252|200:252|201:251|201:251|201:253|201:253|202:253|202:253|202:255|202:255|203:253|203:253|204:254|204:254|205:252|205:252|205:254|205:254|206:254|206:254|206:256|206:256|207:254|207:254|208:255|208:255|209:253|209:253|209:255|209:255|210:255|210:255|210:257|210:257|211:256|211:256|212:256|212:256|213:254|213:254|213:256|213:256|214:256|214:256|214:259|214:259|215:257|215:257|216:257|216:257|217:255|217:255|217:257|217:257|218:258|218:258|218:260|218:260|219:258|219:258|220:258|220:258|221:256|221:256|221:259|221:259|221:261|221:261|222:259|222:259|223:259|223:259|224:258|224:258|224:260|224:260|225:260|225:260|225:262|225:262|226:260|226:260|227:261|227:261|228:259|228:259|228:261|228:261|229:261|229:261|229:263|229:263|230:261|230:261|232:262|232:262|231:262|231:262|232:260|232:260|232:262|232:262|233:261|233:261|234:263|234:263|234:261|234:261|235:260|235:260|234:258|234:258|235:260|235:260|236:259|236:259|238:261|238:261|237:259|237:259|238:258|238:258|237:256|237:256|239:258|239:258|240:257|240:257|241:258|241:258|240:256|240:256|241:256|241:256|240:254|240:254|242:255|242:255|243:255|243:255|244:256|244:256|244:254|244:254|245:254|245:254|244:252|244:252|245:253|245:253|246:253|246:253|248:254|248:254|247:252|247:252|248:252|248:252|247:250|247:250|249:251|249:251|250:250|250:250|251:252|251:252|250:250|250:250|251:249|251:249|250:247|250:247|252:249|252:249|253:248|253:248|254:250|254:250|254:248|254:248|255:247|255:247|254:245|254:245|255:247|255:247|256:246|256:246|258:247|258:247|257:245|257:245|258:245|258:245|257:243|257:243|259:244|259:244|260:244|260:244|261:245|261:245|260:243|260:243|261:243|261:243|261:241|261:241|262:242|262:242|263:242|263:242|264:243|264:243|264:241|264:241|265:240|265:240|264:239|264:239|265:240|265:240|266:239|266:239|268:241|268:241|267:239|267:239|268:238|268:238|267:236|267:236|269:238|269:238|270:237|270:237|271:239|271:239|270:237|270:237|271:236|271:236|271:234|271:234|272:236|272:236|273:235|273:235|274:236|274:236|274:234|274:234|275:234|275:234|274:232|274:232|275:233|275:233|276:233|276:233|278:234|278:234|277:232|277:232|278:232|278:232|277:230|277:230|279:231|279:231|280:231|280:231|281:232|281:232|280:230|280:230|281:229|281:229|281:228|281:228|282:229|282:229|283:228|283:228|284:230|284:230|284:228|284:228|285:227|285:227|284:225|284:225|285:227|285:227|286:226|286:226|288:228|288:228|287:226|287:226|288:225|288:225|287:223|287:223|289:224|289:224|290:224|290:224|291:225|291:225|290:223|290:223|291:223|291:223|291:221|291:221|292:222|292:222|293:222|293:222|294:223|294:223|294:221|294:221|295:221|295:221|294:219|294:219|295:220|295:220|296:220|296:220|298:221|298:221|297:219|297:219|298:218|298:218|297:216|297:216|299:218|299:218|300:217|300:217|301:219|301:219|300:217|300:217|301:216|301:216|301:214|301:214|302:216|302:216|303:215|303:215|304:217|304:217|304:215|304:215|305:214|305:214|304:212|304:212|305:213|305:213|306:213|306:213|308:214|308:214|307:212|307:212|308:212|308:212|307:210|307:210|309:211|309:211|310:211|310:211|311:212|311:212|310:210|310:210|311:210|311:210|311:208|311:208|312:209|312:209|313:208|313:208|314:210|314:210|314:208|314:208|315:207|315:207|314:205|314:205|315:207|315:207|316:206|316:206|318:208|318:208|317:206|317:206|318:205|318:205|317:203|317:203|319:205|319:205|320:204|320:204|321:205|321:205|320:204|320:204|321:203|321:203|321:201|321:201|322:202|322:202|323:202|323:202|324:203|324:203|324:201|324:201|325:201|325:201|324:199|324:199|325:200|325:200|326:200|326:200|328:201|328:201|327:199|327:199|328:199|328:199|327:197|327:197|329:198|329:198|330:197|330:197|331:199|331:199|330:197|330:197|331:196|331:196|331:194|331:194|332:196|332:196|333:195|333:195|334:197|334:197|334:195|334:195|335:194|335:194|334:192|334:192|335:194|335:194|336:193|336:193|338:194|338:194|337:193|337:193|338:192|338:192|337:190|337:190|339:191|339:191|340:191|340:191|341:192|341:192|340:190|340:190|341:190|341:190|341:188|341:188|342:189|342:189|343:189|343:189|344:190|344:190|344:188|344:188|345:188|345:188|344:186|344:186|345:187|345:187|346:186|346:186|348:188|348:188|347:186|347:186|348:185|348:185|347:183|347:183|349:185|349:185|350:184|350:184|351:186|351:186|350:184|350:184|351:183|351:183|351:181|351:181|352:183|352:183|353:182|353:182|354:183|354:183|354:181|354:181|355:181|355:181|354:179|354:179|355:180|355:180|356:180|356:180|358:181|358:181|357:179|357:179|358:179|358:179|357:177|357:177|359:178|359:178|360:178|360:178|361:179|361:179|360:177|360:177|361:177|361:177|361:175|361:175|362:176|362:176|363:175|363:175|364:177|364:177|364:175|364:175|365:174|365:174|364:172|364:172|365:174|365:174|366:173|366:173|368:175|368:175|367:173|367:173|368:172|368:172|367:170|367:170|369:172|369:172|370:171|370:171|371:172|371:172|370:170|370:170|371:170|371:170|371:168|371:168|372:169|372:169|373:169|373:169|374:170|374:170|374:168|374:168|375:168|375:168|374:166|374:166|375:167|375:167|376:167|376:167|378:168|378:168|377:166|377:166|378:165|378:165|377:164|377:164|379:165|379:165|380:164|380:164|381:166|381:166|380:164|380:164|381:163|381:163|381:161|381:161|382:163|382:163|383:162|383:162|384:164|384:164|384:162|384:162|385:161|385:161|384:159|384:159|385:161|385:161|386:160|386:160|388:161|388:161|387:159|387:159|388:159|388:159|387:157|387:157|389:158|389:158|390:158|390:158|391:159|391:159|390:157|390:157|391:157|391:157|391:155|391:155|392:156|392:156|393:156|393:156|394:157|394:157|394:155|394:155|395:154|395:154|394:152|394:152|395:154|395:154|396:153|396:153|398:155|398:155|397:153|397:153|398:152|398:152|397:150|397:150|399:152|399:152|400:151|400:151|401:153|401:153|400:151|400:151|401:150|401:150|401:148|401:148|402:149|402:149|403:149|403:149|405:150|405:150|404:148|404:148|405:148|405:148|404:146|404:146|405:147|405:147|406:147|406:147|408:148|408:148|407:146|407:146|408:146|408:146|407:144|407:144|409:145|409:145|410:145|410:145|411:146|411:146|410:144|410:144|411:143|411:143|411:141|411:141|412:143|412:143|413:142|413:142|415:144|415:144|414:142|414:142|414:141,1,2504.24997545421,6|0,1:0|0:0,0:2:0:0:
491,169,231060,6,0,B|507:127|507:127|432:16|432:16|385:12,1,224.999994039536,10|0,0:2|0:0,0:0:0:0:
285,22,231510,6,0,B|252:148|252:148|247:149|247:149|291:209|291:209|296:207|296:207|255:370,1,371.24999370575,2|0,1:0|0:0,0:0:0:0:
259,359,231810,1,4,0:3:0:0:
69,253,231960,6,0,L|-1:264,6,61.8749989509583,2|0|0|0|0|0|0,1:0|0:0|0:0|0:0|0:0|0:0|0:0,0:0:0:0:
99,329,232260,5,10,0:2:0:0:
326,99,232410,6,0,B|286:155|286:155|74:108,1,269.999992847443,2|0,0:0|0:0,0:0:0:0:
118,41,232710,2,0,B|143:23|143:23|206:40,1,89.9999976158143,4|0,0:3|0:0,0:0:0:0:
343,258,232860,6,0,B|394:249|394:249|407:230|407:230|465:215,1,134.999996423721,2|0,1:0|0:0,0:0:0:0:
348,269,233160,2,0,B|296:260|296:260|283:241|283:241|225:226,1,134.999996423721,2|0,0:1|0:0,0:0:0:0:
339,363,233460,6,0,B|375:329|375:329|316:33,1,337.499991059303,10|0,0:2|0:0,0:0:0:0:
334,38,233723,1,0,0:0:0:0:
334,38,233760,2,0,B|383:69|383:69|370:124,1,112.499997019768,2|0,0:2|0:0,0:0:0:0:
73,146,233910,6,0,B|49:83|49:83|111:101|111:101|116:97|116:97|121:103|121:103|312:165,1,337.499991059303,2|0,1:1|0:0,0:0:0:0:
327,246,234210,6,0,B|298:283|298:283|243:265,1,89.9999976158143
183,327,234360,2,0,B|138:310|138:310|135:254,1,89.9999976158143,2|0,1:2|0:0,0:0:0:0:
186,17,234510,6,0,L|212:108,1,89.9999976158143,2|0,0:2|0:0,0:0:0:0:
42,264,234660,6,0,L|450:173,1,405.000004720688,10|0,0:2|0:0,0:0:0:0:
512,286,234960,2,0,L|399:260,1,101.250001180172,2|0,0:2|0:0,0:0:0:0:
373,356,235260,6,0,B|443:289|412:204|351:182|340:184|331:188|230:153|248:53|291:19,1,405.000004720688,2|0,1:0|0:0,0:0:0:0:
357,100,235560,2,0,P|376:192|291:249,1,202.500002360344,2|0,0:1|0:0,0:0:0:0:
108,362,235860,6,0,L|16:346,1,67.5000007867814,10|0,0:2|0:0,0:0:0:0:
213,273,236010,2,0,L|329:251,1,89.9999976158143,2|0,0:2|0:0,0:0:0:0:
116,147,236160,2,0,L|-13:123,1,112.499997019768,2|0,0:2|0:0,0:0:0:0:
238,15,236310,6,0,P|259:46|255:81,1,67.5000007867814,2|0,1:3|0:0,0:0:0:0:
131,212,236460,2,0,P|110:181|114:146,1,67.5000007867814,2|0,0:3|0:0,0:0:0:0:
368,91,236610,2,0,P|345:120|310:127,1,67.5000007867814,2|0,0:3|0:0,0:0:0:0:
143,40,236760,5,2,1:3:0:0:
219,262,236910,1,2,0:3:0:0:
473,76,237060,6,0,P|381:122|398:198,1,179.999995231629,10|0,0:2|0:0,0:0:0:0:
464,372,237285,2,0,P|501:336|479:289,1,89.9999976158143,2|0,0:3|0:0,0:0:0:0:
457,236,237510,2,0,P|431:244|414:279,1,67.5000007867814,6|0,0:3|0:0,0:0:0:0:
267,370,237660,6,0,B|71:352|71:352|-9:346|-14:236|83:221|107:275,1,405.000004720688,2|0,1:0|0:0,0:0:0:0:
118,260,237960,2,0,P|44:233|13:335,1,202.500002360344,2|0,0:1|0:0,0:0:0:0:
125,371,238260,6,0,P|194:325|185:291,1,112.499997019768,10|0,0:2|0:0,0:0:0:0:
268,258,238410,2,0,P|245:178|210:176,1,112.499997019768,2|0,0:2|0:0,0:0:0:0:
204,87,238560,2,0,P|121:83|108:116,1,112.499997019768,2|0,0:2|0:0,0:0:0:0:
0,207,238710,6,0,L|83:190,1,67.5000007867814,2|0,1:3|0:0,0:0:0:0:
273,265,238860,2,0,L|356:282,1,67.5000007867814,2|0,0:3|0:0,0:0:0:0:
432,207,239010,2,0,L|515:190,1,67.5000007867814,2|0,0:3|0:0,0:0:0:0:
372,91,239160,5,2,1:3:0:0:
261,364,239310,1,2,0:3:0:0:
162,263,239460,6,0,P|157:140|69:3,1,269.999992847443,10|0,0:2|0:0,0:0:0:0:
192,33,239760,2,0,P|111:109|88:215,1,202.500002360344,2|0,0:2|0:0,0:0:0:0:
120,332,240060,6,2,B|120:331|120:330|120:330|118:330|118:330|120:329|120:329|120:328|120:328|122:328|122:328|120:327|120:327|120:326|120:326|118:326|118:326|120:325|120:325|120:324|120:324|122:324|122:324|120:323|120:323|120:322|120:322|118:322|118:322|120:321|120:321|120:320|120:320|122:320|122:320|120:319|120:319|120:318|120:318|118:318|118:318|120:317|120:317|120:316|120:316|122:316|122:316|120:315|120:315|119:315|119:314|119:314|118:314|118:314|119:314|119:314|119:313|119:312|119:312|121:312|121:312|119:311|119:311|119:310|119:310|117:310|117:310|119:310|119:310|119:309|119:308|119:308|121:308|121:308|118:307|118:307|118:306|118:306|116:306|116:306|118:305|118:305|120:304|120:304|118:304|118:304|118:303|117:303|117:303|115:303|115:303|117:302|117:302|117:301|117:301|119:300|119:300|117:300|117:300|117:299|116:299|116:299|114:299|114:299|116:298|116:298|116:297|116:297|118:296|118:296|116:296|116:296|115:295|115:295|113:295|113:295|115:294|115:294|115:293|115:293|116:292|116:292|114:292|114:292|114:291|114:291|112:291|112:291|114:290|114:290|113:290|113:289|113:289|115:288|115:288|113:288|113:288|113:287|113:287|111:288|111:288|112:286|112:286|113:284|113:284|111:285|111:285|111:284|111:284|109:284|109:284|110:283|110:283|110:282|110:282|112:281|112:281|110:281|110:281|109:281|109:280|109:280|107:281|107:281|108:279|108:279|108:278|108:278|109:277|109:277|108:278|108:278|107:277|107:277|105:277|105:277|106:276|106:276|106:275|106:275|107:274|107:274|105:274|105:274|105:273|105:273|103:274|103:274|104:273|104:273|104:272|104:272|105:270|105:270|103:271|103:271|103:270|102:270|102:270|101:271|101:271|102:269|102:269|101:268|101:268|102:267|102:267|101:268|101:268|100:267|100:267|98:268|98:268|99:266|99:266|99:265|99:265|100:264|100:264|98:265|98:265|97:264|97:264|96:265|96:265|97:263|97:263|96:263|96:263|97:261|97:261|95:262|95:262|95:261|95:261|93:262|93:262|94:260|94:260|93:260|93:260|94:258|94:258|92:259|92:259|92:258|92:258|90:260|90:260|91:258|91:258|90:257|90:257|91:255|91:255|89:256|89:256|87:257|87:257|88:255|88:255|87:255|87:255|88:253|88:253|86:254|86:254|86:253|86:253|84:255|84:255|85:253|85:253|84:252|84:252|84:250|84:250|83:252|83:252|82:251|82:251|81:252|81:252|81:250|81:250|81:248|81:248|80:249|80:249|79:249|79:249|77:250|77:250|78:248|78:248|77:247|77:248|77:248|78:246|78:246|77:247|77:247|76:247|76:247|74:248|74:248|75:246|75:246|74:246|74:246|75:243|75:243|73:245|73:245|72:245|72:245|71:246|71:246|71:244|71:244|70:244|70:244|71:241|71:241|69:243|69:243|68:243|68:243|67:244|67:244|68:242|68:242|67:242|67:242|67:240|67:240|66:241|66:241|65:241|65:241|64:243|64:243|64:240|64:240|63:240|63:240|64:238|64:238|62:240|62:240|62:239|61:239|61:239|60:241|60:241|60:239|60:239|60:238|60:238|60:237|60:237|59:238|59:238|58:238|58:238|56:239|56:239|57:237|57:237|56:237|56:237|56:235|56:235|55:237|55:237|54:236|54:236|53:238|53:238|53:236|53:236|52:236|52:235|52:235|52:234|52:234|51:235|51:235|50:235|50:235|49:236|49:236|49:234|49:234|48:234|48:234|48:232|48:232|47:234|47:234|45:235|45:235|46:233|46:233|44:233|44:233|44:231|44:231|43:233|43:233|43:232|43:232|41:234|41:234|42:232|42:232|41:232|41:232|41:230|41:230|40:231|40:231|39:231|39:231|38:233|38:233|38:231|38:231|37:231|37:231|37:229|37:229|36:230|36:230|35:230|35:230|34:232|34:232|34:230|34:230|33:230|33:230|33:227|33:227|32:229|32:229|31:229|31:229|30:231|30:231|30:229|30:229|29:229|29:229|29:227|29:227|28:228|28:228|27:228|27:228|26:230|26:230|26:228|26:228|25:228|25:228|25:226|25:226|24:228|24:228|23:227|23:227|22:229|22:229|22:227|22:227|21:227|21:227|21:225|21:225|20:227|20:227|19:227|19:227|18:229|18:229|18:226|18:226|17:226|17:226|17:224|17:224|16:226|16:226|17:224|17:224|17:226|17:226|18:226|18:226|19:228|19:228|19:227|19:227|20:227|20:227|21:225|21:225|21:227|21:227|22:227|22:227|23:229|23:229|23:227|23:227|24:227|24:227|25:225|25:225|25:228|25:228|26:228|26:228|27:230|27:230|27:228|27:228|28:228|28:228|29:226|29:226|29:228|29:228|30:228|30:228|30:230|30:230|31:229|31:229|32:229|32:229|33:227|33:227|33:229|33:229|35:229|35:229|35:231|35:231|36:229|36:229|37:229|37:229|38:228|38:228|38:230|38:230|39:230|39:230|39:232|39:232|40:230|40:230|41:230|41:230|41:228|41:228|42:230|42:230|43:230|43:230|43:232|43:232|44:231|44:231|45:231|45:231|45:229|45:229|46:231|46:231|47:231|47:231|47:233|47:233|48:231|48:231|49:231|49:231|49:229|49:229|50:232|50:232|51:232|51:232|51:234|51:234|51:232|51:232|52:232|52:232|53:230|53:230|53:232|53:232|54:232|54:232|55:234|55:234|55:233|55:233|56:233|56:233|57:231|57:231|57:233|57:233|58:233|58:233|59:235|59:235|59:233|59:233|60:233|60:233|61:231|61:231|61:233|61:233|62:234|62:234|62:236|62:236|63:234|63:234|64:234|64:234|65:232|65:232|65:234|65:234|66:234|66:234|66:236|66:236|67:234|67:234|68:235|68:235|69:233|69:233|69:235|69:235|70:235|70:235|70:237|70:237|71:235|71:235|72:235|72:235|73:233|73:233|73:235|73:235|74:236|74:236|74:238|74:238|75:236|75:236|76:236|76:236|77:234|77:234|77:236|77:236|78:236|78:236|78:238|78:238|79:236|79:236|80:237|80:237|81:235|81:235|81:237|81:237|82:237|82:237|82:239|82:239|83:237|83:237|84:237|84:237|85:235|85:235|85:237|85:237|86:238|86:238|86:240|86:240|87:238|87:238|88:238|88:238|89:236|89:236|89:238|89:238|90:238|90:238|90:240|90:240|91:238|91:238|92:239|92:239|93:237|93:237|93:239|93:239|94:239|94:239|94:241|94:241|95:239|95:239|96:239|96:239|97:237|97:237|97:239|97:239|98:240|98:240|98:242|98:242|99:240|99:240|100:240|100:240|101:238|101:238|101:240|101:240|102:240|102:240|102:242|102:242|103:240|103:240|104:241|104:241|105:239|105:239|105:241|105:241|106:241|106:241|106:243|106:243|107:241|107:241|108:241|108:241|108:239|108:239|109:241|109:241|110:241|110:241|110:244|110:244|111:242|111:242|112:242|112:242|112:240|112:240|113:242|113:242|114:242|114:242|114:244|114:244|115:242|115:242|116:242|116:242|116:241|116:241|117:243|117:243|118:243|118:243|118:245|118:245|119:243|119:243|120:243|120:243|120:241|120:241|120:243|120:243|121:243|121:243|122:245|122:245|122:244|122:244|123:244|123:244|124:242|124:242|124:244|124:244|125:244|125:244|126:246|126:246|126:244|126:244|127:244|127:244|128:243|128:243|128:245|128:245|129:245|129:245|130:247|130:247|130:245|130:245|131:245|131:245|132:243|132:243|132:245|132:245|133:245|133:245|133:247|133:247|134:246|134:246|135:246|135:246|136:244|136:244|136:246|136:246|137:246|137:246|137:248|137:248|138:246|138:246|139:246|139:246|140:244|140:244|140:247|140:247|141:247|141:247|141:249|141:249|142:247|142:247|143:247|143:247|144:245|144:245|144:247|144:247|145:247|145:247|145:249|145:249|146:248|146:248|147:248|147:248|148:246|148:246|148:248|148:248|149:248|149:248|149:250|149:250|150:248|150:248|151:248|151:248|152:246|152:246|152:248|152:248|153:249|153:249|153:251|153:251|154:249|154:249|155:249|155:249|156:247|156:247|156:249|156:249|157:249|157:249|157:251|157:251|158:249|158:249|159:250|159:250|160:248|160:248|160:250|160:250|161:250|161:250|161:252|161:252|162:250|162:250|163:250|163:250|164:248|164:248|164:250|164:250|165:251|165:251|165:253|165:253|166:251|166:251|167:251|167:251|168:249|168:249|168:251|168:251|169:251|169:251|169:253|169:253|170:251|170:251|171:252|171:252|172:250|172:250|172:252|172:252|173:252|173:252|173:254|173:254|174:252|174:252|175:252|175:252|176:250|176:250|176:252|176:252|177:253|177:253|177:255|177:255|178:253|178:253|179:253|179:253|179:251|179:251|180:253|180:253|181:253|181:253|181:255|181:255|182:253|182:253|183:254|183:254|183:252|183:252|184:254|184:254|185:254|185:254|185:256|185:256|186:254|186:254|187:254|187:254|187:252|187:252|188:254|188:254|189:255|189:255|189:257|189:257|189:255|189:255|190:255|190:255|191:253|191:253|191:255|191:255|192:255|192:255|193:257|193:257|193:255|193:255|194:255|194:255|195:254|195:254|195:256|195:256|196:256|196:256|197:258|197:258|197:256|197:256|198:256|198:256|199:254|199:254|199:256|199:256|200:256|200:256|201:259|201:259|201:257|201:257|202:257|202:257|203:255|203:255|203:257|203:257|204:257|204:257|204:259|204:259|205:257|205:257|206:257|206:257|207:256|207:256|207:258|207:258|208:258|208:258|208:260|208:260|209:258|209:258|210:258|210:258|211:256|211:256|211:258|211:258|212:258|212:258|212:260|212:260|213:259|213:259|214:259|214:259|215:257|215:257|215:259|215:259|216:259|216:259|216:261|216:261|217:259|217:259|218:259|218:259|219:258|219:258|219:260|219:260|220:260|220:260|220:262|220:262|221:260|221:260|222:260|222:260|223:258|223:258|223:260|223:260|224:260|224:260|224:262|224:262|225:261|225:261|226:261|226:261|227:259|227:259|227:261|227:261|228:261|228:261|228:263|228:263|229:261|229:261|230:261|230:261|231:259|231:259|231:262|231:262|232:262|232:262|232:264|232:264|233:262|233:262|234:262|234:262|235:260|235:260|235:262|235:262|236:262|236:262|236:264|236:264|237:262|237:262|238:263|238:263|239:261|239:261|239:263|239:263|240:263|240:263|240:265|240:265|241:263|241:263|242:263|242:263|243:261|243:261|243:263|243:263|244:264|244:264|244:266|244:266|245:264|245:264|246:264|246:264|246:262|246:262|247:264|247:264|248:264|248:264|248:266|248:266|249:264|249:264|250:265|250:265|250:263|250:263|251:265|251:265|252:265|252:265|252:267|252:267|253:265|253:265|254:265|254:265|254:263|254:263|255:265|255:265|256:266|256:266|256:268|256:268|257:266|257:266|258:266|258:266|258:264|258:264|258:266|258:266|259:266|259:266|260:268|260:268|260:266|260:266|261:267|261:267|262:265|262:265|262:267|262:267|263:267|263:267|264:269|264:269|264:267|264:267|265:267|265:267|266:265|266:265|266:267|266:267|267:268|267:268|268:270|268:270|268:268|268:268|269:268|269:268|270:266|270:266|270:268|270:268|271:268|271:268|271:270|271:270|272:268|272:268|273:269|273:269|274:267|274:267|274:269|274:269|275:269|275:269|275:271|275:271|276:269|276:269|277:269|277:269|278:267|278:267|278:269|278:269|279:270|279:270|279:272|279:272|280:270|280:270|281:270|281:270|282:268|282:268|282:270|282:270|283:270|283:270|283:272|283:272|284:270|284:270|285:270|285:270|286:269|286:269|286:271|286:271|287:271|287:271|287:273|287:273|288:271|288:271|289:271|289:271|290:269|290:269|290:271|290:271|291:271|291:271|291:274|291:274|292:272|292:272|293:272|293:272|294:270|294:270|294:272|294:272|295:272|295:272|295:274|295:274|296:272|296:272|297:272|297:272|298:271|298:271|298:273|298:273|299:273|299:273|299:275|299:275|300:273|300:273|301:273|301:273|302:271|302:271|302:273|302:273|303:273|303:273|303:275|303:275|304:274|304:274|305:274|305:274|306:272|306:272|306:274|306:274|307:274|307:274|307:276|307:276|308:274|308:274|309:274|309:274|310:273|310:273|310:275|310:275|311:275|311:275|311:277|311:277|312:275|312:275|313:275|313:275|314:273|314:273|314:275|314:275|315:275|315:275|315:277|315:277|316:276|316:276|317:276|317:276|317:274|317:274|318:276|318:276|319:276|319:276|319:278|319:278|320:276|320:276|321:276|321:276|321:274|321:274|322:277|322:277|323:277|323:277|323:279|323:279|324:277|324:277|325:277|325:277|325:275|325:275|326:277|326:277|327:277|327:277|327:279|327:279|327:277|327:277|328:278|328:278|329:276|329:276|329:278|329:278|330:278|330:278|331:280|331:280|331:278|331:278|332:278|332:278|333:276|333:276|333:278|333:278|334:279|334:279|335:281|335:281|335:279|335:279|336:279|336:279|337:277|337:277|337:279|337:279|338:279|338:279|339:281|339:281|339:279|339:279|340:280|340:280|341:278|341:278|341:280|341:280|342:280|342:280|342:282|342:282|343:280|343:280|344:280|344:280|345:278|345:278|345:280|345:280|346:281|346:281|346:283|346:283|347:281|347:281|348:281|348:281|349:279|349:279|349:281|349:281|350:281|350:281|350:283|350:283|351:281|351:281|352:282|352:282|353:280|353:280|353:282|353:282|354:282|354:282|354:284|354:284|355:282|355:282|356:282|356:282|357:280|357:280|357:282|357:282|358:283|358:283|358:285|358:285|359:283|359:283|360:283|360:283|361:281|361:281|361:283|361:283|362:283|362:283|362:285|362:285|363:283|363:283|364:284|364:284|365:282|365:282|365:284|365:284|366:284|366:284|366:286|366:286|367:284|367:284|368:284|368:284|369:282|369:282|369:284|369:284|370:284|370:284|370:287|370:287|371:285|371:285|372:285|372:285|373:283|373:283|373:285|373:285|374:285|374:285|374:287|374:287|375:285|375:285|376:285|376:285|377:284|377:284|377:286|377:286|378:286|378:286|378:288|378:288|379:286|379:286|380:286|380:286|381:284|381:284|381:286|381:286|382:286|382:286|382:289|382:289|383:287|383:287|384:287|384:287|385:285|385:285|385:287|385:287|386:287|386:287|386:289|386:289|387:287|387:287|388:287|388:287|388:286|388:286|389:288|389:288|390:288|390:288|390:290|390:290|391:288|391:288|392:288|392:288|392:286|392:286|393:288|393:288|394:288|394:288|394:290|394:290|395:289|395:289|396:289|396:289|396:287|396:287|396:289|396:289|397:289|397:289|398:291|398:291|398:289|398:289|399:289|399:289|400:287|400:287|400:290|400:290|401:290|401:290|402:292|402:292|402:290|402:290|403:290|403:290|404:288|404:288|404:290|404:290|405:290|405:290|406:292|406:292|406:291|406:291|407:291|407:291|408:289|408:289|408:291|408:291|409:291|409:291|409:293|409:293|410:291|410:291|411:291|411:291|412:289|412:289|412:291|412:291|413:292|413:292|413:294|413:294|414:292|414:292|415:292|415:292|416:290|416:290|416:292|416:292|417:292|417:292|417:294|417:294|418:292|418:292|419:293|419:293|420:291|420:291|420:293|420:293|421:293|421:293|421:295|421:295|422:293|422:293|423:293|423:293|424:291|424:291|424:293|424:293|425:294|425:294|425:296|425:296|426:294|426:294|427:294|427:294|428:292|428:292|428:294|428:294|429:294|429:294|429:296|429:296|430:294|430:294|431:295|431:295|432:293|432:293|432:295|432:295|433:295|433:295|433:297|433:297|434:295|434:295|435:295|435:295|436:293|436:293|436:295|436:295|437:296|437:296|437:298|437:298|438:296|438:296|439:296|439:296|440:294|440:294|440:296|440:296|441:296|441:296|441:298|441:298|442:296|442:296|443:297|443:297|444:295|444:295|444:297|444:297|445:297|445:297|445:299|445:299|446:297|446:297|447:297|447:297|448:295|448:295|448:297|448:297|449:298|449:298|449:300|449:300|450:298|450:298|451:298|451:298|452:296|452:296|452:298|452:298|453:298|453:298|453:300|453:300|454:298|454:298|455:299|455:299|455:297|455:297|456:299|456:299|457:299|457:299|457:301|457:301|458:299|458:299|459:299|459:299|459:297|459:297|460:299|460:299|461:299|461:299|461:302|461:302|462:300|462:300|463:300|463:300|463:298|463:298|464:300|464:300|465:300|465:300|465:302|465:302|465:300|465:300|466:300|466:300|467:299|467:299|467:301|467:301|468:301|468:301|469:303|469:303|469:301|469:301|470:301|470:301|471:299|471:299|471:301|471:301|472:301|472:301|473:303|473:303|473:302|473:302|474:302|474:302|475:300|475:300|475:302|475:302|476:302|476:302|477:304|477:304|477:302|477:302|478:302|478:302|479:301|479:301|479:303|479:303|480:303|480:303|480:305|480:305|481:303|481:303|482:303|482:303|483:301|483:301|483:303|483:303|484:303|484:303|484:305|484:305|485:304|485:304|486:304|486:304|487:302|487:302|487:304|487:304|488:304|488:304|488:306|488:306|489:304|489:304|490:304|490:304|491:302|491:302|491:305|491:305|492:305|492:305|492:307|492:307|493:305|493:305|494:305|494:305|495:303|495:303|495:305|495:305|496:305|496:305|496:307|496:307|497:306|497:306|498:306|498:306|499:304|499:304|499:306|499:306|500:306|500:306|498:305|498:305|499:307|499:307|498:307|498:307|499:309|499:309|498:308|498:308|497:309|497:309|495:307|495:307|496:309|496:309|495:310|495:310|496:312|496:312|495:310|495:310|494:311|494:311|492:310|492:310|493:312|493:312|492:312|492:312|493:314|493:314|492:313|492:313|491:314|491:314|489:312|489:312|490:314|490:314|489:315|489:315|490:317|490:317|488:316|488:316|486:315|486:315|487:317|487:317|486:317|486:317|487:319|487:319|485:318|485:318|485:319|485:319|483:317|483:317|484:319|484:319|483:320|483:320|484:322|484:322|482:321|482:321|480:320|480:320|481:322|481:322|480:323|480:323|481:324|481:324|479:323|479:323|478:324|478:324|477:323|477:323|478:324|478:324|477:325|477:325|478:327|478:327|476:326|476:326|475:326|475:326|474:325|474:325|475:327|475:327|474:328|474:328|475:329|475:329|473:328|473:328|472:329|472:329|471:328|471:328|472:330|472:330|471:330|471:330|472:332|472:332|470:331|470:331|469:331|469:331|468:330|468:330|468:332|468:332|468:333|468:333|469:335|469:335|467:334|467:334|466:334|466:334|464:333|464:333|465:335|465:335|464:336|464:336|465:337|465:337|463:336|463:336|463:337|463:337|461:336|461:336|462:337|462:337|461:338|461:338|462:340|462:340|460:339|460:339|458:338|458:338|459:340|459:340|458:341|458:341|459:343|459:343|457:341|457:341|457:342|457:342|455:341|455:341|456:343|456:343|455:343|455:343|456:345|456:345|454:344|454:344|453:344|453:344|452:343|452:343|453:345|453:345|452:346|452:346|453:348|453:348|451:346|451:346|450:347|450:347|449:346|449:346|450:348|450:348|449:348|449:348|450:350|450:350|448:349|448:349|447:350|447:350|446:348|446:348|447:350|447:350|446:351|446:351|447:353|447:353|445:351|445:351|444:352|444:352|443:351|443:351|443:353|443:353|444:355|444:355|442:354|442:354|441:355|441:355|439:353|439:353|440:355|440:355|440:356|440:356|441:358|441:358|439:357|439:357|438:357|438:357|436:356|436:356|437:358|437:358|437:360|437:360|436:359|436:359|435:360|435:360|433:359|433:359|434:360|434:360|433:361|433:361|434:363|434:363|433:362|433:362|432:362|432:362|430:361|430:361|431:363|431:363|430:364|430:364|431:365|431:365|430:364|430:364|429:365|429:365|427:364|427:364|428:365|428:365|427:366|427:366|428:368|428:368|427:367|427:367|425:368|425:368|426:367|426:367|424:366|424:366|425:368|425:368|424:368|424:368|423:370|423:370|423:368|423:368|422:368|422:368|422:365|422:365|421:367|421:367|420:367|420:367|419:369|419:369|419:367|419:367|418:367|418:367|418:365|418:365|417:367|417:367|416:367|416:367|415:368|415:368|415:366|415:366|414:366|414:366|414:364|414:364|413:366|413:366|412:366|412:366|411:368|411:368|411:366|411:366|410:366|410:366|410:364|410:364|409:365|409:365|408:365|408:365|407:367|407:367|407:365|407:365|406:365|406:365|406:363|406:363|405:365|405:365|404:365|404:365|404:366|404:366|403:364|403:364|402:364|402:364|402:362|402:362|401:364|401:364|400:364|400:364|400:366|400:366|399:364|399:364|398:364|398:364|398:362|398:362|397:363|397:363|396:363|396:363|396:365|396:365|395:363|395:363|394:363|394:363|394:361|394:361|393:363|393:363|392:365|392:365|392:362|392:362|391:362|391:362|390:360|390:360|390:362|390:362|389:362|389:362|388:364|388:364|388:362|388:362|387:362|387:362|386:360|386:360|386:362|386:362|385:361|385:361|384:363|384:363|384:361|384:361|383:361|383:361|382:359|382:359|382:361|382:361|381:361|381:361|380:363|380:363|380:361|380:361|379:360|379:360|379:358|379:358|378:360|378:360|377:360|377:360|376:362|376:362|376:360|376:360|375:360|375:360|375:358|375:358|374:360|374:360|373:359|373:359|372:361|372:361|372:359|372:359|371:359|371:359|371:357|371:357|370:359|370:359|369:359|369:359|368:361|368:361|368:359|368:359|367:358|367:358|367:356|367:356|366:358|366:358|365:358|365:358|364:360|364:360|364:358|364:358|363:358|363:358|363:356|363:356|362:358|362:358|361:357|361:357|360:359|360:359|360:357|360:357|359:357|359:357|359:355|359:355|358:357|358:357|357:357|357:357|356:359|356:359|356:357|356:357|355:356|355:356|355:354|355:354|354:356|354:356|353:356|353:356|352:358|352:358|352:356|352:356|351:356|351:356|351:354|351:354|350:356|350:356|349:355|349:355|348:357|348:357|348:355|348:355|347:355|347:355|347:353|347:353|346:355|346:355|345:355|345:355|344:357|344:357|344:355|344:355|343:355|343:355|343:352|343:352|342:354|342:354|341:354|341:354|340:356|340:356|340:354|340:354|339:354|339:354|339:352|339:352|338:354|338:354|337:354|337:354|337:355|337:355|336:353|336:353|335:353|335:353|335:351|335:351|334:353|334:353|333:353|333:353|333:355|333:355|332:353|332:353|331:353|331:353|331:351|331:351|330:352|330:352|329:352|329:352|329:354|329:354|328:352|328:352|329:350|329:350|327:351|327:351|327:350|327:350|325:350|325:350|327:349|327:349|326:348|326:348|328:347|328:347|326:347|326:347|326:346|326:346|324:346|324:346|325:345|325:345|325:344|325:344|327:343|327:343|325:343|325:343|324:342|324:342|322:343|322:343|324:341|324:341|323:340|323:340|325:339|325:339|323:339|323:339|321:339|321:339|322:338|322:338|322:337|322:337|324:335|324:335|322:336|322:336|321:335|321:335|319:335|319:335|321:334|321:334|321:333|321:333|322:332|322:332|320:332|320:332|320:331|320:331|318:331|318:331|319:330|319:330|319:329|319:329|321:328|321:328|319:328|319:328|318:327|318:327|316:328|316:328|318:326|318:326|319:324|319:324|317:325|317:325|317:324|317:324|315:324|315:324|317:323|317:323|316:322|316:322|318:321|318:321|316:321|316:321|315:320|315:320|313:320|313:320|315:319|315:319|315:318|315:318|316:317|316:317|314:317|314:317|314:316|314:316|312:316|312:316|314:315|314:315|313:314|313:314|315:313|315:313|313:313|313:313|312:312|312:312|310:313|310:313|312:312|312:312|312:311|312:311|313:309|313:309|311:310|311:310|311:309|311:309|309:309|309:309|311:308|311:308|310:307|310:307|312:306|312:306|310:306|310:306|310:305|310:305|308:305|308:305|309:304|309:304|309:303|309:303|311:302|311:302|308:302|308:302|308:301|308:301|306:302|306:302|308:300|308:300|307:299|307:299|309:298|309:298|307:299|307:299|307:298|307:298|305:298|305:298|306:297|306:297|306:296|306:296|308:295|308:295|306:295|306:295|305:294|305:294|303:294|303:294|305:293|305:293|304:292|304:292|306:291|306:291|304:291|304:291|304:290|304:290|302:290|302:290|303:289|303:289|303:288|303:288|305:287|305:287|303:287|303:287|302:286|302:286|300:287|300:287|302:286|302:286|302:285|302:285|303:283|303:283|301:284|301:284|301:283|301:283|299:283|299:283|300:282|300:282|300:281|300:281|302:280|302:280|300:280|300:280|299:279|299:279|297:279|297:279|299:278|299:278|299:277|299:277|300:276|300:276|298:276|298:276|298:275|298:275|296:276|296:276|298:274|298:274|297:273|297:273|299:272|299:272|297:273|297:273|296:272|296:272|294:272|294:272|296:271|296:271|296:270|296:270|297:269|297:269|295:269|295:269|295:268|295:268|293:268|293:268|295:267|295:267|294:266|294:266|296:265|296:265|294:265|294:265|294:264|294:264|291:264|291:264|293:263|293:263|293:262|293:262|294:261|294:261|292:261|292:261|292:260|292:260|290:261|290:261|292:260|292:260|291:259|291:259|293:257|293:257|291:258|291:258|291:257|291:257|289:257|289:257|290:256|290:256|290:255|290:255|292:254|292:254|290:254|290:254|289:253|289:253|287:253|287:253|289:252|289:252|288:251|288:251|290:250|290:250|288:250|288:250|288:249|288:249|286:250|286:250|287:248|287:248|287:247|287:247|289:246|289:246|287:247|287:247|286:246|286:246|284:246|284:246|286:245|286:245|286:244|286:244|287:243|287:243|285:243|285:243|285:242|285:242|283:242|283:242|284:241|284:241|284:240|284:240|286:239|286:239|284:239|284:239|283:238|283:238|281:238|281:238|283:237|283:237|283:236|283:236|284:235|284:235|282:235|282:235|282:234|282:234|279:235|279:235|281:233|281:233|281:232|281:232|283:231|283:231|281:231|281:231|280:230|280:230|278:231|278:231|280:229|280:229|279:228|279:228|281:227|281:227|279:227|279:227|277:227|277:227|278:226|278:226|278:225|278:225|280:223|280:223|278:224|278:224|277:223|277:223|275:223|275:223|277:222|277:222|277:221|277:221|278:220|278:220|276:220|276:220|276:219|276:219|274:219|274:219|275:218|275:218|275:217|275:217|277:216|277:216|275:216|275:216|274:215|274:215|272:216|272:216|274:214|274:214|275:212|275:212|273:213|273:213|273:212|273:212|271:212|271:212|273:211|273:211|272:210|272:210|274:209|274:209|272:209|272:209|271:208|271:208|269:208|269:208|271:207|271:207|271:206|271:206|272:205|272:205|270:205|270:205|270:204|270:204|268:204|268:204|270:203|270:203|269:202|269:202|271:201|271:201|269:201|269:201|267:201|267:201|268:200|268:200|268:199|268:199|269:197|269:197|267:198|267:198|267:197|267:197|265:197|265:197|267:196|267:196|266:194|266:194|266:195|266:195|268:194|268:194|266:194|266:194|265:194|265:194|264:196|264:196|264:194|264:194|263:193|263:193|263:191|263:191|262:193|262:193|261:193|261:193|260:195|260:195|260:193|260:193|259:193|259:193|259:191|259:191|258:193|258:193|257:192|257:192|256:194|256:194|256:192|256:192|255:192|255:192|255:190|255:190|254:192|254:192|253:192|253:192|252:194|252:194|252:191|252:191|251:191|251:191|251:189|251:189|250:191|250:191|249:191|249:191|248:193|248:193|248:191|248:191|247:191|247:191|247:189|247:189|246:190|246:190|245:190|245:190|245:192|245:192|244:190|244:190|243:190|243:190|243:188|243:188|242:190|242:190|241:190|241:190|241:191|241:191|240:189|240:189|239:189|239:189|239:187|239:187|239:189|239:189|238:189|238:189|237:191|237:191|237:189|237:189|236:188|236:188|235:186|235:186|235:188|235:188|234:188|234:188|233:190|233:190|233:188|233:188|232:188|232:188|231:186|231:186|231:188|231:188|230:187|230:187|229:189|229:189|229:187|229:187|228:187|228:187|228:185|228:185|227:187|227:187|226:187|226:187|225:189|225:189|225:186|225:186|224:186|224:186|224:184|224:184|223:186|223:186|222:186|222:186|221:188|221:188|221:186|221:186|220:186|220:186|220:184|220:184|219:185|219:185|218:185|218:185|217:187|217:187|217:185|217:185|216:185|216:185|216:183|216:183|215:185|215:185|214:184|214:184|213:186|213:186|213:184|213:184|212:184|212:184|212:182|212:182|211:184|211:184|210:184|210:184|209:186|209:186|209:184|209:184|208:183|208:183|208:181|208:181|207:183|207:183|206:183|206:183|205:185|205:185|205:183|205:183|204:183|204:183|204:181|204:181|203:183|203:183|202:182|202:182|201:184|201:184|201:182|201:182|200:182|200:182|200:180|200:180|199:182|199:182|198:182|198:182|197:183|197:183|197:181|197:181|196:181|196:181|196:179|196:179|195:181|195:181|194:181|194:181|193:183|193:183|193:181|193:181|192:181|192:181|192:178|192:178|191:180|191:180|190:180|190:180|190:182|190:182|189:180|189:180|188:180|188:180|188:178|188:178|187:180|187:180|185:179|186:179|186:179|186:181|186:181|185:179,1,2872.79988882843,2|0,1:0|0:0,0:1:0:0:
19,309,240660,6,0,L|41:375,1,67.4999982118607,10|0,0:2|0:0,0:0:0:0:
187,175,240960,2,0,L|165:109,1,67.4999982118607
493,309,241260,6,0,L|471:375,1,67.4999982118607,0|0,1:0|0:0,0:0:0:0:
325,175,241560,2,0,L|347:109,1,67.4999982118607
256,368,241860,6,0,L|256:211,1,135.000001573563,10|0,0:2|0:0,0:0:0:0:
334,281,242310,1,0,1:0:0:0:
21,145,242460,6,0,B|-13:183|-13:183|139:158|139:158|182:52|182:52|313:30|313:30|276:76,1,506.25000590086,6|0,1:3|0:0,0:0:0:0:
238,159,242910,6,0,L|250:229,1,67.5000007867814,6|0,0:3|0:0,0:0:0:0:
495,14,243060,1,10,0:2:0:0:
495,14,243360,2,0,B|461:48|461:48|480:148,1,135.000001573563,6|0,0:3|0:0,0:0:0:0:
424,339,243660,5,2,1:2:0:0:
353,327,243735,1,2,0:2:0:0:
291,316,243810,1,2,0:2:0:0:
239,307,243885,1,2,0:2:0:0:
199,301,243960,1,2,0:2:0:0:
168,295,244035,1,2,0:2:0:0:
148,291,244110,1,2,0:2:0:0:
134,288,244185,1,2,0:2:0:0:
158,318,244260,6,0,L|171:245,1,67.5000007867814,10|0,0:2|0:0,0:0:0:0:
95,17,244410,6,0,P|108:50|115:85,1,67.5000007867814,2|0,0:2|0:0,0:0:0:0:
193,172,244560,2,0,P|160:168|128:157,1,67.5000007867814,2|0,0:2|0:0,0:0:0:0:
10,179,244711,2,0,P|30:153|55:130,1,67.5000007867814,10|0,0:2|0:0,0:0:0:0:
316,29,244860,6,2,B|316:31|316:31|318:32|318:32|315:32|315:32|315:33|315:33|313:33|313:33|315:34|315:34|315:35|315:35|317:36|317:36|315:36|315:36|315:37|315:37|313:37|313:37|314:38|314:38|314:39|314:39|316:40|316:40|314:40|314:40|314:41|314:41|312:41|312:41|314:42|314:42|314:43|314:43|315:44|315:44|313:44|313:44|313:45|313:45|311:45|311:45|313:46|313:46|313:47|313:47|315:48|315:48|313:48|313:48|313:49|313:49|311:49|311:49|312:50|312:50|312:51|312:51|314:51|314:51|312:52|312:52|312:53|312:53|310:53|310:53|312:54|312:54|312:55|312:55|313:55|313:55|311:56|311:56|311:57|311:57|309:57|309:57|311:58|311:58|311:59|311:59|313:59|313:59|311:60|311:60|308:61|308:61|310:61|310:61|310:62|310:62|312:63|312:63|310:63|310:63|310:64|310:64|308:65|308:65|310:65|310:65|310:66|310:66|311:67|311:67|309:67|309:67|309:68|309:68|307:69|307:69|309:69|309:69|309:70|309:70|311:71|311:71|309:71|309:71|308:72|308:72|306:72|306:72|308:73|308:73|308:74|308:74|310:75|310:75|308:75|308:75|308:76|308:76|306:76|306:76|308:77|308:77|307:78|307:78|309:79|309:79|307:79|307:79|307:80|307:80|305:80|305:80|307:81|307:81|307:82|307:82|309:83|309:83|307:83|307:83|306:84|306:84|304:84|304:84|306:85|306:85|306:86|306:86|308:87|308:87|306:87|306:87|306:88|306:88|304:88|304:88|306:89|306:89|305:90|305:90|307:91|307:91|305:91|305:91|305:92|305:92|303:92|303:92|305:93|305:93|305:94|305:94|307:95|307:95|305:95|305:95|304:96|304:96|302:96|302:96|304:97|304:97|304:98|304:98|306:99|306:99|304:99|304:99|304:100|304:100|302:100|302:100|304:101|304:101|303:102|303:102|305:103|305:103|303:103|303:103|303:104|303:104|301:104|301:104|303:105|303:105|303:106|303:106|305:107|305:107|303:107|303:107|302:108|302:108|300:108|300:108|302:109|302:109|302:110|302:110|304:111|304:111|302:111|302:111|302:112|302:112|300:112|300:112|301:113|301:113|301:114|301:114|303:114|303:114|301:115|301:115|301:116|301:116|299:116|299:116|301:117|301:117|301:118|301:118|303:118|303:118|300:119|300:119|300:120|300:120|298:120|298:120|300:121|300:121|300:122|300:122|302:122|302:122|300:123|300:123|298:124|298:124|299:124|299:124|299:125|299:125|301:126|301:126|299:126|299:126|299:127|299:127|297:128|297:128|299:128|299:128|299:129|299:129|300:130|300:130|298:130|298:130|298:131|298:131|296:132|296:132|298:132|298:132|298:133|298:133|300:134|300:134|298:134|298:134|298:135|298:135|296:135|296:135|297:136|297:136|297:137|297:137|299:138|299:138|297:138|297:138|297:139|297:139|295:139|295:139|297:140|297:140|297:141|297:141|298:142|298:142|296:142|296:142|296:143|296:143|294:143|294:143|296:144|296:144|296:145|296:145|298:146|298:146|296:146|296:146|296:147|296:147|293:147|293:147|295:148|295:148|295:149|295:149|297:150|297:150|295:150|295:150|295:151|295:151|293:151|293:151|295:152|295:152|294:153|294:153|296:154|296:154|294:154|294:154|294:155|294:155|292:155|292:155|294:156|294:156|294:157|294:157|296:158|296:158|294:158|294:158|293:159|293:159|291:159|291:159|293:160|293:160|293:161|293:161|295:162|295:162|293:162|293:162|293:163|293:163|291:163|291:163|293:164|293:164|292:165|292:165|294:166|294:166|292:166|292:166|292:167|292:167|290:167|290:167|292:168|292:168|292:169|292:169|294:170|294:170|292:170|292:170|291:171|291:171|289:171|289:171|291:172|291:172|291:173|291:173|293:174|293:174|291:174|291:174|291:175|291:175|289:175|289:175|291:176|291:176|290:177|290:177|292:177|292:177|290:178|290:178|290:179|290:179|288:179|288:179|290:180|290:180|290:181|290:181|292:181|292:181|290:182|290:182|289:183|289:183|287:183|287:183|289:184|289:184|289:185|289:185|291:185|291:185|289:186|289:186|287:187|287:187|289:187|289:187|288:188|288:188|290:189|290:189|288:189|288:189|288:190|288:190|286:191|286:191|288:191|288:191|288:192|288:192|290:193|290:193|287:193|287:193|287:194|287:194|285:195|285:195|287:195|287:195|287:196|287:196|289:197|289:197|287:197|287:197|287:198|287:198|285:198|285:198|286:199|286:199|286:200|286:200|288:201|288:201|286:201|286:201|286:202|286:202|284:202|284:202|286:203|286:203|286:204|286:204|287:205|287:205|285:205|285:205|285:206|285:206|283:206|283:206|285:207|285:207|285:208|285:208|287:209|287:209|285:209|285:209|285:210|285:210|283:210|283:210|284:211|284:211|284:212|284:212|286:213|286:213|284:213|284:213|284:214|284:214|282:214|282:214|284:215|284:215|284:216|284:216|285:217|285:217|283:217|283:217|283:218|283:218|281:218|281:218|283:219|283:219|283:220|283:220|285:221|285:221|283:221|283:221|283:222|283:222|280:222|280:222|282:223|282:223|282:224|282:224|284:225|284:225|282:225|282:225|282:226|282:226|280:226|280:226|282:227|282:227|282:228|282:228|283:229|283:229|281:229|281:229|281:230|281:230|279:230|279:230|281:231|281:231|281:232|281:232|283:233|283:233|281:233|281:233|280:234|280:234|278:234|278:234|280:235|280:235|280:236|280:236|282:237|282:237|280:237|280:237|280:238|280:238|278:238|278:238|280:239|280:239|279:240|279:240|281:240|281:240|279:241|279:241|279:242|279:242|277:242|277:242|279:243|279:243|279:244|279:244|281:244|281:244|279:245|279:245|278:246|278:246|276:246|276:246|278:247|278:247|278:248|278:248|280:248|280:248|278:249|278:249|276:250|276:250|278:250|278:250|277:251|277:251|279:252|279:252|277:252|277:252|277:253|277:253|275:254|275:254|277:254|277:254|277:255|277:255|279:256|279:256|277:256|277:256|276:257|276:257|274:258|274:258|276:258|276:258|276:259|276:259|278:260|278:260|276:260|276:260|276:261|276:261|274:261|274:261|276:262|276:262|275:263|275:263|277:264|277:264|275:264|275:264|275:265|275:265|273:265|273:265|275:266|275:266|275:267|275:267|277:268|277:268|275:268|275:268|274:269|274:269|272:269|272:269|274:270|274:270|274:271|274:271|276:272|276:272|274:272|274:272|274:273|274:273|272:273|272:273|273:274|273:274|273:275|273:275|275:276|275:276|273:276|273:276|273:277|273:277|271:277|271:277|273:278|273:278|273:279|273:279|275:280|275:280|272:280|272:280|272:281|272:281|270:281|270:281|272:282|272:282|272:283|272:283|274:284|274:284|272:284|272:284|272:285|272:285|270:285|270:285|271:286|271:286|271:287|271:287|273:288|273:288|271:288|271:288|271:289|271:289|269:289|269:289|271:290|271:290|271:291|271:291|272:292|272:292|270:292|270:292|270:293|270:293|268:293|268:293|270:294|270:294|270:295|270:295|272:296|272:296|270:296|270:296|270:297|270:297|268:297|268:297|269:298|269:298|269:299|269:299|271:300|271:300|269:300|269:300|269:301|269:301|267:301|267:301|269:302|269:302|269:303|269:303|270:303|270:303|268:304|268:304|268:305|268:305|266:305|266:305|268:306|268:306|268:307|268:307|270:307|270:307|268:308|268:308|268:309|268:309|265:309|265:309|267:310|267:310|267:311|267:311|269:311|269:311|267:312|267:312|265:313|265:313|267:313|267:313|266:314|266:314|268:315|268:315|266:315|266:315|266:316|266:316|264:317|264:317|266:317|266:317|266:318|266:318|268:319|268:319|266:319|266:319|265:320|265:320|263:321|263:321|265:321|265:321|265:322|265:322|267:323|267:323|265:323|265:323|265:324|265:324|263:324|263:324|265:325|265:325|264:326|264:326|266:327|266:327|264:327|264:327|264:328|264:328|262:328|262:328|264:329|264:329|264:330|264:330|266:331|266:331|264:331|264:331|263:332|263:332|261:332|261:332|263:333|263:333|263:334|263:334|265:335|265:335|263:335|263:335|263:336|263:336|261:336|261:336|263:337|263:337|262:338|262:338|264:339|264:339|262:339|262:339|262:340|262:340|260:340|260:340|262:341|262:341|262:342|262:342|264:343|264:343|262:343|262:343|261:344|261:344|259:344|259:344|261:345|261:345|261:346|261:346|263:347|263:347|261:347|261:347|261:348|261:348|259:348|259:348|261:349|261:349|260:350|260:350|262:351|262:351|260:351|260:351|260:352|260:352|258:352|258:352|260:353|260:353|260:354|260:354|262:355|262:355|259:355|259:355|259:356|259:356|257:356|257:356|259:357|259:357|259:358|259:358|261:359|261:359|259:359|259:359|259:360|259:360|257:360|257:360|258:361|258:361|258:362|258:362|260:363|260:363|258:363|258:363|258:364|258:364|256:364|256:364|258:365|258:365|258:366|258:366|260:366|260:366|257:367|257:367|257:368|257:368|255:368|255:368|257:369|257:369|257:370|257:370|259:370|259:370|257:371|257:371|257:372|257:372|255:372|255:372|256:373|256:373|256:374|256:374|258:374|258:374|256:375|256:375|257:373|257:373|255:374|255:374|255:373|255:373|253:373|253:373|255:372|255:372|254:371|254:371|256:370|256:370|254:370|254:370|253:369|253:369|251:369|251:369|253:368|253:368|253:367|253:367|254:366|254:366|252:366|252:366|252:365|252:365|250:366|250:366|251:365|251:365|251:364|251:364|252:362|252:362|250:363|250:363|250:362|250:362|248:362|248:362|250:361|250:361|249:360|249:360|251:359|251:359|249:359|249:359|248:358|248:358|246:358|246:358|248:357|248:357|248:356|248:356|249:355|249:355|247:355|247:355|247:354|247:354|245:355|245:355|246:354|246:354|246:353|246:353|248:351|248:351|246:352|246:352|245:351|245:351|243:351|243:351|245:350|245:350|244:349|244:349|246:348|246:348|244:348|244:348|243:347|243:347|241:348|241:348|243:346|243:346|243:345|243:345|244:344|244:344|242:344|242:344|240:344|240:344|241:343|241:343|241:342|241:342|243:340|243:340|241:341|241:341|240:340|240:340|238:340|238:340|240:339|240:339|239:338|239:338|241:337|241:337|239:337|239:337|239:336|239:336|237:337|237:337|238:335|238:335|238:334|238:334|239:333|239:333|237:334|237:334|237:333|237:333|235:333|235:333|237:332|237:332|236:331|236:331|238:330|238:330|236:330|236:330|235:329|235:329|233:329|233:329|235:328|235:328|234:327|234:327|236:326|236:326|234:326|234:326|234:325|234:325|232:326|232:326|233:324|233:324|233:323|233:323|234:322|234:322|232:323|232:323|232:322|232:322|230:322|230:322|232:321|232:321|231:320|231:320|233:319|233:319|231:319|231:319|230:318|230:318|228:318|228:318|230:317|230:317|230:316|230:316|231:315|231:315|229:315|229:315|229:314|229:314|227:315|227:315|228:313|228:313|230:311|230:311|227:312|227:312|227:311|227:311|225:311|225:311|227:310|227:310|226:309|226:309|228:308|228:308|226:308|226:308|225:307|225:307|223:307|223:307|225:306|225:306|225:305|225:305|226:304|226:304|224:304|224:304|224:303|224:303|222:304|222:304|223:303|223:303|223:302|223:302|225:300|225:300|223:301|223:301|222:300|222:300|220:300|220:300|222:299|222:299|221:298|221:298|223:297|223:297|221:297|221:297|221:296|221:296|218:297|218:297|220:295|220:295|220:294|220:294|221:293|221:293|219:293|219:293|219:292|219:292|217:293|217:293|218:292|218:292|218:291|218:291|220:289|220:289|218:290|218:290|217:289|217:289|215:289|215:289|217:288|217:288|216:287|216:287|218:286|218:286|216:286|216:286|216:285|216:285|214:286|214:286|215:284|215:284|215:283|215:283|216:282|216:282|214:282|214:282|212:282|212:282|214:281|214:281|213:280|213:280|215:278|215:278|213:279|213:279|212:278|212:278|210:278|210:278|212:277|212:277|211:276|211:276|213:275|213:275|211:275|211:275|211:274|211:274|209:275|209:275|210:273|210:273|210:272|210:272|211:271|211:271|209:272|209:272|209:271|209:271|207:271|207:271|209:270|209:270|208:269|208:269|210:268|210:268|208:268|208:268|207:267|207:267|205:267|205:267|207:266|207:266|207:265|207:265|208:264|208:264|206:264|206:264|206:263|206:263|204:264|204:264|205:262|205:262|205:261|205:261|207:260|207:260|205:261|205:261|204:260|204:260|202:260|202:260|204:259|204:259|203:258|203:258|205:257|205:257|203:257|203:257|202:256|202:256|200:256|200:256|202:255|202:255|202:254|202:254|203:253|203:253|201:253|201:253|201:252|201:252|199:253|199:253|200:251|200:251|202:249|202:249|200:250|200:250|199:249|199:249|197:249|197:249|199:248|199:248|198:247|198:247|200:246|200:246|198:246|198:246|198:245|198:245|196:245|196:245|197:244|197:244|197:243|197:243|198:242|198:242|196:242|196:242|196:241|196:241|194:242|194:242|195:241|195:241|195:240|195:240|197:238|197:238|195:239|195:239|194:238|194:238|192:238|192:238|194:237|194:237|193:236|193:236|195:235|195:235|193:235|193:235|193:234|193:234|191:235|191:235|192:233|192:233|192:232|192:232|193:231|193:231|191:231|191:231|191:230|191:230|189:231|189:231|191:230|191:230|190:229|190:229|192:227|192:227|190:228|190:228|189:227|189:227|187:227|187:227|189:226|189:226|189:225|189:225|190:224|190:224|188:224|188:224|188:223|188:223|186:224|186:224|187:222|187:222|187:221|187:221|188:220|188:220|186:220|186:220|184:220|184:220|186:219|186:219|185:218|185:218|187:216|187:216|185:217|185:217|184:215|184:215|184:216|184:216|182:216|182:216|184:215|184:215|185:215|185:215|186:217|186:217|186:215|186:215|187:214|187:214|187:212|187:212|188:214|188:214|189:214|189:214|190:216|190:216|190:214|190:214|191:213|191:213|191:211|191:211|192:213|192:213|193:213|193:213|194:215|194:215|194:213|194:213|195:213|195:213|195:211|195:211|196:212|196:212|197:212|197:212|198:214|198:214|198:212|198:212|199:212|199:212|199:210|199:210|200:212|200:212|201:211|201:211|202:213|202:213|202:211|202:211|203:211|203:211|203:209|203:209|204:211|204:211|204:210|204:210|205:212|205:212|205:210|205:210|206:210|206:210|206:208|206:208|207:210|207:210|208:210|208:210|209:211|209:211|209:209|209:209|210:209|210:209|210:207|210:207|211:209|211:209|212:209|212:209|213:211|213:211|213:208|213:208|214:208|214:208|214:206|214:206|215:208|215:208|216:208|216:208|217:210|217:210|217:208|217:208|218:207|218:207|218:205|218:205|219:207|219:207|220:207|220:207|221:209|221:209|221:207|221:207|222:207|222:207|222:204|222:204|223:206|223:206|224:206|224:206|225:208|225:208|225:206|225:206|226:206|226:206|226:204|226:204|227:205|227:205|228:205|228:205|229:207|229:207|229:205|229:205|230:205|230:205|230:203|230:203|231:205|231:205|232:204|232:204|233:206|233:206|233:204|233:204|234:204|234:204|234:202|234:202|235:204|235:204|236:204|236:204|237:205|237:205|237:203|237:203|238:203|238:203|238:201|238:201|239:203|239:203|240:203|240:203|241:204|241:204|241:202|241:202|242:202|242:202|242:200|242:200|243:202|243:202|244:202|244:202|244:204|244:204|244:202|244:202|245:201|245:201|246:199|246:199|246:201|246:201|247:201|247:201|248:203|248:203|248:201|248:201|249:200|249:200|249:198|249:198|250:200|250:200|251:200|251:200|252:202|252:202|252:200|252:200|253:200|253:200|253:198|253:198|254:199|254:199|255:199|255:199|256:201|256:201|256:199|256:199|257:199|257:199|257:197|257:197|258:199|258:199|259:198|259:198|260:200|260:200|260:198|260:198|261:198|261:198|261:196|261:196|262:198|262:198|263:197|263:197|264:199|264:199|264:197|264:197|265:197|265:197|265:195|265:195|266:197|266:197|267:197|267:197|268:198|268:198|268:196|268:196|269:196|269:196|269:194|269:194|270:196|270:196|271:196|271:196|272:198|272:198|272:195|272:195|273:195|273:195|273:193|273:193|274:195|274:195|275:195|275:195|276:197|276:197|276:195|276:195|277:194|277:194|277:192|277:192|278:194|278:194|279:194|279:194|280:196|280:196|280:194|280:194|281:194|281:194|281:191|281:191|282:193|282:193|283:193|283:193|283:195|283:195|284:193|284:193|285:191|285:191|285:192|285:192|286:192|286:192|287:194|287:194|287:192|287:192|288:192|288:192|288:190|288:190|289:192|289:192|290:191|290:191|291:193|291:193|291:191|291:191|292:191|292:191|292:189|292:189|293:191|293:191|294:191|294:191|295:192|295:192|295:190|295:190|296:190|296:190|296:188|296:188|297:190|297:190|298:190|298:190|299:191|299:191|299:189|299:189|300:189|300:189|300:187|300:187|301:189|301:189|302:189|302:189|303:191|303:191|303:189|303:189|304:188|304:188|304:186|304:186|305:188|305:188|306:188|306:188|307:190|307:190|307:188|307:188|308:187|308:187|308:185|308:185|309:187|309:187|310:187|310:187|311:189|311:189|311:187|311:187|312:187|312:187|312:185|312:185|313:186|313:186|314:186|314:186|315:188|315:188|315:186|315:186|316:186|316:186|316:184|316:184|317:186|317:186|318:185|318:185|319:187|319:187|319:185|319:185|320:185|320:185|320:183|320:183|321:185|321:185|322:184|322:184|322:186|322:186|323:184|323:184|324:184|324:184|324:182|324:182|324:184|324:184|325:184|325:184|326:185|326:185|326:183|326:183|327:183|327:183|327:181|327:181|328:183|328:183|329:183|329:183|330:185|330:185|330:182|330:182|331:182|331:182|331:180|331:180|332:182|332:182|333:182|333:182|334:184|334:184|334:182|334:182|335:181|335:181|335:179|335:179|336:181|336:181|337:181|337:181|338:183|338:183|338:181|338:181|339:181|339:181|339:178|339:178|340:180|340:180|341:180|341:180|342:182|342:182|342:180|342:180|343:180|343:180|343:178|343:178|344:179|344:179|345:179|345:179|346:181|346:181|346:179|346:179|347:179|347:179|347:177|347:177|348:179|348:179|349:178|349:178|350:180|350:180|350:178|350:178|351:178|351:178|351:176|351:176|352:178|352:178|353:177|353:177|354:180|354:180|354:177|354:177|355:177|355:177|355:175|355:175|356:177|356:177|357:177|357:177|358:178|358:178|358:176|358:176|359:176|359:176|359:174|359:174|360:176|360:176|361:176|361:176|362:177|362:177|362:175|362:175|363:175|363:175|363:173|363:173|364:175|364:175|365:175|365:175|366:177|366:177|366:175|366:175|367:174|367:174|367:172|367:172|368:174|368:174|369:174|369:174|370:176|370:176|370:174|370:174|371:173|371:173|371:171|371:171|372:173|372:173|373:173|373:173|374:175|374:175|374:173|374:173|375:173|375:173|375:171|375:171|376:172|376:172|377:172|377:172|378:174|378:174|378:172|378:172|379:172|379:172|379:170|379:170|380:172|380:172|381:171|381:171|381:173|381:173|382:171|382:171|383:171|383:171|383:169|383:169|383:171|383:171|384:170|384:170|385:172|385:172|385:170|385:170|386:170|386:170|386:168|386:168|387:170|387:170|388:170|388:170|389:171|389:171|389:169|389:169|390:169|390:169|390:167|390:167|391:169|391:169|392:169|392:169|393:171|393:171|393:168|393:168|394:168|394:168|394:166|394:166|395:168|395:168|396:168|396:168|397:170|397:170|397:168|397:168|398:167|398:167|398:165|398:165|399:167|399:167|400:167|400:167|401:169|401:169|401:167|401:167|402:167|402:167|402:164|402:164|403:166|403:166|404:166|404:166|405:168|405:168|405:166|405:166|406:166|406:166|406:164|406:164|407:165|407:165|408:165|408:165|409:167|409:167|409:165|409:165|410:165|410:165|410:163|410:163|411:165|411:165|412:164|412:164|413:166|413:166|413:164|413:164|414:164|414:164|414:162|414:162|415:164|415:164|416:164|416:164|417:165|417:165|417:163|417:163|418:163|418:163|418:161|418:161|419:163|419:163|420:163|420:163|421:164|421:164|421:162|421:162|422:162|422:162|422:160|422:160|423:162|423:162|424:164|424:164|424:162|424:162|425:161|425:161|425:159|425:159|426:161|426:161|427:161|427:161|428:163|428:163|428:161|428:161|429:160|429:160|429:158|429:158|430:160|430:160|431:160|431:160|432:162|432:162|432:160|432:160|433:160|433:160|433:158|433:158|434:159|434:159|435:159|435:159|436:161|436:161|436:159|436:159|437:159|437:159|437:157|437:157|438:159|438:159|439:158|439:158|440:160|440:160|440:158|440:158|441:158|441:158|441:156|441:156|442:158|442:158|443:157|443:157|444:159|444:159|444:157|444:157|445:157|445:157|445:155|445:155|446:157|446:157|447:157|447:157|448:158|448:158|448:156|448:156|449:156|449:156|449:154|449:154|450:156|450:156|451:156|451:156|452:158|452:158|452:155|452:155|453:155|453:155|453:153|453:153|454:155|454:155|455:155|455:155|456:157|456:157|456:155|456:155|457:154|457:154|457:152|457:152|458:154|458:154|459:154|459:154|460:156|460:156|460:154|460:154|461:154|461:154|461:151|461:151|462:153|462:153|463:153|463:153|466:153|466:153|463:152|463:152|463:151|463:151|462:151|462:151|463:151|463:151|464:150|464:150|466:149|466:149|464:149|464:149|464:148|464:148|462:147|462:147|464:147|464:147|464:146|464:146|466:145|466:145|464:145|464:145|465:144|465:144|463:143|463:143|465:143|465:143|465:142|465:142|467:142|467:142|465:141|465:141|465:140|465:140|463:139|463:139|465:139|465:139|466:138|466:138|468:138|468:138|466:137|466:137|466:136|466:136|464:135|464:135|466:135|466:135|466:134|466:134|468:134|468:134|466:133|466:133|467:132|467:132|465:131|465:131|467:131|467:131|467:130|467:130|469:130|469:130|467:129|467:129|467:128|467:128|465:127|465:127|468:127|468:127|468:126|468:126|470:126|470:126|468:125|468:125|468:124|468:124|466:123|466:123|468:123|468:123|468:122|468:122|470:122|470:122|469:121|469:121|469:120|469:120|467:119|467:119|469:119|469:119|469:118|469:118|471:118|471:118|469:117|469:117|469:116|469:116|467:115|467:115|470:115|470:115|470:114|470:114|472:114|472:114|470:113|470:113|470:112|470:112|468:111|468:111|470:111|470:111|470:110|470:110|472:110|472:110|471:109|471:109|471:108|471:108|469:108|469:108|471:107|471:107|471:106|471:106|473:106|473:106|471:105|471:105|471:104|471:104|470:104|470:104|472:103|472:103|474:102|474:102|472:102|472:102|472:101|472:101|470:100|470:100|472:100|472:100|472:99|472:99|474:98|474:98|473:98|473:98|473:97|473:97|471:96|471:96|473:96|473:96|473:95|473:95|475:95|475:95|473:94|473:94|473:93|473:93|472:92|472:92|474:92|474:92|474:91|474:91|476:91|476:91|474:90|474:90|474:89|474:89|472:88|472:88|474:88|474:88|474:87|474:87|477:87|477:87|475:86|475:86|475:85|475:85|473:84|473:84|475:84|475:84|475:83|475:83|477:83|477:83|475:82|475:82|475:81|475:81|474:80|474:80|476:80|476:80|476:78|476:78|476:79|476:79|478:79|478:79|476:78|476:78|475:77|475:77|474:79|474:79|474:77|474:77|474:76|474:76|475:74|475:74|473:75|473:75|472:75|472:75|470:76|470:76|471:74|471:74|471:72|471:72|470:73|470:73|469:72|469:72|467:74|467:74|468:72|468:72|467:71|467:71|468:69|468:69|467:70|467:70|466:70|466:70|464:71|464:71|465:69|465:69|464:69|464:69|465:67|465:67|464:68|464:68|463:67|463:67|460:69|460:69|462:66|462:66|461:66|461:66|462:64|462:64|460:65|460:65|459:65|459:65|458:66|458:66|459:64|459:64|458:63|458:63|459:61|459:61|457:63|457:63|456:62|456:62|455:63|455:63|455:61|455:61|456:59|456:59|454:60|454:60|453:60|453:60|451:61|451:61|452:59|452:59|452:58|452:58|452:56|452:56|451:58|451:58|450:57|450:57|448:58|448:58|449:56|449:56|448:56|448:56|449:54|449:54|448:55|448:55|447:54|447:54|445:56|445:56|446:54|446:54|445:53|445:53|446:51|446:51|445:53|445:53|444:52|444:52|442:53|442:53|443:51|443:51|442:51|442:51|443:49|443:49|441:50|441:50|441:49|441:49|439:51|439:51|440:49|440:49|439:48|439:48|440:46|440:46|438:48|438:48|438:47|438:47|436:48|436:48|437:46|437:46|436:46|436:46|437:44|437:44|435:45|435:45|434:44|434:44|433:46|433:46|434:44|434:44|433:43|433:43|434:41|434:41|432:43|432:43|431:42|431:42|430:43|430:43|431:41|431:41|430:41|430:41|431:39|431:39|429:40|429:40|428:39|428:39|427:41|427:41|427:39|427:39|427:38|427:38|428:36|428:36|426:38|426:38|425:37|425:37|424:38|424:38|424:36|424:36|424:34|424:34|423:35|423:35|422:34|422:34|420:36|420:36|421:34|421:34|421:33|421:33|421:31|421:31|420:33|420:33|419:32|419:32|417:33|417:33|418:31|418:31|417:31|417:31|418:29|418:29|417:30|417:30|416:29|416:29|414:31|414:31|415:29|415:29|414:28|414:28|415:26|415:26|414:28|414:28|413:27|413:27|411:28|411:28|412:26|412:26|411:26|411:26|412:24|412:24|410:25|410:25|410:24|410:24|408:26|408:26|409:24|409:24|408:23|408:23|409:21|409:21|407:23|407:23|407:22|407:22|405:23|405:23|406:21|406:21|405:21|405:21|406:19|406:19|404:20|404:20|403:19|403:19|402:21|402:21|403:19|403:19|402:18|402:18|403:16|403:16|401:18|401:18|400:17|400:17|399:18|399:18|400:16|400:16|398:15|398:15|399:16|399:16|400:14|400:14|398:15|398:15|398:16|398:16|400:17|400:17|398:17|398:17|397:18|397:18|395:18|395:18|397:19|397:19|397:20|397:20|399:21|399:21|397:21|397:21|397:22|397:22|395:22|395:22|397:23|397:23|396:24|396:24|398:25|398:25|396:25|396:25|396:26|396:26|394:26|394:26|396:27|396:27|396:28|396:28|398:29|398:29|396:29|396:29|395:30|395:30|393:30|393:30|395:31|395:31|395:32|395:32|397:33|397:33|395:33|395:33|395:34|395:34|393:34|393:34|395:35|395:35|394:36|394:36|396:36|396:36|394:37|394:37|394:38|394:38|392:38|392:38|394:39|394:39|394:40|394:40|396:40|396:40|394:41|394:41|393:42|393:42|391:42|391:42|393:43|393:43|393:44|393:44|395:44|395:44|393:45|393:45|393:46|393:46|391:46|391:46|393:46|393:46|392:47|392:47|394:48|394:48|392:48|392:48|392:49|392:49|390:50|390:50|392:50|392:50|392:51|392:51|394:52|394:52|392:52|392:52|391:53|391:53|389:54|389:54|391:54|391:54|391:55|391:55|393:56|393:56|391:56|391:56|391:57|391:57|389:57|389:57|391:58|391:58|390:59|390:59|392:60|392:60|390:60|390:60|390:61|390:61|388:61|388:61|390:62|390:62|390:63|390:63|392:64|392:64|390:64|390:64|389:65|389:65|387:65|387:65|389:66|389:66|389:67|389:67|391:68|391:68|389:68|389:68|389:69|389:69|387:69|387:69|389:70|389:70|388:71|388:71|390:72|390:72|388:72|388:72|388:73|388:73|386:73|386:73|388:74|388:74|388:75|388:75|390:76|390:76|388:76|388:76|387:77|387:77|385:77|385:77|387:78|387:78|387:79|387:79|389:80|389:80|387:80|387:80|387:81|387:81|385:81|385:81|387:82|387:82|386:83|386:83|388:84|388:84|386:84|386:84|386:85|386:85|384:85|384:85|386:86|386:86|386:87|386:87|388:88|388:88|386:88|386:88|385:89|385:89|383:89|383:89|385:90|385:90|385:91|385:91|387:92|387:92|385:92|385:92|385:93|385:93|383:93|383:93|385:94|385:94|384:95|384:95|386:96|386:96|384:96|384:96|384:97|384:97|382:97|382:97|384:98|384:98|384:99|384:99|386:99|386:99|384:100|384:100|383:101|383:101|381:101|381:101|383:102|383:102|383:103|383:103|385:103|385:103|383:104|383:104|383:105|383:105|381:105|381:105|382:106|382:106|382:107|382:107|384:107|384:107|382:108|382:108|380:109|380:109|382:109|382:109|382:110|382:110|384:111|384:111|381:111|381:111|381:112|381:112|379:113|379:113|381:113|381:113|381:114|381:114|383:115|383:115|381:115|381:115|381:116|381:116|379:117|379:117|380:117|380:117|380:118|380:118|382:119|382:119|380:119|380:119|380:120|380:120|378:120|378:120|380:121|380:121|380:122|380:122|382:123|382:123|379:123|379:123|379:124|379:124|377:124|377:124|379:125|379:125|379:126|379:126|381:127|381:127|379:127|379:127|379:128|379:128|377:128|377:128|378:129|378:129|378:130|378:130|380:131|380:131|378:131|378:131|378:132|378:132|376:132|376:132|378:133|378:133|378:134|378:134|379:135|379:135|377:135|377:135|377:136|377:136|375:136|375:136|377:137|377:137|377:138|377:138|379:139|379:139|377:139|377:139|377:140|377:140|375:140|375:140|376:141|376:141|376:142|376:142|378:143|378:143|376:143|376:143|376:144|376:144|374:144|374:144|376:145|376:145|376:146|376:146|377:147|377:147|375:147|375:147|375:148|375:148|373:148|373:148|375:149|375:149|375:150|375:150|377:151|377:151|375:151|375:151|375:152|375:152|373:152|373:152|374:153|374:153|374:154|374:154|376:155|376:155|374:155|374:155|374:156|374:156|372:156|372:156|374:157|374:157|374:158|374:158|375:159|375:159|373:159|373:159|373:160|373:160|371:160|371:160|373:161|373:161|373:162|373:162|375:162|375:162|373:163|373:163|373:164|373:164|370:164|370:164|372:165|372:165|372:166|372:166|374:166|374:166|372:167|372:167|372:168|372:168|370:168|370:168|372:169|372:169|373:170|373:170|371:170|371:170|371:171|371:171|369:172|369:172|371:172|371:172|371:173|371:173|373:174|373:174|371:174|371:174|371:175|371:175|368:176|368:176|370:176|370:176|370:177|370:177|372:178|372:178|370:178|370:178|370:179|370:179|368:179|368:179|370:180|370:180|370:181|370:181|371:182|371:182|369:182|369:182|369:183|369:183|367:183|367:183|369:184|369:184|369:185|369:185|371:186|371:186|369:186|369:186|369:187|369:187|366:187|366:187|368:188|368:188|368:189|368:189|370:190|370:190|368:190|368:190|368:191|368:191|366:191|366:191|368:192|368:192|367:193|367:193|369:194|369:194|367:194|367:194|367:195|367:195|365:195|365:195|367:196|367:196|367:197|367:197|369:198|369:198|367:198|367:198|366:199|366:199|364:199|364:199|366:200|366:200|366:201|366:201|369:202|369:202|366:202|366:202|366:203|366:203|364:204|364:204|366:204|366:204|365:205,1,3118.4998489852,2|0,1:0|0:0,0:1:0:0:
440,382,245460,6,0,B|450:366|450:366|507:355,1,67.4999982118607,10|0,0:2|0:0,0:0:0:0:
169,251,245760,2,0,B|186:259|186:259|243:248,1,67.4999982118607
440,2,246060,6,0,B|450:18|450:18|507:29,1,67.4999982118607,0|0,1:0|0:0,0:0:0:0:
169,133,246360,2,0,B|186:125|186:125|243:136,1,67.4999982118607
512,192,246660,6,0,L|368:192,1,135.000001573563,10|0,0:2|0:0,0:0:0:0:
426,272,247110,1,0,1:0:0:0:
154,66,247260,6,0,L|171:146,1,67.5000007867814,6|0,1:3|0:0,0:0:0:0:
180,136,247410,2,0,L|260:119,1,67.5000007867814,2|0,0:2|0:0,0:0:0:0:
511,93,247560,6,0,L|494:13,1,67.5000007867814,6|0,0:3|0:0,0:0:0:0:
485,23,247710,2,0,L|405:40,1,67.5000007867814,2|0,0:2|0:0,0:0:0:0:
297,301,247860,6,0,L|314:221,1,67.5000007867814,10|0,0:2|0:0,0:0:0:0:
377,192,248010,2,0,L|457:209,1,67.5000007867814,6|0,0:3|0:0,0:0:0:0:
486,272,248160,2,0,L|469:352,1,67.5000007867814,2|0,0:2|0:0,0:0:0:0:
405,380,248310,2,0,L|325:363,1,67.5000007867814,2|0,0:2|0:0,0:0:0:0:
151,284,248460,6,0,B|207:354|324:338|335:224|332:222|329:221|340:105|457:90|511:157|511:157|467:162|451:209,1,551.249990653992,2|0,1:2|0:0,0:0:0:0:
339,366,249060,6,0,P|309:226|262:21,1,337.500003933907,10|0,0:2|0:0,0:0:0:0:
339,123,249510,6,0,L|315:203,1,67.5000007867814,10|0,0:2|0:0,0:0:0:0:
433,330,249660,6,2,B|431:330|431:330|430:332|430:332|430:330|430:330|429:330|429:330|429:327|429:327|428:329|428:329|427:329|427:329|426:331|426:331|426:329|426:329|424:329|424:329|424:327|424:327|423:329|423:329|422:329|422:329|421:331|421:331|421:329|421:329|420:329|420:329|420:327|420:327|419:329|419:329|418:328|418:328|417:330|417:330|417:328|417:328|416:328|416:328|416:326|416:326|415:328|415:328|414:328|414:328|413:330|413:330|413:328|413:328|412:328|412:328|412:326|412:326|411:328|411:328|410:327|410:327|409:329|409:329|409:327|409:327|408:327|408:327|408:325|408:325|407:327|407:327|406:327|406:327|405:329|405:329|405:327|405:327|404:327|404:327|404:325|404:325|403:327|403:327|402:327|402:327|401:328|401:328|401:326|401:326|400:326|400:326|400:324|400:324|399:326|399:326|398:326|398:326|398:328|398:328|397:326|397:326|396:326|396:326|396:324|396:324|395:326|395:326|394:326|394:326|394:328|394:328|393:326|393:326|392:325|392:325|392:323|392:323|391:325|391:325|390:325|390:325|390:327|390:327|389:325|389:325|388:325|388:325|388:323|388:323|387:325|387:325|386:325|386:325|386:327|386:327|385:325|385:325|384:324|384:324|384:322|384:322|383:324|383:324|382:324|382:324|382:326|382:326|381:324|381:324|380:324|380:324|380:322|380:322|379:324|379:324|378:324|378:324|378:326|378:326|377:324|377:324|376:324|376:324|376:322|376:322|375:323|375:323|374:323|374:323|374:325|374:325|373:323|373:323|372:323|372:323|372:321|372:321|371:323|371:323|370:323|370:323|370:325|370:325|368:323|368:323|367:323|367:323|367:321|367:321|366:323|366:323|365:322|365:322|365:324|365:324|364:322|364:322|363:322|363:322|363:320|363:320|362:322|362:322|361:322|361:322|361:324|361:324|360:322|360:322|359:322|359:322|359:320|359:320|358:322|358:322|357:323|357:323|357:321|357:321|356:321|356:321|355:319|355:319|355:321|355:321|354:321|354:321|353:323|353:323|353:321|353:321|352:321|352:321|351:319|351:319|351:321|351:321|350:321|350:321|349:323|349:323|349:320|349:320|348:320|348:320|347:318|347:318|347:320|347:320|346:320|346:320|345:322|345:322|345:320|345:320|344:320|344:320|343:318|343:318|343:320|343:320|342:320|342:320|341:322|341:322|341:320|341:320|340:319|340:319|339:317|339:317|339:319|339:319|338:319|338:319|337:321|337:321|337:319|337:319|336:319|336:319|335:317|335:317|335:319|335:319|334:319|334:319|333:321|333:321|333:319|333:319|332:319|332:319|331:316|331:316|331:318|331:318|330:318|330:318|329:320|329:320|329:318|329:318|328:318|328:318|327:316|327:316|327:318|327:318|326:318|326:318|325:320|325:320|325:318|325:318|324:318|324:318|323:316|323:316|323:317|323:317|322:317|322:317|321:319|321:319|321:317|321:317|320:317|320:317|319:315|319:315|319:317|319:317|318:317|318:317|317:319|317:319|317:317|317:317|316:317|316:317|316:315|316:315|315:317|315:317|314:316|314:316|313:318|313:318|313:316|313:316|311:316|311:316|311:314|311:314|310:316|310:316|309:316|309:316|308:318|308:318|308:316|308:316|307:316|307:316|307:314|307:314|306:316|306:316|305:316|305:316|304:317|304:317|304:315|304:315|303:315|303:315|303:313|303:313|302:315|302:315|301:315|301:315|300:317|300:317|300:315|300:315|299:315|299:315|299:313|299:313|298:315|298:315|297:315|297:315|296:317|296:317|296:314|296:314|295:314|295:314|295:312|295:312|294:314|294:314|293:314|293:314|292:316|292:316|292:314|292:314|291:314|291:314|291:312|291:312|290:314|290:314|289:314|289:314|288:316|288:316|288:314|288:314|287:313|287:313|287:311|287:311|286:313|286:313|285:313|285:313|284:315|284:315|284:313|284:313|283:313|283:313|283:311|283:311|282:313|282:313|281:313|281:313|280:315|280:315|280:313|280:313|279:313|279:313|279:310|279:310|278:312|278:312|277:312|277:312|276:314|276:314|276:312|276:312|275:312|275:312|275:310|275:310|274:312|274:312|273:312|273:312|272:314|272:314|272:312|272:312|271:312|271:312|271:310|271:310|270:312|270:312|269:311|269:311|268:313|268:313|268:311|268:311|267:311|267:311|267:309|267:309|266:311|266:311|265:311|265:311|264:313|264:313|264:311|264:311|263:311|263:311|263:309|263:309|262:311|262:311|261:310|261:310|260:312|260:312|260:310|260:310|259:310|259:310|259:308|259:308|258:310|258:310|257:310|257:310|256:312|256:312|256:310|256:310|254:310|254:310|254:308|254:308|253:310|253:310|252:310|252:310|251:311|251:311|251:309|251:309|250:309|250:309|250:307|250:307|249:309|249:309|248:309|248:309|248:311|248:311|247:309|247:309|246:309|246:309|246:307|246:307|245:309|245:309|244:309|244:309|244:311|244:311|243:309|243:309|242:308|242:308|242:306|242:306|241:308|241:308|240:308|240:308|240:310|240:310|239:308|239:308|238:308|238:308|238:306|238:306|237:308|237:308|236:308|236:308|236:310|236:310|235:308|235:308|234:307|234:307|234:304|234:304|233:307|233:307|232:307|232:307|232:309|232:309|231:307|231:307|230:307|230:307|230:304|230:304|229:307|229:307|228:307|228:307|228:309|228:309|227:307|227:307|226:307|226:307|226:304|226:304|225:306|225:306|224:306|224:306|224:308|224:308|223:306|223:306|222:306|222:306|222:303|222:303|221:306|221:306|220:306|220:306|220:308|220:308|219:306|219:306|218:306|218:306|218:303|218:303|217:306|217:306|216:304|216:304|216:307|216:307|215:304|215:304|214:304|214:304|214:302|214:302|213:304|213:304|212:304|212:304|212:307|212:307|211:304|211:304|210:304|210:304|210:302|210:302|209:304|209:304|209:303|209:303|208:306|208:306|208:303|208:303|207:303|207:303|206:301|206:301|206:303|206:303|205:303|205:303|204:306|204:306|204:303|204:303|203:303|203:303|202:301|202:301|202:303|202:303|201:303|201:303|200:306|200:306|200:302|200:302|198:302|198:302|197:300|197:300|197:302|197:302|196:302|196:302|195:304|195:304|195:302|195:302|194:302|194:302|193:300|193:300|193:302|193:302|192:302|192:302|191:304|191:304|191:302|191:302|190:301|190:301|189:299|189:299|189:301|189:301|188:301|188:301|187:303|187:303|187:301|187:301|186:301|186:301|185:299|185:299|185:301|185:301|184:301|184:301|183:303|183:303|183:301|183:301|182:301|182:301|181:298|181:298|181:300|181:300|180:300|180:300|179:302|179:302|179:300|179:300|178:300|178:300|177:298|177:298|177:300|177:300|176:300|176:300|175:302|175:302|175:300|175:300|174:300|174:300|173:298|173:298|173:299|173:299|172:299|172:299|171:301|171:301|171:299|171:299|170:299|170:299|169:297|169:297|169:299|169:299|168:299|168:299|167:301|167:301|167:299|167:299|166:299|166:299|166:297|166:297|165:299|165:299|164:298|164:298|163:300|163:300|163:298|163:298|162:298|162:298|162:296|162:296|161:298|161:298|160:298|160:298|159:300|159:300|159:298|159:298|158:298|158:298|158:296|158:296|157:298|157:298|156:298|156:298|155:299|155:299|155:297|155:297|154:297|154:297|154:295|154:295|153:297|153:297|152:297|152:297|151:299|151:299|151:297|151:297|150:297|150:297|150:295|150:295|149:297|149:297|148:297|148:297|147:299|147:299|147:296|147:296|146:296|146:296|146:294|146:294|145:296|145:296|144:296|144:296|143:298|143:298|143:296|143:296|141:296|141:296|141:294|141:294|140:296|140:296|139:296|139:296|138:298|138:298|138:296|138:296|137:295|137:295|137:293|137:293|136:295|136:295|135:295|135:295|134:297|134:297|134:295|134:295|133:295|133:295|133:293|133:293|132:295|132:295|131:295|131:295|130:297|130:297|130:295|130:295|129:295|129:295|129:292|129:292|128:294|128:294|127:294|127:294|126:296|126:296|126:294|126:294|125:294|125:294|125:292|125:292|124:294|124:294|123:294|123:294|122:296|122:296|122:294|122:294|121:294|121:294|121:292|121:292|120:294|120:294|119:293|119:293|118:295|118:295|118:293|118:293|117:293|117:293|117:291|117:291|116:293|116:293|115:293|115:293|114:295|114:295|114:293|114:293|113:293|113:293|113:291|113:291|112:293|112:293|111:292|111:292|110:294|110:294|110:292|110:292|109:292|109:292|109:290|109:290|108:292|108:292|107:292|107:292|106:294|106:294|106:292|106:292|105:292|105:292|105:290|105:290|104:292|104:292|103:292|103:292|102:293|102:293|102:291|102:291|101:291|101:291|101:289|101:289|100:291|100:291|99:291|99:291|99:293|99:293|98:291|98:291|97:291|97:291|97:289|97:289|96:291|96:291|95:291|95:291|95:293|95:293|94:291|94:291|93:290|93:290|93:288|93:288|92:290|92:290|91:290|91:290|91:292|91:292|90:290|90:290|89:290|89:290|89:288|89:288|88:290|88:290|87:290|87:290|87:292|87:292|85:290|85:290|84:289|84:289|84:287|84:287|83:289|83:289|82:289|82:289|82:291|82:291|81:289|81:289|80:289|80:289|80:287|80:287|79:289|79:289|78:289|78:289|78:291|78:291|77:289|77:289|76:289|76:289|76:287|76:287|75:288|75:288|74:288|74:288|74:290|74:290|73:288|73:288|72:288|72:288|72:286|72:286|71:288|71:288|70:288|70:288|70:290|70:290|69:288|69:288|68:288|68:288|68:286|68:286|67:288|67:288|66:287|66:287|66:289|66:289|65:287|65:287|64:287|64:287|64:285|64:285|63:287|63:287|62:287|62:287|62:289|62:289|61:287|61:287|60:287|60:287|60:285|60:285|59:287|59:287|58:287|58:287|58:288|58:288|58:286|58:286|57:286|57:286|56:284|56:284|56:286|56:286|55:286|55:286|54:288|54:288|54:286|54:286|53:286|53:286|52:284|52:284|52:286|52:286|51:286|51:286|50:288|50:288|50:285|50:285|49:285|49:285|48:283|48:283|48:285|48:285|47:285|47:285|46:287|46:287|46:285|46:285|45:285|45:285|44:283|44:283|44:285|44:285|43:285|43:285|42:287|42:287|42:285|42:285|41:284|41:284|40:282|40:282|40:284|40:284|39:284|39:284|38:286|38:286|38:284|38:284|37:284|37:284|36:282|36:282|36:284|36:284|35:284|35:284|34:286|34:286|34:284|34:284|33:284|33:284|32:281|32:281|32:283|32:283|31:283|31:283|30:285|30:285|30:283|30:283|28:283|28:283|27:281|27:281|27:283|27:283|26:283|26:283|25:285|25:285|25:283|25:283|24:283|24:283|23:281|23:281|23:282|23:282|22:282|22:282|21:284|21:284|21:282|21:282|20:282|20:282|19:280|19:280|19:282|19:282|18:282|18:282|17:284|17:284|17:282|17:282|16:282|16:282|16:280|16:280|15:282|15:282|14:281|14:281|13:283|13:283|13:281|13:281|12:281|12:281|12:279|12:279|11:281|11:281|10:281|10:281|9:283|9:283|9:281|9:281|8:281|8:281|8:279|8:279|7:281|7:281|6:281|6:281|5:282|5:282|5:280|5:280|4:280|4:280|4:278|4:278|3:280|3:280|2:280|2:280|1:282|1:282|1:280|1:280|0:280|0:280|0:278|0:278|0:280|0:280|-1:280|-1:280|-2:282|-2:282|-2:279|-2:279|-3:279|-3:279|-3:277|-3:277|-4:279|-4:279|-5:279|-5:279|-6:281|-6:281|-6:279|-6:279|-7:279|-7:279|-7:277|-7:277|-8:279|-8:279|-9:279|-9:279|-10:281|-10:281|-10:279|-10:279|-11:278|-11:278|-11:276|-11:276|-12:278|-12:278|-13:278|-13:278|-14:280|-14:280|-14:278|-14:278|-15:278|-15:278|-13:279|-13:279|-14:277|-14:277|-14:276|-14:276|-15:275|-15:275|-13:276|-13:276|-13:275|-13:275|-11:276|-11:276|-12:274|-12:274|-11:273|-11:273|-13:272|-13:272|-11:273|-11:273|-10:272|-10:272|-8:273|-8:273|-9:271|-9:271|-9:270|-9:270|-10:269|-10:269|-8:269|-8:269|-6:270|-6:270|-7:268|-7:268|-6:267|-6:267|-8:265|-8:265|-6:266|-6:266|-5:266|-5:266|-3:266|-3:266|-4:265|-4:265|-4:264|-4:264|-5:262|-5:262|-3:263|-3:263|-3:262|-3:262|-1:263|-1:263|-2:262|-2:262|-1:261|-1:261|-3:259|-3:259|-1:260|-1:260|0:259|0:259|1:260|1:260|0:259|0:259|0:258|0:258|0:256|0:256|1:257|1:257|1:256|1:256|3:257|3:257|2:255|2:255|3:255|3:255|1:253|1:253|3:254|3:254|4:253|4:253|6:254|6:254|5:252|5:252|4:250|4:250|6:251|6:251|6:250|6:250|8:251|8:251|7:249|7:249|8:247|8:247|6:246|6:246|8:247|8:247|9:246|9:246|11:247|11:247|10:245|10:245|10:244|10:244|9:243|9:243|11:244|11:244|11:243|11:243|13:244|13:244|12:242|12:242|13:241|13:241|11:240|11:240|13:240|13:240|14:240|14:240|16:240|16:240|15:239|15:239|15:238|15:238|14:236|14:236|16:237|16:237|18:237|18:237|17:236|17:236|18:235|18:235|16:233|16:233|18:234|18:234|19:233|19:233|21:234|21:234|20:233|20:233|20:232|20:232|19:230|19:230|21:231|21:231|21:230|21:230|23:231|23:231|22:230|22:230|23:229|23:229|21:227|21:227|23:228|23:228|24:227|24:227|26:228|26:228|24:226|24:226|25:226|25:226|24:224|24:224|26:225|26:225|26:224|26:224|28:225|28:225|27:223|27:223|28:222|28:222|26:221|26:221|28:222|28:222|30:221|30:221|32:222|32:222|30:220|30:220|31:219|31:219|30:218|30:218|32:219|32:219|32:218|32:218|34:219|34:219|33:217|33:217|34:216|34:216|32:215|32:215|34:215|34:215|35:215|35:215|37:216|37:216|35:214|35:214|36:213|36:213|35:212|35:212|37:212|37:212|39:212|39:212|38:211|38:211|39:210|39:210|37:208|37:208|39:209|39:209|40:208|40:208|42:209|42:209|40:208|40:208|41:207|41:207|40:205|40:205|42:206|42:206|42:205|42:205|44:206|44:206|43:205|43:205|44:204|44:204|42:202|42:202|44:203|44:203|45:202|45:202|47:203|47:203|45:201|45:201|46:201|46:201|45:199|45:199|47:200|47:200|47:199|47:199|49:200|49:200|48:198|48:198|49:198|49:198|47:196|47:196|49:197|49:197|50:196|50:196|52:197|52:197|50:195|50:195|51:194|51:194|50:193|50:193|52:194|52:194|52:193|52:193|54:194|54:194|53:192|53:192|54:190|54:190|52:189|52:189|54:190|54:190|55:189|55:189|57:190|57:190|55:188|55:188|56:187|56:187|55:186|55:186|57:186|57:186|59:187|59:187|58:185|58:185|59:184|59:184|57:182|57:182|59:183|59:183|60:183|60:183|62:183|62:183|60:182|60:182|61:181|61:181|62:179|62:179|62:181|62:181|63:181|63:181|63:183|63:183|64:181|64:181|65:182|65:182|66:180|66:180|66:182|66:182|67:182|67:182|67:184|67:184|68:182|68:182|69:182|69:182|70:180|70:180|70:182|70:182|71:182|71:182|71:184|71:184|72:182|72:182|73:183|73:183|74:181|74:181|74:183|74:183|75:183|75:183|75:185|75:185|76:183|76:183|77:183|77:183|78:181|78:181|78:183|78:183|79:183|79:183|79:185|79:185|80:183|80:183|81:184|81:184|82:182|82:182|82:184|82:184|83:184|83:184|83:186|83:186|84:184|84:184|85:184|85:184|87:182|87:182|87:184|87:184|88:184|88:184|88:186|88:186|89:184|89:184|90:185|90:185|91:183|91:183|91:185|91:185|92:185|92:185|92:187|92:187|93:185|93:185|94:185|94:185|94:183|94:183|95:185|95:185|96:185|96:185|96:187|96:187|97:186|97:186|98:186|98:186|98:184|98:184|99:186|99:186|100:186|100:186|100:188|100:188|101:186|101:186|102:186|102:186|102:184|102:184|103:186|103:186|104:186|104:186|104:188|104:188|105:187|105:187|106:187|106:187|106:185|106:185|107:187|107:187|108:187|108:187|108:189|108:189|109:187|109:187|110:187|110:187|110:185|110:185|111:187|111:187|112:187|112:187|112:189|112:189|113:188|113:188|114:188|114:188|114:186|114:186|115:188|115:188|116:188|116:188|116:190|116:190|117:188|117:188|118:188|118:188|118:186|118:186|118:188|118:188|119:188|119:188|120:192|120:192|120:189|120:189|121:189|121:189|122:187|122:187|122:189|122:189|123:189|123:189|124:192|124:192|124:189|124:189|125:189|125:189|126:187|126:187|126:189|126:189|127:190|127:190|128:193|128:193|128:190|128:190|129:190|129:190|130:188|130:188|130:190|130:190|131:190|131:190|132:193|132:193|132:190|132:190|133:190|133:190|134:188|134:188|134:190|134:190|135:192|135:192|136:194|136:194|136:192|136:192|137:192|137:192|138:189|138:189|138:192|138:192|139:192|139:192|140:194|140:194|140:192|140:192|141:192|141:192|143:189|143:189|143:192|143:192|144:193|144:193|145:195|145:195|145:193|145:193|146:193|146:193|147:190|147:190|147:193|147:193|148:193|148:193|148:195|148:195|149:193|149:193|150:193|150:193|151:190|151:190|151:193|151:193|152:194|152:194|152:196|152:196|153:194|153:194|154:194|154:194|155:192|155:192|155:194|155:194|156:194|156:194|156:196|156:196|157:194|157:194|158:194|158:194|159:192|159:192|159:195|159:195|160:195|160:195|160:197|160:197|161:195|161:195|162:195|162:195|163:193|163:193|163:195|163:195|164:195|164:195|164:197|164:197|165:195|165:195|166:195|166:195|167:194|167:194|167:196|167:196|168:196|168:196|168:198|168:198|169:196|169:196|170:196|170:196|171:194|171:194|171:196|171:196|172:196|172:196|172:198|172:198|173:196|173:196|174:196|174:196|175:195|175:195|175:197|175:197|176:197|176:197|176:199|176:199|177:197|177:197|178:197|178:197|179:195|179:195|179:197|179:197|180:197|180:197|180:199|180:199|181:197|181:197|182:197|182:197|183:196|183:196|183:198|183:198|184:198|184:198|184:200|184:200|185:198|185:198|186:198|186:198|187:196|187:196|187:198|187:198|188:198|188:198|188:200|188:200|189:198|189:198|190:199|190:199|191:197|191:197|191:199|191:199|192:199|192:199|192:201|192:201|193:199|193:199|194:199|194:199|195:197|195:197|195:199|195:199|196:199|196:199|196:201|196:201|197:199|197:199|198:200|198:200|200:198|200:198|200:200|200:200|201:200|201:200|201:202|201:202|202:200|202:200|203:200|203:200|204:198|204:198|204:200|204:200|205:200|205:200|205:202|205:202|206:200|206:200|207:201|207:201|207:199|207:199|208:201|208:201|209:201|209:201|209:203|209:203|210:201|210:201|211:201|211:201|211:199|211:199|212:201|212:201|213:201|213:201|213:203|213:203|214:201|214:201|215:202|215:202|215:200|215:200|216:202|216:202|217:202|217:202|217:204|217:204|218:202|218:202|219:202|219:202|219:200|219:200|220:202|220:202|221:202|221:202|221:204|221:204|222:203|222:203|223:203|223:203|223:201|223:201|224:203|224:203|225:203|225:203|225:205|225:205|226:203|226:203|227:203|227:203|227:201|227:201|228:203|228:203|229:203|229:203|229:205|229:205|230:204|230:204|231:204|231:204|231:202|231:202|232:204|232:204|233:204|233:204|235:202|235:202|232:203|232:203|232:202|232:202|231:203|231:203|232:202|232:202|231:201|231:201|232:200|232:200|231:200|231:200|230:199|230:199|228:200|228:200|229:199|229:199|229:198|229:198|231:195|231:195|228:197|228:197|228:196|228:196|226:196|226:196|227:195|227:195|226:194|226:194|228:192|228:192|226:193|226:193|225:192|225:192|223:193|223:193|225:192|225:192|224:190|224:190|226:188|226:188|224:189|224:189|223:188|223:188|221:189|221:189|223:187|223:187|222:186|222:186|223:185|223:185|221:186|221:186|221:185|221:185|219:185|219:185|220:184|220:184|220:183|220:183|221:182|221:182|219:182|219:182|219:181|219:181|217:182|217:182|218:181|218:181|218:180|218:180|219:178|219:178|217:179|217:179|217:178|217:178|215:179|215:179|216:177|216:177|215:176|215:176|217:175|217:175|215:176|215:176|214:175|214:175|212:175|212:175|214:174|214:174|213:173|213:173|215:172|215:172|213:172|213:172|212:171|212:171|210:172|210:172|212:171|212:171|211:170|211:170|212:168|212:168|211:169|211:169|210:168|210:168|208:169|208:169|209:167|209:167|209:166|209:166|210:165|210:165|208:166|208:166|208:165|208:165|206:165|206:165|207:164|207:164|207:163|207:163|208:162|208:162|206:162|206:162|206:161|206:161|204:162|204:162|205:161|205:161|204:160|204:160|206:158|206:158|204:159|204:159|203:158|203:158|201:159|201:159|203:157|203:157|202:156|202:156|204:155|204:155|202:156|202:156|201:155|201:155|198:155|198:155|201:154|201:154|200:153|200:153|201:152|201:152|200:152|200:152|198:151|198:151|196:152|196:152|197:151|197:151|197:150|197:150|198:148|198:148|196:149|196:149|196:148|196:148|194:149|194:149|195:147|195:147|195:146|195:146|196:145|196:145|194:146|194:146|194:145|194:145|192:145|192:145|193:144|193:144|193:143|193:143|194:142|194:142|192:142|192:142|191:141|191:141|189:142|189:142|191:141|191:141|190:140|190:140|192:138|192:138|190:139|190:139|189:138|189:138|187:139|187:139|189:137|189:137|188:136|188:136|190:134|190:134|188:136|188:136|187:134|187:134|185:134|185:134|186:133|186:133|186:132|186:132|187:131|187:131|185:131|185:131|185:130|185:130|183:131|183:131|184:130|184:130|184:129|184:129|185:127|185:127|183:128|183:128|183:127|183:127|181:128|181:128|182:126|182:126|182:125|182:125|183:124|183:124|181:125|181:125|180:124|180:124|179:124|179:124|180:123|180:123|179:122|179:122|181:121|181:121|179:121|179:121|178:120|178:120|177:123|177:123|177:120|177:120|176:120|176:120|176:119|176:119|176:120|176:120|175:120|175:120|174:121|174:121|174:119|174:119|173:119|173:119|172:117|172:117|172:119|172:119|171:119|171:119|170:121|170:121|170:119|170:119|169:119|169:119|168:117|168:117|168:119|168:119|167:118|167:118|166:120|166:120|166:118|166:118|165:118|165:118|164:116|164:116|164:118|164:118|163:118|163:118|162:120|162:120|162:118|162:118|161:118|161:118|160:116|160:116|160:118|160:118|159:117|159:117|158:119|158:119|158:117|158:117|157:117|157:117|157:115|157:115|156:117|156:117|155:117|155:117|154:119|154:119|154:117|154:117|153:117|153:117|153:115|153:115|152:116|152:116|151:116|151:116|150:118|150:118|150:116|150:116|149:116|149:116|149:114|149:114|148:116|148:116|147:116|147:116|146:118|146:118|146:116|146:116|145:116|145:116|145:114|145:114|144:115|144:115|143:115|143:115|141:117|141:117|141:115|141:115|140:115|140:115|140:113|140:113|139:115|139:115|138:115|138:115|137:117|137:117|137:115|137:115|136:115|136:115|136:112|136:112|135:114|135:114|134:114|134:114|133:116|133:116|133:114|133:114|132:114|132:114|132:112|132:112|131:114|131:114|130:114|130:114|129:116|129:116|129:114|129:114|128:113|128:113|128:111|128:111|127:113|127:113|126:113|126:113|125:115|125:115|125:113|125:113|124:113|124:113|124:111|124:111|123:113|123:113|122:113|122:113|121:115|121:115|121:113|121:113|120:112|120:112|120:110|120:110|119:112|119:112|118:112|118:112|117:114|117:114|117:112|117:112|116:112|116:112|116:110|116:110|115:112|115:112|114:112|114:112|113:114|113:114|113:111|113:111|112:111|112:111|112:109|112:109|111:111|111:111|110:111|110:111|110:113|110:113|109:111|109:111|108:111|108:111|108:109|108:109|107:111|107:111|106:111|106:111|106:112|106:112|105:110|105:110|104:110|104:110|104:108|104:108|103:110|103:110|102:110|102:110|101:112|101:112|101:110|101:110|100:110|100:110|100:108|100:108|99:110|99:110|98:109|98:109|97:111|97:111|97:109|97:109|96:109|96:109|96:107|96:107|95:109|95:109|94:109|94:109|93:111|93:111|93:109|93:109|92:109|92:109|92:107|92:107|91:108|91:108|90:108|90:108|89:110|89:110|89:108|89:108|88:108|88:108|88:106|88:106|87:108|87:108|85:108|85:108|84:110|84:110|84:108|84:108|83:108|83:108|83:106|83:106|82:107|82:107|81:107|81:107|80:109|80:109|80:107|80:107|79:107|79:107|79:105|79:105|78:107|78:107|77:107|77:107|76:109|76:109|76:107|76:107|75:107|75:107|75:104|75:104|74:106|74:106|73:106|73:106|72:108|72:108|72:106|72:106|71:106|71:106|71:104|71:104|70:106|70:106|69:106|69:106|69:108|69:108|68:106|68:106|67:105|67:105|67:103|67:103|66:105,1,2504.24997545421,2|0,1:1|0:0,0:1:0:0:
69,14,250260,6,0,B|82:24|82:24|147:18,1,67.4999982118607,10|0,0:2|0:0,0:0:0:0:
390,197,250560,2,0,B|377:187|377:187|312:193,1,67.4999982118607,0|0,3:0|0:0,0:0:0:0:
261,8,250860,6,0,L|249:75,1,67.4999982118607,0|0,1:0|0:0,0:0:0:0:
136,290,251160,2,0,L|148:356,1,67.4999982118607,0|0,3:0|0:0,0:0:0:0:
239,384,251460,6,0,P|281:377|284:283,1,134.999996423721,10|0,0:2|1:0,0:0:0:0:
159,182,252060,6,0,B|93:191|86:273|86:273|185:354|274:269|275:256|276:239|354:169|444:233,1,506.25000590086,6|0,1:3|0:0,0:0:0:0:
484,312,252510,2,0,P|475:334|466:381,1,67.5000007867814,6|0,3:0|0:0,0:0:0:0:
328,104,252660,5,10,0:2:0:0:
328,104,252960,2,0,P|316:45|240:41,1,135.000001573563,6|0,3:0|0:0,0:0:0:0:
30,160,253260,5,2,1:2:0:0:
77,107,253335,1,2,0:2:0:0:
133,95,253410,1,2,0:2:0:0:
181,114,253485,1,2,0:2:0:0:
208,153,253560,1,10,0:2:0:0:
208,189,253635,1,2,0:2:0:0:
194,209,253710,1,2,0:2:0:0:
175,218,253785,1,2,0:2:0:0:
164,217,253860,6,0,P|151:173|180:135,1,89.9999976158143,10|0,0:2|0:0,0:0:0:0:
500,180,254010,6,0,P|476:167|427:151,1,67.5000007867814,2|0,0:2|0:0,0:0:0:0:
304,224,254160,2,0,P|326:210|364:175,1,67.5000007867814,2|0,0:2|0:0,0:0:0:0:
364,32,254310,2,0,P|364:58|375:108,1,67.5000007867814,10|0,0:2|0:0,0:0:0:0:
480,283,254460,6,2,B|477:283|477:283|477:285|477:285|476:284|476:284|475:284|475:284|474:282|474:282|474:284|474:284|473:284|473:284|473:286|473:286|472:284|472:284|471:285|471:285|470:283|470:283|470:285|470:285|469:285|469:285|469:287|469:287|468:285|468:285|467:286|467:286|466:284|466:284|466:286|466:286|465:286|465:286|465:288|465:288|464:286|464:286|463:286|463:286|462:285|462:285|462:287|462:287|461:287|461:287|461:289|461:289|460:287|460:287|459:287|459:287|459:285|459:285|458:287|458:287|458:288|458:288|457:290|457:290|457:288|457:288|456:288|456:288|455:286|455:286|455:288|455:288|454:289|454:289|454:291|454:291|453:289|453:289|452:289|452:289|451:287|451:287|451:289|451:289|450:289|450:289|450:291|450:291|449:290|449:290|448:290|448:290|447:288|447:288|447:290|447:290|446:290|446:290|446:292|446:292|445:290|445:290|444:291|444:291|443:289|443:289|443:291|443:291|442:291|442:291|442:293|442:293|441:291|441:291|440:291|440:291|439:290|439:290|439:292|439:292|438:292|438:292|438:294|438:294|437:292|437:292|436:292|436:292|435:290|435:290|435:293|435:293|434:293|434:293|434:295|434:295|432:293|432:293|431:293|431:293|430:291|430:291|430:293|430:293|429:294|429:294|429:296|429:296|428:294|428:294|427:294|427:294|426:292|426:292|426:294|426:294|425:294|425:294|425:296|425:296|424:295|424:295|423:295|423:295|422:293|422:293|422:295|422:295|421:295|421:295|421:297|421:297|420:295|420:295|419:296|419:296|419:294|419:294|418:296|418:296|417:296|417:296|417:298|417:298|417:296|417:296|416:297|416:297|415:295|415:295|415:297|415:297|414:297|414:297|414:299|414:299|413:297|413:297|412:297|412:297|411:296|411:296|411:298|411:298|410:298|410:298|410:300|410:300|409:298|409:298|408:298|408:298|407:296|407:296|407:298|407:298|406:299|406:299|406:301|406:301|405:299|405:299|404:299|404:299|403:297|403:297|403:299|403:299|402:300|402:300|402:302|402:302|401:300|401:300|400:300|400:300|399:298|399:298|399:300|399:300|398:300|398:300|398:302|398:302|397:301|397:301|396:301|396:301|395:299|395:299|395:301|395:301|394:301|394:301|394:303|394:303|393:301|393:301|392:302|392:302|391:300|391:300|391:302|391:302|390:302|390:302|390:304|390:304|388:302|388:302|387:302|387:302|386:301|386:301|386:303|386:303|385:303|385:303|385:305|385:305|384:303|384:303|383:303|383:303|382:301|382:301|382:304|382:304|381:304|381:304|381:306|381:306|380:304|380:304|379:304|379:304|378:302|378:302|378:304|378:304|377:305|377:305|377:307|377:307|376:305|376:305|375:305|375:305|375:303|375:303|374:305|374:305|373:307|373:307|373:306|373:306|372:306|372:306|371:304|371:304|371:306|371:306|370:306|370:306|370:308|370:308|369:306|369:306|368:307|368:307|367:305|367:305|367:307|367:307|366:307|366:307|366:309|366:309|365:307|365:307|364:308|364:308|363:306|363:306|363:308|363:308|362:308|362:308|362:310|362:310|361:308|361:308|360:308|360:308|359:307|359:307|359:309|359:309|358:309|358:309|358:311|358:311|357:309|357:309|356:309|356:309|355:307|355:307|355:309|355:309|354:310|354:310|354:312|354:312|353:310|353:310|352:310|352:310|351:308|351:308|351:310|351:310|350:311|350:311|350:313|350:313|349:311|349:311|348:311|348:311|347:309|347:309|347:311|347:311|346:311|346:311|346:313|346:313|345:312|345:312|343:312|343:312|342:310|342:310|342:312|342:312|341:312|341:312|341:314|341:314|340:312|340:312|339:313|339:313|338:311|338:311|338:313|338:313|337:313|337:313|337:315|337:315|336:313|336:313|335:313|335:313|335:312|335:312|334:314|334:314|333:314|333:314|333:316|333:316|333:314|333:314|332:314|332:314|331:312|331:312|331:315|331:315|330:315|330:315|330:317|330:317|329:315|329:315|328:315|328:315|327:313|327:313|327:315|327:315|326:316|326:316|326:318|326:318|325:316|325:316|324:316|324:316|323:314|323:314|323:316|323:316|322:316|322:316|322:318|322:318|321:317|321:317|320:317|320:317|319:315|319:315|319:317|319:317|318:317|318:317|318:319|318:319|317:317|317:317|316:318|316:318|315:316|315:316|315:318|315:318|314:318|314:318|314:320|314:320|313:318|313:318|312:319|312:319|311:317|311:317|311:319|311:319|310:319|310:319|310:321|310:321|309:319|309:319|308:319|308:319|307:318|307:318|307:320|307:320|306:320|306:320|306:322|306:322|305:320|305:320|304:320|304:320|303:318|303:318|303:320|303:320|302:321|302:321|302:323|302:323|301:321|301:321|299:321|299:321|298:319|298:319|298:321|298:321|297:322|297:322|297:324|297:324|296:322|296:322|295:322|295:322|294:320|294:320|294:322|294:322|293:322|293:322|293:324|293:324|292:323|292:323|291:323|291:323|291:321|291:321|290:323|290:323|289:326|289:326|289:323|289:323|288:324|288:324|287:322|287:322|287:324|287:324|286:324|286:324|286:327|286:327|285:324|285:324|284:324|284:324|283:323|283:323|283:326|283:326|282:326|282:326|282:328|282:328|281:326|281:326|280:326|280:326|279:323|279:323|279:327|279:327|278:327|278:327|278:329|278:329|277:327|277:327|276:327|276:327|275:324|275:324|275:327|275:327|274:328|274:328|274:330|274:330|273:328|273:328|272:328|272:328|271:326|271:326|271:328|271:328|270:328|270:328|270:331|270:331|269:329|269:329|268:329|268:329|267:327|267:327|267:329|267:329|266:329|266:329|266:331|266:331|265:330|265:330|264:330|264:330|263:328|263:328|263:330|263:330|262:330|262:330|262:332|262:332|261:330|261:330|260:331|260:331|259:329|259:329|259:331|259:331|258:331|258:331|258:333|258:333|257:331|257:331|256:331|256:331|254:330|254:330|254:332|254:332|253:332|253:332|253:334|253:334|252:332|252:332|251:332|251:332|251:330|251:330|250:332|250:332|249:333|249:333|249:335|249:335|249:333|249:333|248:333|248:333|247:331|247:331|247:333|247:333|246:334|246:334|246:336|246:336|245:334|245:334|244:334|244:334|243:332|243:332|243:334|243:334|242:334|242:334|242:336|242:336|241:335|241:335|240:335|240:335|239:333|239:333|239:335|239:335|238:335|238:335|238:337|238:337|237:335|237:335|236:336|236:336|235:334|235:334|235:336|235:336|234:336|234:336|234:338|234:338|233:336|233:336|232:336|232:336|231:335|231:335|231:337|231:337|230:337|230:337|230:339|230:339|229:337|229:337|228:337|228:337|227:335|227:335|227:338|227:338|226:338|226:338|226:340|226:340|225:338|225:338|224:338|224:338|223:336|223:336|223:338|223:338|222:339|222:339|222:341|222:341|221:339|221:339|220:339|220:339|219:337|219:337|219:339|219:339|218:339|218:339|218:342|218:342|217:340|217:340|216:340|216:340|215:338|215:338|215:340|215:340|214:340|214:340|214:342|214:342|213:341|213:341|212:341|212:341|210:339|210:339|210:341|210:341|209:341|209:341|209:343|209:343|208:341|208:341|207:342|207:342|207:340|207:340|206:342|206:342|205:344|205:344|205:342|205:342|204:342|204:342|203:341|203:341|203:343|203:343|202:343|202:343|202:345|202:345|201:343|201:343|200:343|200:343|199:341|199:341|199:343|199:343|198:344|198:344|198:346|198:346|197:344|197:344|196:344|196:344|195:342|195:342|195:344|195:344|194:345|194:345|194:347|194:347|193:345|193:345|192:345|192:345|191:343|191:343|191:345|191:345|190:345|190:345|190:347|190:347|189:346|189:346|188:346|188:346|187:344|187:344|187:346|187:346|186:346|186:346|186:348|186:348|185:346|185:346|184:347|184:347|183:345|183:345|183:347|183:347|182:347|182:347|182:349|182:349|181:347|181:347|180:347|180:347|179:346|179:346|179:348|179:348|178:348|178:348|178:350|178:350|177:348|177:348|176:348|176:348|175:346|175:346|175:349|175:349|174:349|174:349|174:351|174:351|173:349|173:349|172:349|172:349|171:347|171:347|171:349|171:349|170:350|170:350|170:352|170:352|169:350|169:350|168:350|168:350|168:348|168:348|166:350|166:350|165:350|165:350|165:353|165:353|165:351|165:351|164:351|164:351|163:349|163:349|163:351|163:351|162:351|162:351|162:353|162:353|161:352|161:352|160:352|160:352|159:350|159:350|159:352|159:352|158:352|158:352|158:354|158:354|157:352|157:352|156:353|156:353|155:351|155:351|155:353|155:353|154:353|154:353|154:355|154:355|153:353|153:353|152:353|152:353|151:352|151:352|151:354|151:354|150:354|150:354|150:356|150:356|149:354|149:354|148:354|148:354|147:352|147:352|147:354|147:354|146:355|146:355|146:357|146:357|145:355|145:355|144:355|144:355|143:353|143:353|143:355|143:355|142:356|142:356|142:358|142:358|141:356|141:356|140:356|140:356|139:354|139:354|139:356|139:356|138:356|138:356|138:358|138:358|137:357|137:357|136:357|136:357|135:355|135:355|135:357|135:357|134:357|134:357|134:359|134:359|133:357|133:357|132:358|132:358|131:356|131:356|131:358|131:358|130:358|130:358|130:360|130:360|129:358|129:358|128:358|128:358|127:357|127:357|127:359|127:359|126:359|126:359|126:361|126:361|125:359|125:359|124:359|124:359|124:357|124:357|124:360|124:360|123:360|123:360|121:362|121:362|121:360|121:360|120:360|120:360|119:358|119:358|119:360|119:360|118:361|118:361|118:363|118:363|117:361|117:361|116:361|116:361|115:359|115:359|115:361|115:361|114:361|114:361|114:364|114:364|113:362|113:362|112:362|112:362|111:360|111:360|111:362|111:362|110:362|110:362|110:364|110:364|109:363|109:363|108:363|108:363|107:361|107:361|107:363|107:363|106:363|106:363|106:365|106:365|105:363|105:363|104:364|104:364|103:362|103:362|103:364|103:364|102:364|102:364|100:364|100:364|102:363|102:363|101:362|101:362|103:361|103:361|101:361|101:361|100:360|100:360|98:361|98:361|100:360|100:360|99:359|99:359|101:357|101:357|99:358|99:358|98:357|98:357|96:357|96:357|98:356|98:356|97:355|97:355|99:354|99:354|97:354|97:354|96:353|96:353|94:354|94:354|96:353|96:353|95:352|95:352|97:350|97:350|95:351|95:351|95:350|95:350|93:350|93:350|94:349|94:349|94:348|94:348|95:347|95:347|93:347|93:347|93:346|93:346|91:347|91:347|92:345|92:345|93:343|93:343|91:344|91:344|91:343|91:343|89:343|89:343|90:342|90:342|90:341|90:341|91:340|91:340|89:340|89:340|89:339|89:339|87:340|87:340|88:338|88:338|90:336|90:336|88:337|88:337|87:336|87:336|85:336|85:336|87:335|87:335|86:334|86:334|88:333|88:333|86:333|86:333|85:332|85:332|83:333|83:333|85:331|85:331|84:330|84:330|86:329|86:329|84:330|84:330|83:328|83:328|81:329|81:329|83:327|83:327|82:327|82:327|84:324|84:324|82:326|82:326|81:324|81:324|79:324|79:324|81:323|81:323|80:322|80:322|82:321|82:321|80:321|80:321|79:320|79:320|76:321|76:321|79:319|79:319|77:318|77:318|80:317|80:317|77:318|77:318|77:317|77:317|75:317|75:317|76:316|76:316|76:315|76:315|77:314|77:314|75:314|75:314|75:313|75:313|73:314|73:314|74:312|74:312|74:311|74:311|75:310|75:310|73:310|73:310|71:310|71:310|72:309|72:309|72:308|72:308|73:306|73:306|71:307|71:307|71:306|71:306|69:307|69:307|70:305|70:305|70:304|70:304|71:303|71:303|70:303|70:303|69:303|69:303|67:303|67:303|69:302|69:302|68:301|68:301|70:299|70:299|68:300|68:300|67:299|67:299|65:300|65:300|67:298|67:298|66:297|66:297|68:296|68:296|66:296|66:296|65:296|65:296|63:296|63:296|65:295|65:295|64:294|64:294|66:292|66:292|64:293|64:293|63:292|63:292|61:292|61:292|63:291|63:291|63:290|63:290|64:289|64:289|62:289|62:289|62:288|62:288|60:289|60:289|61:288|61:288|61:287|61:287|62:285|62:285|60:286|60:286|60:285|60:285|58:285|58:285|59:284|59:284|59:283|59:283|60:282|60:282|58:282|58:282|58:281|58:281|56:282|56:282|57:279|57:279|58:277|58:277|56:278|56:278|56:277|56:277|54:277|54:277|55:276|55:276|55:275|55:275|57:274|57:274|55:274|55:274|54:273|54:273|52:274|52:274|54:272|54:272|53:272|53:272|55:270|55:270|53:271|53:271|52:270|52:270|50:270|50:270|52:269|52:269|51:268|51:268|53:267|53:267|51:267|51:267|50:266|50:266|48:267|48:267|50:265|50:265|49:265|49:265|51:263|51:263|49:264|49:264|49:263|49:263|47:263|47:263|48:262|48:262|48:261|48:261|49:260|49:260|47:260|47:260|47:259|47:259|45:260|45:260|46:258|46:258|46:257|46:257|47:256|47:256|45:257|45:257|45:256|45:256|43:256|43:256|44:255|44:255|44:254|44:254|45:253|45:253|43:253|43:253|43:252|43:252|41:253|41:253|42:251|42:251|42:250|42:250|43:249|43:249|41:249|41:249|39:249|39:249|41:248|41:248|40:247|40:247|42:245|42:245|40:246|40:246|39:245|39:245|37:246|37:246|39:244|39:244|38:243|38:243|40:242|40:242|38:242|38:242|37:242|37:242|35:242|35:242|37:241|37:241|36:240|36:240|38:238|38:238|36:239|36:239|35:238|35:238|32:239|32:239|35:237|35:237|35:235|35:235|36:234|36:234|34:234|34:234|31:234|31:234|32:233|32:233|32:232|32:232|34:230|34:230|31:231|31:231|31:230|31:230|29:230|29:230|30:229|30:229|30:228|30:228|31:227|31:227|29:227|29:227|29:226|29:226|27:227|27:227|28:226|28:226|28:225|28:225|29:223|29:223|27:224|27:224|27:223|27:223|25:223|25:223|26:222|26:222|26:221|26:221|28:220|28:220|26:220|26:220|25:219|25:219|23:220|23:220|25:218|25:218|24:218|24:218|26:216|26:216|24:217|24:217|23:216|23:216|21:216|21:216|23:215|23:215|22:214|22:214|24:213|24:213|22:213|22:213|21:212|21:212|19:213|19:213|21:211|21:211|20:211|20:211|22:209|22:209|20:210|20:210|19:209|19:209|18:209|18:209|19:208|19:208|19:207|19:207|20:206|20:206|18:206|18:206|18:205|18:205|16:206|16:206|17:204|17:204|18:202|18:202|16:203|16:203|16:202|16:202|14:202|14:202|15:201|15:201|15:200|15:200|16:199|16:199|14:199|14:199|14:198|14:198|12:199|12:199|13:197|13:197|13:196|13:196|14:195|14:195|12:196|12:196|12:195|12:195|10:195|10:195|12:194|12:194|11:193|11:193|13:192|13:192|11:192|11:192|10:190|10:190|8:192|8:192|10:189|10:189|9:188|9:188|11:187|11:187|9:187|9:187|8:187|8:187|6:187|6:187|8:186|8:186|7:185|7:185|9:183|9:183|7:184|7:184|6:183|6:183|4:184|4:184|6:182|6:182|6:181|6:181|7:180|7:180|5:180|5:180|3:180|3:180|4:179|4:179|4:178|4:178|5:176|5:176|3:177|3:177|3:176|3:176|1:177|1:177|2:175|2:175|2:174|2:174|3:173|3:173|1:173|1:173|0:173|0:173|0:172|0:172|0:171|0:171|1:169|1:169|0:170|0:170|0:169|0:169|-2:169|-2:169|0:168|0:168|-1:167|-1:167|0:166|0:166|-1:166|-1:166|-2:165|-2:165|-4:166|-4:166|-2:165|-2:165|-3:164|-3:164|-1:162|-1:162|-3:163|-3:163|-4:162|-4:162|-6:162|-6:162|-4:161|-4:161|-5:160|-5:160|-3:159|-3:159|-5:159|-5:159|-6:158|-6:158|-8:159|-8:159|-6:157|-6:157|-7:157|-7:157|-5:155|-5:155|-7:156|-7:156|-7:155|-7:155|-9:155|-9:155|-8:154|-8:154|-8:153|-8:153|-7:152|-7:152|-9:152|-9:152|-9:151|-9:151|-12:152|-12:152|-11:150|-11:150|-9:148|-9:148|-12:149|-12:149|-12:148|-12:148|-14:148|-14:148|-13:146|-13:146|-13:145|-13:145|-12:144|-12:144|-14:144|-14:144|-14:143|-14:143|-16:144|-16:144|-15:142|-15:142|-14:140|-14:140|-16:141|-16:141|-16:140|-16:140|-18:140|-18:140|-16:139|-16:139|-17:138|-17:138|-15:137|-15:137|-17:137|-17:137|-18:136|-18:136|-20:137|-20:137|-18:135|-18:135|-19:134|-19:134|-19:137|-19:137|-18:134|-18:134|-17:135|-17:135|-17:134|-17:134|-17:135|-17:135|-16:135|-16:135|-16:137|-16:137|-15:135|-15:135|-14:136|-14:136|-13:134|-13:134|-13:136|-13:136|-12:136|-12:136|-12:138|-12:138|-11:137|-11:137|-9:137|-9:137|-8:135|-8:135|-8:137|-8:137|-7:138|-7:138|-7:140|-7:140|-6:138|-6:138|-5:138|-5:138|-4:137|-4:137|-4:139|-4:139|-3:139|-3:139|-3:141|-3:141|-2:139|-2:139|-1:140|-1:140|0:138|0:138|0:140|0:140|0:142|0:142|0:140|0:140|1:141|1:141|2:139|2:139|2:141|2:141|3:141|3:141|3:143|3:143|4:142|4:142|5:142|5:142|6:140|6:140|6:142|6:142|7:143|7:143|7:145|7:145|8:143|8:143|9:143|9:143|10:142|10:142|10:144|10:144|11:144|11:144|11:146|11:146|12:144|12:144|13:145|13:145|14:143|14:143|14:145|14:145|15:145|15:145|14:148|14:148|16:146|16:146|17:146|17:146|18:144|18:144|17:146|17:146|18:146|18:146|18:150|18:150|19:148|19:148|20:148|20:148|21:145|21:145|21:148|21:148|22:149|22:149|22:151|22:151|23:149|23:149|24:149|24:149|25:148|25:148|25:150|25:150|26:150|26:150|26:152|26:152|27:150|27:150|28:151|28:151|29:149|29:149|29:151|29:151|30:151|30:151|30:153|30:153|31:152|31:152|32:152|32:152|34:150|34:150|34:152|34:152|35:153|35:153|35:155|35:155|36:153|36:153|37:153|37:153|38:152|38:152|38:154|38:154|39:154|39:154|39:156|39:156|40:154|40:154|41:155|41:155|42:153|42:153|42:155|42:155|43:155|43:155|42:157|42:157|44:156|44:156|46:154|46:154|45:156|45:156|46:156|46:156|46:159|46:159|47:157|47:157|48:157|48:157|49:155|49:155|49:157|49:157|50:158|50:158|50:160|50:160|51:158|51:158|52:158|52:158|53:157|53:157|53:159|53:159|54:159|54:159|54:161|54:161|55:159|55:159|56:160|56:160|57:158|57:158|57:160|57:160|58:160|58:160|58:162|58:162|59:161|59:161|60:161|60:161|61:159|61:159|61:161|61:161|62:162|62:162|61:164|61:164|62:162|62:162|63:162|63:162|65:160|65:160|64:162|64:162|65:163|65:163|65:165|65:165|66:163|66:163|67:163|67:163|68:162|68:162|68:164|68:164|69:164|69:164|69:166|69:166|70:164|70:164|71:165|71:165|72:163|72:163|72:165|72:165|73:165|73:165|73:167|73:167|74:166|74:166|75:166|75:166|76:164|76:164|76:166|76:166|77:167|77:167|77:169|77:169|79:167|79:167|80:167|80:167|81:165|81:165|81:168|81:168|81:170|81:170|82:168|82:168|83:168|83:168|84:167|84:167|84:169|84:169|85:169|85:169|85:171|85:171|86:169|86:169|87:170|87:170|88:168|88:168|88:170|88:170|89:170|89:170|89:172|89:172|90:171|90:171|91:171|91:171|92:169|92:169|92:171|92:171|93:172|93:172|93:174|93:174|94:172|94:172|95:172|95:172|96:171|96:171|96:173|96:173|97:173|97:173|96:175|96:175|98:173|98:173|100:172|100:172|99:174|99:174|100:174|100:174|100:176|100:176|101:174|101:174|102:175|102:175|103:173|103:173|103:175|103:175|104:175|104:175|104:177|104:177|105:176|105:176|106:176|106:176|107:174|107:174|107:176|107:176|108:177|108:177|108:179|108:179|109:177|109:177|110:177|110:177|111:176|111:176|111:178|111:178|112:178|112:178|112:180|112:180|113:178|113:178|114:179|114:179|115:177|115:177|115:179|115:179|116:179|116:179|115:181|115:181|116:179|116:179|117:180|117:180|119:178|119:178|118:180|118:180|119:180|119:180|119:182|119:182|120:181|120:181|121:181|121:181|123:179|123:179|123:181|123:181|124:182|124:182|124:184|124:184|125:182|125:182|126:182|126:182|127:181|127:181|127:183|127:183|128:183|128:183|128:185|128:185|129:183|129:183|130:184|130:184|131:182|131:182|131:184|131:184|132:184|132:184|132:186|132:186|133:185|133:185|134:185|134:185|135:183|135:183|135:185|135:185|135:188|135:188|136:186|136:186|137:186|137:186|138:184|138:184|138:186|138:186|139:187|139:187|139:189|139:189|140:187|140:187|141:187|141:187|142:186|142:186|142:188|142:188|143:188|143:188|143:190|143:190|144:188|144:188|145:189|145:189|146:187|146:187|146:189|146:189|147:189|147:189|147:192|147:192|148:190|148:190|149:190|149:190|150:188|150:188|150:190|150:190|151:192|151:192|150:194|150:194|152:192|152:192|153:192|153:192|154:189|154:189|153:192|153:192|154:193|154:193|154:195|154:195|155:193|155:193|156:193|156:193|157:192|157:192|157:194|157:194|158:194|158:194|158:196|158:196|159:194|159:194|160:195|160:195|161:193|161:193|161:195|161:195|162:195|162:195|162:197|162:197|163:196|163:196|164:196|164:196|165:194|165:194|165:196|165:196|166:197|166:197|166:199|166:199|168:197|168:197|169:197|169:197|170:195|170:195|170:198|170:198|171:198|171:198|170:200|170:200|171:198|171:198|172:198|172:198|174:197|174:197|173:199|173:199|174:199|174:199|174:201|174:201|175:199|175:199|176:200|176:200|177:198|177:198|177:200|177:200|178:200|178:200|178:202|178:202|179:201|179:201|180:201|180:201|181:199|181:199|181:201|181:201|182:202|182:202|182:204|182:204|183:202|183:202|184:202|184:202|185:201|185:201|185:203|185:203|186:203|186:203|186:205|186:205|187:203|187:203|188:204|188:204|189:202|189:202|189:204|189:204|189:206|189:206|190:204|190:204|191:205|191:205|192:203|192:203|192:205|192:205|193:205|193:205|193:207|193:207|194:206|194:206|195:206|195:206|196:204|196:204|196:206|196:206|197:207|197:207|197:209|197:209|198:207|198:207|199:207|199:207|200:206|200:206|200:208|200:208|201:208|201:208|201:210|201:210|202:208|202:208|203:209|203:209|204:207|204:207|204:209|204:209|205:209|205:209|204:211|204:211|206:210|206:210|207:210|207:210|209:212|209:212|206:211|206:211|206:212|206:212|205:211|205:211|206:212|206:212|205:213|205:213|206:214|206:214|204:214|204:214|202:214|202:214|203:215|203:215|203:216|203:216|204:218|204:218|202:217|202:217|201:218|201:218|199:217|199:217|201:218|201:218|200:219|200:219|201:221|201:221|200:220|200:220|199:221|199:221|197:220|197:220|198:222|198:222|199:224|199:224|197:223|197:223|197:224|197:224|195:223|195:223|196:225|196:225|195:226|195:226|197:227|197:227|195:226|195:226|194:227|194:227|192:227|192:227|194:228|194:228|193:229|193:229|194:230|194:230|192:230|192:230|192:231|192:231|190:230|190:230|191:231|191:231|191:232|191:232|192:234|192:234|190:233|190:233|190:234|190:234|188:233|188:233|189:235|189:235|188:235|188:235|190:238|190:238|188:237|188:237|187:238|187:238|185:237|185:237|187:239|187:239|186:240|186:240|187:241|187:241|185:240|185:240|185:241|185:241|183:240|183:240|184:242|184:242|184:243|184:243|185:244|185:244|183:244|183:244|182:244|182:244|181:244|181:244|182:245|182:245|181:246|181:246|183:248|183:248|181:247|181:247|180:248|180:248|178:247|178:247|179:248|179:248|179:249|179:249|180:251|180:251|178:250|178:250|178:251|178:251|176:250|176:250|177:252|177:252|176:252|176:252|178:254|178:254|176:253|176:253|175:254|175:254|173:253|173:253|175:255|175:255|174:256|174:256|175:257|175:257|174:256|174:256|173:257|173:257|171:256|171:256|172:258|172:258|172:259|172:259|173:260|173:260|171:260|171:260|169:260|169:260|170:261|170:261|169:262|169:262|171:264|171:264|169:263|169:263|168:264|168:264|165:263|165:263|168:264|168:264|166:265|166:265|168:267|168:267|165:266|165:266|165:267|165:267|163:266|163:266|164:268|164:268|164:269|164:269|165:270|165:270|163:269|163:269|162:270|162:270|161:269|161:269|162:271|162:271|161:272|161:272|163:273|163:273|161:273|161:273|160:273|160:273|158:273|158:273|159:274|159:274|159:275,1,2504.24997545421,0|0,1:0|0:0,0:1:0:0:
63,130,255060,6,0,L|40:63,1,67.4999982118607,10|0,0:2|0:0,0:0:0:0:
311,231,255360,2,0,L|332:294,1,67.4999982118607,0|0,3:0|0:0,0:0:0:0:
348,140,255660,6,0,L|419:120,1,67.4999982118607,0|0,1:0|0:0,0:0:0:0:
140,277,255960,2,0,L|69:297,1,67.4999982118607,0|0,3:0|0:0,0:0:0:0:
213,218,256260,6,0,P|231:175|178:113,1,134.999996423721,10|0,0:2|1:0,0:0:0:0:
434,35,256860,6,0,P|403:56|390:87,1,67.5000007867814,2|0,1:2|0:0,0:0:0:0:
339,134,257010,2,0,P|349:169|374:191,1,67.5000007867814,2|0,0:2|0:0,0:0:0:0:
399,377,257160,6,0,P|430:356|443:325,1,67.5000007867814,6|0,0:3|0:0,0:0:0:0:
494,278,257310,2,0,P|483:242|458:220,1,67.5000007867814,2|0,0:3|0:0,0:0:0:0:
280,290,257460,6,0,L|365:310,1,67.5000007867814,2|0,0:3|0:0,0:0:0:0:
168,211,257610,2,0,L|253:191,1,67.5000007867814,4|0,0:3|0:0,0:0:0:0:
93,296,257760,2,0,L|178:316,1,67.5000007867814,2|0,0:2|0:0,0:0:0:0:
23,229,257910,2,0,L|108:209,1,67.5000007867814,2|0,0:2|0:0,0:0:0:0:
8,323,258060,6,0,L|28:389,4,62.9999964084627,0|0|0|0|0,3:0|3:0|3:0|3:0|3:0,0:0:0:0:
8,323,258960,1,2,0:3:0:0:
398,372,259260,6,0,P|446:368|462:279,1,143.999996185303,6|2,1:1|0:1,0:0:0:0:
327,325,259860,2,0,P|331:258|397:240,1,143.999996185303,2|2,0:2|1:2,0:0:0:0:
454,78,260460,6,0,B|377:97|377:97|373:106|373:106|279:126,1,179.999995231628,2|0,0:2|0:0,0:0:0:0:
281,136,261360,1,4,0:3:0:0:
28,24,261660,6,0,L|72:235,1,215.999987686158,2|2,1:1|0:1,0:0:0:0:
72,235,263460,1,2,0:1:0:0:
94,310,263760,1,2,0:1:0:0:
329,159,264060,6,0,P|274:165|252:217,2,107.999993843079,2|2|2,1:1|0:1|0:1,0:0:0:0:
376,219,264960,1,2,1:2:0:0:
181,146,265260,1,2,0:2:0:0:
185,152,266160,1,2,0:3:0:0:
291,77,266460,6,0,L|403:64,1,107.999993843079,2|2,0:1|0:1,0:0:0:0:
406,74,268260,2,0,L|420:134,2,53.9999969215394,2|2|0,0:0|0:0|0:0,0:0:0:0:
