osu file format v14

[General]
AudioFilename: audio.mp3
AudioLeadIn: 0
PreviewTime: 67260
Countdown: 0
SampleSet: Soft
StackLeniency: 0.7
Mode: 0
LetterboxInBreaks: 0
WidescreenStoryboard: 1

[Editor]
DistanceSpacing: 0.5
BeatDivisor: 8
GridSize: 8
TimelineZoom: 2.2

[Metadata]
Title:Let It Go (Original Mix)
TitleUnicode:Let It Go (Original Mix)
Artist:Matduke
ArtistUnicode:Matduke
Creator:Aistre
Version:Insane
Source:
Tags:Altai alphabet venax delusional unappreciative harepascals koda undeadphoneguy electronic glitch hop instrumental Midtempo dubstep osu! Featured artist mpg mappers guild
BeatmapID:3319013
BeatmapSetID:1625651

[Difficulty]
HPDrainRate:5
CircleSize:4
OverallDifficulty:8
ApproachRate:9.2
SliderMultiplier:2.99999990463257
SliderTickRate:1

[Events]
//Background and Video events
0,0,"Swarmsii.jpg",0,0
//Break Periods
2,110660,119490
//Storyboard Layer 0 (Background)
//Storyboard Layer 1 (Fail)
//Storyboard Layer 2 (Pass)
//Storyboard Layer 3 (Foreground)
//Storyboard Layer 4 (Overlay)
//Storyboard Sound Samples

[TimingPoints]
61,599.999999999999,4,2,1,40,1,0
61,-250,4,2,1,40,0,0
7260,-166.666666666667,4,2,1,40,0,0
9360,-100,4,2,1,40,0,0
9660,-100,4,2,1,45,0,0
10260,-125,4,2,1,45,0,0
12660,-100,4,2,1,45,0,0
17910,-83.3333333333333,4,2,1,45,0,0
18960,-50,4,2,4,80,0,0
19260,-142.857142857143,4,2,1,50,0,0
21660,-100,4,2,1,50,0,0
28560,-50,4,2,4,80,0,0
28860,-100,4,2,1,55,0,0
30360,-100,4,2,2,55,0,0
31260,-100,4,2,1,55,0,0
32760,-100,4,2,2,55,0,0
33660,-100,4,2,1,55,0,0
35160,-100,4,2,2,55,0,0
36060,-100,4,2,2,60,0,0
38160,-50,4,2,4,80,0,0
38460,-50,4,2,1,60,0,0
39060,-142.857142857143,4,2,1,60,0,0
46560,-111.111111111111,4,2,1,60,0,0
48060,-142.857142857143,4,2,1,60,0,0
57660,-100,4,2,1,65,0,0
64260,-66.6666666666667,4,2,1,65,0,0
65160,-66.6666666666667,4,2,2,65,0,0
66060,-133.333333333333,4,2,2,65,0,0
69660,-133.333333333333,4,2,2,65,0,0
70860,-80,4,2,2,65,0,0
71760,-80,4,2,4,80,0,0
72060,-11.003481749186,4,2,2,75,0,0
72660,-200,4,2,2,75,0,0
73110,-66.6666666666667,4,2,2,75,0,0
73560,-50,4,2,2,75,0,0
74460,-66.6666666666667,4,2,2,75,0,0
75060,-50,4,2,2,75,0,0
76860,-50,4,2,2,75,0,0
77610,-66.6666666666667,4,2,2,75,0,0
79260,-50,4,2,2,75,0,0
80310,-66.6666666666667,4,2,2,75,0,0
81060,-100,4,2,2,75,0,0
81660,-11.0919933683625,4,2,2,75,0,0
82260,-200,4,2,2,75,0,0
82710,-66.6666666666667,4,2,2,75,0,0
83160,-50,4,2,2,75,0,0
84060,-66.6666666666667,4,2,2,75,0,0
84660,-50,4,2,2,75,0,0
86460,-50,4,2,2,75,0,0
87210,-66.6666666666667,4,2,2,75,0,0
88860,-50,4,2,2,75,0,0
89910,-66.6666666666667,4,2,2,75,0,0
90660,-100,4,2,2,75,0,0
91260,-11.8689035895792,4,2,5,75,0,0
91860,-133.333333333333,4,2,5,75,0,0
93060,-100,4,2,5,75,0,0
93660,-66.6666666666667,4,2,5,75,0,0
94860,-66.6666666666667,4,2,2,75,0,0
95460,-66.6666666666667,4,2,5,75,0,0
95610,-66.6666666666667,4,2,2,75,0,0
95910,-66.6666666666667,4,2,5,75,0,0
96060,-11.8890713470411,4,2,5,75,0,0
96660,-133.333333333333,4,2,5,75,0,0
97860,-100,4,2,5,75,0,0
98460,-66.6666666666667,4,2,2,75,0,0
99060,-66.6666666666667,4,2,5,75,0,0
99210,-66.6666666666667,4,2,2,75,0,0
99660,-100,4,2,2,75,0,0
100260,-66.6666666666667,4,2,5,75,0,0
100860,-12.8057947494855,4,2,5,75,0,0
101460,-133.333333333333,4,2,5,75,0,0
102660,-100,4,2,5,75,0,0
103260,-66.6666666666667,4,2,5,75,0,0
104460,-66.6666666666667,4,2,1,75,0,0
105060,-66.6666666666667,4,2,5,75,0,0
105210,-66.6666666666667,4,2,2,75,0,0
105510,-66.6666666666667,4,2,5,75,0,0
105660,-12.8288322419215,4,2,5,75,0,0
106260,-133.333333333333,4,2,5,75,0,0
107460,-100,4,2,5,75,0,0
108060,-66.6666666666667,4,2,2,75,0,0
109260,-100,4,2,2,75,0,0
109560,-100,4,2,1,75,0,0
109710,-100,4,2,2,75,0,0
109860,-66.6666666666667,4,2,2,75,0,0
110460,-100,4,2,1,50,0,0
120060,-100,4,2,1,55,0,0
120660,-125,4,2,1,55,0,0
123060,-100,4,2,1,55,0,0
128310,-83.3333333333333,4,2,1,55,0,0
129360,-50,4,2,4,80,0,0
129660,-142.857142857143,4,2,1,60,0,0
132060,-100,4,2,1,60,0,0
138960,-50,4,2,1,60,0,0
139260,-100,4,2,1,65,0,0
140610,-100,4,2,2,65,0,0
140760,-100,4,2,2,65,0,0
140910,-100,4,2,1,65,0,0
141060,-100,4,2,2,65,0,0
141210,-100,4,2,1,65,0,0
141360,-100,4,2,2,65,0,0
141660,-100,4,2,1,65,0,0
143160,-100,4,2,2,65,0,0
144060,-100,4,2,1,65,0,0
144660,-66.6666666666667,4,2,1,65,0,0
145560,-66.6666666666667,4,2,2,65,0,0
146160,-100,4,2,2,65,0,0
146460,-100,4,2,2,70,0,0
148110,-200,4,2,2,70,0,0
148560,-50,4,2,4,80,0,0
148860,-50,4,2,3,75,0,1
149460,-66.6666666666667,4,2,3,75,0,1
150060,-100,4,2,3,75,0,1
150660,-66.6666666666667,4,2,3,75,0,1
151260,-50,4,2,3,75,0,1
151860,-66.6666666666667,4,2,3,75,0,1
153660,-50,4,2,3,75,0,1
154260,-66.6666666666667,4,2,3,75,0,1
154860,-100,4,2,3,75,0,1
155460,-66.6666666666667,4,2,3,75,0,1
156060,-44.4444444444445,4,2,3,75,0,1
156660,-66.6666666666667,4,2,3,75,0,1
158460,-50,4,2,3,75,0,1
159060,-66.6666666666667,4,2,3,75,0,1
159660,-100,4,2,3,75,0,1
160260,-66.6666666666667,4,2,3,75,0,1
161460,-66.6666666666667,4,2,3,75,0,1
163260,-50,4,2,3,75,0,1
163860,-66.6666666666667,4,2,3,75,0,1
164460,-100,4,2,3,75,0,1
165060,-66.6666666666667,4,2,3,75,0,1
165660,-44.4444444444445,4,2,3,75,0,1
166260,-66.6666666666667,4,2,3,75,0,1
168060,-40,4,2,3,80,0,1
168660,-50,4,2,3,80,0,1
169260,-66.6666666666667,4,2,3,80,0,1
172860,-40,4,2,3,80,0,1
173460,-50,4,2,3,80,0,1
174060,-66.6666666666667,4,2,3,80,0,1
177660,-40,4,2,3,80,0,1
178260,-50,4,2,3,80,0,1
178860,-66.6666666666667,4,2,3,80,0,1
182460,-40,4,2,3,80,0,1
183060,-50,4,2,3,80,0,1
183660,-66.6666666666667,4,2,3,80,0,1
184860,-66.6666666666667,4,2,6,80,0,1
186060,-66.6666666666667,4,2,2,80,0,1
186360,-100,4,2,2,80,0,1
187260,-142.857142857143,4,2,1,65,0,0
187860,-142.857142857143,4,2,1,65,0,0
195360,-111.111111111111,4,2,1,65,0,0
196860,-142.857142857143,4,2,1,65,0,0
206460,-100,4,2,1,70,0,0
213060,-66.6666666666667,4,2,1,70,0,0
213960,-66.6666666666667,4,2,2,70,0,0
214860,-133.333333333333,4,2,2,70,0,0
218460,-133.333333333333,4,2,2,70,0,0
219660,-80,4,2,2,70,0,0
220560,-80,4,2,4,80,0,0
220860,-11.275888072736,4,2,2,75,0,0
221460,-200,4,2,2,75,0,0
221910,-66.6666666666667,4,2,2,75,0,0
222360,-50,4,2,2,75,0,0
223260,-66.6666666666667,4,2,2,75,0,0
223860,-50,4,2,2,75,0,0
225660,-50,4,2,2,75,0,0
226410,-66.6666666666667,4,2,2,75,0,0
228060,-50,4,2,2,75,0,0
229110,-66.6666666666667,4,2,2,75,0,0
229860,-100,4,2,2,75,0,0
230460,-11.275888072736,4,2,2,75,0,0
231060,-200,4,2,2,75,0,0
231510,-66.6666666666667,4,2,2,75,0,0
231960,-50,4,2,2,75,0,0
232860,-66.6666666666667,4,2,2,75,0,0
233460,-50,4,2,2,75,0,0
235260,-50,4,2,2,75,0,0
236010,-66.6666666666667,4,2,2,75,0,0
237660,-50,4,2,2,75,0,0
238410,-66.6666666666667,4,2,2,75,0,0
239460,-100,4,2,2,75,0,0
240060,-12.7405362359245,4,2,5,75,0,0
240660,-133.333333333333,4,2,5,75,0,0
241860,-100,4,2,5,75,0,0
242460,-66.6666666666667,4,2,5,75,0,0
243660,-66.6666666666667,4,2,2,75,0,0
244260,-66.6666666666667,4,2,5,75,0,0
244410,-66.6666666666667,4,2,2,75,0,0
244710,-66.6666666666667,4,2,5,75,0,0
244860,-12.8072272577277,4,2,5,75,0,0
245460,-133.333333333333,4,2,5,75,0,0
246660,-100,4,2,5,75,0,0
247260,-66.6666666666667,4,2,2,75,0,0
247860,-66.6666666666667,4,2,5,75,0,0
248010,-66.6666666666667,4,2,2,75,0,0
248460,-100,4,2,2,75,0,0
249060,-66.6666666666667,4,2,5,75,0,0
249660,-11.3365388706241,4,2,5,75,0,0
250260,-133.333333333333,4,2,5,75,0,0
251460,-100,4,2,5,75,0,0
252060,-66.6666666666667,4,2,5,75,0,0
253260,-66.6666666666667,4,2,1,75,0,0
253860,-66.6666666666667,4,2,5,75,0,0
254010,-66.6666666666667,4,2,2,75,0,0
254310,-66.6666666666667,4,2,5,75,0,0
254460,-11.2449454331585,4,2,5,75,0,0
255060,-133.333333333333,4,2,5,75,0,0
256260,-100,4,2,5,75,0,0
256860,-66.6666666666667,4,2,2,75,0,0
258060,-100,4,2,2,75,0,0
258360,-100,4,2,1,75,0,0
258510,-100,4,2,2,75,0,0
258660,-66.6666666666667,4,2,2,75,0,0
259260,-100,4,2,1,50,0,0

[Colours]
Combo1 : 117,126,189
Combo2 : 174,202,210
Combo3 : 251,116,70

[HitObjects]
27,162,61,6,0,L|16:100,2,59.9999980926514,6|2|2,1:1|0:1|0:2,0:0:0:0:
27,162,960,1,2,1:2:0:0:
137,54,1260,2,0,P|187:51|215:167,1,179.999994277954,2|4,0:2|0:3,0:0:0:0:
389,147,2460,5,2,1:1:0:0:
406,225,3060,1,2,0:1:0:0:
423,303,4260,1,2,0:1:0:0:
440,381,4560,1,2,0:1:0:0:
435,301,4860,6,0,L|444:238,2,59.9999980926514,2|2|2,1:1|0:1|0:1,0:0:0:0:
269,365,5760,1,2,1:2:0:0:
201,324,6060,2,0,P|193:278|311:236,1,179.999994277954,2|2,0:2|0:2,0:0:0:0:
338,164,7110,5,2,0:2:0:0:
338,164,7260,2,0,P|333:118|292:98,1,89.9999943923952,2|2,1:1|0:2,0:0:0:0:
153,180,7860,2,0,P|109:182|42:195,1,89.9999943923952,2|2,3:1|1:2,0:0:0:0:
9,134,8310,2,0,P|6:90|-6:23,2,89.9999943923952,2|2|2,0:2|1:2|0:2,0:0:0:0:
9,134,9210,5,2,0:2:0:0:
161,189,9360,2,0,P|201:167|242:160,1,74.9999976158143,2|0,0:1|1:0,0:0:0:0:
130,73,9660,6,0,P|119:181|113:322,1,224.999992847443,6|0,1:1|0:0,0:0:0:0:
42,331,10260,2,0,P|-7:278|25:231,1,119.999996185303,2|2,3:2|1:2,0:0:0:0:
119,303,10710,2,0,P|193:316|244:333,2,119.999996185303,2|2|2,0:2|0:2|0:2,0:0:0:0:
86,227,11460,2,0,P|112:201|138:196,1,59.9999980926514,8|2,0:1|0:2,0:0:0:0:
206,112,11760,2,0,P|238:128|251:151,1,59.9999980926514,2|2,0:2|0:2,0:0:0:0:
336,206,12060,6,0,B|360:201|360:201|364:203|364:203|396:197,2,59.9999980926514,2|2|2,1:1|0:2|0:2,0:0:0:0:
464,352,12660,2,0,P|472:266|502:178,1,149.999995231629,2|2,3:1|1:2,0:0:0:0:
472,88,13110,2,0,P|451:40|405:28,1,74.9999976158143,2|0,0:2|0:0,0:0:0:0:
371,123,13410,2,0,P|318:128|293:168,1,74.9999976158143,2|0,0:2|1:0,0:0:0:0:
373,229,13710,2,0,P|361:280|391:316,2,74.9999976158143,2|10|2,0:2|0:1|0:2,0:0:0:0:
373,229,14160,1,2,0:1:0:0:
76,342,14460,5,2,1:1:0:0:
31,183,14760,2,0,P|44:221|52:256,1,74.9999976158143,2|0,0:1|0:0,0:0:0:0:
154,209,15060,2,0,P|231:224|276:240,1,112.499996423721,2|0,3:1|0:0,0:0:0:0:
269,243,15360,1,2,1:2:0:0:
189,384,15510,6,0,P|171:344|185:303,1,74.9999976158143,2|2,0:2|0:2,0:0:0:0:
343,193,15810,2,0,P|361:233|347:274,1,74.9999976158143,2|0,0:2|0:0,0:0:0:0:
154,209,16110,2,0,P|136:169|150:128,1,74.9999976158143,2|8,0:2|0:1,0:0:0:0:
204,90,16410,1,2,0:2:0:0:
76,243,16560,2,0,P|22:227|-14:222,1,74.9999976158143,2|2,0:2|0:2,0:0:0:0:
274,164,16860,6,0,P|328:180|364:185,2,74.9999976158143,2|2|2,1:1|0:2|0:2,0:0:0:0:
477,224,17460,2,0,P|466:125|475:92,1,112.499996423721,2|0,3:1|0:0,0:0:0:0:
481,107,17760,1,2,1:2:0:0:
375,39,17910,6,0,B|341:1|294:22|294:22|268:64|210:53,1,179.99998878479,2|2,0:2|0:2,0:0:0:0:
89,136,18360,2,0,L|-13:124,1,89.9999943923952,0|2,0:0|0:2,0:0:0:0:
227,228,18660,5,10,0:1:0:0:
227,228,18810,2,0,L|241:173,1,44.9999971961976
93,142,18960,2,0,B|53:186|53:186|88:363,1,224.999992847443,2|0,1:2|0:0,0:0:0:0:
105,337,19260,6,0,P|149:346|175:292,1,104.999993457794,14|2,0:2|0:1,0:0:0:0:
254,316,19710,2,0,P|259:360|318:368,1,104.999993457794,8|0,0:2|0:0,0:0:0:0:
382,335,20160,1,10,0:2:0:0:
382,335,20610,6,0,P|381:306|349:288,1,52.4999967288972,10|0,0:2|0:0,0:0:0:0:
496,372,20910,2,0,P|468:363|441:388,2,52.4999967288972,10|0|10,0:2|3:0|0:2,0:0:0:0:
469,279,21360,5,10,0:2:0:0:
469,279,21435,1,8,0:2:0:0:
469,279,21510,1,10,0:2:0:0:
469,279,21585,1,8,0:2:0:0:
469,279,21660,2,0,L|454:183,2,74.9999976158143,10|2|2,0:2|0:2|0:2,0:0:0:0:
401,131,22260,6,0,P|373:82|275:77,1,149.999995231629,2|10,0:1|0:2,0:0:0:0:
189,4,22710,1,2,0:2:0:0:
189,4,23010,2,0,P|175:35|192:75,1,74.9999976158143,10|0,0:2|0:0,0:0:0:0:
141,131,23310,2,0,P|107:127|74:155,2,74.9999976158143,10|2|10,0:2|3:1|0:2,0:0:0:0:
219,252,23760,2,0,L|215:281,4,18.7499994039536,10|0|8|0|8,3:2|3:0|3:2|3:0|3:2,3:0:0:0:
351,197,24060,5,10,0:2:0:0:
351,197,24360,2,0,P|393:202|420:228,1,74.9999976158143,2|8,0:1|0:2,0:0:0:0:
496,154,24660,2,0,P|464:227|449:310,1,149.999995231629,2|10,0:1|0:2,0:0:0:0:
277,380,25110,6,0,P|270:337|296:306,1,74.9999976158143,2|0,0:2|0:0,0:0:0:0:
239,246,25410,2,0,L|151:256,1,74.9999976158143,10|0,0:2|0:0,0:0:0:0:
332,107,25710,2,0,L|420:97,2,74.9999976158143,10|0|10,0:2|3:0|0:2,0:0:0:0:
227,42,26160,1,10,0:2:0:0:
227,42,26235,1,8,0:2:0:0:
227,42,26310,1,10,0:2:0:0:
227,42,26385,1,8,0:2:0:0:
227,42,26460,5,10,0:2:0:0:
136,95,26610,1,2,0:2:0:0:
48,36,26760,1,2,0:2:0:0:
48,36,27060,2,0,P|40:88|38:157,1,112.499996423721,2|0,0:1|0:0,0:0:0:0:
27,161,27360,1,8,0:2:0:0:
171,261,27510,6,0,P|175:219|153:185,1,74.9999976158143,2|2,0:2|0:1,0:0:0:0:
10,259,27810,2,0,P|47:270|82:287,1,74.9999976158143,10|0,0:2|0:0,0:0:0:0:
234,159,28110,2,0,P|200:175|164:185,2,74.9999976158143,10|2|2,0:2|0:1|0:2,0:0:0:0:
297,305,28560,6,0,B|345:268|395:305|396:314|396:326|437:384|511:348,1,224.999992847443,2|0,0:2|0:0,0:0:0:0:
495,341,28860,6,0,B|507:347|507:347|533:269|468:217,1,149.999995231629,14|2,0:2|0:1,0:0:0:0:
456,141,29310,2,0,P|389:161|334:228,1,149.999995231629,8|0,0:2|0:0,0:0:0:0:
302,313,29760,1,10,0:2:0:0:
302,313,30360,6,0,L|210:323,1,74.9999976158143,0|2,3:0|0:2,0:0:0:0:
70,272,30660,2,0,L|144:263,1,74.9999976158143,0|2,3:2|0:2,0:0:0:0:
218,197,30960,1,2,3:2:0:0:
218,197,31035,1,2,3:2:0:0:
218,197,31110,1,2,3:2:0:0:
218,197,31185,1,2,3:2:0:0:
218,197,31260,6,0,P|226:130|217:42,1,149.999995231629,10|2,0:2|0:2,0:0:0:0:
307,0,31710,2,0,P|299:67|308:155,1,149.999995231629,8|0,0:2|0:0,0:0:0:0:
395,206,32160,1,10,0:2:0:0:
492,167,32310,1,2,0:2:0:0:
492,167,32760,6,0,L|497:83,1,74.9999976158143,0|2,3:2|0:2,0:0:0:0:
390,210,33060,2,0,L|394:284,1,74.9999976158143,0|2,3:2|0:2,0:0:0:0:
275,367,33360,2,0,L|317:377,3,37.4999988079071,2|2|2|2,3:2|3:2|3:2|3:2,3:0:0:0:
280,362,33660,6,0,B|279:337|279:337|134:319,1,149.999995231629,10|2,0:2|0:1,0:0:0:0:
80,352,34110,1,8,0:2:0:0:
11,215,34260,2,0,P|59:211|81:271,1,112.499996423721,2|0,0:1|0:0,0:0:0:0:
79,274,34560,1,10,0:2:0:0:
18,127,34710,6,0,P|10:84|5:52,1,74.9999976158143,2|0,0:2|0:0,0:0:0:0:
232,198,35160,6,0,P|273:212|303:224,1,74.9999976158143,0|2,3:0|0:2,0:0:0:0:
363,167,35460,2,0,P|354:124|350:92,1,74.9999976158143,0|2,3:0|0:2,0:0:0:0:
239,24,35760,1,2,3:2:0:0:
239,24,35835,1,0,3:2:0:0:
239,24,35910,1,2,3:2:0:0:
239,24,35985,1,0,3:2:0:0:
239,24,36060,6,0,P|225:88|223:107,1,74.9999976158143,2|2,3:1|3:2,0:0:0:0:
435,0,36360,2,0,P|449:64|451:83,1,74.9999976158143,2|0,3:2|3:0,0:0:0:0:
396,233,36660,5,2,3:1:0:0:
337,82,36810,1,0,3:0:0:0:
491,162,36960,1,2,3:2:0:0:
491,162,37110,1,2,3:2:0:0:
301,273,37260,6,0,L|311:218,1,37.4999988079071,2|0,3:1|0:0,0:0:0:0:
372,338,37410,2,0,L|382:393,1,37.4999988079071,2|0,3:2|0:0,0:0:0:0:
177,280,37560,6,0,L|187:225,1,37.4999988079071,0|0,3:0|0:0,0:0:0:0:
248,345,37710,2,0,L|258:400,1,37.4999988079071,2|0,3:2|0:0,0:0:0:0:
65,295,37860,5,2,3:1:0:0:
65,295,38160,2,0,B|86:267|86:267|41:76,1,224.999992847443,2|0,0:2|0:0,0:0:0:0:
42,82,38460,5,6,1:1:0:0:
262,7,39060,2,0,P|232:60|232:108,1,104.999993457794,2|2,0:2|0:2,0:0:0:0:
276,166,39660,1,2,0:1:0:0:
415,72,40260,1,2,0:2:0:0:
415,72,40560,1,2,0:2:0:0:
488,215,40860,5,2,1:1:0:0:
488,215,41160,2,0,P|458:237|447:257,1,52.4999967288972,2|0,0:2|0:0,0:0:0:0:
370,201,41460,2,0,P|400:179|411:159,1,52.4999967288972,2|0,0:2|0:0,0:0:0:0:
444,338,41760,2,0,P|411:318|383:311,1,52.4999967288972,2|0,0:2|0:0,0:0:0:0:
278,372,42060,5,2,0:1:0:0:
278,372,42360,1,2,0:2:0:0:
321,133,42660,1,2,0:1:0:0:
225,301,42960,5,2,0:2:0:0:
189,236,43110,1,0,0:0:0:0:
120,261,43260,1,2,1:1:0:0:
74,203,43410,1,0,0:0:0:0:
6,233,43560,2,0,P|28:298|29:344,1,104.999993457794
185,139,44460,5,2,0:1:0:0:
185,139,44760,2,0,P|136:124|111:123,1,52.4999967288972,2|0,0:2|0:0,0:0:0:0:
66,58,45060,2,0,P|91:52|115:42,1,52.4999967288972,2|0,0:2|0:0,0:0:0:0:
205,0,45360,2,0,P|210:25|220:49,1,52.4999967288972,2|0,0:2|0:0,0:0:0:0:
297,225,45660,5,2,1:1:0:0:
297,225,46260,1,2,0:2:0:0:
404,127,46560,2,0,P|432:140|475:146,1,67.4999957942964,2|0,0:2|0:0,0:0:0:0:
299,233,46860,2,0,P|327:220|370:214,1,67.4999957942964,2|0,0:1|0:0,0:0:0:0:
208,128,47160,2,0,P|229:147|275:152,1,67.4999957942964,0|2,0:0|0:1,0:0:0:0:
139,250,47460,2,0,P|168:219|210:214,1,67.4999957942964,2|0,0:2|0:0,0:0:0:0:
95,81,47760,2,0,P|105:118|131:143,1,67.4999957942964,2|0,0:1|0:0,0:0:0:0:
17,227,48060,5,2,1:1:0:0:
17,227,48360,1,2,0:2:0:0:
128,368,48660,2,0,P|171:354|199:351,1,52.4999967288972,2|0,0:2|0:0,0:0:0:0:
229,302,48960,2,0,P|186:316|158:319,1,52.4999967288972,2|0,0:2|0:0,0:0:0:0:
349,357,49260,5,2,1:1:0:0:
349,357,49860,2,0,P|363:308|334:207,1,157.499990186692,2|2,0:2|0:2,0:0:0:0:
178,103,50460,5,2,1:1:0:0:
178,103,50760,2,0,P|194:128|206:158,1,52.4999967288972,2|0,0:2|0:0,0:0:0:0:
273,45,51060,2,0,P|289:20|301:-10,1,52.4999967288972,2|0,0:2|0:0,0:0:0:0:
385,146,51360,2,0,P|350:133|322:128,1,52.4999967288972,2|0,0:2|0:0,0:0:0:0:
478,30,51660,5,2,1:1:0:0:
478,30,51960,2,0,L|491:90,1,52.4999967288972,2|0,0:2|0:0,0:0:0:0:
394,141,52260,2,0,L|381:201,1,52.4999967288972,2|0,0:1|0:0,0:0:0:0:
466,282,52560,1,2,0:2:0:0:
470,278,52860,6,0,B|433:254|399:283|398:289|398:297|366:333|312:307,1,157.499990186692,2|0,1:1|0:0,0:0:0:0:
249,384,53460,2,0,P|238:340|226:316,1,52.4999967288972,2|0,1:2|0:0,0:0:0:0:
282,215,53760,2,0,P|293:171|305:147,1,52.4999967288972,2|0,0:2|0:0,0:0:0:0:
238,40,54060,5,2,1:1:0:0:
84,115,54360,1,2,0:2:0:0:
84,115,54660,1,2,1:2:0:0:
84,115,54960,1,2,0:2:0:0:
101,20,55260,6,0,P|130:20|160:95,1,104.999993457794,2|2,1:1|0:2,0:0:0:0:
6,171,55860,2,0,P|37:211|56:268,1,104.999993457794,2|2,1:2|0:2,0:0:0:0:
100,320,56260,2,0,P|91:335|83:359,2,34.9999978192648,0|0|0,0:0|0:0|1:0,0:0:0:0:
180,207,56760,6,0,L|247:219,1,52.4999967288972
284,320,57060,2,0,L|217:308,1,52.4999967288972,0|0,1:0|0:0,0:0:0:0:
182,196,57360,2,0,L|249:208,1,52.4999967288972,0|0,1:0|0:0,0:0:0:0:
289,328,57660,6,0,B|387:318|387:318|405:306|405:306|532:288,1,224.999992847443,14|8,1:2|0:2,0:0:0:0:
415,204,58260,2,0,P|396:155|425:106,1,112.499996423721,2|0,0:2|0:0,0:0:0:0:
438,112,58560,1,10,0:2:0:0:
303,185,58710,6,0,L|138:164,1,149.999995231629,2|10,0:2|0:2,0:0:0:0:
146,158,59085,1,8,0:2:0:0:
138,149,59160,2,0,P|123:104|143:76,1,74.9999976158143,10|2,0:2|0:2,0:0:0:0:
298,8,59460,2,0,P|313:53|293:81,1,74.9999976158143,10|2,0:2|0:2,0:0:0:0:
225,126,59760,1,10,0:2:0:0:
225,126,59910,1,10,0:2:0:0:
346,286,60060,6,0,B|317:265|317:265|179:332|179:332|146:309,1,224.999992847443,10|8,1:2|0:2,0:0:0:0:
50,380,60660,2,0,B|70:348|70:348|46:250,1,112.499996423721,2|0,0:2|0:0,0:0:0:0:
40,268,60960,1,10,0:2:0:0:
162,99,61110,6,0,P|199:118|205:223,1,149.999995231629,2|2,0:2|0:2,0:0:0:0:
204,226,61485,1,8,0:0:0:0:
194,232,61560,1,10,0:2:0:0:
16,180,61860,6,0,P|9:133|-2:103,1,74.9999976158143,10|2,0:2|0:2,0:0:0:0:
77,71,62160,2,0,P|81:108|93:143,1,74.9999976158143,10|8,1:2|0:2,0:0:0:0:
255,126,62460,6,0,B|306:82|349:119|354:127|359:135|411:180|467:125,1,224.999992847443,10|8,1:2|0:2,0:0:0:0:
485,317,63060,6,0,P|452:294|447:275,1,49.9999984105428,2|0,0:2|0:0,0:0:0:0:
408,221,63260,2,0,P|375:244|370:263,1,49.9999984105428,2|8,0:2|0:2,0:0:0:0:
334,313,63460,2,0,P|301:290|296:271,1,49.9999984105428,2|0,0:2|0:0,0:0:0:0:
181,228,63660,6,0,L|123:241,1,49.9999984105428,2|0,0:2|0:0,0:0:0:0:
208,153,63860,2,0,L|266:140,1,49.9999984105428,2|8,0:2|0:2,0:0:0:0:
161,92,64060,2,0,L|103:105,1,49.9999984105428,2|0,0:2|0:0,0:0:0:0:
55,16,64260,6,0,B|37:54|37:54|277:87|277:87|214:15,1,337.500002145767,10|8,0:2|0:2,0:0:0:0:
313,3,64860,5,10,1:2:0:0:
389,28,65010,1,0,0:0:0:0:
487,117,65160,5,0,3:0:0:0:
411,142,65310,1,0,3:0:0:0:
304,215,65460,5,4,3:0:0:0:
380,240,65610,1,4,3:0:0:0:
492,352,65760,5,4,3:0:0:0:
454,213,65910,1,4,3:0:0:0:
346,374,66060,6,0,P|309:333|275:331,3,75.0000004768372,4|4|4|4,3:0|0:3|0:3|0:3,0:0:0:0:
57,381,67260,5,4,0:2:0:0:
53,138,69660,6,0,B|39:126|39:126|107:108|107:108|89:131,1,112.500000715256,2|0,0:1|0:0,0:0:0:0:
159,205,70110,2,0,B|145:217|145:217|213:235|213:235|195:212,1,112.500000715256,2|0,0:1|0:0,0:0:0:0:
240,153,70485,2,0,B|238:135|238:135|271:116|271:116|270:151|270:151|249:158,1,112.500000715256,2|0,0:1|0:0,0:0:0:0:
213,312,70860,6,2,B|239:327|245:376|245:376|267:217|267:217|275:171|298:78|419:78|452:141|447:235|359:229,1,562.499982118607,2|2,0:2|0:2,0:0:0:0:
445,293,72060,6,2,B|444:294|444:294|445:296|445:296|442:292|442:292|443:294|443:294|443:295|443:295|444:297|444:297|441:294|441:294|442:296|442:296|441:296|441:296|442:298|442:298|439:295|439:295|440:297|440:297|439:298|439:298|440:300|440:300|438:297|438:297|439:298|439:298|438:299|438:299|439:301|439:301|436:298|436:298|437:300|437:300|436:300|436:300|437:302|437:302|434:299|434:299|435:301|435:301|434:302|434:302|435:304|435:304|433:300|433:300|433:302|433:302|433:303|432:303|432:303|433:305|433:305|431:302|431:302|432:303|432:303|431:304|431:304|431:306|431:306|429:303|429:303|430:305|430:305|429:305|429:305|429:307|429:307|427:304|427:304|428:306|428:306|427:306|427:306|428:308|428:308|426:305|426:305|426:307|426:307|425:307|425:307|426:309|426:309|424:306|424:306|424:308|424:308|423:308|423:308|424:310|424:310|422:307|422:307|423:309|423:309|422:309|422:309|422:311|422:311|420:308|420:308|421:310|421:310|420:310|420:310|420:312|420:312|419:309|419:309|419:311|419:311|418:311|418:311|418:313|418:313|417:309|417:309|417:312|417:312|416:312|416:312|416:314|416:314|415:310|415:310|415:312|415:312|414:313|414:313|414:315|414:315|413:311|413:311|413:313|413:313|412:313|412:314|412:314|412:316|412:316|411:312|411:312|411:314|411:314|410:314|410:314|410:316|410:316|409:313|409:313|409:315|409:315|408:315|408:315|408:317|408:317|407:313|407:313|407:315|407:315|406:316|406:316|406:318|406:318|405:314|405:314|405:316|405:316|404:316|404:316|404:318|404:318|403:314|403:314|403:316|403:316|402:317|402:317|402:319|402:319|401:315|401:315|401:317|401:317|400:317|400:317|400:319|400:319|399:315|399:315|399:317|399:317|398:318|398:318|398:320|398:320|397:316|397:316|397:318|397:318|396:318|396:318|396:320|396:320|395:316|395:316|395:318|395:318|394:318|394:318|393:320|393:320|393:317|393:317|393:319|393:319|392:319|392:319|391:321|391:321|391:317|391:317|391:319|391:319|390:319|389:319|389:319|389:321|389:321|389:317|389:317|389:319|389:319|388:319|387:319|387:319|387:321|387:321|387:317|387:317|386:319|386:319|385:319|385:319|385:321|385:321|385:317|385:317|384:319|384:319|383:319|383:319|383:321|383:321|383:318|383:318|382:319|382:319|381:319|381:319|381:321|381:321|381:318|381:318|380:319|380:319|379:319|379:319|379:322|379:322|379:317|379:317|378:319|378:319|377:319|377:319|377:322|377:322|377:317|377:317|376:319|376:319|375:319|375:319|374:321|374:321|375:317|375:317|374:319|374:319|373:319|373:319|372:321|372:321|373:317|373:317|372:319|372:319|371:319|371:319|370:321|370:321|371:317|371:317|370:319|370:319|369:319|369:319|368:321|368:321|368:317|368:317|368:319|368:319|367:319|367:318|367:318|366:320|366:320|366:316|366:316|366:318|366:318|365:318|365:318|364:320|364:320|364:316|364:316|364:318|364:318|363:318|363:318|362:320|362:320|362:316|362:316|362:318|362:318|361:317|361:317|360:319|360:319|361:315|361:315|360:317|360:317|359:317|359:317|358:319|358:319|359:315|359:315|358:317|358:317|357:317|357:316|357:316|356:318|356:318|357:314|357:314|356:316|356:316|355:316|355:316|354:318|354:318|355:314|355:314|354:316|354:316|353:315|353:315|352:317|352:317|353:313|353:313|352:315|352:315|351:315|351:315|349:316|349:316|351:313|351:313|350:314|350:314|349:314|348:314|348:314|347:316|347:316|349:312|349:312|348:314|348:314|347:313|346:313|346:313|345:315|345:315|347:311|347:311|346:313|346:313|345:313|344:313|344:313|343:314|343:314|345:311|345:311|344:312|344:312|343:312|343:312|341:313|341:313|343:310|343:310|342:311|342:311|341:311|341:311|339:313|339:313|341:309|341:309|340:311|340:311|339:310|339:310|337:312|337:312|339:308|339:308|338:310|338:310|337:309|337:309|336:311|336:311|337:307|337:307|336:309|336:309|335:308|335:308|334:310|334:310|335:306|335:306|334:308|334:308|333:308|333:307|333:307|332:309|332:309|334:306|334:306|332:307|332:307|331:306|331:306|330:308|330:308|332:305|332:305|330:306|330:306|330:305|330:305|328:307|328:307|330:304|330:304|329:305|329:305|328:305|328:304|328:304|326:306|326:306|328:303|328:303|327:304|327:304|326:304|326:303|326:303|325:305|325:305|327:302|327:302|325:303|325:303|324:302|324:302|323:304|323:304|325:300|325:300|323:302|323:302|323:301|322:301|322:301|321:303|321:303|323:299|323:299|322:301|322:301|321:300|321:300|319:302|319:302|321:298|321:298|320:300|320:300|319:299|319:299|317:300|317:300|320:297|320:297|318:298|318:298|317:298|317:298|316:299|316:299|318:296|318:296|316:297|316:297|316:296|316:296|314:298|314:298|316:294|316:294|315:296|315:296|314:295|314:295|312:297|312:297|315:293|315:293|313:295|313:295|313:294|312:294|312:294|311:295|311:295|313:292|313:292|311:293|311:293|309:294|309:294|312:291|312:291|310:292|310:292|309:292|309:291|309:291|307:293|307:293|310:290|310:290|308:291|308:291|308:290|308:290|306:291|306:291|308:288|308:288|307:289|307:289|306:289|306:289|304:290|304:290|307:287|307:287|305:288|305:288|304:287|304:287|303:288|303:288|305:286|305:286|304:287|304:287|303:286|303:286|301:287|301:287|304:284|304:284|302:285|302:285|301:284|301:284|300:286|300:286|302:283|302:283|301:284|301:284|300:283|300:283|298:284|298:284|301:281|301:281|299:282|299:282|298:281|298:281|297:283|297:283|299:280|299:280|298:281|298:281|297:280|297:280|295:281|295:281|298:278|298:278|296:279|296:279|295:279|295:279|294:279|294:279|297:277|297:277|295:278|295:278|294:277|294:277|292:278|292:278|295:275|295:275|293:276|293:276|293:275|293:275|291:276|291:276|294:274|294:274|292:275|292:275|292:274|291:274|291:274|290:275|290:275|293:272|293:272|291:273|291:273|290:273|290:272|290:272|288:273|288:273|291:271|291:271|289:272|289:272|289:271|289:271|287:272|287:272|290:269|290:269|288:270|288:270|287:269|287:269|285:270|285:270|289:268|289:268|287:268|287:268|286:268|286:268|284:269|284:269|287:266|287:266|286:267|286:267|285:266|285:266|283:267|283:267|286:264|286:264|284:265|284:265|284:264|284:264|282:265|282:265|285:263|285:263|283:264|283:264|283:263|282:263|282:263|280:263|280:263|284:261|284:261|282:262|282:262|282:261|281:261|281:261|279:262|279:262|283:259|283:259|281:260|281:260|280:260|280:259|280:259|278:260|278:260|281:258|281:258|279:259|279:259|279:258|279:258|277:258|277:258|280:256|280:256|278:257|278:257|278:256|278:256|276:257|276:257|279:254|279:254|277:255|277:255|277:254|277:254|274:255|274:255|278:253|278:253|276:253|276:253|275:252|275:252|274:253|274:253|277:251|277:251|275:252|275:252|275:251|274:251|274:251|272:251|272:251|276:249|276:249|274:250|274:250|273:249|273:249|271:249|271:249|275:247|275:247|273:248|273:248|272:247|272:247|270:248|270:248|274:246|274:246|272:246|272:246|271:246|271:245|271:245|269:246|269:246|273:244|273:244|271:244|271:244|270:244|270:243|270:243|268:244|268:244|272:242|272:242|270:243|270:243|269:242|269:242|267:242|267:242|270:240|270:240|269:241|269:241|268:240|268:240|266:240|266:240|269:239|269:239|268:239|268:239|267:238|267:238|265:239|265:239|269:237|269:237|267:237|267:237|266:237|266:236|266:236|264:237|264:237|268:235|268:235|266:235|266:235|265:235|265:235|263:235|263:235|267:233|267:233|265:234|265:234|264:233|264:233|262:233|262:233|266:231|266:231|264:232|264:232|263:231|263:231|261:231|261:231|265:230|265:230|263:230|263:230|262:229|262:229|260:230|260:230|264:228|264:228|262:228|262:228|261:227|261:227|259:228|259:228|263:226|263:226|261:226|261:226|260:226|260:226|259:226|259:226|262:224|262:224|260:225|260:225|260:224|260:224|258:224|258:224|261:222|261:222|259:223|259:223|259:222|259:222|257:222|257:222|260:221|260:221|258:221|258:221|258:220|258:220|256:221|256:221|259:219|259:219|257:219|257:219|257:218|257:218|255:219|255:219|258:217|258:217|256:217|256:217|254:217|254:217|257:215|257:215|256:216|256:216|255:215|255:215|253:215|253:215|257:213|257:213|255:214|255:214|254:213|254:213|252:213|252:213|256:212|256:212|254:212|254:212|253:211|253:211|251:211|251:211|255:210|255:210|253:210|253:210|252:209|252:209|250:210|250:210|254:208|254:208|252:208|252:208|251:207|251:207|250:208|250:208|253:206|253:206|251:207|251:207|251:206|251:206|249:206|249:206|252:204|252:204|250:205|250:205|250:204|250:204|248:204|248:204|251:203|251:203|249:203|249:203|249:202|249:202|247:202|247:202|250:201|250:201|248:201|248:201|248:200|248:200|246:201|246:201|249:199|249:199|247:199|247:199|247:198|247:198|245:199|245:199|248:197|248:197|246:198|246:198|246:197|246:197|244:197|244:197|247:195|247:195|245:196|245:196|245:195|245:195|243:195|243:195|246:193|246:193|244:194|244:194|244:193|244:193|242:193|242:193|245:192|245:192|243:192|243:192|243:191|243:191|241:192|241:192|244:190|244:190|242:190|242:190|242:189|242:189|240:190|240:190|243:188|243:188|241:188|241:188|241:187|241:187|239:188|239:188|242:186|242:186|240:187|240:187|240:186|240:186|238:186|238:186|241:184|241:184|239:185|239:185|239:184|239:184|237:184|237:184|240:182|240:182|238:183|238:183|238:182|238:182|236:183|236:183|239:181|239:181|237:181|237:181|237:180|237:180|235:181|235:181|238:179|238:179|236:180|236:180|236:179|235:179|235:179|233:179|233:179|237:177|237:177|235:178|235:178|234:177|234:177|232:178|232:178|236:176|236:176|234:176|234:176|233:176|233:175|233:175|231:176|231:176|235:174|235:174|233:175|233:175|232:174|232:174|230:174|230:174|233:172|233:172|231:173|231:173|231:172|231:172|229:173|229:173|232:170|232:170|230:171|230:171|230:170|230:170|228:171|228:171|231:169|231:169|229:170|229:170|229:169|228:169|228:169|226:170|226:170|230:167|230:167|228:168|228:168|227:167|227:167|225:168|225:168|228:165|228:165|226:166|226:166|226:165|226:165|224:166|224:166|227:164|227:164|225:165|225:165|225:164|225:164|223:165|223:165|226:162|226:162|224:163|224:163|223:162|223:162|221:163|221:163|224:160|224:160|222:161|222:161|222:160|222:160|220:161|220:161|223:159|223:159|221:160|221:160|221:159|220:159|220:159|219:160|219:160|222:157|222:157|220:158|220:158|219:158|219:157|219:157|217:158|217:158|220:156|220:156|218:157|218:157|218:156|218:156|216:157|216:157|219:154|219:154|217:155|217:155|216:155|216:155|215:156|215:156|217:153|217:153|216:154|216:154|215:153|215:153|213:154|213:154|216:151|216:151|214:152|214:152|213:152|213:152|212:153|212:153|214:150|214:150|213:151|213:151|212:150|212:150|210:151|210:151|213:148|213:148|211:150|211:150|210:149|210:149|209:150|209:150|211:147|211:147|209:148|209:148|209:147|209:147|207:149|207:149|209:146|209:146|208:147|208:147|207:146|207:146|205:147|205:147|208:144|208:144|206:145|206:145|205:145|205:145|204:146|204:146|206:143|206:143|205:144|205:144|204:144|204:144|202:145|202:145|205:142|205:142|203:143|203:143|202:143|202:142|202:142|201:144|201:144|203:140|203:140|201:142|201:142|201:141|201:141|199:143|199:143|201:139|201:139|200:141|200:141|199:140|199:140|197:141|197:141|200:138|200:138|198:139|198:139|197:139|197:139|196:140|196:140|198:137|198:137|196:138|196:138|195:138|195:138|194:139|194:139|196:136|196:136|194:137|194:137|192:138|192:138|194:135|194:135|193:136|193:136|192:136|192:136|190:137|190:137|192:134|192:134|191:135|191:135|190:135|190:135|188:136|188:136|190:132|190:132|189:134|189:134|188:134|188:134|187:135|187:135|188:132|188:132|187:133|187:133|186:133|186:133|185:134|185:134|186:131|186:131|185:132|185:132|184:132|184:132|183:133|183:133|185:130|185:130|183:131|183:131|182:131|182:131|181:133|181:133|183:129|183:129|182:131|182:131|181:130|180:130|180:130|179:132|179:132|181:128|181:128|180:130|180:130|179:130|179:130|177:131|177:131|179:128|179:128|178:129|178:129|177:129|177:129|175:130|175:130|177:127|177:127|176:128|176:128|175:128|175:128|173:130|173:130|175:126|175:126|174:128|174:128|173:128|173:127|173:127|171:129|171:129|173:125|173:125|172:127|172:127|171:127|171:127|170:129|170:129|171:125|171:125|170:127|170:127|169:126|169:126|168:128|168:128|169:124|169:124|168:126|168:126|167:126|167:126|166:128|166:128|167:124|167:124|166:126|166:126|165:126|165:126|164:127|164:127|165:123|165:123|164:125|164:125|163:125|163:125|162:127|162:127|162:123|162:123|162:125|162:125|161:125|161:125|160:127|160:127|160:123|160:123|159:125|159:125|159:124|158:124|158:124|158:127|158:127|158:122|158:122|157:124|157:124|156:124|156:124|156:126|156:126|156:122|156:122|155:124|155:124|154:124|154:124|154:126|154:126|154:122|154:122|153:124|153:124|152:124|152:124|152:126|152:126|152:122|152:122|151:124|151:124|150:124|150:124|150:126|150:126|150:122|150:122|149:124|149:124|148:124|148:124|147:126|147:126|148:122|148:122|147:124|147:124|146:124|146:124|145:126|145:126|145:122|145:122|145:124|145:124|144:124|144:124|143:126|143:126|143:122|143:122|143:124|143:124|142:124|142:124|141:126|141:126|141:122|141:122|141:124|141:124|140:124|139:124|139:124|139:126|139:126|139:122|139:122|139:124|139:124|138:124|138:124|137:126|137:126|137:122|137:122|137:124|137:124|136:124|136:124|135:126|135:126|135:122|135:122|135:124|135:124|134:124|133:124|133:124|133:127|133:127|133:122|133:122|132:125|132:125|131:125|131:125|131:127|131:127|131:123|131:123|130:125|130:125|129:125|129:125|129:127|129:127|128:123|128:123|128:125|128:125|127:125|127:125|127:128|127:128|126:123|126:123|126:126|126:126|125:126|125:126|125:128|125:128|124:124|124:124|124:126|124:126|123:126|123:126|123:128|123:128|122:125|122:125|122:127|122:127|121:127|121:127|121:129|121:129|120:125|120:125|120:127|120:127|119:127|119:127|119:129|119:129|118:126|118:126|118:128|118:128|117:128|117:128|117:130|117:130|116:126|116:126|116:128|116:128|115:128|115:129|115:129|115:131|115:131|114:127|114:127|114:129|114:129|113:129|113:129|113:131|113:131|112:127|112:127|112:129|112:129|111:130|111:130|111:132|111:132|109:128|109:128|110:130|110:130|109:130|108:131|108:131|109:133|109:133|107:129|107:129|108:131|108:131|107:131|107:131|107:133|107:133|105:130|105:130|106:132|106:132|105:132|105:132|105:134|105:134|103:130|103:130|104:132|104:132|103:133|103:133|103:135|103:135|101:131|101:131|102:133|102:133|101:134|101:134|101:136|101:136|99:132|99:132|100:134|100:134|99:135|99:135|99:137|99:137|97:133|97:133|98:135|98:135|97:135|97:135|97:138|97:138|95:134|95:134|96:136|96:136|95:136|95:136|95:139|95:139|93:135|93:135|94:137|94:137|93:137,1,2044.80725261427,6|0,1:0|0:0,0:0:0:0:
269,9,72660,2,0,B|264:44|264:44|269:52|269:52|263:82,1,74.9999976158143,10|0,0:2|0:0,0:0:0:0:
130,225,73110,6,0,P|64:210|73:119,1,168.750001072884,2|0,1:0|0:0,0:0:0:0:
16,59,73410,2,0,B|16:32|16:32|40:48,1,56.2500003576279,4|0,0:3|0:0,0:0:0:0:
81,123,73560,6,0,L|119:131,6,37.4999988079071,2|0|0|0|0|0|0,1:0|0:0|0:0|0:0|0:0|0:0|0:0,0:0:0:0:
26,298,73860,5,10,0:2:0:0:
26,298,74010,2,0,B|180:256|180:256|138:319,1,224.999992847443,2|0,0:0|0:0,0:0:0:0:
55,382,74310,2,0,L|35:306,1,74.9999976158143,4|0,0:3|0:0,0:0:0:0:
188,172,74460,6,0,P|253:198|257:245,1,112.500000715256,2|0,1:0|0:0,0:0:0:0:
139,229,74760,2,0,P|158:279|210:290,1,112.500000715256,2|0,0:1|0:0,0:0:0:0:
479,309,75060,6,0,B|487:267|487:267|383:297,1,149.999995231629,10|0,0:2|0:0,0:0:0:0:
328,373,75285,1,0,0:0:0:0:
328,373,75360,2,0,B|299:343|299:343|319:296,1,74.9999976158143
459,149,75510,6,0,B|484:189|484:189|308:152,1,224.999992847443,2|0,1:1|0:0,0:0:0:0:
194,109,75810,2,0,B|231:97|231:97|235:99|235:99|275:87,1,74.9999976158143
355,3,75960,2,0,B|318:15|318:15|314:13|314:13|274:25,1,74.9999976158143,2|0,1:2|0:0,0:0:0:0:
194,119,76110,2,0,B|231:107|231:107|235:109|235:109|275:97,1,74.9999976158143,2|0,0:2|0:0,0:0:0:0:
382,87,76260,6,0,P|242:62|68:27,1,299.999990463257,10|2,0:2|0:2,0:0:0:0:
23,235,76860,6,0,B|-3:250|-6:279|-6:279|63:208|164:238|164:238|120:263|123:313,2,299.999990463257,2|2|10,1:0|0:1|0:2,0:0:0:0:
116,157,77610,1,2,0:2:0:0:
116,157,77760,1,2,0:2:0:0:
51,95,77910,6,0,L|-9:70,1,56.2500003576279,2|0,1:3|0:0,0:0:0:0:
201,143,78060,2,0,L|261:168,1,56.2500003576279,2|0,0:3|0:0,0:0:0:0:
122,63,78210,2,0,L|95:7,1,56.2500003576279,2|0,0:3|0:0,0:0:0:0:
244,73,78360,2,0,L|371:31,1,112.500000715256,2|2,1:3|0:3,0:0:0:0:
467,121,78660,6,0,P|412:143|396:201,1,112.500000715256,10|0,0:2|0:0,0:0:0:0:
379,202,78885,2,0,P|444:243|443:358,1,168.750001072884,2|6,0:3|0:3,0:0:0:0:
293,310,79260,6,0,B|319:325|322:354|322:354|253:283|152:313|152:313|196:338|193:388,2,299.999990463257,2|2|10,1:0|0:1|0:2,0:0:0:0:
227,231,80010,1,2,0:2:0:0:
227,231,80160,1,2,0:2:0:0:
162,169,80310,6,0,P|117:176|99:191,1,56.2500003576279,2|0,1:3|0:0,0:0:0:0:
299,256,80460,2,0,P|344:249|362:234,1,56.2500003576279,2|0,0:3|0:0,0:0:0:0:
232,133,80610,2,0,P|225:95|207:74,1,56.2500003576279,2|0,0:3|0:0,0:0:0:0:
345,162,80760,2,0,P|384:114|380:47,1,112.500000715256,2|2,1:3|0:3,0:0:0:0:
144,46,81060,6,0,B|87:63|68:117|68:117|72:58|28:4,1,224.999992847443,10|0,0:2|0:0,0:0:0:0:
16,218,81660,6,2,B|17:219|17:219|19:217|19:217|16:221|16:221|18:219|18:219|18:220|18:220|20:219|20:219|17:222|17:222|19:221|19:221|20:221|20:221|22:220|22:220|19:223|19:223|21:222|21:222|22:223|22:223|23:222|23:222|21:225|21:225|22:223|22:223|23:224|23:224|25:223|25:223|22:226|22:226|24:225|24:225|25:225|25:225|27:224|27:224|24:227|24:227|26:226|26:226|27:227|27:227|28:225|28:225|26:229|26:229|28:227|28:227|28:228|29:228|29:228|30:227|30:227|28:230|28:230|29:228|29:228|30:229|30:229|32:228|32:228|30:231|30:231|31:230|31:230|32:230|32:230|34:229|34:229|32:232|32:232|33:231|33:231|34:231|34:231|35:230|35:230|33:233|33:233|35:232|35:232|36:232|36:232|37:231|37:231|35:234|35:234|37:233|37:233|38:233|38:233|39:232|39:232|37:235|37:235|38:234|38:234|39:234|39:234|41:233|41:233|39:236|39:236|40:235|40:235|41:235|41:235|42:234|42:234|41:237|41:237|42:236|42:236|43:236|43:236|44:234|44:234|43:238|43:238|44:237|44:237|45:237|45:237|46:235|46:235|45:239|45:239|46:237|46:237|47:238|47:238|48:236|48:236|47:240|47:240|48:238|48:238|49:238|49:239|49:239|50:237|50:237|49:241|49:241|50:239|50:239|51:239|51:239|52:238|52:238|51:241|51:241|52:240|52:240|53:240|53:240|54:238|54:238|53:242|53:242|54:240|54:240|55:241|55:241|56:239|56:239|55:243|55:243|56:241|56:241|57:241|57:241|58:239|58:239|57:243|57:243|58:241|58:241|59:242|59:242|60:240|60:240|59:244|59:244|60:242|60:242|61:242|61:242|62:240|62:240|61:244|61:244|62:242|62:242|63:243|63:243|64:241|64:241|63:245|63:245|64:243|64:243|65:243|65:243|66:241|66:241|65:245|65:245|66:243|66:243|67:243|67:243|68:242|68:242|68:245|68:245|68:244|68:244|69:244|69:244|70:242|70:242|70:246|70:246|70:244|70:244|71:244|72:244|72:244|72:242|72:242|72:246|72:246|72:244|72:244|73:244|74:244|74:244|74:242|74:242|74:246|74:246|75:244|75:244|76:244|76:244|76:242|76:242|76:246|76:246|77:244|77:244|78:244|78:244|78:243|78:243|78:246|78:246|79:244|79:244|80:244|80:244|80:243|80:243|80:246|80:246|81:244|81:244|82:244|82:244|82:242|82:242|82:247|82:247|83:244|83:244|84:244|84:244|84:242|84:242|84:247|84:247|85:244|85:244|86:244|86:244|86:242|86:242|87:246|87:246|87:244|87:244|88:244|88:244|88:242|88:242|89:246|89:246|89:244|89:244|90:244|90:244|90:242|90:242|91:246|91:246|91:244|91:244|92:244|92:244|93:242|93:242|93:246|93:246|93:244|93:244|94:244|94:243|94:243|95:241|95:241|95:245|95:245|95:243|95:243|96:243|96:243|97:241|97:241|97:245|97:245|97:243|97:243|98:243|98:243|99:241|99:241|99:245|99:245|99:243|99:243|100:242|100:242|100:240|100:240|101:244|101:244|101:242|101:242|102:242|102:242|102:240|102:240|103:244|103:244|103:242|103:242|104:242|104:241|104:241|104:239|104:239|105:243|105:243|105:241|105:241|106:241|106:241|106:239|106:239|107:243|107:243|107:241|107:241|108:240|108:240|108:238|108:238|109:242|109:242|109:240|109:240|110:240|110:240|110:238|110:238|112:241|112:241|111:239|111:239|112:239|113:239|113:239|112:237|112:237|114:241|114:241|113:239|113:239|114:238|115:238|115:238|114:236|114:236|116:240|116:240|115:238|115:238|116:238|117:238|117:238|116:236|116:236|118:239|118:239|117:237|117:237|118:237|118:237|118:235|118:235|120:238|120:238|119:236|119:236|120:236|120:236|120:234|120:234|122:238|122:238|121:236|121:236|122:235|122:235|122:233|122:233|124:237|124:237|123:235|123:235|124:234|124:234|124:232|124:232|125:236|125:236|125:234|125:234|126:233|126:233|126:231|126:231|127:235|127:235|127:233|127:233|128:233|128:232|128:232|127:231|127:231|129:234|129:234|129:232|129:232|130:231|130:231|129:230|129:230|131:233|131:233|131:231|131:231|131:230|131:230|131:229|131:229|133:232|133:232|132:230|132:230|133:230|133:229|133:229|133:228|133:228|135:231|135:231|134:229|134:229|135:229|135:228|135:228|134:227|134:227|136:230|136:230|136:228|136:228|137:227|137:227|136:225|136:225|138:229|138:229|138:227|138:227|138:226|139:226|139:226|138:224|138:224|140:228|140:228|139:226|139:226|140:225|140:225|140:223|140:223|142:227|142:227|141:225|141:225|142:224|142:224|141:222|141:222|144:225|144:225|143:223|143:223|144:223|144:223|143:221|143:221|145:224|145:224|145:222|145:222|145:221|145:221|145:219|145:219|147:223|147:223|146:221|146:221|147:220|147:220|146:218|146:218|149:222|149:222|148:220|148:220|148:219|149:219|149:219|148:217|148:217|150:220|150:220|150:218|150:218|149:216|149:216|152:219|152:219|151:217|151:217|152:217|152:216|152:216|151:215|151:215|154:218|154:218|153:216|153:216|153:215|153:215|153:213|153:213|155:216|155:216|154:214|154:214|155:214|155:214|154:212|154:212|157:215|157:215|156:213|156:213|157:212|157:212|156:211|156:211|158:213|158:213|157:212|157:212|158:211|158:211|157:209|157:209|160:212|160:212|159:210|159:210|160:209|160:209|159:208|159:208|161:211|161:211|160:209|160:209|161:208|161:208|160:206|160:206|163:209|163:209|162:207|162:207|163:206|163:206|162:205|162:205|164:208|164:208|163:206|163:206|164:205|164:205|163:203|163:203|166:206|166:206|165:204|165:204|166:204|166:204|164:202|164:202|167:204|167:204|166:203|166:203|167:202|167:202|166:200|166:200|169:203|169:203|168:201|168:201|168:200|168:200|167:199|167:199|170:201|170:201|169:200|169:200|169:199|170:199|170:199|168:197|168:197|171:200|171:200|170:198|170:198|171:198|171:197|171:197|170:196|170:196|173:198|173:198|172:197|172:197|172:196|172:196|171:194|171:194|174:197|174:197|173:195|173:195|174:194|174:194|172:193|172:193|176:195|176:195|174:193|174:193|175:193|175:193|174:191|174:191|177:194|177:194|175:192|175:192|176:191|176:191|175:189|175:189|178:192|178:192|177:190|177:190|177:189|177:189|176:188|176:188|179:190|179:190|178:189|178:189|178:188|179:188|179:188|177:186|177:186|181:188|181:188|179:187|179:187|179:186|180:186|180:186|178:184|178:184|182:187|182:187|180:185|180:185|181:185|181:184|181:184|180:183|180:183|183:185|183:185|182:184|182:184|182:183|182:183|181:181|181:181|184:183|184:183|183:182|183:182|183:181|183:181|182:179|182:179|185:182|185:182|184:180|184:180|184:179|184:179|183:178|183:178|187:180|187:180|185:178|185:178|186:177|186:177|184:176|184:176|187:178|187:178|186:177|186:177|186:176|187:176|187:176|185:174|185:174|189:176|189:176|187:175|187:175|188:174|188:174|186:172|186:172|190:174|190:174|188:173|188:173|189:172|189:172|187:171|187:171|191:173|191:173|189:171|189:171|190:171|190:170|190:170|188:169|188:169|192:171|192:171|190:169|190:169|191:169|191:168|191:168|189:167|189:167|193:169|193:169|191:168|191:168|192:167|192:167|191:165|191:165|194:167|194:167|192:166|192:166|193:165|193:165|192:164|192:164|195:165|195:165|193:164|193:164|194:163|194:163|192:162|192:162|196:164|196:164|194:162|194:162|195:162|195:161|195:161|193:160|193:160|197:162|197:162|195:160|195:160|196:160|196:160|194:158|194:158|198:160|198:160|196:159|196:159|197:158|197:158|195:156|195:156|199:158|199:158|197:157|197:157|198:156|198:156|196:155|196:155|200:156|200:156|198:155|198:155|199:154|199:154|197:153|197:153|201:155|201:155|199:153|199:153|200:152|200:152|198:151|198:151|202:153|202:153|200:151|200:151|201:151|201:151|199:149|199:149|202:151|202:151|201:150|201:150|201:149|201:149|200:147|200:147|203:149|203:149|202:148|202:148|202:147|202:147|201:146|201:146|204:147|204:147|203:146|203:146|203:145|203:145|202:144|202:144|205:146|205:146|204:144|204:144|204:143|204:143|203:142|203:142|206:144|206:144|205:142|205:142|204:140|204:140|207:142|207:142|205:141|205:141|206:140|206:140|204:138|204:138|208:140|208:140|206:139|206:139|207:138|207:138|205:137|205:137|209:138|209:138|207:137|207:137|208:136|208:136|206:135|206:135|210:136|210:136|208:135|208:135|209:134|209:134|207:133|207:133|211:135|211:135|209:133|209:133|210:132|210:132|208:131|208:131|211:133|211:133|210:132|210:132|210:131|210:131|209:129|209:129|212:131|212:131|211:130|211:130|211:129|211:129|210:128|210:128|213:129|213:129|212:128|212:128|212:127|212:127|211:126|211:126|214:127|214:127|213:126|213:126|213:125|213:125|212:124|212:124|215:126|215:126|214:124|214:124|214:123|214:123|213:122|213:122|216:124|216:124|215:123|215:123|215:122|215:122|214:120|214:120|217:122|217:122|216:121|216:121|216:120|216:120|215:118|215:118|218:120|218:120|217:119|217:119|217:118|217:118|216:117|216:117|219:118|219:118|218:117|218:117|218:116|218:116|217:115|217:115|220:117|220:117|219:115|219:115|219:114|219:114|218:113|218:113|221:115|221:115|220:113|220:113|220:112|220:112|219:111|219:111|222:113|222:113|221:112|221:112|221:111|221:111|220:109|220:109|223:111|223:111|222:110|222:110|222:109|222:109|221:107|221:107|224:109|224:109|223:108|223:108|223:107|223:107|222:106|222:106|225:108|225:108|224:106|224:106|224:105|224:105|223:104|223:104|226:106|226:106|225:105|225:105|225:104|226:104|226:104|224:102|224:102|228:104|228:104|226:103|226:103|227:102|227:102|225:101|225:101|229:103|229:103|227:101|227:101|228:101|228:100|228:100|226:99|226:99|230:101|230:101|228:100|228:100|229:99|229:99|228:97|228:97|231:99|231:99|230:98|230:98|230:97|230:97|229:95|229:95|232:98|232:98|231:96|231:96|231:95|231:95|230:94|230:94|233:96|233:96|232:95|232:95|232:94|233:94|233:94|231:92|231:92|235:95|235:95|233:93|233:93|234:92|234:92|233:90|233:90|236:93|236:93|235:91|235:91|235:90|235:90|234:89|234:89|237:91|237:91|236:90|236:90|236:89|236:89|235:87|235:87|238:90|238:90|237:88|237:88|238:87|238:87|237:85|237:85|240:88|240:88|239:86|239:86|239:85|239:85|238:84|238:84|241:86|241:86|240:85|240:85|240:84|241:84|241:84|239:82|239:82|242:85|242:85|241:83|241:83|242:83|242:82|242:82|241:81|241:81|244:83|244:83|243:82|243:82|243:81|243:81|242:79|242:79|245:82|245:82|244:80|244:80|245:80|245:80|244:78|244:78|246:81|246:81|245:79|245:79|246:78|246:78|245:76|245:76|248:79|248:79|247:77|247:77|248:77|248:77|247:75|247:75|249:78|249:78|248:76|248:76|249:75|249:75|248:73|248:73|251:76|251:76|250:75|250:75|251:74|251:74|250:72|250:72|252:75|252:75|252:73|252:73|252:72|252:72|252:71|252:71|254:74|254:74|253:72|253:72|254:71|254:71|253:69|253:69|256:72|256:72|255:70|255:70|256:70|256:70|255:68|255:68|257:71|257:71|256:69|256:69|257:69|257:69|256:67|256:67|259:70|259:70|258:68|258:68|259:68|259:67|259:67|258:65|258:65|260:69|260:69|260:67|260:67|260:66|260:66|260:64|260:64|262:68|262:68|261:66|261:66|262:65|262:65|261:63|261:63|264:66|264:66|263:64|263:64|264:64|264:64|263:62|263:62|265:65|265:65|265:63|265:63|266:63|266:63|265:61|265:61|267:64|267:64|267:62|267:62|267:60|267:60|269:63|269:63|268:61|268:61|269:61|269:61|269:59|269:59|271:62|271:62|270:60|270:60|271:60|271:60|271:57|271:57|273:61|273:61|272:59|272:59|273:59|273:59|273:57|273:57|274:60|274:60|274:58|274:58|275:58|275:58|275:56|275:56|276:59|276:59|276:57|276:57|277:57|277:57|276:55|276:55|278:58|278:58|278:56|278:56|279:56|279:56|278:54|278:54|280:58|280:58|279:56|279:56|280:55|281:55|281:55|280:53|280:53|282:57|282:57|281:55|281:55|282:55|282:55|282:53|282:53|284:56|284:56|283:54|283:54|284:54|284:54|284:52|284:52|286:55|286:55|285:53|285:53|286:53|286:53|286:51|286:51|288:55|288:55|287:53|287:53|288:53|288:52|288:52|288:50|288:50|290:54|290:54|289:52|289:52|290:52|290:52|290:50|290:50|291:54|291:54|291:52|291:52|292:51|292:51|292:49|292:49|293:53|293:53|293:51|293:51|294:51|294:51|294:49|294:49|295:53|295:53|295:51|295:51|296:51|296:51|296:48|296:48|297:52|297:52|297:50|297:50|298:50|298:50|299:48|299:48|299:52|299:52|299:50|299:50|300:50|300:50|301:48|301:48|301:52|301:52|302:50|302:50|302:49|303:49|303:49|303:47|303:47|303:52|303:52|304:49|304:49|305:49|305:49|305:47|305:47|305:51|305:51|306:49|306:49|307:49|307:49|307:47|307:47|307:51|307:51|308:49|308:49|309:49|309:49|309:47|309:47|309:51|309:51|310:49|310:49|311:49|311:49|311:47|311:47|311:51|311:51|312:49|312:49|313:49|313:49|313:47|313:47|314:51|314:51|314:49|314:49|315:49|315:49|316:47|316:47|316:51|316:51|316:49|316:49|317:49|317:49|318:47|318:47|318:51|318:51|318:49|318:49|319:49|319:49|320:47|320:47|320:51|320:51|320:49|320:49|321:49|322:49|322:49|322:47|322:47|322:51|322:51|322:49|322:49|323:49|323:49|324:47|324:47|324:51|324:51|324:49|324:49|325:49|325:49|326:47|326:47|326:51|326:51|326:49|326:49|327:49|328:49|328:49|328:47|328:47|328:52|328:52|329:50|329:50|330:50|330:50|330:48|330:48|330:52|330:52|331:50|331:50|332:50|332:50|333:48|333:48|332:52|332:52|333:50|333:50|334:50|334:50|335:48|335:48|334:53|334:53|335:51|335:51|336:51|336:51|337:49|337:49|336:53|336:53|337:51|337:51|338:51|338:51|339:50|339:50|338:53|338:53|339:52|339:52|340:52|340:52|341:50|341:50|340:54|340:54|341:52|341:52|342:52|342:52|343:51|343:51|342:54|342:54|343:53|343:53|344:53|344:53|345:51|345:51|344:55|344:55|345:53|345:53|346:53|346:54|346:54|347:52|347:52|346:56|346:56|347:54|347:54|348:54|348:54|349:52|349:52|348:56|348:56|349:54|349:54|350:55|350:55|352:53|352:53|350:57|350:57|351:55|351:55|352:55|353:56|353:56|354:54|354:54|352:58|352:58|353:56|353:56|354:56|354:56|356:55|356:55|354:58|354:58|355:57|355:57|356:57|356:57|358:55|358:55|356:59|356:59|357:57|357:57|358:58|358:58|360:56|360:56|358:60|358:60|359:58|359:58|360:59|360:59|362:57|362:57|360:61|360:61|361:59|361:59|362:60|362:60|364:58|364:58|362:62|362:62|363:60|363:60|364:60|364:60|366:59|366:59|364:63|364:63|365:61|365:61|366:61|366:61|368:60|368:60|366:64|366:64|367:62|367:62|368:62,1,2028.49014938294,6|0,1:0|0:0,0:0:0:0:
319,251,82260,2,0,L|219:233,1,74.9999976158143,10|0,0:2|0:0,0:0:0:0:
318,143,82710,6,0,B|394:136|394:136|406:144|406:144|492:132,1,168.750001072884,2|0,1:0|0:0,0:0:0:0:
466,34,83010,2,0,B|444:30|444:30|432:63,1,56.2500003576279,4|0,0:3|0:0,0:0:0:0:
440,226,83160,2,0,L|450:267,5,37.4999988079071,2|0|0|0|0|0,1:0|0:0|0:0|0:0|0:0|0:0,0:0:0:0:
327,363,83460,5,10,0:2:0:0:
327,363,83610,2,0,P|314:291|171:281,1,224.999992847443,2|0,0:0|0:0,0:0:0:0:
244,380,83910,2,0,P|285:359|288:325,1,74.9999976158143,4|0,0:3|0:0,0:0:0:0:
166,194,84060,6,0,B|113:176|113:176|60:221,1,112.500000715256,2|0,1:0|0:0,0:0:0:0:
86,289,84360,2,0,B|138:306|138:306|181:269,1,112.500000715256,2|0,0:1|0:0,0:0:0:0:
259,82,84660,6,0,B|217:57|217:57|247:178,1,149.999995231629,10|0,0:2|0:0,0:0:0:0:
252,181,84885,1,2,0:2:0:0:
252,181,84960,2,0,L|341:200,1,74.9999976158143,2|0,0:2|0:0,0:0:0:0:
341,15,85110,6,0,B|238:40|238:40|224:33|224:33|94:57,1,224.999992847443,2|0,1:1|0:0,0:0:0:0:
56,21,85410,2,0,B|42:35|42:35|56:91,1,74.9999976158143
139,200,85560,2,0,B|153:186|153:186|139:130,1,74.9999976158143,2|0,1:2|0:0,0:0:0:0:
46,16,85710,2,0,B|32:30|32:30|46:86,1,74.9999976158143,2|0,0:2|0:0,0:0:0:0:
0,189,85860,6,0,P|101:207|163:387,1,299.999990463257,10|2,0:2|0:2,0:0:0:0:
451,245,86460,6,0,B|514:204|449:106|355:138|309:230|351:313,2,299.999990463257,2|2|10,1:0|0:1|0:2,0:0:0:0:
441,363,87210,1,2,0:2:0:0:
441,363,87360,1,2,0:2:0:0:
339,300,87510,6,0,P|301:300|279:311,1,56.2500003576279,2|0,1:3|0:0,0:0:0:0:
209,288,87660,2,0,P|197:324|200:348,1,56.2500003576279,2|0,0:3|0:0,0:0:0:0:
269,224,87810,2,0,P|236:205|211:203,1,56.2500003576279,2|0,0:3|0:0,0:0:0:0:
162,148,87960,2,0,P|131:174|126:253,1,112.500000715256,2|2,1:3|0:3,0:0:0:0:
0,52,88260,6,0,B|35:81|35:81|125:61,1,112.500000715256,10|0,0:2|0:0,0:0:0:0:
117,76,88485,2,0,L|292:42,1,168.750001072884,2|6,0:3|0:3,0:0:0:0:
416,91,88860,6,0,B|489:77|509:193|418:233|322:198|296:109,2,299.999990463257,2|2|10,1:0|0:1|0:2,0:0:0:0:
343,25,89610,1,2,0:2:0:0:
343,25,89760,1,2,0:2:0:0:
289,130,89910,6,0,L|219:115,1,56.2500003576279,2|0,1:3|0:0,0:0:0:0:
177,38,90060,2,0,L|141:99,1,56.2500003576279,2|0,0:3|0:0,0:0:0:0:
169,165,90210,2,0,L|100:187,1,56.2500003576279,2|0,0:3|0:0,0:0:0:0:
26,141,90360,2,0,L|44:263,1,112.500000715256,2|2,1:3|0:3,0:0:0:0:
203,354,90660,6,0,B|227:310|186:255|186:255|115:260|102:326,1,224.999992847443,10|0,0:2|0:0,0:0:0:0:
325,205,91260,6,2,B|324:205|324:205|323:207|323:207|324:202|324:202|323:204|323:204|322:204|322:204|321:206|321:206|322:202|322:202|321:204|321:204|320:204|320:204|319:206|319:206|319:202|319:202|319:204|319:204|318:204|318:204|317:206|317:206|317:201|317:201|317:203|317:203|316:203|315:203|315:203|315:205|315:205|315:201|315:201|314:203|314:203|313:203|313:203|313:205|313:205|313:201|313:201|312:203|312:203|311:203|311:203|311:205|311:205|311:201|311:201|310:203|310:203|309:203|309:203|309:205|309:205|309:201|309:201|308:203|308:203|307:203|307:203|307:206|307:206|306:201|306:201|306:204|306:204|305:204|305:204|305:206|305:206|304:202|304:202|304:204|304:204|303:204|303:204|303:206|303:206|302:202|302:202|302:204|302:204|301:204|301:204|301:206|301:206|300:202|300:202|300:205|300:205|299:205|299:205|299:207|299:207|298:203|298:203|298:205|298:205|297:205|297:205|297:207|297:207|296:204|296:204|296:206|296:206|295:206|295:206|295:208|295:208|294:204|294:204|294:206|294:206|293:207|293:207|294:209|294:209|292:205|292:205|292:207|292:207|292:209|292:209|290:206|290:206|291:208|291:208|290:208|289:208|289:208|290:210|290:210|288:207|288:207|289:209|289:209|288:209|287:209|287:209|288:211|288:211|286:208|286:208|287:210|287:210|286:210|285:210|285:210|286:212|286:212|284:209|284:209|285:211|285:211|284:211|284:211|284:213|284:213|282:210|282:210|283:212|283:212|282:212|282:212|282:214|282:214|280:211|280:211|281:213|281:213|280:214|280:214|281:216|281:216|278:212|278:212|279:214|279:214|278:215|278:215|279:217|279:217|276:214|276:214|277:216|277:216|276:216|276:216|277:218|277:218|275:215|275:215|276:217|276:217|275:218|275:218|276:220|276:220|273:217|273:217|274:218|274:218|273:219|273:219|274:221|274:221|271:218|271:218|272:220|272:220|272:221|271:221|271:221|272:223|272:223|270:220|270:220|271:222|271:222|270:222|270:222|271:224|271:224|268:221|268:221|269:223|269:223|269:224|268:224|268:224|270:226|270:226|267:223|267:223|268:225|268:225|267:225|267:226|267:226|268:227|268:227|265:225|265:225|266:226|266:226|266:227|266:227|267:229|267:229|264:227|264:227|265:228|265:228|265:229|264:229|264:229|266:231|266:231|263:229|263:229|264:230|264:230|263:231|263:231|265:232|265:232|261:230|261:230|263:232|263:232|262:233|262:233|263:234|263:234|260:232|260:232|262:234|262:234|261:234|261:235|261:235|262:236|262:236|259:234|259:234|261:235|261:235|260:236|260:237|260:237|261:238|261:238|258:236|258:236|260:237|260:237|259:238|259:238|261:240|261:240|257:238|257:238|259:239|259:239|258:240|258:240|260:242|260:242|256:240|256:240|258:241|258:241|257:242|257:242|259:243|259:243|255:242|255:242|257:243|257:243|257:244|257:244|258:245|258:245|255:244|255:244|256:245|256:245|256:246|256:246|258:247|258:247|254:246|254:246|256:247|256:247|255:248|255:248|257:249|257:249|253:248|253:248|255:249|255:249|255:250|255:250|256:251|256:251|253:250|253:250|255:251|255:251|254:252|254:252|256:253|256:253|252:252|252:252|254:253|254:253|254:254|254:254|256:255|256:255|252:255|252:255|254:255|254:255|254:256|254:256|255:257|255:257|252:257|252:257|253:257|253:257|253:258|253:259|253:259|255:259|255:259|251:259|251:259|253:259|253:259|253:260|253:261|253:261|255:261|255:261|251:261|251:261|253:262|253:262|253:263|253:263|255:263|255:263|251:263|251:263|253:264|253:264|253:265|253:265|255:265|255:265|251:265|251:265|253:266|253:266|253:267|253:267|255:267|255:267|251:267|251:267|253:268|253:268|253:269|253:269|255:269|255:269|251:269|251:269|253:270|253:270|253:271|253:271|255:271|255:271|251:271|251:271|253:272|253:272|253:273|253:273|255:273|255:273|251:274|251:274|253:274|253:274|253:275|253:275|255:275|255:275|252:276|252:276|254:276|254:276|254:277|254:277|256:277|256:277|252:278|252:278|254:278|254:278|254:279|254:279|256:279|256:279|252:280|252:280|254:280|254:280|255:281|255:281|256:281|256:281|253:282|253:282|255:282|255:282|255:283|255:283|257:283|257:283|254:284|254:284|255:284|255:284|256:284|256:285|256:285|258:285|258:285|254:286|254:286|256:286|256:286|256:287|256:287|258:287|258:287|255:288|255:288|257:288|257:288|257:289|257:289|259:288|259:288|256:290|256:290|257:289|257:289|258:290|258:290|260:290|260:290|256:292|256:292|258:291|258:291|258:292|259:292|259:292|260:292|260:292|257:294|257:294|259:293|259:293|259:294|259:294|261:294|261:294|258:295|258:295|260:295|260:295|260:296|260:296|262:295|262:295|259:297|259:297|261:297|261:297|261:298|261:298|263:297|263:297|260:299|260:299|262:298|262:298|262:299|262:299|264:299|264:299|261:301|261:301|263:300|263:300|263:301|264:301|264:301|265:301|265:301|262:303|262:303|264:302|264:302|264:303|265:303|265:303|266:302|266:302|263:304|263:304|265:304|265:304|266:304|266:304|268:304|268:304|265:306|265:306|266:305|266:305|267:306|267:306|269:305|269:305|266:308|266:308|268:307|268:307|268:308|268:308|270:307|270:307|267:309|267:309|269:308|269:308|270:309|270:309|271:308|271:308|269:311|269:311|270:310|270:310|271:310|271:311|271:311|273:310|273:310|270:312|270:312|272:311|272:311|272:312|273:312|273:312|274:311|274:311|272:314|272:314|273:313|273:313|274:313|274:313|276:312|276:312|273:315|273:315|275:314|275:314|276:315|276:315|277:314|277:314|275:316|275:316|276:315|276:315|277:316|277:316|279:315|279:315|276:318|276:318|278:317|278:317|279:317|279:317|280:316|280:316|278:319|278:319|279:318|279:318|280:318|280:318|282:317|282:317|280:320|280:320|281:319|281:319|282:319|282:320|282:320|283:318|283:318|281:321|281:321|283:320|283:320|284:321|284:321|285:319|285:319|283:322|283:322|285:321|285:321|285:322|286:322|286:322|287:320|287:320|285:323|285:323|286:322|286:322|287:323|287:323|289:321|289:321|287:325|287:325|288:323|288:323|289:323|289:324|289:324|290:322|290:322|289:325|289:325|290:324|290:324|291:324|291:325|291:325|292:323|292:323|291:326|291:326|292:325|292:325|293:325|293:325|294:324|294:324|293:327|293:327|294:326|294:326|295:326|295:326|296:325|296:325|294:328|294:328|296:326|296:326|296:327|297:327|297:327|298:325|298:325|296:329|296:329|297:327|297:327|298:327|299:327|299:327|300:326|300:326|298:329|298:329|299:328|299:328|300:328|301:328|301:328|301:326|301:326|300:330|300:330|301:328|301:328|302:329|302:329|303:327|303:327|302:331|302:331|303:329|303:329|304:329|304:329|305:327|305:327|305:331|305:331|305:329|305:329|306:329|306:330|306:330|307:328|307:328|307:331|307:331|307:330|307:330|308:330|309:330|309:330|309:328|309:328|309:332|309:332|309:330|309:330|310:330|311:330|311:330|311:328|311:328|311:332|311:332|311:330|311:330|312:330|313:330|313:330|313:329|313:329|313:332|313:332|313:331|313:331|314:331|315:331|315:331|315:329|315:329|315:332|315:332|316:331|316:331|317:331|317:331|317:329|317:329|317:333|317:333|318:331|318:331|319:331|319:331|319:329|319:329|319:333|319:333|320:331|320:331|321:331|321:331|321:329|321:329|321:333|321:333|322:331|322:331|323:331|323:331|323:329|323:329|323:332|323:332|324:331|324:331|325:331|325:331|325:329|325:329|326:332|326:332|326:330|326:330|327:330|327:330|327:328|327:328|328:332|328:332|328:330|328:330|329:330|329:330|329:328|329:328|330:332|330:332|330:330|330:330|331:330|331:330|331:328|331:328|332:331|332:331|332:329|332:329|333:329|333:329|333:327|333:327|334:331|334:331|334:329|334:329|335:329|335:329|335:327|335:327|336:330|336:330|336:329|336:329|337:328|337:328|337:326|337:326|338:330|338:330|338:328|338:328|339:328|339:328|339:326|339:326|340:329|340:329|340:327|340:327|341:327|341:327|341:325|341:325|342:328|342:328|342:327|342:327|343:326|343:326|343:324|343:324|344:328|344:328|344:326|344:326|345:325|345:325|345:323|345:323|347:327|347:327|346:325|346:325|347:325|347:324|347:324|347:322|347:322|349:326|349:326|348:324|348:324|349:324|349:323|349:323|349:321|349:321|351:325|351:325|350:323|350:323|351:323|351:322|351:322|351:320|351:320|352:324|352:324|352:322|352:322|353:321|353:321|352:319|352:319|354:323|354:323|354:321|354:321|355:320|355:320|354:318|354:318|356:321|356:321|356:320|356:320|356:319|357:319|357:319|356:317|356:317|358:320|358:320|357:318|357:318|358:318|358:318|358:316|358:316|360:319|360:319|359:317|359:317|360:316|360:316|359:314|359:314|362:318|362:318|361:316|361:316|362:315|362:315|361:313|361:313|363:316|363:316|362:314|362:314|363:314|363:314|362:312|362:312|365:315|365:315|364:313|364:313|365:312|365:312|364:310|364:310|366:313|366:313|365:312|365:312|366:311|366:311|365:309|365:309|368:312|368:312|367:310|367:310|368:309|368:309|366:308|366:308|369:310|369:310|368:309|368:309|369:308|369:308|368:306|368:306|371:309|371:309|370:307|370:307|370:306|370:306|369:304|369:304|372:307|372:307|371:305|371:305|372:304|372:304|370:303|370:303|374:305|374:305|372:304|372:304|373:303|373:303|372:301|372:301|375:304|375:304|374:302|374:302|374:301|374:301|373:299|373:299|376:302|376:302|375:300|375:300|376:299|376:299|374:297|374:297|378:300|378:300|376:298|376:298|377:297|377:297|375:296|375:296|379:298|379:298|377:296|377:296|378:295|378:295|376:294|376:294|380:296|380:296|378:294|378:294|379:293|379:293|378:292|378:292|381:294|381:294|379:293|379:293|380:292|380:292|379:290|379:290|382:292|382:292|380:291|380:291|381:290|381:290|380:289|380:289|383:290|383:290|381:289|381:289|382:288|382:288|380:287|380:287|384:288|384:288|382:287|382:287|383:286|383:286|381:285|381:285|385:286|385:286|383:285|383:285|384:284|384:284|382:283|382:283|385:284|385:284|384:283|384:283|384:282|384:282|383:281|383:281|386:282|386:282|385:281|385:281|385:280|385:280|383:279|383:279|387:280|387:280|385:279|385:279|386:278|386:278|384:277|384:277|388:278|388:278|386:277|386:277|387:276|387:276|385:275|385:275|388:276|388:276|387:275|387:275|387:274|387:274|385:273|385:273|389:274|389:274|387:273|387:273|388:271|388:271|386:270|386:270|390:272|390:272|388:271|388:271|388:269|388:269|387:268|387:268|390:269|390:269|389:268|389:268|389:267|389:267|387:266|387:266|391:267|391:267|389:266|389:266|389:265|389:265|387:264|387:264|391:265|391:265|390:264|390:264|390:263|390:263|388:262|388:262|392:263|392:263|390:262|390:262|390:261|390:261|388:260|388:260|392:261|392:261|390:260|390:260|391:259|391:259|389:258|389:258|393:258|393:258|391:258|391:258|391:256|391:256|389:255|389:255|393:256|393:256|391:255|391:255|392:254|392:254|390:253|390:253|394:254|394:254|392:253|392:253|392:251|392:251|390:250|390:250|394:251|394:251|392:250|392:250|393:249|393:249|391:248|391:248|395:249|395:249|393:248|393:248|393:246|393:246|391:245|391:245|395:246|395:246|393:245|393:245|394:244|394:244|392:243|392:243|396:244|396:244|394:243|394:243|394:241|394:241|392:241|392:241|396:241|396:241|394:240|394:240|395:239|395:239|393:238|393:238|397:239|397:239|395:238|395:238|395:236|395:236|393:236|393:236|397:236|397:236|395:236|395:236|395:234|395:234|394:233|394:233|398:234|398:234|396:233|396:233|396:232|396:232|394:231|394:231|398:231|398:231|396:231|396:231|396:229|396:229|395:228|395:228|398:229|398:229|397:228|397:228|397:227|397:227|395:226|395:226|399:227|399:227|397:226|397:226|397:224|397:224|396:223|396:223|399:224|399:224|398:223|398:223|398:222|398:222|396:221|396:221|400:222|400:222|398:221|398:221|398:219|398:219|396:218|396:218|400:219|400:219|399:218|399:218|399:217|399:217|397:216|397:216|401:217|401:217|399:216|399:216|399:214|399:214|397:214|397:214|401:214|401:214|400:213|400:213|400:212|400:212|398:211|398:211|402:212|402:212|400:211|400:211|400:210|400:210|398:209|398:209|402:209|402:209|400:209|400:209|401:207|401:207|399:206|399:206|403:207|403:207|401:206|401:206|401:205|401:205|399:204|399:204|403:205|403:205|401:204|401:204|402:202|402:202|400:201|400:201|404:202|404:202|402:201|402:201|402:200|402:200|400:199|400:199|404:200|404:200|402:199|402:199|403:197|403:197|401:196|401:196|405:197|405:197|403:196|403:196|403:195|403:195|401:194|401:194|405:195|405:195|403:194|403:194|404:192|404:192|402:191|402:191|406:192|406:192|404:191|404:191|404:190|404:190|402:189|402:189|406:190|406:190|404:189|404:189|405:187|405:187|403:187|403:187|407:187|407:187|405:186|405:186|405:185|405:185|403:184|403:184|407:185|407:185|405:184|405:184|406:183|406:183|404:182|404:182|408:182|408:182|406:182|406:182|406:180|406:180|404:179|404:179|408:180|408:180|406:179|406:179|407:178|407:178|405:177|405:177|409:178|409:178|407:177|407:177|407:175|407:175|405:174|405:174|409:175|409:175|407:174|407:174|408:173|408:173|406:172|406:172|410:173|410:173|408:172|408:172|408:170|408:170|406:169|406:169|410:170|410:170|408:169|408:169|408:168|408:168|407:167|407:167|411:168|411:168|409:167|409:167|409:165|409:165|407:165|407:165|411:165|411:165|409:164|409:164|409:163|409:163|408:162|408:162|411:163|411:163|410:162|410:162|410:160|410:160|408:160|408:160|412:160|412:160|410:160|410:160|410:158|410:158|409:157|409:157|412:158|412:158|411:157|411:157|411:156|411:156|409:155|409:155|413:155|413:155|411:155|411:155|411:153|411:153|409:152|409:152|413:153|413:153|412:152|412:152|412:151|412:151|410:150|410:150|414:151|414:151|412:150|412:150|412:148|412:148|410:147|410:147|414:148|414:148|412:147|412:147|413:146|413:146|411:145|411:145|415:146|415:146|413:145|413:145|413:143|413:143|411:142|411:142|415:143|415:143|413:142|413:142|414:141|414:141|412:140|412:140|416:141|416:141|414:140|414:140|414:138|414:138|412:138|412:138|416:138|416:138|414:137|414:137|415:136|415:136|413:135|413:135|417:136|417:136|415:135|415:135|415:134|415:134|413:133|413:133|417:133|417:133|415:133|415:133|416:131|416:131|414:130|414:130|418:131|418:131|416:130|416:130|416:129|416:129|414:128|414:128|418:129|418:129|416:128|416:128|417:126|417:126|415:125|415:125|419:126|419:126|417:125|417:125|417:124|417:124|415:123|415:123|419:124|419:124|417:123|417:123|418:121|418:121|416:120|416:120|420:121|420:121|418:120|418:120|418:119|418:119|416:118|416:118|420:119|420:119|418:118|418:118|419:116|419:116|417:115|417:115|421:116|421:116|419:115|419:115|419:114|419:114|417:113|417:113|421:114|421:114|419:113|419:113|420:111|420:111|418:111|418:111|422:111|422:111|420:110|420:110|420:109|420:109|418:108|418:108|422:109|422:109|420:108|420:108|420:107|420:107|419:106|419:106|423:106|423:106|421:106|421:106|421:104|421:104|419:103|419:103|423:104|423:104|421:103|421:103|421:102|421:102|420:101|420:101|424:102|424:102|422:101|422:101|422:99|422:99|420:98|420:98|424:99|424:99|422:98|422:98|422:97|422:97|421:96|421:96|424:97|424:97|423:96|423:96|423:94|423:94|421:93|421:93|425:94|425:94|423:93|423:93|423:92|423:92|422:91|422:91|425:92|425:92|424:91|424:91|424:89|424:89|422:89|422:89|426:89|426:89|424:88|424:88|424:87|424:87|422:86|422:86|426:87|426:87|425:86|425:86|425:84|425:84|423:84|423:84|427:84|427:84|425:84|425:84|425:82|425:82|423:81|423:81|427:82|427:82|425:81|425:81|426:80|426:80|424:79|424:79|428:79|428:79|426:79|426:79|426:77|426:77|424:76|424:76|428:77|428:77|426:76|426:76|427:75|427:75|425:74|425:74|429:75|429:75|427:74|427:74|427:72|427:72|425:71|425:71|429:72|429:72|427:71|427:71|428:70|428:70|426:69|426:69|430:70|430:70|428:69|428:69|428:67|428:67|426:66|426:66|430:67|430:67|428:66|428:66|429:65|429:65|427:64|427:64|431:65|431:65|429:64|429:64|429:62|429:62|427:62|427:62|431:62|431:62|429:61|429:61|430:60,1,2211.66167265714,2|0,1:0|0:0,0:1:0:0:
421,48,91860,6,0,P|373:50|353:79,1,84.3750005364419,10|0,0:2|0:0,0:0:0:0:
277,82,92160,2,0,P|250:112|209:110,1,84.3750005364419
107,149,92460,6,0,L|96:59,1,84.3750005364419,0|0,1:0|0:0,0:0:0:0:
25,69,92760,2,0,L|36:159,1,84.3750005364419
8,247,93060,6,0,B|67:209|113:258|113:265|113:272|160:329|224:294,1,224.999992847443,10|0,0:2|1:0,0:0:0:0:
257,373,93660,6,0,L|202:91,1,281.25000178814,6|0,1:3|0:0,0:0:0:0:
223,104,94110,2,0,L|301:84,1,56.2500003576279,6|0,0:3|0:0,0:0:0:0:
463,138,94260,6,0,P|457:74|362:55,1,168.750001072884,10|0,0:2|0:0,0:0:0:0:
353,126,94560,2,0,L|335:258,1,112.500000715256,6|0,0:3|0:0,0:0:0:0:
455,364,94860,6,0,L|516:350,3,56.2500003576279,2|2|2|2,1:2|0:2|0:2|0:2,0:0:0:0:
384,309,95160,2,0,L|323:323,3,56.2500003576279,2|2|2|2,0:2|0:2|0:2|0:2,0:0:0:0:
265,372,95460,1,10,0:2:0:0:
145,289,95610,6,0,P|130:265|132:235,1,56.2500003576279,2|0,0:2|0:0,0:0:0:0:
178,177,95760,2,0,P|206:176|231:192,1,56.2500003576279,2|0,0:2|0:0,0:0:0:0:
258,261,95910,2,0,P|244:285|217:299,1,56.2500003576279,10|0,0:2|0:0,0:0:0:0:
109,150,96060,6,2,B|109:149|109:149|107:148|107:148|111:149|111:149|110:148|110:148|110:147|110:147|108:146|108:146|112:147|112:147|110:146|110:146|110:145|110:145|108:144|108:144|112:144|112:144|110:144|110:144|110:143|110:143|108:142|108:142|112:142|112:142|110:142|110:142|110:141|111:141|111:141|108:140|108:140|113:140|113:140|111:139|111:139|111:138|111:138|109:138|109:138|113:138|113:138|111:137|111:137|111:136|111:136|109:136|109:136|113:136|113:136|111:135|111:135|111:134|111:134|108:134|108:134|113:134|113:134|110:133|110:133|110:132|110:132|108:132|108:132|112:131|112:131|110:131|110:131|110:130|110:130|108:130|108:130|112:129|112:129|110:129|110:129|110:128|110:128|108:128|108:128|112:127|112:127|110:127|110:127|109:127|109:126|109:126|107:126|107:126|111:125|111:125|109:125|109:125|109:124|109:124|107:124|107:124|111:123|111:123|109:123|109:123|108:122|108:122|106:122|106:122|110:121|110:121|108:121|108:121|108:120|108:120|106:121|106:121|109:119|109:119|107:119|107:119|107:118|107:118|105:119|105:119|109:117|109:117|107:117|107:117|106:117|106:117|104:117|104:117|108:115|108:115|106:116|106:116|106:115|106:115|104:115|104:115|107:113|107:113|105:114|105:114|105:113|105:113|103:113|103:113|106:111|106:111|104:112|104:112|104:111|104:111|102:111|102:111|105:109|105:109|103:110|103:110|103:109|102:109|102:109|100:109|100:109|104:107|104:107|102:108|102:108|101:107|101:107|99:108|99:108|103:105|103:105|101:106|101:106|100:105|100:105|98:106|98:106|101:103|101:103|99:104|99:104|99:103|99:103|97:104|97:104|100:102|100:102|98:102|98:102|97:102|97:102|95:102|95:102|98:100|98:100|97:101|97:101|96:100|96:100|94:101|94:101|97:98|97:98|95:99|95:99|95:98|94:98|94:98|93:99|93:99|95:97|95:97|94:98|94:98|93:97|93:97|91:98|91:98|94:95|94:95|92:96|92:96|91:95|91:95|90:96|90:96|92:93|92:93|91:94|91:94|90:94|90:94|88:95|88:95|90:92|90:92|89:93|89:93|88:92|88:92|86:93|86:93|89:90|89:90|87:92|87:92|86:91|86:91|85:92|85:92|87:89|87:89|85:90|85:90|84:90|84:90|83:91|83:91|85:88|85:88|84:89|84:89|83:89|83:88|83:88|81:90|81:90|83:87|83:87|82:88|82:88|81:87|81:87|79:89|79:89|81:85|81:85|80:87|80:87|79:86|79:86|78:88|78:88|79:84|79:84|78:86|78:86|77:85|77:85|76:87|76:87|78:83|78:83|76:85|76:85|76:84|75:84|75:84|74:86|74:86|76:82|76:82|74:84|74:84|74:83|73:83|73:83|72:85|72:85|74:81|74:81|72:83|72:83|71:82|71:82|70:84|70:84|72:81|72:81|70:82|70:82|69:82|69:82|68:83|68:83|70:80|70:80|68:81|68:81|67:81|67:81|66:83|66:83|67:79|67:79|66:81|66:81|65:80|65:80|64:82|64:82|65:78|65:78|64:80|64:80|63:80|63:80|62:82|62:82|63:78|63:78|62:80|62:80|62:79|61:79|61:79|60:81|60:81|61:77|61:77|60:79|60:79|59:79|59:79|58:81|58:81|59:77|59:77|58:79|58:79|57:79|57:79|56:80|56:80|57:77|57:77|56:78|56:78|55:78|55:78|54:80|54:80|55:76|55:76|54:78|54:78|53:78|53:78|53:80|53:80|53:76|53:76|52:78|52:78|51:78|51:78|51:80|51:80|51:76|51:76|50:78|50:78|49:78|49:78|49:80|49:80|49:76|49:76|48:78|48:78|47:78|47:78|47:80|47:80|46:76|46:76|46:78|46:78|45:78|45:78|45:80|45:80|44:76|44:76|44:78|44:78|43:78|43:78|43:80|43:80|42:76|42:76|42:78|42:78|41:78|41:78|41:80|41:80|40:76|40:76|40:78|40:78|39:78|39:78|39:80|39:80|38:77|38:77|38:79|38:79|37:79|37:79|37:81|37:81|36:77|36:77|36:79|36:79|35:79|35:79|35:81|35:81|34:77|34:77|34:79|34:79|33:79|33:80|33:80|33:81|33:81|32:78|32:78|32:80|32:80|31:80|31:80|31:82|31:82|30:78|30:78|30:80|30:80|29:80|29:81|29:81|29:82|29:82|28:79|28:79|28:81|28:81|27:81|27:81|27:83|27:83|26:80|26:80|26:81|26:81|25:82|25:82|25:84|25:84|24:80|24:80|24:82|24:82|23:83|23:83|24:84|24:84|22:81|22:81|22:83|22:83|21:83|21:83|22:85|22:85|20:82|20:82|21:84|21:84|20:84|20:84|20:86|20:86|18:83|18:83|19:85|19:85|18:85|18:85|18:87|18:87|17:84|17:84|17:86|17:86|16:86|16:86|17:88|17:88|15:85|15:85|15:87|15:87|14:87|14:87|15:89|15:89|13:86|13:86|14:88|14:88|13:88|13:88|13:90|13:90|11:87|11:87|12:89|12:89|11:89|11:89|12:91|12:91|10:88|10:88|10:90|10:90|9:91|9:91|10:92|10:92|8:89|8:89|9:91|9:91|8:92|8:92|9:94|9:94|6:91|6:91|7:92|7:92|7:93|6:93|6:93|7:95|7:95|5:92|5:92|6:94|6:94|5:94|5:94|6:96|6:96|3:93|3:93|4:95|4:95|4:96|3:96|3:96|4:97|4:97|2:95|2:95|3:96|3:96|2:97|2:97|3:99|3:99|0:96|0:96|1:98|1:98|0:99|0:99|2:100|2:100|-1:98|-1:98|0:99|0:99|-1:100|-1:100|0:102|0:102|-3:99|-3:99|-1:101|-1:101|-2:102|-2:102|-1:103|-1:103|-4:101|-4:101|-3:102|-3:102|-3:103|-3:103|-2:105|-2:105|-5:103|-5:103|-4:104|-4:104|-4:105|-5:105|-5:105|-3:106|-3:106|-6:104|-6:104|-5:106|-5:106|-6:106|-6:107|-6:107|-4:108|-4:108|-7:106|-7:106|-6:107|-6:107|-7:108|-7:108|-6:110|-6:110|-9:108|-9:108|-7:109|-7:109|-8:110|-8:110|-7:111|-7:111|-10:110|-10:110|-8:111|-8:111|-9:112|-9:112|-7:113|-7:113|-11:111|-11:111|-9:113|-9:113|-10:113|-10:114|-10:114|-8:115|-8:115|-12:113|-12:113|-10:114|-10:114|-11:115|-11:116|-11:116|-9:117|-9:117|-13:115|-13:115|-11:116|-11:116|-11:117|-12:117|-12:117|-10:118|-10:118|-13:117|-13:117|-12:118|-12:118|-12:119|-12:119|-11:120|-11:120|-14:119|-14:119|-13:120|-13:120|-13:121|-13:121|-11:122|-11:122|-15:121|-15:121|-13:122|-13:122|-14:123|-14:123|-12:124|-12:124|-16:123|-16:123|-14:124|-14:124|-14:125|-14:125|-13:126|-13:126|-16:125|-16:125|-15:126|-15:126|-15:127|-15:127|-13:128|-13:128|-17:127|-17:127|-15:128|-15:128|-15:129|-15:129|-14:130|-14:130|-17:129|-17:129|-16:130|-16:130|-16:131|-16:131|-14:132|-14:132|-18:131|-18:131|-16:132|-16:132|-16:133|-16:133|-14:134|-14:134|-18:133|-18:133|-16:134|-16:134|-16:135|-16:135|-15:136|-15:136|-18:135|-18:135|-17:136|-17:136|-17:137|-17:137|-15:138|-15:138|-19:137|-19:137|-17:138|-17:138|-17:139|-17:139|-15:140|-15:140|-19:139|-19:139|-17:140|-17:140|-17:141|-17:141|-15:142|-15:142|-19:142|-19:142|-17:142|-17:142|-17:143|-17:143|-15:144|-15:144|-19:144|-19:144|-17:144|-17:144|-17:145|-17:145|-15:146|-15:146|-19:146|-19:146|-17:146|-17:146|-17:147|-17:147|-15:148|-15:148|-19:148|-19:148|-17:148|-17:148|-17:149|-17:149|-15:150|-15:150|-19:150|-19:150|-17:150|-17:150|-17:151|-17:151|-15:152|-15:152|-18:152|-18:152|-17:152|-17:152|-16:153|-16:154|-16:154|-15:154|-15:154|-18:154|-18:154|-16:154|-16:154|-16:155|-16:156|-16:156|-14:156|-14:156|-18:156|-18:156|-16:157|-16:157|-16:158|-16:158|-14:158|-14:158|-17:159|-17:159|-15:159|-15:159|-15:160|-15:160|-13:160|-13:160|-17:161|-17:161|-15:161|-15:161|-15:162|-15:162|-13:162|-13:162|-16:163|-16:163|-14:163|-14:163|-14:164|-14:164|-12:164|-12:164|-16:165|-16:165|-14:165|-14:165|-13:166|-13:166|-11:166|-11:166|-15:167|-15:167|-13:167|-13:167|-13:168|-13:168|-11:168|-11:168|-14:169|-14:169|-12:169|-12:169|-12:170|-12:170|-10:169|-10:169|-13:171|-13:171|-12:171|-12:171|-11:171|-11:172|-11:172|-9:171|-9:171|-13:173|-13:173|-11:173|-11:173|-10:173|-10:174|-10:174|-8:173|-8:173|-12:175|-12:175|-10:174|-10:174|-9:175|-9:176|-9:176|-7:175|-7:175|-11:177|-11:177|-9:176|-9:176|-8:177|-8:177|-6:177|-6:177|-9:179|-9:179|-7:178|-7:178|-7:179|-7:179|-5:179|-5:179|-8:181|-8:181|-6:180|-6:180|-6:181|-6:181|-4:180|-4:180|-7:183|-7:183|-5:182|-5:182|-5:183|-4:183|-4:183|-2:182|-2:182|-6:185|-6:185|-4:184|-4:184|-3:184|-3:185|-3:185|-1:184|-1:184|-4:186|-4:186|-2:186|-2:186|0:185|0:185|-3:188|-3:188|-1:187|-1:187|0:188|0:188|1:187|1:187|-2:190|-2:190|0:189|0:189|1:189|1:189|3:188|3:188|0:191|0:191|2:190|2:190|2:191|2:191|4:190|4:190|1:193|1:193|3:192|3:192|4:192|4:192|6:191|6:191|3:194|3:194|5:193|5:193|5:194|5:194|7:192|7:192|4:196|4:196|6:194|6:194|7:195|7:195|9:194|9:194|6:197|6:197|8:196|8:196|9:196|9:196|10:195|10:195|8:198|8:198|9:197|9:197|10:198|10:198|12:196|12:196|9:200|9:200|11:198|11:198|12:199|12:199|14:198|14:198|11:201|11:201|13:200|13:200|14:200|14:200|16:199|16:199|13:202|13:202|15:201|15:201|16:201|16:201|17:200|17:200|15:204|15:204|17:202|17:202|18:203|18:203|19:201|19:201|17:205|17:205|19:203|19:203|20:204|20:204|21:202|21:202|19:206|19:206|21:204|21:204|22:205|22:205|23:204|23:204|21:207|21:207|22:205|22:205|23:206|23:206|25:204|25:204|23:208|23:208|24:206|24:206|25:207|25:207|26:205|26:205|25:208|25:208|26:207|26:207|27:208|27:208|28:206|28:206|27:209|27:209|28:208|28:208|29:208|29:208|30:207|30:207|29:210|29:210|30:209|30:209|31:209|31:209|32:208|32:208|31:211|31:211|32:210|32:210|33:210|33:210|34:208|34:208|33:212|33:212|34:210|34:210|35:211|35:211|36:209|36:209|35:213|35:213|36:211|36:211|37:211|37:211|38:210|38:210|37:213|37:213|38:212|38:212|39:212|39:212|40:210|40:210|39:214|39:214|40:212|40:212|41:213|41:213|42:211|42:211|41:215|41:215|42:213|42:213|44:213|44:213|44:212|44:212|44:215|44:215|44:214|44:214|46:214|46:214|47:212|47:212|46:216|46:216|47:214|47:214|48:214|48:214|49:213|49:213|48:216|48:216|49:215|49:215|50:215|50:215|51:213|51:213|50:217|50:217|51:215|51:215|52:215|52:215|53:213|53:213|52:217|52:217|53:215|53:215|54:216|54:216|55:214|55:214|55:218|55:218|55:216|55:216|57:216|57:216|58:214|58:214|57:218|57:218|58:216|58:216|59:217|59:217|60:215|60:215|59:219|59:219|60:217|60:217|62:217|62:217|63:215|63:215|62:219|62:219|63:217|63:217|64:218|64:218|65:216|65:216|64:220|64:220|65:218|65:218|67:218|67:218|68:216|68:216|67:220|67:220|68:218|68:218|69:219|69:219|70:217|70:217|69:221|69:221|70:219|70:219|72:219|72:219|72:217|72:217|72:221|72:221|73:219|73:219|74:220|74:220|75:218|75:218|74:222|74:222|75:220|75:220|76:220|76:220|77:218|77:218|77:222|77:222|77:220|77:220|79:220|79:220|80:219|80:219|79:223|79:223|80:221|80:221|81:221|81:221|82:219|82:219|82:223|82:223|82:221|82:221|84:221|84:221|85:220|85:220|84:224|84:224|85:222|85:222|86:222|86:222|87:220|87:220|86:224|86:224|87:222|87:222|89:222|89:222|90:221|90:221|89:224|89:224|90:223|90:223|91:223|91:223|92:221|92:221|91:225|91:225|92:223|92:223|94:223|94:223|95:222|95:222|94:225|94:225|95:224|95:224|96:224|96:224|97:222|97:222|96:226|96:226|97:224|97:224|99:224|99:224|99:222|99:222|99:226|99:226|100:225|100:225|101:225|101:225|102:223|102:223|101:227|101:227|102:225|102:225|103:225|103:225|104:223|104:223|104:227|104:227|104:225|104:225|106:226|106:226|107:224|107:224|106:228|106:228|107:226|107:226|108:226|108:226|109:224|109:224|108:228|108:228|109:226|109:226|111:227|111:227|112:225|112:225|111:229|111:229|112:227|112:227|113:227|113:227|114:225|114:225|113:229|113:229|114:227|114:227|116:228|116:228|117:226|117:226|116:230|116:230|117:228|117:228|118:228|118:228|119:226|119:226|118:230|118:230|119:228|119:228|121:229|121:229|122:227|122:227|121:231|121:231|122:229|122:229|123:229|123:229|124:227|124:227|123:231|123:231|124:229|124:229|126:230|126:230|126:228|126:228|126:232|126:232|127:230|127:230|128:230|128:230|129:228|129:228|128:232|128:232|129:230|129:230|130:231|130:231|131:229|131:229|131:233|131:233|131:231|131:231|133:231|133:231|134:229|134:229|133:233|133:233|134:231|134:231|135:232|135:232|136:230|136:230|135:234|135:234|136:232|136:232|138:232|138:232|139:230|139:230|138:234|138:234|139:232|139:232|140:232|140:232|141:231|141:231|140:235|140:235|141:233|141:233|143:233|143:233|144:231|144:231|143:235|143:235|144:233|144:233|145:233|145:233|146:232|146:232|145:236|145:236|146:234|146:234|148:234|148:234|148:232|148:232|148:236|148:236|149:234|149:234|150:234|150:234|151:233|151:233|150:236|150:236|151:235|151:235|153:235|153:235|153:233|153:233|153:237|153:237|153:235|153:235|155:235|155:235|156:234|156:234|155:237|155:237|156:236|156:236|157:236|157:236|158:234|158:234|158:238|158:238|158:236|158:236|160:236|160:236|161:234|161:234|160:238|160:238|161:237|161:237|162:237|162:237|163:235|163:235|162:239|162:239|163:237|163:237|165:237|165:237|166:235|166:235|165:239|165:239|166:238|166:238|167:238|167:238|168:236|168:236|167:240|167:240|168:238|168:238|170:238|170:238|171:236|171:236|170:240|170:240|171:238|171:238|172:239|172:239|173:237|173:237|172:241|172:241|173:239|173:239|175:239|175:239|175:237|175:237|175:241|175:241|176:239|176:239|177:240|177:240|178:238|178:238|177:242|177:242|178:240|178:240|179:240|179:240|180:238|180:238|180:242|180:242|180:240|180:240|182:241|182:241|183:239|183:239|182:243|182:243|183:241|183:241|184:241|184:241|185:239|185:239|184:243|184:243|185:241|185:241|187:242|187:242|188:240|188:240|187:244|187:244|188:242|188:242|189:242|189:242|190:240|190:240|189:244|189:244|190:242|190:242|192:243|192:243|193:241|193:241|192:245|192:245|193:243|193:243|194:243|194:243|195:241|195:241|194:245|194:245|195:243|195:243|197:244|197:244|198:242|198:242|197:246|197:246|198:244|198:244|199:244|199:244|200:242|200:242|199:246|199:246|200:244|200:244|202:245|202:245|202:243|202:243|202:247|202:247|203:245|203:245|204:245|204:245|205:243|205:243|204:247|204:247|205:245|205:245|206:245|206:245|207:244|207:244|207:248|207:248|207:246|207:246|209:246|209:246|210:244|210:244|209:248|209:248|210:246|210:246|211:246|211:246|212:245|212:245|211:248|211:248|212:247|212:247|214:247|214:247|215:245|215:245|214:249|214:249|215:247|215:247|216:247|216:247|217:246|217:246|216:249|216:249|217:248|217:248|219:248|219:248|220:246|220:246|219:250|219:250|220:248|220:248|221:248|221:248|222:246|222:246|221:250|221:250|222:249|222:249|224:249|224:249|224:247|224:247|224:251|224:251|225:249|225:249|226:249|226:249|227:247|227:247|226:251|226:251|227:250|227:250|229:250|229:250|229:248|229:248|229:252|229:252|230:250|230:250|231:250|231:250|232:248|232:248|231:252|231:252|232:250|232:250|233:251|233:251|234:249|234:249|234:253|234:253|234:251|234:251|236:251|236:251|237:249|237:249|236:253|236:253|237:251|237:251|238:252|238:252|239:250|239:250|238:254|238:254|239:252|239:252|241:252|241:252|242:250|242:250|241:254|241:254|242:252|242:252|243:253|243:253|244:251|244:251|243:255|243:255|244:253|244:253|246:253|246:253|247:251|247:251|246:255|246:255|247:253|247:253|248:254|248:254|249:252|249:252|248:256|248:256|249:254|249:254|251:254|251:254|251:252|251:252|251:256|251:256|252:254|252:254|254:255,1,2207.90997036687,2|0,1:0|0:0,0:1:0:0:
303,199,96660,6,0,L|292:98,1,84.3750005364419,10|0,0:2|0:0,0:0:0:0:
365,100,96960,2,0,L|354:-1,1,84.3750005364419
235,42,97260,6,0,P|191:65|186:102,1,84.3750005364419,0|0,1:0|0:0,0:0:0:0:
117,123,97560,2,0,P|125:171|158:188,1,84.3750005364419
264,238,97860,6,0,B|323:276|369:227|369:220|369:213|416:156|480:191,1,224.999992847443,10|0,0:2|1:0,0:0:0:0:
450,268,98460,6,0,P|439:304|433:336,1,56.2500003576279,6|0,1:3|0:0,0:0:0:0:
404,330,98610,2,0,P|393:366|387:398,1,56.2500003576279,2|0,0:2|0:0,0:0:0:0:
245,384,98760,6,0,P|236:357|230:329,1,56.2500003576279,6|0,0:3|0:0,0:0:0:0:
199,322,98910,2,0,P|190:295|184:267,1,56.2500003576279,2|0,0:2|0:0,0:0:0:0:
232,109,99060,6,0,P|263:128|272:150,1,56.2500003576279,10|0,0:2|0:0,0:0:0:0:
220,197,99210,2,0,P|211:232|193:247,1,56.2500003576279,6|0,0:3|0:0,0:0:0:0:
128,217,99360,2,0,P|91:219|71:207,1,56.2500003576279,2|0,0:2|0:0,0:0:0:0:
85,138,99510,2,0,P|71:104|76:81,1,56.2500003576279,2|0,0:2|0:0,0:0:0:0:
154,14,99660,6,0,L|356:37,1,187.499994039536,2|0,1:2|0:0,0:0:0:0:
353,54,100110,1,0,0:0:0:0:
482,84,100260,6,0,B|438:139|451:215|451:215|415:142|309:150,1,281.25000178814,10|0,0:2|0:0,0:0:0:0:
315,138,100710,2,0,P|286:167|284:193,1,56.2500003576279,10|0,0:2|0:0,0:0:0:0:
453,236,100860,6,2,B|454:236|454:236|455:235|455:235|454:238|454:238|455:237|455:237|457:237|457:237|458:235|458:235|457:239|457:239|458:237|458:237|459:238|459:238|460:236|460:236|459:240|459:240|460:238|460:238|462:238|462:238|463:236|463:236|462:240|462:240|463:238|463:238|464:239|464:239|465:237|465:237|464:241|464:241|465:239|465:239|467:239|467:239|468:238|468:238|467:241|467:241|468:240|468:240|469:240|469:240|470:238|470:238|469:242|469:242|470:240|470:240|471:241|471:241|472:239|472:239|471:243|471:243|472:241|472:241|474:241|474:241|475:239|475:239|474:243|474:243|475:241|475:241|476:242|476:242|477:240|477:240|476:244|476:244|477:242|477:242|479:242|479:242|480:240|480:240|479:244|479:244|480:243|480:243|481:243|481:243|482:241|482:241|481:245|481:245|482:243|482:243|484:243|484:243|485:242|485:242|484:246|484:246|485:244|485:244|486:244|486:244|487:242|487:242|486:246|486:246|487:244|487:244|488:245|488:245|489:243|489:243|488:247|488:247|489:245|489:245|491:245|491:245|492:243|492:243|491:247|491:247|492:246|492:246|493:246|493:246|494:244|494:244|493:248|493:248|494:246|494:246|496:246|496:246|497:245|497:245|496:249|496:249|497:247|497:247|498:247|498:247|499:245|499:245|498:249|498:249|499:247|499:247|501:248|501:248|502:246|502:246|501:250|501:250|502:248|502:248|502:249|502:249|504:249|504:249|501:250|501:250|503:250|503:250|503:251|503:251|505:251|505:251|502:252|502:252|504:252|504:252|504:254|504:254|506:253|506:253|502:255|502:255|504:255|504:255|505:256|505:256|507:256|507:256|503:257|503:257|505:257|505:257|506:258|506:258|508:258|508:258|504:259|504:259|506:259|506:259|507:261|507:261|509:260|509:260|505:262|505:262|507:262|507:262|508:263|508:263|510:263|510:263|506:264|506:264|508:264|508:264|509:265|509:265|511:265|511:265|507:266|507:266|509:266|509:266|509:268|509:268|512:267|512:267|508:269|508:269|510:269|510:269|510:270|510:270|512:270|512:270|509:271|509:271|511:271|511:271|511:272|511:272|513:272|513:272|510:273|510:273|512:273|512:273|512:275|512:275|514:274|514:274|510:276|510:276|512:276|512:276|513:277|513:277|515:277|515:277|511:278|511:278|513:278|513:278|514:279|514:279|516:279|516:279|512:280|512:280|514:280|514:280|515:282|515:282|517:281|517:281|513:283|513:283|515:283|515:283|516:284|516:284|518:284|518:284|514:285|514:285|516:285|516:285|517:286|517:286|519:286|519:286|515:287|515:287|517:287|517:287|517:289|517:289|520:288|520:288|516:290|516:290|518:290|518:290|518:291|518:291|520:291|520:291|517:292|517:292|519:292|519:292|519:293|519:293|521:293|521:293|518:294|518:294|520:294|520:294|520:296|520:296|522:295|522:295|518:297|518:297|520:297|520:297|521:298|521:298|523:298|523:298|519:299|519:299|521:299|521:299|522:300|522:300|524:300|524:300|520:301|520:301|522:301|522:301|523:303|523:303|525:302|525:302|521:304|521:304|523:304|523:304|524:305|524:305|526:305|526:305|522:306|522:306|524:306|524:306|525:307|525:307|527:307|527:307|523:308|523:308|525:308|525:308|525:310|525:310|527:309|527:309|524:311|524:311|526:311|526:311|526:312|526:312|528:312|528:312|525:313|525:313|527:313|527:313|527:314|527:314|529:314|529:314|526:316|526:316|528:315|528:315|528:317|528:317|530:316|530:316|526:318|526:318|528:318|528:318|529:319|529:319|529:321|529:321|528:317|528:317|528:319|528:319|527:319|527:319|526:321|526:321|526:317|526:317|526:319|526:319|524:320|524:320|524:322|524:322|523:318|523:318|523:320|523:320|522:320|522:320|521:322|521:322|521:318|521:318|521:320|521:320|519:320|519:320|519:322|519:322|518:318|518:318|518:320|518:320|517:320|517:320|516:322|516:322|516:318|516:318|516:321|516:321|514:321|514:321|514:323|514:323|513:319|513:319|513:321|513:321|512:321|512:321|511:323|511:323|511:319|511:319|511:321|511:321|509:321|509:321|509:323|509:323|508:319|508:319|508:321|508:321|507:322|507:322|506:324|506:324|506:320|506:320|506:322|506:322|504:322|504:322|504:324|504:324|503:320|503:320|503:322|503:322|502:322|502:322|501:324|501:324|501:320|501:320|501:322|501:322|499:322|499:322|499:324|499:324|499:320|499:320|498:322|498:322|497:323|497:323|496:325|496:325|496:321|496:321|496:323|496:323|494:323|494:323|494:325|494:325|494:321|494:321|493:323|493:323|492:323|492:323|492:325|492:325|491:321|491:321|491:323|491:323|489:323|489:323|489:325|489:325|489:322|489:322|488:324|488:324|487:324|487:324|487:326|487:326|486:322|486:322|486:324|486:324|484:324|484:324|484:326|484:326|484:322|484:322|483:324|483:324|482:324|482:324|482:326|482:326|481:322|481:322|481:324|481:324|479:325|479:325|479:327|479:327|479:323|479:323|478:325|478:325|477:325|477:325|477:327|477:327|476:323|476:323|476:325|476:325|474:325|474:325|474:327|474:327|474:323|474:323|473:325|473:325|472:325|472:325|472:327|472:327|471:323|471:323|471:326|471:326|469:326|469:326|469:328|469:328|469:324|469:324|468:326|468:326|467:326|467:326|467:328|467:328|466:324|466:324|466:326|466:326|465:326|465:326|464:328|464:328|464:324|464:324|464:326|464:326|462:327|462:327|462:329|462:329|461:325|461:325|461:327|461:327|460:327|460:327|459:329|459:329|459:325|459:325|459:327|459:327|457:327|457:327|457:329|457:329|456:325|456:325|456:327|456:327|455:327|455:327|454:329|454:329|454:325|454:325|454:327|454:327|452:328|452:328|452:330|452:330|451:326|451:326|451:328|451:328|450:328|450:328|449:330|449:330|449:326|449:326|449:328|449:328|447:328|447:328|447:330|447:330|446:326|446:326|446:328|446:328|445:328|445:328|444:331|444:331|444:327|444:327|444:329|444:329|442:329|442:329|442:331|442:331|441:327|441:327|441:329|441:329|440:329|440:329|439:331|439:331|439:327|439:327|439:329|439:329|437:329|437:329|437:331|437:331|437:327|437:327|436:329|436:329|435:330|435:330|434:332|434:332|434:328|434:328|434:330|434:330|432:330|432:330|432:332|432:332|432:328|432:328|431:330|431:330|430:330|430:330|430:332|430:332|429:328|429:328|429:330|429:330|427:330|427:330|427:332|427:332|427:328|427:328|426:331|426:331|425:331|425:331|425:333|425:333|424:329|424:329|424:331|424:331|422:331|422:331|422:333|422:333|422:329|422:329|421:331|421:331|420:331|420:331|420:333|420:333|419:329|419:329|419:331|419:331|417:332|417:332|417:334|417:334|417:330|417:330|416:332|416:332|415:332|415:332|415:334|415:334|414:330|414:330|414:332|414:332|412:332|412:332|412:334|412:334|412:330|412:330|411:332|411:332|410:332|410:332|410:334|410:334|409:330|409:330|409:332|409:332|407:333|407:333|407:335|407:335|407:331|407:331|406:333|406:333|405:333|405:333|405:335|405:335|404:331|404:331|404:333|404:333|403:333|403:333|402:335|402:335|402:331|402:331|402:333|402:333|400:333|400:333|400:336|400:336|399:332|399:332|399:334|399:334|398:334|398:334|397:336|397:336|397:332|397:332|397:334|397:334|395:334|395:334|395:336|395:336|394:332|394:332|394:334|394:334|393:334|393:334|392:336|392:336|392:332|392:332|392:334|392:334|390:335|390:335|390:337|390:337|389:333|389:333|389:335|389:335|388:335|388:335|387:337|387:337|387:333|387:333|387:335|387:335|385:335|385:335|385:337|385:337|384:333|384:333|384:335|384:335|383:335|383:335|382:337|382:337|382:334|382:334|382:336|382:336|380:336|380:336|380:338|380:338|379:334|379:334|379:336|379:336|378:336|378:336|377:338|377:338|377:334|377:334|377:336|377:336|375:336|375:336|375:338|375:338|375:334|375:334|374:336|374:336|373:337|373:337|372:339|372:339|372:335|372:335|372:337|372:337|370:337|370:337|370:339|370:339|370:335|370:335|369:337|369:337|368:337|368:337|368:339|368:339|367:335|367:335|367:337|367:337|365:337|365:337|365:339|365:339|365:335|365:335|364:337|364:337|363:338|363:338|363:340|363:340|362:336|362:336|362:338|362:338|360:338|360:338|360:340|360:340|360:336|360:336|359:338|359:338|358:338|358:338|358:340|358:340|357:336|357:336|357:338|357:338|355:338|355:338|355:341|355:341|355:337|355:337|354:339|354:339|353:339|353:339|353:341|353:341|352:337|352:337|352:339|352:339|350:339|350:339|350:341|350:341|350:337|350:337|349:339|349:339|348:339|348:339|348:341|348:341|347:337|347:337|347:339|347:339|345:340|345:340|345:342|345:342|345:338|345:338|344:340|344:340|342:340|342:340|340:341|340:341|343:338|343:338|341:339|341:339|340:339|340:339|338:340|338:340|341:337|341:337|339:338|339:338|338:337|338:337|336:338|336:338|339:335|339:335|337:336|337:336|336:336|336:336|334:337|334:337|337:334|337:334|335:335|335:335|334:334|334:334|332:335|332:335|335:332|335:332|333:334|333:334|332:333|332:333|330:334|330:334|333:331|333:331|331:332|331:332|330:331|330:331|328:333|328:333|331:329|331:329|329:331|329:331|328:330|328:330|326:331|326:331|329:328|329:328|327:329|327:329|326:328|326:328|324:330|324:330|327:326|327:326|325:328|325:328|324:327|324:327|322:328|322:328|325:325|325:325|323:326|323:326|322:325|322:325|320:327|320:327|323:323|323:323|321:325|321:325|320:324|320:324|318:325|318:325|321:322|321:322|319:323|319:323|318:322|318:322|316:324|316:324|319:321|319:321|317:322|317:322|316:321|316:321|314:322|314:322|317:319|317:319|315:320|315:320|314:319|314:319|312:321|312:321|314:318|314:318|313:319|313:319|312:318|312:318|310:319|310:319|312:316|312:316|311:317|311:317|310:317|310:317|308:318|308:318|310:315|310:315|309:316|309:316|308:315|308:315|306:316|306:316|308:313|308:313|307:315|307:315|306:314|306:314|304:315|304:315|306:312|306:312|305:313|305:313|304:312|304:312|302:313|302:313|304:310|304:310|303:312|303:312|302:311|302:311|301:313|301:313|301:309|301:309|301:311|301:311|299:311|299:311|299:313|299:313|298:309|298:309|298:311|298:311|297:312|297:312|296:314|296:314|296:310|296:310|296:312|296:312|294:312|294:312|294:314|294:314|293:310|293:310|293:312|293:312|292:312|292:312|291:314|291:314|291:310|291:310|291:312|291:312|289:312|289:312|289:314|289:314|288:310|288:310|288:312|288:312|287:313|287:313|286:315|286:315|286:311|286:311|286:313|286:313|284:313|284:313|284:315|284:315|283:311|283:311|283:313|283:313|282:313|282:313|281:315|281:315|281:311|281:311|281:313|281:313|279:313|279:313|279:316|279:316|278:312|278:312|278:314|278:314|277:314|277:314|276:316|276:316|276:312|276:312|276:314|276:314|274:314|274:314|274:316|274:316|273:312|273:312|273:314|273:314|272:314|272:314|271:316|271:316|271:312|271:312|271:314|271:314|269:315|269:315|269:317|269:317|268:313|268:313|268:315|268:315|267:315|267:315|266:317|266:317|266:313|266:313|266:315|266:315|264:315|264:315|264:317|264:317|264:313|264:313|263:315|263:315|262:315|262:315|261:317|261:317|261:313|261:313|261:315|261:315|259:316|259:316|259:318|259:318|259:314|259:314|258:316|258:316|257:316|257:316|256:318|256:318|256:314|256:314|256:316|256:316|254:316|254:316|254:318|254:318|254:314|254:314|253:316|253:316|252:316|252:316|252:318|252:318|251:314|251:314|251:317|251:317|249:317|249:317|249:319|249:319|249:315|249:315|248:317|248:317|247:317|247:317|247:319|247:319|246:315|246:315|246:317|246:317|244:317|244:317|244:319|244:319|244:315|244:315|243:317|243:317|242:317|242:317|242:320|242:320|241:316|241:316|241:318|241:318|239:318|239:318|239:320|239:320|239:316|239:316|238:318|238:318|237:318|237:318|237:320|237:320|236:316|236:316|236:318|236:318|234:318|234:318|234:320|234:320|234:316|234:316|233:318|233:318|232:319|232:319|232:321|232:321|231:317|231:317|231:319|231:319|229:319|229:319|229:321|229:321|229:317|229:317|228:319|228:319|227:319|227:319|227:321|227:321|226:317|226:317|226:319|226:319|224:319|224:319|224:321|224:321|224:317|224:317|223:319|223:319|222:320|222:320|222:322|222:322|221:318|221:318|221:320|221:320|219:320|219:320|219:322|219:322|219:318|219:318|218:320|218:320|217:320|217:320|217:322|217:322|216:318|216:318|216:320|216:320|215:320|215:320|214:322|214:322|214:318|214:318|214:321|214:321|212:321|212:321|212:323|212:323|211:319|211:319|211:321|211:321|210:321|210:321|209:323|209:323|209:319|209:319|209:321|209:321|207:321|207:321|207:323|207:323|206:319|206:319|206:321|206:321|205:322|205:322|204:324|204:324|204:320|204:320|204:322|204:322|202:322|202:322|202:324|202:324|201:320|201:320|201:322|201:322|200:322|200:322|199:324|199:324|199:320|199:320|199:322|199:322|197:322|197:322|197:324|197:324|196:320|196:320|196:322|196:322|195:323|195:323|194:325|194:325|194:321|194:321|194:323|194:323|192:323|192:323|192:325|192:325|191:321|191:321|191:323|191:323|190:323|190:323|189:325|189:325|189:321|189:321|189:323|189:323|187:323|187:323|187:325|187:325|186:321|186:321|186:323|186:323|185:324|185:324|184:326|184:326|184:322|184:322|184:324|184:324|182:324|182:324|182:326|182:326|182:322|182:322|181:324|181:324|180:324|180:324|179:326|179:326|179:322|179:322|179:324|179:324|177:324|177:324|177:326|177:326|177:323|177:323|176:325|176:325|175:325|175:325|174:327|174:327|174:323|174:323|174:325|174:325|172:325|172:325|172:327|172:327|172:323|172:323|171:325|171:325|170:325|170:325|170:327|170:327|169:323|169:323|169:325|169:325|167:326|167:326|167:328|167:328|167:324|167:324|166:326|166:326|165:326|165:326|165:328|165:328|164:324|164:324|164:326|164:326|162:326|162:326|162:328|162:328|162:324|162:324|161:326|161:326|160:326|160:326|160:328|160:328|159:324|159:324|159:326|159:326|157:327|157:327|157:329|157:329|157:325|157:325|156:327|156:327|155:327|155:327|155:329|155:329|154:325|154:325|154:327|154:327|152:327|152:327|152:329|152:329|152:325|152:325|151:327|151:327|150:327|150:327|150:329|150:329|149:325|149:325|149:328|149:328|147:328|147:328|147:330|147:330|147:326|147:326|146:328|146:328|145:328|145:328|145:330|145:330|144:326|144:326|144:328|144:328|141:328,1,2049.85318592504,2|0,1:1|0:0,0:1:0:0:
125,324,101460,6,0,P|98:300|99:245,1,84.3750005364419,10|0,0:2|0:0,0:0:0:0:
35,211,101760,2,0,P|34:169|4:140,1,84.3750005364419,0|0,3:0|0:0,0:0:0:0:
65,36,102060,6,0,L|148:56,1,84.3750005364419,0|0,1:0|0:0,0:0:0:0:
147,133,102360,2,0,L|230:113,1,84.3750005364419,0|0,3:0|0:0,0:0:0:0:
292,19,102660,6,0,P|330:-2|409:119,1,224.999992847443,10|0,0:2|1:0,0:0:0:0:
512,219,103260,6,0,B|285:177|285:177|244:220,1,281.25000178814,6|0,1:3|0:0,0:0:0:0:
266,227,103710,2,0,L|346:210,1,56.2500003576279,6|0,3:3|0:0,0:0:0:0:
241,83,103860,6,0,P|179:78|154:171,1,168.750001072884,10|0,0:2|0:0,0:0:0:0:
175,247,104160,2,0,L|61:232,1,112.500000715256,6|0,3:3|0:0,0:0:0:0:
12,360,104460,6,0,L|0:306,3,56.2500003576279,2|2|2|2,1:2|0:2|0:2|0:2,0:0:0:0:
105,326,104760,2,0,L|93:381,3,56.2500003576279,10|2|2|2,0:2|0:2|0:2|0:2,0:0:0:0:
182,375,105060,1,10,0:2:0:0:
331,353,105210,6,0,L|400:340,1,56.2500003576279,2|0,0:2|0:0,0:0:0:0:
287,275,105360,2,0,L|356:262,1,56.2500003576279,2|0,0:2|0:0,0:0:0:0:
239,188,105510,2,0,L|308:175,1,56.2500003576279,10|0,0:2|0:0,0:0:0:0:
370,132,105660,6,2,B|371:132|371:132|371:130|371:130|372:133|372:133|372:131|372:131|374:131|374:131|374:129|374:129|375:133|375:133|375:131|375:131|376:130|376:130|376:128|376:128|377:132|377:132|377:130|377:130|379:130|379:130|379:128|379:128|380:132|380:132|380:130|380:130|381:129|381:129|381:127|381:127|382:131|382:131|382:129|382:129|384:129|384:129|384:127|384:127|385:130|385:130|385:128|385:128|386:128|386:128|386:126|386:126|387:130|387:130|387:128|387:128|388:127|388:127|388:125|388:125|389:129|389:129|389:127|389:127|391:127|391:127|391:125|391:125|392:129|392:129|392:127|392:127|393:126|393:126|393:124|393:124|394:128|394:128|394:126|394:126|396:126|396:126|396:124|396:124|397:128|397:128|397:125|397:125|398:125|398:125|398:123|398:123|399:127|399:127|399:125|399:125|401:125|401:125|401:122|401:122|402:126|402:126|402:124|402:124|403:124|403:124|403:122|403:122|404:126|404:126|404:124|404:124|405:123|405:123|405:121|405:121|406:125|406:125|406:123|406:123|408:123|408:123|408:121|408:121|409:125|409:125|409:122|409:122|410:122|410:122|410:120|410:120|411:124|411:124|411:122|411:122|413:122|413:122|413:119|413:119|414:123|414:123|414:121|414:121|415:121|415:121|415:119|415:119|416:123|416:123|416:121|416:121|418:120|418:120|418:118|418:118|419:122|419:122|419:120|419:120|419:119|419:119|418:118|418:118|421:119|421:119|420:118|420:118|420:117|420:117|419:116|419:116|422:117|422:117|421:116|421:116|421:114|421:114|419:113|419:113|423:115|423:115|421:113|421:113|422:112|422:112|420:111|420:111|424:112|424:112|422:111|422:111|423:110|423:110|421:109|421:109|425:110|425:110|423:109|423:109|424:107|424:107|422:106|422:106|426:108|426:108|424:106|424:106|425:105|425:105|423:104|423:104|427:105|427:105|425:104|425:104|426:103|426:103|424:102|424:102|428:103|428:103|426:102|426:102|426:100|426:100|425:99|425:99|429:101|429:101|427:99|427:99|427:98|427:98|426:97|426:97|429:98|429:98|428:97|428:97|428:96|428:96|427:95|427:95|430:96|430:96|429:95|429:95|429:93|429:93|427:92|427:92|431:94|431:94|429:92|429:92|430:91|430:91|428:90|428:90|432:91|432:91|430:90|430:90|431:89|431:89|429:88|429:88|433:89|433:89|431:88|431:88|432:86|432:86|430:85|430:85|434:87|434:87|432:85|432:85|433:84|433:84|431:83|431:83|435:84|435:84|433:83|433:83|434:82|434:82|432:81|432:81|436:82|436:82|434:81|434:81|434:79|434:79|433:78|433:78|436:80|436:80|435:78|435:78|435:77|435:77|434:76|434:76|437:77|437:77|436:76|436:76|436:75|436:75|435:74|435:74|438:75|438:75|437:74|437:74|437:72|437:72|435:71|435:71|439:73|439:73|437:71|437:71|438:70|438:70|436:69|436:69|440:70|440:70|438:69|438:69|439:68|439:68|437:67|437:67|441:68|441:68|439:67|439:67|440:65|440:65|438:64|438:64|442:66|442:66|440:64|440:64|441:63|441:63|439:62|439:62|443:63|443:63|441:62|441:62|442:61|442:61|440:59|440:59|444:61|444:61|442:60|442:60|442:58|442:58|441:57|441:57|444:59|444:59|443:57|443:57|443:56|443:56|442:55|442:55|445:56|445:56|444:55|444:55|444:54|444:54|443:52|443:52|446:54|446:54|445:53|445:53|445:51|445:51|443:50|443:50|447:52|447:52|445:50|445:50|446:49|446:49|445:51|445:51|446:47|446:47|445:49|445:49|444:49|444:49|443:51|443:51|443:47|443:47|443:49|443:49|441:48|441:48|440:50|440:50|441:46|441:46|440:48|440:48|439:48|439:48|438:50|438:50|438:46|438:46|438:48|438:48|436:48|436:48|435:50|435:50|436:46|436:46|435:48|435:48|434:48|434:48|433:50|433:50|433:46|433:46|433:47|433:47|431:47|431:47|430:49|430:49|431:45|431:45|430:47|430:47|429:47|429:47|428:49|428:49|428:45|428:45|428:47|428:47|426:47|426:47|425:49|425:49|426:45|426:45|425:47|425:47|424:46|424:46|423:48|423:48|423:44|423:44|423:46|423:46|421:46|421:46|420:48|420:48|421:44|421:44|420:46|420:46|419:46|419:46|418:48|418:48|418:44|418:44|418:46|418:46|416:46|416:46|416:48|416:48|416:44|416:44|415:46|415:46|414:45|414:45|413:47|413:47|413:43|413:43|413:45|413:45|411:45|411:45|411:47|411:47|411:43|411:43|410:45|410:45|409:45|409:45|408:47|408:47|409:43|409:43|408:45|408:45|406:45|406:45|406:46|406:46|406:43|406:43|405:44|405:44|404:44|404:44|403:46|403:46|404:42|404:42|403:44|403:44|401:44|401:44|401:46|401:46|401:42|401:42|400:44|400:44|399:44|399:44|398:46|398:46|399:42|399:42|398:44|398:44|396:43|396:43|396:45|396:45|396:41|396:41|395:43|395:43|394:43|394:43|393:45|393:45|394:41|394:41|393:43|393:43|391:43|391:43|391:45|391:45|391:41|391:41|390:43|390:43|389:43|389:43|388:45|388:45|389:41|389:41|388:42|388:42|386:42|386:42|386:44|386:44|386:40|386:40|385:42|385:42|384:42|384:42|383:44|383:44|384:40|384:40|383:42|383:42|382:42|382:42|381:44|381:44|381:40|381:40|381:42|381:42|379:41|379:41|378:43|378:43|379:39|379:39|378:41|378:41|377:41|377:41|376:43|376:43|376:39|376:39|376:41|376:41|374:41|374:41|373:43|373:43|374:39|374:39|373:41|373:41|372:41|372:41|371:43|371:43|371:39|371:39|371:41|371:41|369:40|369:40|368:42|368:42|369:38|369:38|368:40|368:40|367:40|367:40|366:42|366:42|366:38|366:38|366:40|366:40|364:40|364:40|363:42|363:42|364:38|364:38|363:40|363:40|362:40|362:40|361:41|361:41|361:37|361:37|361:39|361:39|359:39|359:39|358:41|358:41|359:37|359:37|358:39|358:39|357:39|357:39|356:41|356:41|356:37|356:37|356:39|356:39|354:39|354:39|354:41|354:41|354:37|354:37|353:39|353:39|352:38|352:38|351:40|351:40|351:36|351:36|351:38|351:38|349:38|349:38|349:40|349:40|349:36|349:36|348:38|348:38|347:38|347:38|346:40|346:40|347:36|347:36|346:38|346:38|344:38|344:38|344:40|344:40|344:36|344:36|343:37|343:37|342:37|342:37|341:39|341:39|342:35|342:35|341:37|341:37|339:37|339:37|339:39|339:39|339:35|339:35|338:37|338:37|337:37|337:37|336:39|336:39|337:35|337:35|336:37|336:37|334:36|334:36|334:38|334:38|334:34|334:34|333:36|333:36|332:36|332:36|331:38|331:38|332:34|332:34|331:36|331:36|329:36|329:36|329:38|329:38|329:34|329:34|328:36|328:36|327:36|327:36|326:38|326:38|327:34|327:34|326:36|326:36|324:35|324:35|324:37|324:37|324:33|324:33|323:35|323:35|322:35|322:35|321:37|321:37|322:33|322:33|321:35|321:35|320:35|320:35|319:37|319:37|319:33|319:33|319:35|319:35|317:35|317:35|316:36|316:36|317:32|317:32|316:34|316:34|315:34|315:34|314:36|314:36|314:32|314:32|314:34|314:34|312:34|312:34|311:36|311:36|312:32|312:32|311:34|311:34|310:34|310:34|309:36|309:36|309:32|309:32|309:34|309:34|307:33|307:33|306:35|306:35|307:31|307:31|306:33|306:33|305:33|305:33|304:35|304:35|304:31|304:31|304:33|304:33|302:33|302:33|301:35|301:35|302:31|302:31|301:33|301:33|300:33|300:33|299:34|299:34|299:31|299:31|299:32|299:32|297:32|297:32|296:34|296:34|297:30|297:30|296:32|296:32|295:32|295:32|294:34|294:34|294:30|294:30|294:32|294:32|292:32|292:32|292:34|292:34|292:30|292:30|291:32|291:32|290:31|290:31|289:33|289:33|289:29|289:29|289:31|289:31|287:31|287:31|287:33|287:33|287:29|287:29|286:31|286:31|285:31|285:31|284:33|284:33|285:29|285:29|284:31|284:31|282:31|282:31|282:33|282:33|282:29|282:29|281:31|281:31|280:30|280:30|279:32|279:32|280:28|280:28|279:30|279:30|277:30|277:30|277:32|277:32|277:28|277:28|276:30|276:30|275:30|275:30|274:32|274:32|275:28|275:28|274:30|274:30|272:30|272:30|272:31|272:31|272:27|272:27|271:29|271:29|270:29|270:29|269:31|269:31|270:27|270:27|269:29|269:29|267:29|267:29|267:31|267:31|267:27|267:27|266:29|266:29|265:29|265:29|264:31|264:31|265:27|265:27|264:29|264:29|262:28|262:28|262:30|262:30|262:26|262:26|261:28|261:28|259:28|259:28|260:30|260:30|257:27|257:27|258:29|258:29|257:29|257:29|258:31|258:31|255:28|255:28|256:30|256:30|255:31|255:31|256:33|256:33|253:30|253:30|254:32|254:32|253:32|253:32|254:34|254:34|251:31|251:31|252:33|252:33|251:34|251:34|252:36|252:36|249:33|249:33|250:34|250:34|249:35|249:35|250:37|250:37|247:34|247:34|248:36|248:36|247:37|247:37|248:39|248:39|245:35|245:35|246:37|246:37|245:38|245:38|246:40|246:40|243:37|243:37|244:39|244:39|243:40|243:40|244:42|244:42|241:38|241:38|242:40|242:40|241:41|241:41|242:43|242:43|239:40|239:40|240:42|240:42|239:43|239:43|240:45|240:45|237:41|237:41|238:43|238:43|237:44|237:44|238:46|238:46|235:43|235:43|236:45|236:45|235:46|235:46|236:47|236:47|233:44|233:44|234:46|234:46|233:47|233:47|234:49|234:49|231:46|231:46|232:48|232:48|231:49|231:49|231:50|231:50|229:47|229:47|230:49|230:49|229:50|229:50|229:52|229:52|227:49|227:49|228:51|228:51|227:51|227:51|227:53|227:53|225:50|225:50|226:52|226:52|225:53|225:53|225:55|225:55|223:52|223:52|224:53|224:53|223:54|223:54|223:56|223:56|221:53|221:53|222:55|222:55|221:56|221:56|221:58|221:58|219:55|219:55|220:56|220:56|219:57|219:57|218:59|218:59|218:55|218:55|218:57|218:57|216:57|216:57|215:59|215:59|216:55|216:55|215:57|215:57|214:56|214:56|213:58|213:58|213:54|213:54|213:56|213:56|211:56|211:56|210:58|210:58|211:54|211:54|210:56|210:56|209:56|209:56|208:58|208:58|208:54|208:54|208:56|208:56|206:56|206:56|205:58|205:58|206:54|206:54|205:56|205:56|204:55|204:55|203:57|203:57|203:53|203:53|203:55|203:55|201:55|201:55|200:57|200:57|201:53|201:53|200:55|200:55|199:55|199:55|198:57|198:57|198:53|198:53|198:55|198:55|196:55|196:55|195:56|195:56|196:52|196:52|195:54|195:54|194:54|194:54|193:56|193:56|193:52|193:52|193:54|193:54|191:54|191:54|190:56|190:56|191:52|191:52|190:54|190:54|189:54|189:54|188:56|188:56|188:52|188:52|188:54|188:54|186:53|186:53|185:55|185:55|186:51|186:51|185:53|185:53|184:53|184:53|183:55|183:55|183:51|183:51|183:53|183:53|181:53|181:53|181:55|181:55|181:51|181:51|180:53|180:53|179:53|179:53|178:55|178:55|178:51|178:51|178:53|178:53|176:52|176:52|176:54|176:54|176:50|176:50|175:52|175:52|174:52|174:52|173:54|173:54|173:50|173:50|173:52|173:52|171:52|171:52|171:54|171:54|171:50|171:50|170:52|170:52|169:52|169:52|168:54|168:54|169:50|169:50|168:51|168:51|166:51|166:51|166:53|166:53|166:49|166:49|165:51|165:51|164:51|164:51|163:53|163:53|164:49|164:49|163:51|163:51|161:51|161:51|161:53|161:53|161:49|161:49|160:51|160:51|159:51|159:51|158:52|158:52|159:48|159:48|158:50|158:50|156:50|156:50|156:52|156:52|156:48|156:48|155:50|155:50|154:50|154:50|153:52|153:52|154:48|154:48|153:50|153:50|151:50|151:50|151:52|151:52|151:48|151:48|150:50|150:50|149:49|149:49|148:51|148:51|149:47|149:47|148:49|148:49|146:49|146:49|146:51|146:51|146:47|146:47|145:49|145:49|144:49|144:49|143:51|143:51|144:47|144:47|143:49|143:49|141:49|141:49|141:51|141:51|141:47|141:47|140:49|140:49|139:48|139:48|138:50|138:50|139:46|139:46|138:48|138:48|136:48|136:48|136:50|136:50|136:46|136:46|136:48|136:48|134:48|134:48|133:50|133:50|134:46|134:46|133:48|133:48|132:48|132:48|131:50|131:50|131:46|131:46|131:47|131:47|129:47|129:47|128:49|128:49|129:45|129:45|128:47|128:47|127:47|127:47|126:49|126:49|126:45|126:45|126:47|126:47|124:47|124:47|123:49|123:49|124:45|124:45|123:47|123:47|122:46|122:46|121:48|121:48|121:44|121:44|121:46|121:46|119:46|119:46|118:48|118:48|119:44|119:44|118:46|118:46|117:46|117:46|116:48|116:48|116:44|116:44|116:46|116:46|114:46|114:46|113:48|113:48|114:44|114:44|113:46|113:46|112:45|112:45|111:47|111:47|111:43|111:43|111:45|111:45|109:45|109:45|108:47|108:47|109:43|109:43|108:45|108:45|107:45|107:45|106:47|106:47|106:43|106:43|106:45|106:45|104:45|104:45|103:47|103:47|104:43|104:43|103:45|103:45|102:44|102:44|101:46|101:46|101:42|101:42|101:44|101:44|99:44|99:44|99:46|99:46|99:42|99:42|98:44|98:44|97:44|97:44|96:46|96:46|96:42|96:42|96:44|96:44|94:44|94:44|94:45|94:45|94:42|94:42|93:43|93:43|92:43|92:43|91:45|91:45|91:41|91:41|91:43|91:43|89:43|89:43|89:45|89:45|89:41|89:41|88:43|88:43|87:43|87:43|86:45|86:45|87:41|87:41|86:43|86:43|84:42|84:42|84:44|84:44|84:40|84:40|83:42|83:42|82:42|82:42|81:44|81:44|82:40|82:40|81:42|81:42|79:42|79:42|79:44|79:44|79:40|79:40|78:42|78:42|77:42|77:42|76:44|76:44|77:40|77:40|76:42|76:42|74:41|74:41|74:43|74:43|74:39|74:39|73:41|73:41|72:41|72:41|71:43|71:43|72:39|72:39|71:41|71:41|69:41|69:41|69:43|69:43|69:39|69:39|68:41|68:41|67:41|67:41|66:43|66:43|67:39|67:39|66:40|66:40|64:40|64:40|64:42|64:42|64:38|64:38|63:40|63:40|62:40|62:40|61:42|61:42|62:38|62:38|61:40|61:40|58:40,1,2046.17214338155,2|0,1:0|0:0,0:1:0:0:
44,51,106260,6,0,L|57:143,1,84.3750005364419,10|0,0:2|0:0,0:0:0:0:
69,207,106560,2,0,L|82:299,1,84.3750005364419,0|0,3:0|0:0,0:0:0:0:
58,378,106860,6,0,P|4:354|4:313,1,84.3750005364419,0|0,1:0|0:0,0:0:0:0:
86,296,107160,2,0,P|140:320|140:361,1,84.3750005364419,0|0,3:0|0:0,0:0:0:0:
247,384,107460,6,0,P|316:358|298:212,1,224.999992847443,10|0,0:2|1:0,0:0:0:0:
227,164,108060,6,0,L|172:174,1,56.2500003576279,2|0,1:2|0:0,0:0:0:0:
145,153,108210,2,0,L|90:163,1,56.2500003576279,2|0,0:2|0:0,0:0:0:0:
200,75,108360,6,0,L|207:13,1,56.2500003576279,6|0,0:3|0:0,0:0:0:0:
209,78,108510,2,0,L|216:16,1,56.2500003576279,2|0,0:3|0:0,0:0:0:0:
306,110,108660,6,0,P|333:135|338:161,1,56.2500003576279,2|0,0:3|0:0,0:0:0:0:
394,204,108810,2,0,P|426:186|452:189,1,56.2500003576279,4|0,0:3|0:0,0:0:0:0:
512,146,108960,2,0,P|504:109|516:85,1,56.2500003576279,2|0,0:2|0:0,0:0:0:0:
496,18,109110,2,0,P|459:13|440:-4,1,56.2500003576279,2|0,0:2|0:0,0:0:0:0:
355,20,109260,6,0,L|278:10,4,74.9999976158143,0|0|0|0|0,3:0|3:0|3:0|3:0|3:0,0:0:0:0:
355,20,110160,1,2,0:3:0:0:
115,133,110460,1,6,1:1:0:0:
125,187,120060,6,0,P|140:267|134:343,2,149.999995231629,6|2|2,1:1|0:1|3:2,0:0:0:0:
292,97,120960,1,2,1:2:0:0:
292,97,121110,2,0,P|265:33|215:31,2,119.999996185303,2|2|2,0:2|0:2|0:2,0:0:0:0:
355,153,121860,2,0,P|389:168|415:185,1,59.9999980926514,8|2,0:1|0:2,0:0:0:0:
446,181,122160,2,0,P|480:196|506:213,1,59.9999980926514,2|2,0:2|0:2,0:0:0:0:
438,344,122460,6,0,P|434:304|429:270,2,59.9999980926514,2|2|2,1:1|0:2|0:2,0:0:0:0:
429,350,123060,2,0,P|375:299|304:315,1,149.999995231629,2|2,3:1|1:2,0:0:0:0:
186,369,123510,2,0,P|165:328|172:299,1,74.9999976158143,2|0,0:2|0:0,0:0:0:0:
113,242,123810,2,0,P|145:209|175:207,1,74.9999976158143,2|0,0:2|1:0,0:0:0:0:
280,82,124110,6,0,L|358:100,1,74.9999976158143,2|10,0:2|0:1,0:0:0:0:
218,138,124410,1,2,0:2:0:0:
218,138,124560,2,0,L|140:120,1,74.9999976158143,2|0,0:1|0:0,0:0:0:0:
10,33,124860,5,2,1:1:0:0:
17,29,125160,2,0,P|41:76|38:117,1,74.9999976158143,2|0,0:1|0:0,0:0:0:0:
114,183,125460,2,0,P|66:237|56:290,1,112.499996423721,2|0,3:1|0:0,0:0:0:0:
66,288,125760,1,2,1:2:0:0:
197,362,125910,6,0,P|235:354|259:321,1,74.9999976158143,2|2,0:2|0:2,0:0:0:0:
211,259,126210,2,0,P|173:267|149:300,1,74.9999976158143,2|0,0:2|0:0,0:0:0:0:
318,270,126510,1,2,0:2:0:0:
318,270,126660,2,0,P|327:230|337:192,1,74.9999976158143,8|2,0:1|0:2,0:0:0:0:
206,70,126960,2,0,P|215:106|223:142,1,74.9999976158143,2|2,0:2|0:2,0:0:0:0:
427,124,127260,6,0,L|501:139,2,74.9999976158143,2|2|2,1:1|0:2|0:2,0:0:0:0:
422,128,127860,2,0,B|409:104|409:104|314:90,1,112.499996423721,2|0,3:1|0:0,0:0:0:0:
314,85,128160,1,2,1:2:0:0:
122,111,128310,6,0,B|102:72|102:72|128:32,1,89.9999943923952,2|2,0:2|0:1,0:0:0:0:
264,154,128610,2,0,B|284:193|284:193|258:233,1,89.9999943923952,2|0,0:2|0:0,0:0:0:0:
129,320,128910,2,0,B|109:281|109:281|135:241,1,89.9999943923952,2|10,0:2|0:1,0:0:0:0:
127,237,129210,2,0,P|122:206|116:191,1,44.9999971961976
242,353,129360,6,0,B|347:333|347:333|355:325|355:325|495:300,1,224.999992847443,2|0,1:3|0:0,0:0:0:0:
465,298,129660,6,0,P|429:261|438:212,1,104.999993457794,14|2,0:2|0:1,0:0:0:0:
328,104,130110,2,0,P|364:141|355:190,1,104.999993457794,8|0,0:2|0:0,0:0:0:0:
281,255,130560,2,0,L|162:233,1,104.999993457794,10|2,0:2|0:2,0:0:0:0:
76,146,131010,6,0,L|56:78,1,52.4999967288972,10|0,0:2|0:0,0:0:0:0:
173,244,131310,2,0,L|193:312,2,52.4999967288972,10|0|10,0:2|3:0|0:2,0:0:0:0:
216,124,131760,5,10,0:2:0:0:
216,124,131835,1,8,0:2:0:0:
216,124,131910,1,10,0:2:0:0:
216,124,131985,1,8,0:2:0:0:
216,124,132060,2,0,P|225:78|249:56,2,74.9999976158143,10|2|2,0:2|0:2|0:2,0:0:0:0:
374,244,132660,6,0,B|407:281|407:281|381:373,1,112.499996423721,2|0,0:1|0:0,0:0:0:0:
376,347,132960,1,10,0:2:0:0:
230,320,133110,6,0,B|193:309|193:309|189:311|189:311|150:301,1,74.9999976158143,2|0,0:2|0:0,0:0:0:0:
268,185,133410,2,0,B|276:222|276:222|280:225|280:225|291:263,1,74.9999976158143,10|0,0:2|0:0,0:0:0:0:
132,219,133710,2,0,B|160:192|160:192|160:187|160:187|188:159,2,74.9999976158143,10|2|10,0:2|3:1|0:2,0:0:0:0:
64,349,134160,6,0,L|70:379,4,18.7499994039536,10|8|8|8|8,0:2|0:2|0:2|0:2|0:2,0:0:0:0:
2,260,134460,5,10,0:2:0:0:
2,260,134760,2,0,P|34:238|44:197,1,74.9999976158143,2|8,0:1|0:2,0:0:0:0:
0,73,135060,2,0,P|70:90|67:142,1,112.499996423721,2|0,0:1|0:0,0:0:0:0:
64,133,135360,1,10,0:2:0:0:
185,14,135510,6,0,P|220:22|242:59,1,74.9999976158143,2|0,0:2|0:0,0:0:0:0:
292,121,135810,2,0,P|327:113|349:76,1,74.9999976158143,10|0,0:2|0:0,0:0:0:0:
399,14,136110,2,0,P|434:22|456:59,2,74.9999976158143,10|0|10,0:2|3:0|0:2,0:0:0:0:
393,202,136560,5,10,0:2:0:0:
393,202,136635,1,8,0:2:0:0:
393,202,136710,1,10,0:2:0:0:
393,202,136785,1,8,0:2:0:0:
393,202,136860,2,0,L|478:220,2,74.9999976158143,10|2|2,0:2|0:2|0:2,0:0:0:0:
298,367,137460,6,0,L|267:234,1,112.499996423721,2|0,0:1|0:0,0:0:0:0:
284,248,137760,1,8,0:2:0:0:
172,344,137910,6,0,L|88:359,1,74.9999976158143,2|2,0:2|0:1,0:0:0:0:
112,240,138210,2,0,L|28:225,1,74.9999976158143,10|0,0:2|0:0,0:0:0:0:
163,113,138510,2,0,L|79:128,1,74.9999976158143,10|2,0:2|0:1,0:0:0:0:
18,147,138810,1,2,0:2:0:0:
235,55,138960,6,0,B|234:35|221:17|221:17|286:-27|375:15|386:116,1,224.999992847443,2|0,0:2|0:0,0:0:0:0:
451,69,139260,6,0,B|436:63|464:16|512:87|488:155|396:151,1,149.999995231629,14|2,0:2|0:1,0:0:0:0:
392,285,139710,2,0,B|404:275|431:322|345:328|299:274|348:196,1,149.999995231629,8|0,0:2|0:0,0:0:0:0:
313,131,140160,1,10,0:2:0:0:
102,363,140610,5,2,3:2:0:0:
102,363,140685,1,0,3:0:0:0:
102,363,140760,2,0,P|89:317|69:291,1,74.9999976158143,0|2,3:0|0:2,0:0:0:0:
156,199,141060,2,0,P|169:245|189:271,1,74.9999976158143,0|2,3:0|0:2,0:0:0:0:
30,237,141360,1,2,3:2:0:0:
30,237,141435,1,0,3:2:0:0:
30,237,141510,1,2,3:2:0:0:
30,237,141585,1,0,3:2:0:0:
30,237,141660,6,0,P|27:172|-3:75,1,149.999995231629,10|2,0:2|0:2,0:0:0:0:
139,41,142110,2,0,P|142:106|172:203,1,149.999995231629,8|0,0:2|0:0,0:0:0:0:
262,252,142560,1,10,0:2:0:0:
227,354,142710,1,0,0:0:0:0:
262,252,142860,6,2,B|293:271|329:244|328:235|325:228|357:194|413:217,3,149.999995231629,2|2|2|0,0:2|3:2|3:2|3:2,0:0:0:0:
404,218,143835,1,0,3:2:0:0:
410,227,143910,1,0,3:2:0:0:
362,367,144060,6,0,P|341:278|296:148,1,224.999992847443,10|8,0:2|0:2,0:0:0:0:
212,23,144660,6,0,P|179:30|163:62,3,56.2500003576279,2|0|0|0,0:1|0:0|0:0|0:0,0:0:0:0:
94,74,144960,2,0,P|90:107|115:132,1,56.2500003576279,10|0,0:2|0:0,0:0:0:0:
106,201,145110,2,0,P|136:214|168:198,1,56.2500003576279
231,229,145260,6,0,P|253:203|247:168,3,56.2500003576279,2|0|0|0,0:1|0:0|0:0|0:0,0:0:0:0:
296,119,145560,2,0,P|279:89|243:84,3,56.2500003576279,2|0|0|0,3:1|0:0|0:0|0:0,0:0:0:0:
212,23,145860,1,2,3:1:0:0:
334,22,146460,6,0,L|410:16,1,74.9999976158143,2|0,3:2|3:0,0:0:0:0:
288,127,146760,2,0,L|212:121,1,74.9999976158143,2|0,3:2|3:0,0:0:0:0:
384,218,147060,2,0,L|458:212,1,74.9999976158143,2|0,3:2|3:0,0:0:0:0:
263,336,147360,2,0,L|188:330,1,74.9999976158143,2|0,3:2|3:0,0:0:0:0:
382,351,147660,5,2,3:2:0:0:
264,231,147810,1,0,3:0:0:0:
392,125,147960,1,0,3:0:0:0:
336,34,148110,6,0,P|300:29|334:37,1,112.499996423721,0|2,3:0|0:2,0:0:0:0:
361,136,148860,6,2,B|266:117|266:117|235:111|225:77|225:77|216:42|184:36|184:36|121:24|121:24|90:18|51:51|75:96|106:102|106:102|169:115,1,449.999985694885,4|0,3:3|3:0,0:1:0:0:
195,174,149460,2,0,P|217:199|219:229,3,56.2500003576279,8|0|0|0,3:2|3:0|3:0|3:0,0:0:0:0:
146,250,149760,2,0,P|129:278|101:289,3,56.2500003576279,6|0|0|0,3:0|3:0|3:0|3:0,0:0:0:0:
47,237,150060,6,0,L|32:139,1,74.9999976158143,0|0,3:0|3:0,0:0:0:0:
214,298,150360,2,0,L|229:396,1,74.9999976158143,6|0,3:3|3:0,0:0:0:0:
496,219,150660,6,2,B|332:256|332:256|293:265|251:226|271:172|310:163|310:163|341:156,1,337.500002145767,10|0,3:2|3:0,0:1:0:0:
467,132,151260,6,2,B|391:150|391:150|360:157|339:137|339:137|318:117|287:124|287:124|216:141|216:141|185:148|164:128|164:128|143:108|112:116|112:116|39:133,1,449.999985694885,6|0,3:0|3:0,0:1:0:0:
46,220,151860,2,0,P|32:241|-2:254,3,56.2500003576279,8|0|0|0,3:2|3:0|3:0|3:0,0:0:0:0:
86,298,152160,2,0,P|101:317|103:354,3,56.2500003576279,6|0|0|0,3:0|3:0|3:0|3:0,0:0:0:0:
189,280,152460,5,2,3:1:0:0:
270,349,152610,1,0,3:0:0:0:
270,349,152760,2,0,P|282:281|307:228,1,112.500000715256,6|0,3:0|3:0,0:0:0:0:
297,147,153060,6,0,P|280:145|261:160,5,28.125000178814,8|0|0|0|0|0,3:2|3:0|3:0|3:0|3:0|3:0,0:0:0:0:
385,202,153360,2,0,P|402:204|421:189,5,28.125000178814,2|0|0|0|0|0,3:1|3:0|3:0|3:0|3:0|3:0,0:0:0:0:
510,238,153660,6,2,B|448:255|448:255|433:260|371:277|353:216|349:200|349:200|336:154|336:154|331:139|314:77|252:95|237:99|237:99|160:121,1,449.999985694885,6|0,3:0|3:0,0:1:0:0:
90,82,154260,2,0,P|90:55|111:27,3,56.2500003576279,8|0|0|0,3:2|3:0|3:0|3:0,0:0:0:0:
164,130,154560,2,0,P|164:157|143:185,3,56.2500003576279,6|0|0|0,3:0|3:0|3:0|3:0,0:0:0:0:
250,58,154860,6,0,L|329:47,1,74.9999976158143,0|0,3:0|3:0,0:0:0:0:
391,212,155160,1,6,3:0:0:0:
391,212,155460,6,2,P|471:208|380:348,1,337.500002145767,10|0,3:2|3:0,0:1:0:0:
408,363,156060,6,2,B|295:325|295:325|259:312|250:263|250:263|245:218|211:206|211:206|161:190|161:190|305:232|305:232|330:242|329:271,1,506.250003218651,6|0,3:0|3:0,0:1:0:0:
210,353,156660,2,0,P|174:333|154:333,3,56.2500003576279,8|0|0|0,3:2|3:0|3:0|3:0,0:0:0:0:
101,284,156960,2,0,P|70:312|64:331,3,56.2500003576279,6|0|0|0,3:0|3:0|3:0|3:0,0:0:0:0:
156,195,157260,5,2,3:1:0:0:
66,133,157410,1,0,3:0:0:0:
66,133,157560,2,0,B|43:80|43:80|80:32,1,112.500000715256,6|0,3:0|3:0,0:0:0:0:
179,57,157860,6,0,L|185:23,5,28.125000178814,8|0|0|0|0|0,3:2|3:0|3:0|3:0|3:0|3:0,0:0:0:0:
249,147,158160,2,0,L|243:181,5,28.125000178814,2|0|0|0|8|0,3:1|3:0|3:0|3:0|3:2|3:0,0:0:0:0:
388,57,158460,6,2,B|460:71|460:71|489:76|504:117|475:149|446:143|446:143|294:113|294:113|272:109|241:107|230:144|225:160|225:160|211:217,1,449.999985694885,4|0,3:3|3:0,0:1:0:0:
261,242,159060,2,0,P|289:263|325:259,3,56.2500003576279,8|0|0|0,3:2|3:0|3:0|3:0,0:0:0:0:
367,317,159360,2,0,P|395:296|402:261,3,56.2500003576279,6|0|0|0,3:0|3:0|3:0|3:0,0:0:0:0:
311,377,159660,6,0,L|206:360,1,74.9999976158143,0|0,3:0|3:0,0:0:0:0:
105,349,159960,1,6,3:3:0:0:
105,349,160260,6,2,B|121:278|121:278|135:216|179:202|179:202|224:187|238:125|238:125|254:55,1,337.500002145767,10|0,3:2|3:0,0:1:0:0:
173,44,160860,6,2,B|159:105|159:105|145:167|179:200|179:200|212:232|198:294|198:294|181:381,1,337.500002145767,6|0,3:0|3:0,0:1:0:0:
41,304,161460,6,0,P|27:272|32:251,3,56.2500003576279,8|0|0|0,3:2|3:0|3:0|3:0,0:0:0:0:
4,180,161760,2,0,P|30:156|51:155,3,56.2500003576279,6|0|0|0,3:0|3:0|3:0|3:0,0:0:0:0:
71,68,162060,5,2,3:1:0:0:
162,137,162210,1,0,3:0:0:0:
271,97,162360,2,0,P|294:43|264:-4,1,112.500000715256,6|0,3:0|3:0,0:0:0:0:
172,144,162660,6,0,L|164:175,5,28.125000178814,8|0|0|0|0|0,3:2|3:0|3:0|3:0|3:0|3:0,0:0:0:0:
218,309,162960,2,0,L|225:281,5,28.125000178814,2|0|0|0|0|0,3:1|3:0|3:0|3:0|3:0|3:0,0:0:0:0:
372,299,163260,6,2,B|374:356|453:407|532:323|497:240|421:230|421:230|242:193,1,449.999985694885,6|0,3:0|3:0,0:1:0:0:
220,77,163860,6,0,L|205:19,3,56.2500003576279,8|0|0|0,3:2|3:0|3:0|3:0,0:0:0:0:
143,153,164160,2,0,L|158:211,3,56.2500003576279,6|0|0|0,3:0|3:0|3:0|3:0,0:0:0:0:
63,46,164460,6,0,P|16:60|2:101,1,74.9999976158143,0|0,3:0|3:0,0:0:0:0:
28,216,164760,1,6,3:0:0:0:
28,216,165060,6,2,B|130:232|130:232|162:237|188:273|188:273|215:310|255:316|255:316|341:330,1,337.500002145767,10|0,3:2|3:0,0:1:0:0:
333,329,165660,6,2,B|368:107|368:107|373:72|378:44|327:-20|259:25|254:57|249:88|249:88|238:160,1,506.250003218651,6|0,3:0|3:0,0:1:0:0:
292,227,166260,6,0,P|333:214|345:191,3,56.2500003576279,8|0|0|0,3:2|3:0|3:0|3:0,0:0:0:0:
415,169,166560,2,0,P|415:125|397:107,3,56.2500003576279,6|0|0|0,3:0|3:0|3:0|3:0,0:0:0:0:
494,260,166860,5,2,3:1:0:0:
418,349,167010,1,0,3:0:0:0:
418,349,167160,2,0,L|299:359,1,112.500000715256,6|0,3:0|3:0,0:0:0:0:
111,251,167460,6,0,L|120:211,5,28.125000178814,8|0|0|0|4|0,3:2|3:0|3:0|3:0|3:0|3:0,0:0:0:0:
172,342,167760,2,0,L|163:382,5,28.125000178814,2|0|0|0|0|0,3:1|3:0|3:0|3:0|3:0|3:0,3:0:0:0:
20,234,168060,6,2,B|112:207|112:207|143:198|149:163|149:163|156:128|186:119|186:119|248:101|248:101|279:93|320:122|301:169|270:178|270:178|258:182|258:182|366:151|366:151|386:133|375:94,1,562.499982118607,4|0,3:1|3:0,0:1:0:0:
426,62,168660,5,10,3:2:0:0:
430,56,168735,1,0,3:0:0:0:
430,48,168810,2,0,P|398:30|351:41,1,74.9999976158143,0|0,3:0|3:0,0:0:0:0:
287,6,168960,2,0,P|259:30|255:78,3,74.9999976158143,6|0|0|0,3:0|3:0|3:0|3:0,0:0:0:0:
157,116,169260,6,0,L|15:96,1,112.500000715256,2|0,3:0|3:0,0:0:0:0:
220,195,169560,2,0,L|362:215,1,112.500000715256,6|0,3:3|3:0,0:0:0:0:
166,314,169860,6,2,B|201:280|201:280|172:33|172:33|120:5,1,337.500002145767,10|0,3:2|3:0,0:1:0:0:
0,114,170460,5,6,3:0:0:0:
29,95,170535,2,0,B|68:108|68:108|93:202,1,112.500000715256,0|0,3:0|3:0,0:0:0:0:
113,251,170760,2,0,B|152:238|152:238|178:153|178:153|233:135,1,168.750001072884,2|0,3:2|3:0,0:0:0:0:
342,155,171060,6,0,L|402:163,3,56.2500003576279,10|0|0|0,3:2|3:0|3:0|3:0,0:0:0:0:
290,228,171360,2,0,L|230:236,3,56.2500003576279,6|0|0|0,3:0|3:0|3:0|3:0,0:0:0:0:
415,260,171660,6,0,P|461:283|466:353,1,112.500000715256,2|0,3:1|3:0,0:0:0:0:
344,303,171960,2,0,P|354:357|402:383,1,112.500000715256,6|0,3:0|3:0,0:0:0:0:
497,188,172260,6,0,L|505:146,5,28.125000178814,10|0|0|0|0|0,3:2|3:0|3:0|3:0|3:0|3:0,0:0:0:0:
434,81,172560,2,0,L|442:39,5,28.125000178814,2|0|0|0|0|0,3:1|3:0|3:0|3:0|3:0|3:0,0:0:0:0:
282,129,172860,6,2,B|336:118|336:118|360:113|398:142|374:184|350:188|350:188|217:214|217:214|158:226|106:167|132:92|183:82|183:82|261:67,1,562.499982118607,6|0,3:0|3:0,0:1:0:0:
144,14,173460,5,10,3:2:0:0:
129,10,173535,1,0,3:0:0:0:
114,7,173610,2,0,P|77:30|76:68,1,74.9999976158143,0|0,3:0|3:0,0:0:0:0:
9,145,173760,2,0,P|44:175|47:204,3,74.9999976158143,6|0|0|0,3:0|3:0|3:0|3:0,0:0:0:0:
124,273,174060,6,0,L|103:400,1,112.500000715256,2|0,3:2|3:0,0:0:0:0:
236,256,174360,2,0,L|215:383,1,112.500000715256,6|0,3:0|3:0,0:0:0:0:
107,260,174660,6,2,B|256:246|256:246|281:255|281:255|458:240,1,337.500002145767,10|0,3:2|3:0,0:1:0:0:
485,109,175260,5,6,3:0:0:0:
497,87,175335,2,0,P|446:68|404:107,1,112.500000715256,0|0,3:0|3:0,0:0:0:0:
335,62,175560,2,0,P|284:125|320:203,1,168.750001072884,2|0,3:2|3:0,0:0:0:0:
367,266,175860,6,0,L|448:284,3,56.2500003576279,10|0|0|0,3:2|3:0|3:0|3:0,0:0:0:0:
278,359,176160,2,0,L|197:341,3,56.2500003576279,6|0|0|0,3:0|3:0|3:0|3:0,0:0:0:0:
128,292,176460,6,0,B|82:256|82:256|99:193,1,112.500000715256,2|0,3:1|3:0,0:0:0:0:
210,267,176760,2,0,B|224:214|224:214|178:178,1,112.500000715256,6|0,3:0|3:0,0:0:0:0:
26,167,177060,6,0,L|-11:178,5,28.125000178814,10|0|0|0|0|0,3:2|3:0|3:0|3:0|3:0|3:0,0:0:0:0:
34,30,177360,2,0,L|60:21,5,28.125000178814,2|0|0|0|8|0,3:1|3:0|3:0|3:0|3:2|3:0,0:0:0:0:
155,80,177660,6,2,B|225:93|225:93|257:99|277:79|277:79|297:58|321:63|321:63|368:72|368:72|423:83|423:83|446:87|464:123|464:123|473:158|511:173|511:173|354:143,1,562.499982118607,12|8,3:3|3:0,0:1:0:0:
287,192,178260,5,10,3:2:0:0:
272,194,178335,1,0,3:0:0:0:
257,196,178410,2,0,B|237:232|237:232|273:266,1,74.9999976158143,0|0,3:0|3:0,0:0:0:0:
349,339,178560,1,14,3:0:0:0:
364,337,178635,1,0,3:0:0:0:
379,335,178710,2,0,B|399:299|399:299|363:265,1,74.9999976158143,0|0,3:0|3:0,0:0:0:0:
249,346,178860,6,0,L|120:360,1,112.500000715256,2|0,3:0|3:0,0:0:0:0:
35,270,179160,2,0,L|164:256,1,112.500000715256,14|0,3:3|3:0,0:0:0:0:
127,366,179460,6,2,B|67:285|148:215|161:214|176:212|260:172|216:73,1,337.500002145767,10|0,3:2|3:0,0:1:0:0:
76,4,180060,5,14,3:0:0:0:
55,19,180135,2,0,B|13:56|13:56|65:125,1,112.500000715256,0|0,3:0|3:0,0:0:0:0:
84,164,180360,2,0,B|141:175|141:175|151:169|151:169|248:185,1,168.750001072884,2|0,3:2|3:0,0:0:0:0:
318,84,180660,6,0,L|303:16,3,56.2500003576279,10|0|0|0,3:2|3:0|3:0|3:0,0:0:0:0:
410,116,180960,2,0,L|425:184,3,56.2500003576279,14|0|0|0,3:0|3:0|3:0|3:0,0:0:0:0:
510,244,181260,6,0,P|445:271|428:319,1,112.500000715256,2|0,3:1|3:0,0:0:0:0:
325,182,181560,2,0,P|357:226|351:281,1,112.500000715256,14|0,3:0|3:0,0:0:0:0:
237,362,181860,6,0,L|191:351,5,28.125000178814,10|0|0|0|0|0,3:2|3:0|3:0|3:0|3:0|3:0,0:0:0:0:
89,306,182160,2,0,L|117:300,5,28.125000178814,2|0|0|0|0|0,3:1|3:0|3:0|3:0|3:0|3:0,0:0:0:0:
179,192,182460,6,2,B|88:182|88:182|52:178|38:141|59:107|95:111|95:111|202:122|202:122|226:124|245:108|245:108|265:93|289:95|289:95|451:111,1,562.499982118607,14|8,3:0|3:0,0:1:0:0:
496,48,183060,5,10,3:2:0:0:
504,35,183135,1,0,3:0:0:0:
501,20,183210,2,0,P|451:18|426:48,1,74.9999976158143,0|0,3:0|3:0,0:0:0:0:
370,91,183360,1,14,3:0:0:0:
360,79,183435,1,0,3:0:0:0:
344,77,183510,2,0,P|326:123|347:156,1,74.9999976158143,0|0,3:0|3:0,0:0:0:0:
400,244,183660,6,0,L|521:231,1,112.500000715256,2|0,3:2|3:0,0:0:0:0:
366,356,183960,2,0,L|245:369,1,112.500000715256,14|0,3:0|3:0,0:0:0:0:
144,202,184260,6,2,B|121:156|121:156|330:182|330:182|312:262,1,337.500002145767,10|0,3:2|3:0,0:1:0:0:
181,333,184860,5,6,3:0:0:0:
197,316,184935,2,0,B|156:283|156:283|77:297,1,112.500000715256,0|0,3:0|0:0,0:0:0:0:
29,246,185160,2,0,B|4:217|4:217|53:75,1,168.750001072884,10|0,3:3|3:0,0:0:0:0:
145,13,185460,6,0,L|159:73,3,56.2500003576279,10|0|8|0,3:2|3:0|3:0|3:0,0:0:0:0:
235,139,185760,2,0,L|249:79,3,56.2500003576279,10|0|8|0,3:0|3:0|3:0|3:0,0:0:0:0:
332,0,186060,6,0,L|359:116,1,112.500000715256,2|0,3:2|3:0,0:0:0:0:
381,198,186360,2,0,L|398:272,1,74.9999976158143,2|0,3:2|3:0,0:0:0:0:
421,348,186660,1,0,3:0:0:0:
206,326,187260,5,6,1:1:0:0:
206,326,187860,2,0,P|201:269|135:249,1,104.999993457794,2|2,0:2|0:2,0:0:0:0:
31,159,188460,1,2,0:1:0:0:
31,159,189060,2,0,P|88:140|97:93,1,104.999993457794,2|2,0:2|0:2,0:0:0:0:
196,20,189660,5,2,1:1:0:0:
196,20,189960,2,0,P|206:49|209:76,1,52.4999967288972,2|0,0:2|0:0,0:0:0:0:
267,115,190260,2,0,P|257:144|254:171,1,52.4999967288972,2|0,0:2|0:0,0:0:0:0:
190,211,190560,2,0,P|200:240|203:267,1,52.4999967288972,2|0,0:2|0:0,0:0:0:0:
280,350,190860,5,2,0:1:0:0:
280,350,191160,1,2,0:2:0:0:
446,285,191460,1,2,0:1:0:0:
360,66,191760,5,2,0:2:0:0:
332,134,191910,1,0,0:0:0:0:
393,173,192060,1,2,1:1:0:0:
377,244,192210,1,0,0:0:0:0:
437,285,192360,2,0,P|484:242|474:199,1,104.999993457794
185,70,193260,5,2,0:1:0:0:
185,70,193560,2,0,P|143:65|121:55,1,52.4999967288972,2|0,0:2|0:0,0:0:0:0:
62,117,193860,2,0,P|78:155|81:179,1,52.4999967288972,2|0,0:2|0:0,0:0:0:0:
164,200,194160,2,0,P|189:166|208:152,1,52.4999967288972,2|0,0:2|0:0,0:0:0:0:
34,255,194460,5,2,1:1:0:0:
34,255,195060,1,2,0:2:0:0:
95,313,195360,6,0,P|125:337|136:367,1,67.4999957942964,2|0,0:2|0:0,0:0:0:0:
184,233,195660,2,0,P|214:209|225:179,1,67.4999957942964,2|0,0:1|0:0,0:0:0:0:
266,297,195960,2,0,P|308:315|329:332,1,67.4999957942964,0|2,0:0|0:1,0:0:0:0:
326,225,196260,2,0,P|368:207|389:190,1,67.4999957942964,2|0,0:2|0:0,0:0:0:0:
421,267,196560,2,0,L|493:278,1,67.4999957942964,2|0,0:1|0:0,0:0:0:0:
401,110,196860,5,2,1:1:0:0:
401,110,197160,1,2,0:2:0:0:
253,152,197460,2,0,P|230:123|228:104,1,52.4999967288972,2|0,0:2|0:0,0:0:0:0:
217,75,197760,2,0,P|194:104|192:123,1,52.4999967288972,2|0,0:2|0:0,0:0:0:0:
59,194,198060,5,2,1:1:0:0:
59,194,198660,2,0,P|105:212|118:314,1,157.499990186692,2|2,0:2|0:2,0:0:0:0:
289,371,199260,5,2,1:1:0:0:
289,371,199560,2,0,P|286:344|263:320,1,52.4999967288972,2|0,0:2|0:0,0:0:0:0:
367,247,199860,2,0,P|370:274|393:298,1,52.4999967288972,2|0,0:2|0:0,0:0:0:0:
245,252,200160,2,0,P|253:221|251:199,1,52.4999967288972,2|0,0:2|0:0,0:0:0:0:
373,57,200460,5,2,1:1:0:0:
373,57,200760,1,2,0:2:0:0:
446,213,201060,1,2,0:1:0:0:
238,251,201360,6,0,P|179:220|175:174,1,104.999993457794,2|2,0:2|1:1,0:0:0:0:
178,169,201735,1,0,0:0:0:0:
188,153,201810,2,0,L|74:138,1,104.999993457794
6,36,202260,2,0,L|69:23,1,52.4999967288972,2|0,1:2|0:0,0:0:0:0:
208,56,202560,2,0,L|145:69,1,52.4999967288972,2|0,0:2|0:0,0:0:0:0:
13,181,202860,1,2,1:1:0:0:
145,338,203160,5,2,0:2:0:0:
178,201,203460,1,2,1:2:0:0:
136,335,203760,1,2,0:2:0:0:
368,356,204060,6,0,P|374:310|332:276,1,104.999993457794,2|2,1:1|0:2,0:0:0:0:
223,203,204660,2,0,P|236:140|239:90,1,104.999993457794,2|2,1:2|0:2,0:0:0:0:
295,51,205060,2,0,L|328:59,2,34.9999978192648,0|0|0,0:0|0:0|1:0,0:0:0:0:
456,157,205560,6,0,P|468:124|464:101,1,52.4999967288972
367,157,205860,2,0,P|355:190|359:213,1,52.4999967288972,0|0,1:0|0:0,0:0:0:0:
484,84,206160,2,0,P|478:48|464:35,1,52.4999967288972,0|0,1:0|0:0,0:0:0:0:
329,234,206460,6,0,B|233:222|233:222|212:227|212:227|100:212,1,224.999992847443,14|8,1:2|0:2,0:0:0:0:
22,63,207060,2,0,P|69:63|83:134,1,112.499996423721,2|0,0:2|0:0,0:0:0:0:
79,131,207360,1,10,0:2:0:0:
15,256,207510,6,0,L|166:242,1,149.999995231629,2|10,0:2|0:2,0:0:0:0:
175,241,207885,1,8,0:2:0:0:
186,238,207960,2,0,P|199:184|168:155,1,74.9999976158143,10|2,0:2|0:2,0:0:0:0:
88,285,208260,2,0,P|75:339|106:368,1,74.9999976158143,10|2,0:2|0:2,0:0:0:0:
190,380,208560,1,10,0:2:0:0:
190,380,208710,1,10,0:2:0:0:
282,289,208860,6,0,B|340:249|390:300|388:307|386:316|424:373|496:341,1,224.999992847443,10|8,1:2|0:2,0:0:0:0:
512,251,209460,2,0,L|492:131,1,112.499996423721,2|0,0:2|0:0,0:0:0:0:
507,121,209760,1,10,0:2:0:0:
356,168,209910,6,0,P|323:120|382:56,1,149.999995231629,2|2,0:2|0:2,0:0:0:0:
380,65,210285,1,0,0:0:0:0:
385,75,210360,2,0,L|283:61,1,74.9999976158143,10|2,0:2|0:2,0:0:0:0:
233,144,210660,2,0,L|131:158,1,74.9999976158143,10|2,0:2|0:2,0:0:0:0:
54,80,210960,1,10,1:2:0:0:
54,80,211260,6,0,B|79:95|79:95|63:200|63:200|55:211|55:211|41:302,1,224.999992847443,10|8,1:2|0:2,0:0:0:0:
152,365,211860,2,0,P|181:358|221:354,1,49.9999984105428,2|0,0:2|0:0,0:0:0:0:
271,293,212060,2,0,P|247:281|224:275,1,49.9999984105428,0|8,0:0|0:2,0:0:0:0:
160,216,212260,2,0,P|172:197|191:177,1,49.9999984105428
246,59,212460,6,0,L|259:108,1,49.9999984105428,2|0,0:2|0:0,0:0:0:0:
341,71,212660,2,0,L|354:120,1,49.9999984105428,0|8,0:0|0:2,0:0:0:0:
420,26,212860,2,0,L|433:75,1,49.9999984105428
512,150,213060,6,0,B|418:169|418:169|385:320|385:320|278:339,1,337.500002145767,10|8,0:2|0:2,0:0:0:0:
193,372,213660,5,10,1:2:0:0:
166,289,213810,1,0,0:0:0:0:
43,272,213960,5,0,3:0:0:0:
113,220,214110,1,0,3:0:0:0:
89,86,214260,5,4,3:0:0:0:
159,137,214410,1,4,3:0:0:0:
269,78,214560,5,4,3:0:0:0:
243,161,214710,1,4,3:0:0:0:
257,246,214860,6,0,L|331:262,3,75.0000004768372,4|4|4|4,3:0|0:3|0:3|0:3,0:0:0:0:
330,261,216060,1,4,0:2:0:0:
52,120,218460,6,0,B|-4:128|28:36|95:96|52:122,1,112.500000715256,2|0,0:1|0:0,0:0:0:0:
161,57,218910,2,0,B|108:35|182:-27|210:57|160:58,1,112.500000715256,2|0,0:1|0:0,0:0:0:0:
201,125,219285,2,0,B|148:146|222:209|250:124|200:123,1,112.500000715256,2|0,0:1|0:0,0:0:0:0:
260,58,219660,6,2,B|287:37|310:-2|310:-2|259:177|259:177|262:193|262:193|210:374|210:374|240:328|282:313,1,562.499982118607,2|2,0:1|0:2,0:0:0:0:
394,320,220860,6,2,B|395:319|395:319|394:317|394:317|397:320|397:320|396:319|396:319|396:318|396:318|395:316|395:316|398:319|398:319|397:317|397:317|398:317|398:316|398:316|397:314|397:314|400:318|400:318|399:316|399:316|399:315|399:315|398:313|398:313|401:316|401:316|400:314|400:314|401:314|401:314|400:312|400:312|403:315|403:315|402:313|402:313|402:312|403:312|403:312|402:310|402:310|404:314|404:314|403:312|403:312|404:311|404:311|403:309|403:309|406:312|406:312|405:310|405:310|406:310|406:310|405:308|405:308|407:311|407:311|407:309|407:309|407:307|407:307|409:310|409:310|408:308|408:308|409:308|409:308|408:306|408:306|411:309|411:309|410:307|410:307|411:307|411:306|411:306|410:304|410:304|413:308|413:308|412:306|412:306|412:305|413:305|413:305|412:303|412:303|414:306|414:306|414:304|414:304|415:304|415:304|414:302|414:302|416:305|416:305|416:303|416:303|417:303|417:303|416:301|416:301|418:304|418:304|418:302|418:302|419:301|419:301|418:300|418:300|420:303|420:303|420:301|420:301|421:300|421:300|421:298|421:298|422:302|422:302|422:300|422:300|423:299|423:299|423:297|423:297|424:301|424:301|424:299|424:299|425:298|425:298|425:296|425:296|426:300|426:300|426:298|426:298|427:298|427:298|427:296|427:296|428:299|428:299|428:297|428:297|429:297|429:297|429:295|429:295|430:298|430:298|430:296|430:296|431:296|431:296|431:294|431:294|432:298|432:298|432:296|432:296|433:295|433:295|433:293|433:293|434:297|434:297|434:295|434:295|436:294|436:294|435:292|435:292|437:296|437:296|436:294|436:294|438:294|438:294|438:292|438:292|439:295|439:295|439:293|439:293|440:293|440:293|440:291|440:291|441:295|441:295|441:293|441:293|442:293|442:293|442:291|442:291|443:294|443:294|443:292|443:292|444:292|444:292|444:290|444:290|445:294|445:294|445:292|445:292|446:292|446:292|447:290|447:290|447:293|447:293|447:291|447:291|449:291|449:291|449:289|449:289|449:293|449:293|450:291|450:291|451:291|451:291|451:289|451:289|452:293|452:293|452:291|452:291|453:291|453:291|453:289|453:289|454:292|454:292|454:290|454:290|455:290|455:290|456:288|456:288|456:292|456:292|456:290|456:290|458:290|458:290|458:288|458:288|458:292|458:292|459:290|459:290|460:290|460:290|460:288|460:288|461:292|461:292|461:290|461:290|462:290|462:290|463:288|463:288|463:292|463:292|463:290|463:290|464:290|464:290|465:288|465:288|465:292|465:292|465:290|465:290|466:290|466:290|467:288|467:288|467:292|467:292|467:290|467:290|468:290|468:290|469:288|469:288|469:292|469:292|469:290|469:290|470:290|470:290|471:288|471:288|471:292|471:292|471:290|471:290|472:290|472:290|473:288|473:288|473:292|473:292|473:290|473:290|474:290|474:290|472:290|472:290|475:288|475:288|473:289|473:289|473:288|472:288|472:288|471:289|471:289|474:286|474:286|472:287|472:287|471:286|471:286|470:287|470:287|472:285|472:285|471:286|471:286|470:285|470:285|468:285|468:285|471:283|471:283|469:284|469:284|469:283|469:283|467:284|467:284|470:281|470:281|468:282|468:282|467:281|467:281|465:282|465:282|468:280|468:280|466:281|466:281|466:280|466:280|464:281|464:281|467:278|467:278|465:279|465:279|464:278|464:278|462:279|462:279|465:276|465:276|463:277|463:277|463:276|463:276|461:278|461:278|464:275|464:275|462:276|462:276|462:275|461:275|461:275|459:276|459:276|462:273|462:273|461:274|461:274|460:274|460:273|460:273|458:274|458:274|461:272|461:272|459:273|459:273|459:272|458:272|458:272|456:273|456:273|459:270|459:270|458:271|458:271|457:271|457:270|457:270|455:272|455:272|458:269|458:269|456:270|456:270|456:269|455:269|455:269|454:270|454:270|456:267|456:267|455:268|455:268|454:268|454:268|452:269|452:269|455:266|455:266|453:267|453:267|453:266|452:266|452:266|451:267|451:267|453:264|453:264|452:265|452:265|451:265|451:265|449:266|449:266|452:263|452:263|450:264|450:264|449:264|449:263|449:263|447:265|447:265|450:262|450:262|448:263|448:263|448:262|447:262|447:262|446:263|446:263|448:260|448:260|447:261|447:261|446:261|446:261|444:262|444:262|447:259|447:259|445:260|445:260|444:259|444:259|442:260|442:260|445:257|445:257|443:259|443:259|443:258|442:258|442:258|441:259|441:259|443:256|443:256|442:257|442:257|441:257|441:257|439:258|439:258|441:255|441:255|440:256|440:256|439:256|439:255|439:255|437:257|437:257|440:254|440:254|438:255|438:255|437:254|437:254|436:255|436:255|438:252|438:252|436:254|436:254|436:253|435:253|435:253|434:254|434:254|436:251|436:251|435:252|435:252|434:252|434:252|432:253|432:253|434:250|434:250|433:251|433:251|432:251|432:251|431:252|431:252|433:249|433:249|431:250|431:250|430:250|430:250|429:251|429:251|431:248|431:248|429:249|429:249|428:249|428:249|427:250|427:250|429:246|429:246|427:248|427:248|427:247|427:247|425:249|425:249|427:245|427:245|426:247|426:247|425:247|425:246|425:246|423:248|423:248|425:244|425:244|424:246|424:246|423:246|423:245|423:245|421:247|421:247|423:243|423:243|422:245|422:245|421:245|421:244|421:244|419:246|419:246|421:242|421:242|420:244|420:244|419:244|419:244|418:245|418:245|419:241|419:241|418:243|418:243|417:243|417:243|416:244|416:244|418:241|418:241|416:242|416:242|415:242|415:242|414:243|414:243|416:240|416:240|414:241|414:241|413:241|413:241|412:243|412:243|414:239|414:239|412:241|412:241|412:240|412:240|410:242|410:242|412:238|412:238|411:240|411:240|410:240|409:239|409:239|408:241|408:241|410:237|410:237|409:239|409:239|408:239|407:239|407:239|406:240|406:240|408:237|408:237|407:238|407:238|406:238|405:238|405:238|404:240|404:240|406:236|406:236|405:238|405:238|404:237|403:237|403:237|402:239|402:239|404:235|404:235|403:237|403:237|402:237|401:237|401:237|400:238|400:238|402:235|402:235|401:236|401:236|400:236|399:236|399:236|398:238|398:238|399:234|399:234|399:236|399:236|398:236|397:236|397:236|397:237|397:237|397:234|397:234|397:235|397:235|396:235|395:235|395:235|395:237|395:237|395:233|395:233|395:235|395:235|394:235|394:235|393:236|393:236|393:233|393:233|393:234|393:234|392:234|392:234|391:236|391:236|391:232|391:232|390:234|390:234|389:234|389:234|389:236|389:236|389:231|389:231|388:233|388:233|387:233|387:233|386:235|386:235|387:231|387:231|386:233|386:233|385:233|385:233|384:235|384:235|385:231|385:231|384:233|384:233|383:233|383:233|382:235|382:235|383:230|383:230|382:232|382:232|381:232|381:232|380:234|380:234|381:230|381:230|380:232|380:232|379:232|379:232|378:234|378:234|379:230|379:230|378:232|378:232|377:232|377:232|376:234|376:234|377:230|377:230|376:232|376:232|375:232|375:232|374:234|374:234|375:230|375:230|374:232|374:232|373:232|373:232|372:234|372:234|373:230|373:230|372:232|372:232|371:232|371:232|370:234|370:234|370:230|370:230|370:232|370:232|369:232|369:232|368:233|368:233|368:230|368:230|368:232|368:232|367:232|367:232|366:233|366:233|366:230|366:230|366:232|366:232|365:232|364:232|364:232|364:233|364:233|364:230|364:230|363:232|363:232|362:232|362:232|362:234|362:234|362:230|362:230|361:232|361:232|360:232|360:232|360:234|360:234|360:230|360:230|359:232|359:232|358:232|358:232|358:234|358:234|358:230|358:230|357:232|357:232|356:232|356:232|356:234|356:234|356:230|356:230|355:232|355:232|354:232|354:232|354:234|354:234|354:230|354:230|353:232|353:232|352:232|352:232|352:234|352:234|351:231|351:231|351:233|351:233|350:233|350:233|350:235|350:235|349:231|349:231|349:233|349:233|348:233|348:233|348:235|348:235|347:231|347:231|347:233|347:233|346:233|346:233|346:236|346:236|345:231|345:231|345:234|345:234|344:234|344:234|344:236|344:236|343:232|343:232|343:234|343:234|342:234|342:234|342:236|342:236|341:232|341:232|341:235|341:235|340:235|340:235|340:237|340:237|339:233|339:233|339:235|339:235|338:235|338:235|338:237|338:237|337:233|337:233|337:235|337:235|336:236|336:236|336:238|336:238|335:234|335:234|335:236|335:236|334:236|334:236|334:238|334:238|333:234|333:234|333:237|333:237|332:237|332:237|332:239|332:239|331:235|331:235|331:237|331:237|330:237|330:237|330:240|330:240|329:236|329:236|329:238|329:238|328:238|328:238|328:240|328:240|327:236|327:236|327:238|327:238|326:239|326:239|326:241|326:241|325:237|325:237|325:239|325:239|324:239|324:239|324:241|324:241|323:238|323:238|323:240|323:240|322:240|322:240|322:242|322:242|321:238|321:238|321:240|321:240|321:241|320:241|320:241|320:243|320:243|319:239|319:239|319:241|319:241|318:242|318:242|318:244|318:244|317:240|317:240|317:242|317:242|316:242|316:242|316:244|316:244|315:241|315:241|315:243|315:243|314:243|314:243|315:245|315:245|313:242|313:242|313:244|313:244|312:244|312:244|313:246|313:246|311:242|311:242|311:244|311:244|311:245|310:245|310:245|311:247|311:247|309:243|309:243|310:245|310:245|309:246|308:246|308:246|309:248|309:248|307:244|307:244|308:246|308:246|307:246|307:247|307:247|307:249|307:249|305:245|305:245|306:247|306:247|305:247|305:248|305:248|305:249|305:249|303:246|303:246|304:248|304:248|303:248|303:248|303:250|303:250|302:247|302:247|302:249|302:249|301:249|301:249|301:251|301:251|300:248|300:248|300:250|300:250|299:250|299:250|300:252|300:252|298:249|298:249|298:251|298:251|297:251|297:251|298:253|298:253|296:250|296:250|297:252|297:252|296:252|296:252|296:254|296:254|294:251|294:251|295:252|295:252|294:253|294:253|294:255|294:255|292:251|292:251|293:253|293:253|292:254|292:254|292:256|292:256|291:252|291:252|291:254|291:254|291:255|290:255|290:255|291:257|291:257|289:253|289:253|289:255|289:255|289:256|288:256|288:256|289:258|289:258|287:254|287:254|288:256|288:256|287:256|287:257|287:257|287:259|287:259|285:255|285:255|286:257|286:257|285:258|285:258|285:259|285:259|283:256|283:256|284:258|284:258|283:258|283:259|283:259|283:260|283:260|282:257|282:257|282:259|282:259|281:259|281:259|282:261|282:261|280:258|280:258|280:260|280:260|279:260|279:260|280:262|280:262|278:259|278:259|279:261|279:261|278:261|278:261|278:263|278:263|276:260|276:260|277:262|277:262|276:262|276:262|276:264|276:264|274:261|274:261|275:263|275:263|274:263|274:263|274:265|274:265|273:262|273:262|273:264|273:264|272:264|272:264|273:266|273:266|271:262|271:262|271:265|271:265|270:265|270:265|271:267|271:267|269:263|269:263|269:266|269:266|268:266|268:266|269:268|269:268|267:264|267:264|267:266|267:266|267:267|266:267|266:267|267:269|267:269|265:265|265:265|265:267|265:267|265:268|264:268|264:268|265:270|265:270|263:266|263:266|263:268|263:268|263:269|262:269|262:269|263:271|263:271|261:267|261:267|262:269|262:269|261:269|261:270|261:270|261:272|261:272|259:268|259:268|260:270|260:270|259:270|259:270|259:273|259:273|257:269|257:269|258:271|258:271|257:271|257:271|257:273|257:273|255:269|255:269|256:272|256:272|255:272|255:272|255:274|255:274|253:270|253:270|254:272|254:272|253:273|253:273|253:275|253:275|251:271|251:271|252:273|252:273|251:273|251:274|251:274|251:276|251:276|250:272|250:272|250:274|250:274|249:274|249:274|249:276|249:276|248:273|248:273|248:275|248:275|247:275|247:275|247:277|247:277|246:273|246:273|246:275|246:275|245:275|245:276|245:276|245:278|245:278|244:274|244:274|244:276|244:276|243:276|243:276|243:278|243:278|242:275|242:275|242:276|242:276|241:277|241:277|241:279|241:279|240:275|240:275|240:277|240:277|239:277|239:277|239:279|239:279|238:276|238:276|238:278|238:278|237:278|237:278|237:280|237:280|236:276|236:276|236:278|236:278|235:278|235:278|235:280|235:280|234:277|234:277|234:279|234:279|233:279|233:279|233:281|233:281|232:277|232:277|232:279|232:279|231:279|231:279|231:281|231:281|230:277|230:277|230:279|230:279|229:280|229:280|229:282|229:282|228:278|228:278|228:280|228:280|227:280|227:280|227:282|227:282|226:278|226:278|226:280|226:280|225:280|225:280|225:282|225:282|224:279|224:279|224:281|224:281|223:281|223:281|223:283|223:283|222:279|222:279|222:281|222:281|221:281|221:281|221:283|221:283|220:279|220:279|220:281|220:281|219:281|219:281|219:283|219:283|218:279|218:279|218:281|218:281|217:281|217:281|216:283|216:283|216:279|216:279|216:281|216:281|215:281|215:282|215:282|214:284|214:284|214:280|214:280|214:282|214:282|213:282|213:282|212:284|212:284|212:280|212:280|212:282|212:282|211:282|211:282|210:284|210:284|210:280|210:280|210:282|210:282|209:282|209:282|208:284|208:284|208:280|208:280|208:282|208:282|207:282|207:282|206:284|206:284|206:280|206:280|206:282|206:282|205:282|205:282|204:284|204:284|204:280|204:280|204:282|204:282|203:282|202:282|202:282|202:284|202:284|202:279|202:279|201:282|201:282|201:281|200:281|200:281|200:284|200:284|200:279|200:279|199:281|199:281|198:281|198:281|197:283|197:283|198:279|198:279|197:281|197:281|196:281|196:281|195:283|195:283|196:279|196:279|195:281|195:281|194:281|194:281|193:283|193:283|194:279|194:279|193:281|193:281|192:281|192:281|191:282|191:282|192:279|192:279|191:280|191:280|190:280|190:280|189:282|189:282|190:278|190:278|189:280|189:280|188:280|188:280|187:282|187:282|188:278|188:278|187:280|187:280|186:280|186:279|186:279|185:281|185:281|186:277|186:277|185:279|185:279|184:279|184:279|183:281|183:281|184:277|184:277|183:279|183:279|182:279|182:279|181:280|181:280|182:276|182:276|181:278|181:278|180:278|180:278|179:280|179:280|180:276|180:276|179:278|179:278|178:278|178:277|178:277|177:279|177:279|178:276|178:276|177:277|177:277|176:277|176:277|175:279|175:279|176:275|176:275|175:277|175:277|174:276|174:276|173:278|173:278|174:274|174:274|173:276|173:276|172:276|172:276|171:277|171:277|172:273|172:273|171:275|171:275|170:275|170:275|169:277|169:277|170:273|170:273|169:275|169:275|168:274|168:274|167:276|167:276|168:272|168:272|167:274|167:274|166:273|166:273|165:275|165:275|166:271|166:271|165:273|165:273|164:273|164:273|163:274|163:274|165:270|165:270|163:272|163:272|162:272|162:272|161:273|161:273|163:270|163:270|161:271|161:271|160:271|160:271|159:273|159:273|161:269|161:269|159:270|159:270|158:270|158:270|157:271|157:271|159:268|159:268|157:269|157:269|155:270|155:270|157:267|157:267|156:269|156:269|155:268|155:268|153:269|153:269|155:266|155:266|154:268|154:268|153:267|153:267|152:268|152:268|153:265|153:265|152:267|152:267|151:266|151:266|150:267|150:267|152:264|152:264|150:266|150:266|149:265|149:265|148:266|148:266|150:263|150:263|148:264|148:264|147:264|147:264|146:265|146:265|148:262|148:262|147:263|147:263|146:263|145:262,1,1995.40817890407,6|0,1:0|0:0,0:0:0:0:
25,375,221460,2,0,B|31:370|38:367|38:367|49:337|25:310,1,74.9999976158143,10|0,0:2|0:0,0:0:0:0:
68,90,221910,6,0,B|121:66|121:66|92:186,1,168.750001072884,2|0,1:0|0:0,0:0:0:0:
148,254,222210,2,0,P|170:237|175:192,1,56.2500003576279,4|0,0:3|0:0,0:0:0:0:
36,220,222360,6,0,L|-3:228,5,37.4999988079071,2|0|0|0|0|0,1:0|0:0|0:0|0:0|0:0|0:0,0:0:0:0:
192,113,222660,5,10,0:2:0:0:
192,113,222810,2,0,B|273:103|273:103|279:107|279:107|434:92,1,224.999992847443,2|0,0:0|0:0,0:0:0:0:
488,88,223110,2,0,L|512:164,1,74.9999976158143,4|0,0:3|0:0,0:0:0:0:
420,361,223260,6,0,P|466:310|450:258,1,112.500000715256,2|0,1:0|0:0,0:0:0:0:
344,330,223560,2,0,P|342:275|383:240,1,112.500000715256,2|0,0:1|0:0,0:0:0:0:
406,111,223860,6,0,B|421:122|419:146|419:146|350:134|307:186,1,149.999995231629,10|0,0:2|0:0,0:0:0:0:
301,181,224085,1,0,0:0:0:0:
300,182,224160,2,0,P|248:161|238:142,1,74.9999976158143
172,52,224310,6,0,P|193:159|203:295,1,224.999992847443,2|0,1:1|0:0,0:0:0:0:
132,348,224610,2,0,P|96:322|90:290,1,74.9999976158143
45,227,224760,2,0,P|85:208|116:219,1,74.9999976158143,2|0,1:2|0:0,0:0:0:0:
193,212,224910,2,0,P|188:256|163:277,1,74.9999976158143,2|0,0:2|0:0,0:0:0:0:
9,296,225060,6,0,P|120:302|305:350,1,299.999990463257,10|2,0:2|0:2,0:0:0:0:
385,186,225660,6,0,B|416:197|427:233|427:233|521:172|467:68|467:68|459:91|426:109,2,299.999990463257,2|2|10,1:0|0:1|0:2,0:0:0:0:
274,216,226410,1,2,0:2:0:0:
274,216,226560,1,2,0:2:0:0:
194,133,226710,6,0,P|168:148|148:177,1,56.2500003576279,2|0,1:3|0:0,0:0:0:0:
75,164,226860,2,0,P|74:194|90:225,1,56.2500003576279,2|0,0:3|0:0,0:0:0:0:
139,297,227010,2,0,P|108:296|77:312,1,56.2500003576279,2|0,0:3|0:0,0:0:0:0:
20,264,227160,2,0,P|1:291|14:379,1,112.500000715256,2|2,1:3|0:3,0:0:0:0:
219,325,227460,6,0,B|254:305|254:305|337:330,1,112.500000715256,10|0,0:2|0:0,0:0:0:0:
339,342,227685,2,0,B|443:370|443:370|495:317,1,168.750001072884,2|6,0:3|0:3,0:0:0:0:
403,137,228060,6,0,B|414:168|450:179|450:179|389:273|285:219|285:219|308:211|326:178,2,299.999990463257,2|2|10,1:0|0:1|0:2,0:0:0:0:
357,43,228810,1,2,0:2:0:0:
357,43,228960,1,2,0:2:0:0:
314,182,229110,6,0,L|255:156,1,56.2500003576279,2|0,1:3|0:0,0:0:0:0:
238,84,229260,2,0,L|186:122,1,56.2500003576279,2|0,0:3|0:0,0:0:0:0:
149,191,229410,2,0,L|110:139,1,56.2500003576279,2|0,0:3|0:0,0:0:0:0:
125,73,229560,2,0,B|71:61|71:61|19:113,1,112.500000715256,2|2,1:3|0:3,0:0:0:0:
61,243,229860,6,0,B|111:275|104:341|104:341|123:278|191:267,1,224.999992847443,10|0,0:2|0:0,0:0:0:0:
243,93,230460,6,2,B|242:94|242:94|243:96|243:96|240:93|240:93|241:94|241:94|241:95|241:95|242:97|242:97|239:94|239:94|240:96|240:96|239:96|239:97|239:97|240:99|240:99|237:95|237:95|238:97|238:97|238:98|238:98|239:100|239:100|236:97|236:97|237:99|237:99|236:99|236:99|237:101|237:101|234:98|234:98|235:100|235:100|235:101|234:101|234:101|235:103|235:103|233:99|233:99|234:101|234:101|233:102|233:102|234:104|234:104|231:101|231:101|232:103|232:103|231:103|231:103|232:105|232:105|230:102|230:102|230:104|230:104|230:106|230:106|228:103|228:103|229:105|229:105|228:105|228:105|229:107|229:107|226:104|226:104|227:106|227:106|226:106|226:107|226:107|227:109|227:109|224:105|224:105|225:107|225:107|225:108|224:108|224:108|225:110|225:110|223:107|223:107|223:109|223:109|222:109|222:109|223:111|223:111|221:108|221:108|221:110|221:110|220:110|220:110|221:112|221:112|219:109|219:109|219:111|219:111|218:112|218:112|219:113|219:113|217:110|217:110|217:112|217:112|216:113|216:113|216:115|216:115|215:111|215:111|215:113|215:113|214:114|214:114|214:116|214:116|213:112|213:112|213:114|213:114|212:115|212:115|212:117|212:117|211:113|211:113|211:115|211:115|210:115|210:115|210:117|210:117|209:114|209:114|209:116|209:116|208:116|208:116|208:118|208:118|207:115|207:115|207:117|207:117|206:117|206:117|206:119|206:119|205:115|205:115|205:117|205:117|204:118|204:118|204:120|204:120|203:116|203:116|203:118|203:118|201:119|201:119|202:121|202:121|200:117|200:117|201:119|201:119|199:119|199:119|199:121|199:121|198:118|198:118|198:120|198:120|197:120|197:120|197:122|197:122|196:118|196:118|196:120|196:120|195:120|195:120|195:122|195:122|194:119|194:119|194:121|194:121|193:121|193:121|193:123|193:123|192:119|192:119|192:121|192:121|191:121|191:121|190:123|190:123|190:120|190:120|190:122|190:122|188:122|188:122|188:124|188:124|188:120|188:120|187:122|187:122|186:122|186:122|186:124|186:124|185:120|185:120|185:122|185:122|184:122|184:122|184:124|184:124|183:121|183:121|183:123|183:123|182:123|182:123|181:125|181:125|181:121|181:121|181:123|181:123|179:123|179:123|179:125|179:125|179:121|179:121|178:123|178:123|177:123|177:123|177:125|177:125|176:121|176:121|176:123|176:123|175:123|175:123|174:125|174:125|174:121|174:121|174:123|174:123|173:123|173:123|172:125|172:125|172:121|172:121|172:123|172:123|171:123|171:123|170:125|170:125|170:121|170:121|170:123|170:123|169:123|169:123|168:125|168:125|168:121|168:121|168:123|168:123|167:123|167:123|166:125|166:125|166:121|166:121|166:123|166:123|165:123|165:123|164:125|164:125|164:121|164:121|164:123|164:123|163:123|163:123|165:123|165:123|162:125|162:125|164:124|164:124|164:125|165:125|165:125|166:124|166:124|163:127|163:127|165:126|165:126|166:127|166:127|167:126|167:126|165:128|165:128|166:127|166:127|167:128|167:128|169:128|169:128|166:130|166:130|168:129|168:129|168:130|168:130|170:129|170:129|167:132|167:132|169:131|169:131|170:132|170:132|172:131|172:131|169:133|169:133|171:132|171:132|171:133|171:133|173:132|173:132|170:135|170:135|172:134|172:134|173:135|173:135|175:134|175:134|172:137|172:137|174:136|174:136|174:137|174:137|176:135|176:135|173:138|173:138|175:137|175:137|175:138|176:138|176:138|178:137|178:137|175:140|175:140|176:139|176:139|177:139|177:140|177:140|179:139|179:139|176:141|176:141|178:140|178:140|178:141|179:141|179:141|181:140|181:140|178:143|178:143|179:142|179:142|180:142|180:143|180:143|182:141|182:141|179:144|179:144|181:143|181:143|181:144|182:144|182:144|183:143|183:143|181:146|181:146|182:145|182:145|183:145|183:145|185:144|185:144|182:147|182:147|184:146|184:146|184:147|185:147|185:147|186:146|186:146|184:149|184:149|185:148|185:148|186:148|186:148|188:147|188:147|185:150|185:150|187:149|187:149|188:149|188:150|188:150|190:148|190:148|187:151|187:151|189:150|189:150|189:151|190:151|190:151|191:150|191:150|189:153|189:153|190:152|190:152|191:152|191:152|193:151|193:151|190:154|190:154|192:153|192:153|193:154|193:154|195:153|195:153|192:156|192:156|194:154|194:154|194:155|195:155|195:155|196:154|196:154|194:157|194:157|195:156|195:156|196:156|196:156|198:155|198:155|196:158|196:158|197:157|197:157|198:157|198:158|198:158|200:156|200:156|197:159|197:159|199:158|199:158|200:159|200:159|201:158|201:158|199:161|199:161|201:159|201:159|201:160|202:160|202:160|203:159|203:159|201:162|201:162|202:161|202:161|203:161|203:161|205:160|205:160|203:163|203:163|204:162|204:162|205:162|205:162|206:161|206:161|204:164|204:164|206:163|206:163|207:163|207:163|208:162|208:162|206:165|206:165|208:164|208:164|209:164|209:164|210:163|210:163|208:167|208:167|210:165|210:165|210:166|210:166|212:164|212:164|210:168|210:168|211:166|211:166|212:166|212:167|212:167|214:165|214:165|212:169|212:169|213:167|213:167|214:167|214:168|214:168|216:166|216:166|214:170|214:170|215:168|215:168|216:168|216:169|216:169|218:167|218:167|216:171|216:171|217:169|217:169|218:169|218:169|219:168|219:168|218:172|218:172|219:170|219:170|220:170|220:170|221:169|221:169|219:172|219:172|221:171|221:171|222:171|222:171|223:170|223:170|221:173|221:173|223:172|223:172|224:172|224:172|225:170|225:170|223:174|223:174|225:172|225:172|225:173|225:173|227:171|227:171|225:175|225:175|226:173|226:173|227:173|228:174|228:174|229:172|229:172|227:176|227:176|228:174|228:174|229:174|230:174|230:174|231:173|231:173|229:176|229:176|230:175|230:175|231:175|232:175|232:175|233:173|233:173|231:177|231:177|232:175|232:175|233:176|234:176|234:176|235:174|235:174|233:178|233:178|234:176|234:176|235:176|236:176|236:176|237:175|237:175|235:178|235:178|236:177|236:177|237:177|238:177|238:177|239:175|239:175|238:179|238:179|238:177|238:177|239:177|240:177|240:177|240:176|240:176|240:179|240:179|240:178|240:178|241:178|242:178|242:178|242:176|242:176|242:180|242:180|242:178|242:178|243:178|243:178|244:177|244:177|244:180|244:180|244:179|244:179|245:179|245:179|246:177|246:177|246:181|246:181|247:179|247:179|248:179|248:179|248:177|248:177|248:182|248:182|249:180|249:180|250:180|250:180|251:178|251:178|250:182|250:182|251:180|251:180|252:180|252:180|253:178|253:178|252:182|252:182|253:180|253:180|254:180|254:180|255:178|255:178|254:183|254:183|255:181|255:181|256:181|256:181|257:179|257:179|256:183|256:183|257:181|257:181|258:181|258:181|259:179|259:179|258:183|258:183|259:181|259:181|260:181|260:181|261:179|261:179|260:183|260:183|261:181|261:181|262:181|262:181|263:179|263:179|262:183|262:183|263:181|263:181|264:181|264:181|265:179|265:179|264:183|264:183|265:181|265:181|266:181|266:181|267:179|267:179|267:183|267:183|267:181|267:181|268:181|268:181|269:180|269:180|269:183|269:183|269:181|269:181|270:181|270:181|271:180|271:180|271:183|271:183|271:181|271:181|272:181|273:181|273:181|273:180|273:180|273:183|273:183|274:181|274:181|275:181|275:181|275:179|275:179|275:183|275:183|276:181|276:181|277:181|277:181|277:179|277:179|277:183|277:183|278:181|278:181|279:181|279:181|279:179|279:179|279:183|279:183|280:181|280:181|281:181|281:181|281:179|281:179|281:183|281:183|282:181|282:181|283:181|283:181|283:179|283:179|283:183|283:183|284:181|284:181|285:181|285:181|285:179|285:179|286:182|286:182|286:180|286:180|287:180|287:180|287:178|287:178|288:182|288:182|288:180|288:180|289:180|289:180|289:178|289:178|290:182|290:182|290:180|290:180|291:180|291:180|291:177|291:177|292:182|292:182|292:179|292:179|293:179|293:179|293:177|293:177|294:181|294:181|294:179|294:179|295:179|295:179|295:177|295:177|296:181|296:181|296:178|296:178|297:178|297:178|297:176|297:176|298:180|298:180|298:178|298:178|299:178|299:178|299:176|299:176|300:180|300:180|300:178|300:178|301:177|301:177|301:175|301:175|302:179|302:179|302:177|302:177|303:177|303:177|303:175|303:175|304:179|304:179|304:176|304:176|305:176|305:176|305:174|305:174|306:178|306:178|306:176|306:176|307:176|307:176|307:173|307:173|308:177|308:177|308:175|308:175|309:175|309:175|309:173|309:173|310:177|310:177|310:175|310:175|311:174|311:174|311:172|311:172|312:176|312:176|312:174|312:174|313:174|313:174|313:172|313:172|314:175|314:175|314:173|314:173|315:173|315:173|315:171|315:171|316:175|316:175|316:173|316:173|316:172|317:172|317:172|317:170|317:170|318:174|318:174|318:172|318:172|319:171|319:171|319:169|319:169|320:173|320:173|320:171|320:171|321:171|321:171|321:169|321:169|322:172|322:172|322:170|322:170|323:170|323:170|322:168|322:168|324:171|324:171|324:169|324:169|325:169|325:169|324:167|324:167|326:171|326:171|326:169|326:169|326:168|327:168|327:168|326:166|326:166|328:170|328:170|327:168|327:168|328:167|329:167|329:167|328:165|328:165|330:169|330:169|329:167|329:167|330:167|330:166|330:166|330:164|330:164|332:168|332:168|331:166|331:166|332:166|332:165|332:165|332:164|332:164|334:167|334:167|333:165|333:165|334:165|334:165|334:163|334:163|335:166|335:166|335:164|335:164|336:164|336:164|336:162|336:162|337:165|337:165|337:163|337:163|338:163|338:163|337:161|337:161|339:164|339:164|339:162|339:162|340:162|340:162|339:160|339:160|341:163|341:163|340:161|340:161|341:161|341:161|341:159|341:159|343:162|343:162|342:161|342:161|343:160|343:160|343:158|343:158|345:162|345:162|344:160|344:160|345:159|345:159|345:157|345:157|346:161|346:161|346:159|346:159|346:158|347:158|347:158|346:156|346:156|348:160|348:160|348:158|348:158|348:157|349:157|349:157|348:155|348:155|350:159|350:159|349:157|349:157|350:157|350:156|350:156|350:154|350:154|352:158|352:158|351:156|351:156|352:155|352:155|352:154|352:154|354:157|354:157|353:155|353:155|354:155|354:154|354:154|354:153|354:153|355:156|355:156|355:154|355:154|356:154|356:154|355:152|355:152|357:155|357:155|357:153|357:153|358:153|358:153|357:151|357:151|359:154|359:154|358:152|358:152|359:152|359:152|359:150|359:150|361:153|361:153|360:151|360:151|361:151|361:151|361:149|361:149|363:152|363:152|362:150|362:150|363:150|363:150|363:148|363:148|364:151|364:151|364:149|364:149|365:149|365:149|364:147|364:147|366:151|366:151|366:148|366:148|367:148|367:148|366:146|366:146|368:150|368:150|368:147|368:147|369:147|369:147|368:145|368:145|370:149|370:149|370:147|370:147|370:146|371:146|371:146|370:144|370:144|372:148|372:148|372:146|372:146|372:145|373:145|373:145|372:143|372:143|374:147|374:147|374:145|374:145|374:144|375:144|375:144|374:142|374:142|376:146|376:146|375:144|375:144|376:144|376:143|376:143|376:141|376:141|378:145|378:145|377:143|377:143|378:143|378:143|378:140|378:140|380:144|380:144|379:142|379:142|380:142|380:142|380:140|380:140|382:144|382:144|381:141|381:141|382:141|382:141|382:139|382:139|384:143|384:143|383:141|383:141|384:140|384:140|384:138|384:138|386:142|386:142|385:140|385:140|386:140|386:139|386:139|386:137|386:137|387:141|387:141|387:139|387:139|388:139|388:139|388:137|388:137|389:140|389:140|389:138|389:138|390:138|390:138|390:136|390:136|391:140|391:140|391:138|391:138|392:138|392:137|392:137|392:135|392:135|393:139|393:139|393:137|393:137|394:137|394:137|394:135|394:135|395:138|395:138|395:137|395:137|396:136|396:136|396:134|396:134|397:138|397:138|397:136|397:136|398:136|398:136|398:134|398:134|399:137|399:137|399:135|399:135|400:135|400:135|400:133|400:133|401:137|401:137|401:135|401:135|402:135|402:135|402:133|402:133|403:136|403:136|403:134|403:134|404:134|404:134|404:132|404:132|405:136|405:136|405:134|405:134|406:134|406:134|406:132|406:132|407:136|407:136|407:134|407:134|408:133|408:133|408:131|408:131|409:135|409:135|409:133|409:133|410:133|410:133|410:131|410:131|411:135|411:135|411:133|411:133|412:133|412:133|412:131|412:131|413:134|413:134|413:132|413:132|414:132|414:132|414:130|414:130|415:134|415:134|415:132|415:132|416:132|416:132|416:130|416:130|417:134|417:134|417:132|417:132|418:132|418:132|418:130|418:130|419:134|419:134|419:132|419:132|420:132|420:132|421:130|421:130|421:134|421:134|421:132|421:132|422:132|422:131|422:131|423:129|423:129|423:133|423:133|423:131|423:131|424:131|424:131|425:129|425:129|425:133|425:133|425:131|425:131|426:131|426:131|427:129|427:129|427:133|427:133|427:131|427:131|428:131|428:131|429:129|429:129|429:133|429:133|429:131|429:131|430:131|430:131|431:129|431:129|431:133|431:133|431:131|431:131|432:131|432:131|433:129|433:129|433:133|433:133|433:131|433:131|434:131|435:131|435:131|435:129|435:129|435:134|435:134|436:131|436:131|436:132|437:132|437:132|437:129|437:129|437:134|437:134|438:132|438:132|439:132|439:132|440:130|440:130|439:134|439:134|440:132|440:132|441:132|441:132|442:130|442:130|441:134|441:134|442:132|442:132|443:132|443:132|444:130|444:130|443:134|443:134|444:132|444:132|445:132|445:132|446:131|446:131|445:134|445:134|446:133|446:133|447:133|447:133|448:131|448:131|447:135|447:135|448:133|448:133|449:133|449:133|450:131|450:131|449:135|449:135|450:133|450:133|451:133|451:134|451:134|452:132|452:132|451:136|451:136|452:134|452:134|453:134|453:134|454:132|454:132|453:136|453:136|454:134|454:134|455:134|455:134|456:133|456:133|455:137|455:137|456:135|456:135|457:135|457:135|458:133|458:133|457:137|457:137|458:135|458:135|459:135|459:136|459:136|460:134|460:134|459:137|459:137|460:136|460:136|461:136|461:136|462:134|462:134|461:138|461:138|462:136|462:136|463:137|463:137|464:135|464:135|463:139|463:139|464:137|464:137|465:137|465:137|466:136|466:136|465:140|465:140|466:138|466:138|467:138|467:138|468:136|468:136|467:140|467:140|468:138|468:138|469:139|469:139|470:137|470:137|469:141|469:141|470:139|470:139|471:140|471:140|472:138|472:138|471:142|471:142|472:140|472:140|473:140|473:140|474:139|474:139|472:143|472:143|474:141|474:141|475:141|475:141|476:140|476:140|474:143|474:143|476:142|476:142|477:142|477:142|478:140|478:140|476:144|476:144|478:143|478:143|479:143|479:143|480:142|480:142|478:145|478:145|480:144|480:144|482:143|482:143|480:146|480:146|481:144|481:144|482:145|482:145|484:144|484:144|482:147|482:147|483:145|483:145|484:146|484:146|485:145|485:145|484:148|484:148|485:146|485:146|486:147|486:147|487:146|487:146|485:149|485:149|487:147|487:147|488:148|488:148|489:147|489:147|487:150|487:150|489:149|489:149|490:149|490:149|491:148|491:148|489:151|489:151|490:150|490:150|491:150|492:151,1,1995.40817890407,6|0,1:0|0:0,0:0:0:0:
381,11,231060,2,0,P|328:37|326:51,1,74.9999976158143,10|0,0:2|0:0,0:0:0:0:
395,177,231510,6,0,B|407:238|407:238|397:264|397:264|410:350,1,168.750001072884,2|0,1:0|0:0,0:0:0:0:
499,311,231810,2,0,B|514:300|514:300|465:287,1,56.2500003576279,4|0,0:3|0:0,0:0:0:0:
327,340,231960,6,0,L|319:382,5,37.4999988079071,2|0|0|0|0|0,1:0|0:0|0:0|0:0|0:0|0:0,0:0:0:0:
215,205,232260,5,10,0:2:0:0:
215,205,232410,2,0,B|158:199|158:199|210:368,1,224.999992847443,2|0,0:0|0:0,0:0:0:0:
282,250,232710,2,0,B|303:217|303:217|288:175,1,74.9999976158143,4|0,0:3|0:0,0:0:0:0:
124,32,232860,6,0,B|174:60|174:60|163:113,1,112.500000715256,2|0,1:0|0:0,0:0:0:0:
85,152,233160,2,0,B|34:124|34:124|46:71,1,112.500000715256,2|0,0:1|0:0,0:0:0:0:
342,55,233460,6,0,B|373:34|373:34|242:8,1,149.999995231629,10|0,0:2|0:0,0:0:0:0:
248,29,233685,1,0,0:0:0:0:
248,29,233760,2,0,L|265:124,1,74.9999976158143,2|0,0:2|0:0,0:0:0:0:
413,260,233910,6,0,B|486:229|486:229|458:85,1,224.999992847443,2|0,1:1|0:0,0:0:0:0:
386,120,234210,2,0,B|376:153|376:153|377:158|377:158|364:194,1,74.9999976158143
308,317,234360,2,0,B|298:284|298:284|299:279|299:279|286:243,1,74.9999976158143,2|0,1:2|0:0,0:0:0:0:
394,125,234510,2,0,B|384:158|384:158|385:163|385:163|372:199,1,74.9999976158143,2|0,0:2|0:0,0:0:0:0:
436,355,234660,6,0,P|293:305|112:295,1,299.999990463257,10|2,0:2|0:2,0:0:0:0:
100,112,235260,6,0,B|124:77|124:77|18:43|18:43|71:195,2,299.999990463257,2|2|10,1:0|0:1|0:2,0:0:0:0:
12,238,236010,1,2,0:2:0:0:
12,238,236160,1,2,0:2:0:0:
75,320,236310,6,0,P|118:310|132:288,1,56.2500003576279,2|0,1:3|0:0,0:0:0:0:
204,302,236460,2,0,P|207:258|191:237,1,56.2500003576279,2|0,0:3|0:0,0:0:0:0:
77,181,236610,2,0,L|93:239,1,56.2500003576279,2|0,0:3|0:0,0:0:0:0:
169,175,236760,2,0,L|188:64,1,112.500000715256,2|2,1:3|0:3,0:0:0:0:
344,5,237060,6,0,P|399:29|403:82,1,112.500000715256,10|0,0:2|0:0,0:0:0:0:
418,94,237285,2,0,P|401:171|391:268,1,168.750001072884,2|6,0:3|0:3,0:0:0:0:
238,303,237660,6,0,B|214:338|214:338|320:372|320:372|267:220,2,299.999990463257,2|2|10,1:0|0:1|0:2,0:0:0:0:
324,151,238410,1,2,0:2:0:0:
324,151,238560,1,2,0:2:0:0:
110,53,238710,6,0,P|153:63|167:85,1,56.2500003576279,2|0,1:3|0:0,0:0:0:0:
239,71,238860,2,0,P|242:114|226:135,1,56.2500003576279,2|0,0:3|0:0,0:0:0:0:
112,192,239010,2,0,L|128:134,1,56.2500003576279,2|0,0:3|0:0,0:0:0:0:
204,198,239160,2,0,L|223:308,1,112.500000715256,2|2,1:3|0:3,0:0:0:0:
34,360,239460,6,0,B|20:336|-10:326|-10:326|7:274|77:250|132:287,1,224.999992847443,10|0,0:2|0:0,0:0:0:0:
448,269,240060,6,2,B|447:269|447:269|447:272|447:272|445:268|445:268|446:270|446:270|444:270|444:270|444:272|444:272|443:269|443:269|443:271|443:271|442:271|442:271|442:273|442:273|441:269|441:269|441:271|441:271|440:272|440:272|440:274|440:274|438:270|438:270|439:272|439:272|437:273|437:273|437:275|437:275|436:271|436:271|436:273|436:273|435:274|435:274|435:276|435:276|434:272|434:272|434:274|434:274|432:274|432:274|433:276|433:276|431:273|431:273|432:275|432:275|430:275|430:275|430:277|430:277|429:273|429:273|429:275|429:275|428:276|428:276|428:278|428:278|427:274|427:274|427:276|427:276|425:277|425:277|426:279|426:279|424:275|424:275|424:277|424:277|423:278|423:278|423:280|423:280|422:276|422:276|422:278|422:278|421:278|421:278|421:280|421:280|420:277|420:277|420:279|420:279|418:279|418:279|418:281|418:281|417:278|417:278|417:280|417:280|416:280|416:280|416:282|416:282|415:278|415:278|415:280|415:280|414:281|414:281|414:283|414:283|412:279|412:279|413:281|413:281|411:282|411:282|411:284|411:284|410:280|410:280|410:282|410:282|409:282|409:282|409:285|409:285|408:281|408:281|408:283|408:283|407:283|407:283|407:285|407:285|405:282|405:282|406:284|406:284|404:284|404:284|404:286|404:286|403:282|403:282|403:284|403:284|402:285|402:285|402:287|402:287|401:283|401:283|401:285|401:285|399:286|399:286|400:288|400:288|398:284|398:284|399:286|399:286|397:287|397:287|397:289|397:289|396:285|396:285|396:287|396:287|395:287|395:287|395:289|395:289|394:286|394:286|394:288|394:288|392:288|392:288|393:290|393:290|391:286|391:286|391:288|391:288|390:289|390:289|390:291|390:291|389:287|389:287|389:289|389:289|388:290|388:290|388:292|388:292|387:288|387:288|387:290|387:290|385:291|385:291|385:293|385:293|384:289|384:289|384:291|384:291|383:291|383:291|383:293|383:293|382:290|382:290|382:292|382:292|381:292|381:292|381:294|381:294|379:291|379:291|380:293|380:293|378:293|378:293|378:295|378:295|377:291|377:291|377:293|377:293|376:294|376:294|376:296|376:296|375:292|375:292|375:294|375:294|374:295|374:295|374:297|374:297|372:293|372:293|373:295|373:295|371:295|371:295|371:298|371:298|370:294|370:294|370:296|370:296|369:296|369:296|369:298|369:298|368:295|368:295|368:297|368:297|366:297|366:297|367:299|367:299|365:295|365:295|366:297|366:297|364:298|364:298|364:300|364:300|363:296|363:296|363:298|363:298|362:299|362:299|362:301|362:301|361:297|361:297|361:299|361:299|359:300|359:300|360:302|360:302|358:298|358:298|358:300|358:300|357:300|357:300|357:302|357:302|356:299|356:299|356:301|356:301|355:301|355:301|355:303|355:303|354:299|354:299|354:301|354:301|352:302|352:302|352:304|352:304|351:300|351:300|351:302|351:302|350:303|350:303|350:305|350:305|349:301|349:301|349:303|349:303|348:304|348:304|348:306|348:306|346:302|346:302|347:304|347:304|345:304|345:304|345:306|345:306|344:303|344:303|344:305|344:305|343:305|343:305|343:307|343:307|342:303|342:303|342:306|342:306|341:306|341:306|341:308|341:308|339:304|339:304|340:306|340:306|338:307|338:307|338:309|338:309|337:305|337:305|337:307|337:307|336:308|336:308|336:310|336:310|335:306|335:306|335:308|335:308|333:308|333:308|334:311|334:311|332:307|332:307|333:309|333:309|331:309|331:309|331:311|331:311|330:308|330:308|330:310|330:310|329:310|329:310|329:312|329:312|328:308|328:308|328:310|328:310|326:311|326:311|327:313|327:313|325:309|325:309|325:311|325:311|324:312|324:312|324:314|324:314|323:310|323:310|323:312|323:312|322:313|322:313|322:315|322:315|321:311|321:311|321:313|321:313|319:313|319:313|320:315|320:315|318:312|318:312|318:314|318:314|317:314|317:314|317:316|317:316|316:312|316:312|316:314|316:314|315:315|315:315|315:317|315:317|313:313|313:313|314:315|314:315|312:316|312:316|312:318|312:318|311:314|311:314|311:316|311:316|310:317|310:317|310:319|310:319|309:315|309:315|309:317|309:317|308:317|308:317|308:319|308:319|306:316|306:316|307:318|307:318|305:318|305:318|305:320|305:320|304:316|304:316|304:319|304:319|303:319|303:319|303:321|303:321|302:317|302:317|302:319|302:319|300:320|300:320|302:320|302:320|298:321|298:321|300:321|300:321|301:322|301:322|303:322|303:322|299:324|299:324|301:323|301:323|302:325|302:325|304:324|304:324|301:326|301:326|303:325|303:325|303:327|303:327|305:326|305:326|302:328|302:328|304:328|304:328|304:329|304:329|306:329|306:329|303:330|303:330|305:330|305:330|305:331|305:331|307:331|307:331|304:333|304:333|306:332|306:332|306:334|306:334|308:333|308:333|305:335|305:335|307:334|307:334|307:336|307:336|309:335|309:335|306:337|306:337|308:337|308:337|308:338|308:338|310:338|310:338|307:339|307:339|309:339|309:339|309:340|309:340|311:340|311:340|308:342|308:342|310:341|310:341|310:343|310:343|313:342|313:342|309:344|309:344|311:343|311:343|312:345|312:345|314:344|314:344|310:346|310:346|312:346|312:346|313:347|313:347|315:347|315:347|311:348|311:348|313:348|313:348|314:349|314:349|316:349|316:349|312:351|312:351|314:350|314:350|315:352|315:352|317:351|317:351|313:353|313:353|315:353|315:353|316:354|316:354|318:353|318:353|314:355|314:355|316:355|316:355|317:356|317:356|319:356|319:356|315:357|315:357|317:357|317:357|318:358|318:358|320:358|320:358|316:360|316:360|318:359|318:359|319:361|319:361|321:360|321:360|317:362|317:362|319:362|319:362|320:363|320:363|322:363|322:363|318:364|318:364|320:364|320:364|321:365|321:365|323:365|323:365|319:366|319:366|321:366|321:366|322:367|322:367|324:367|324:367|320:369|320:369|322:368|322:368|323:370|323:370|325:369|325:369|321:371|321:371|323:371|323:371|324:372|324:372|326:372|326:372|323:373|323:373|325:373|325:373|325:374|325:374|327:374|327:374|324:375|324:375|326:375|326:375|326:376|326:376|324:374|324:374|328:376|328:376|327:375|327:375|327:373|327:373|325:372|325:372|329:373|329:373|327:372|327:372|328:371|328:371|326:370|326:370|330:371|330:371|328:370|328:370|329:368|329:368|327:367|327:367|331:369|331:369|329:368|329:368|330:366|330:366|328:365|328:365|332:366|332:366|330:365|330:365|330:364|330:364|329:363|329:363|332:364|332:364|331:363|331:363|331:361|331:361|330:360|330:360|333:362|333:362|332:360|332:360|332:359|332:359|330:358|330:358|334:359|334:359|332:358|332:358|333:357|333:357|331:356|331:356|335:357|335:357|333:356|333:356|334:354|334:354|332:353|332:353|336:355|336:355|334:353|334:353|335:352|335:352|333:351|333:351|337:352|337:352|335:351|335:351|335:350|335:350|334:349|334:349|338:350|338:350|336:349|336:349|336:347|336:347|335:346|335:346|338:348|338:348|337:346|337:346|337:345|337:345|335:344|335:344|339:345|339:345|338:344|338:344|338:343|338:343|336:341|336:341|340:343|340:343|338:342|338:342|339:340|339:340|337:339|337:339|341:341|341:341|339:339|339:339|340:338|340:338|338:337|338:337|342:338|342:338|340:337|340:337|341:336|341:336|339:334|339:334|343:336|343:336|341:335|341:335|341:333|341:333|340:332|340:332|343:333|343:333|342:332|342:332|342:331|342:331|341:330|341:330|344:331|344:331|343:330|343:330|343:329|343:329|341:327|341:327|345:329|345:329|343:328|343:328|344:326|344:326|342:325|342:325|346:326|346:326|344:325|344:325|345:324|345:324|343:323|343:323|347:324|347:324|345:323|345:323|346:322|346:322|344:320|344:320|348:322|348:322|346:321|346:321|347:319|347:319|345:318|345:318|349:319|349:319|347:318|347:318|347:317|347:317|346:316|346:316|349:317|349:317|348:316|348:316|348:314|348:314|347:313|347:313|350:315|350:315|349:314|349:314|349:312|349:312|347:311|347:311|351:312|351:312|349:311|349:311|350:310|350:310|348:309|348:309|352:310|352:310|350:309|350:309|351:307|351:307|349:306|349:306|353:308|353:308|351:306|351:306|352:305|352:305|350:304|350:304|354:305|354:305|352:304|352:304|352:303|352:303|351:302|351:302|355:303|355:303|353:302|353:302|353:300|353:300|352:299|352:299|355:301|355:301|354:299|354:299|354:298|354:298|352:297|352:297|356:298|356:298|354:297|354:297|355:296|355:296|353:295|353:295|357:296|357:296|355:295|355:295|356:293|356:293|354:292|354:292|358:294|358:294|356:292|356:292|357:291|357:291|355:290|355:290|359:291|359:291|357:290|357:290|358:289|358:289|356:287|356:287|360:289|360:289|358:288|358:288|358:286|358:286|357:285|357:285|360:286|360:286|359:285|359:285|359:284|359:284|358:283|358:283|361:284|361:284|360:283|360:283|360:282|360:282|358:280|358:280|362:282|362:282|360:281|360:281|361:279|361:279|359:278|359:278|363:279|363:279|361:278|361:278|362:277|362:277|360:276|360:276|364:277|364:277|362:276|362:276|363:275|363:275|361:273|361:273|365:275|365:275|363:274|363:274|363:272|363:272|362:271|362:271|366:272|366:272|364:271|364:271|364:270|364:270|363:269|363:269|366:270|366:270|365:269|365:269|365:267|365:267|363:266|363:266|367:268|367:268|366:267|366:267|366:265|366:265|364:264|364:264|368:265|368:265|366:264|366:264|367:263|367:263|365:262|365:262|369:263|369:263|367:262|367:262|368:260|368:260|366:259|366:259|370:261|370:261|368:259|368:259|369:258|369:258|367:257|367:257|371:258|371:258|369:257|369:257|369:256|369:256|368:255|368:255|371:256|371:256|370:255|370:255|370:253|370:253|369:252|369:252|372:254|372:254|371:252|371:252|371:251|371:251|369:250|369:250|373:251|373:251|371:250|371:250|372:249|372:249|370:248|370:248|374:249|374:249|372:248|372:248|373:246|373:246|371:245|371:245|375:247|375:247|373:245|373:245|374:244|374:244|372:243|372:243|376:244|376:244|374:243|374:243|375:242|375:242|373:240|373:240|377:242|377:242|375:241|375:241|375:239|375:239|374:238|374:238|377:240|377:240|376:238|376:238|376:237|376:237|374:236|374:236|378:237|378:237|377:236|377:236|377:235|377:235|375:233|375:233|379:235|379:235|377:234|377:234|378:232|378:232|376:231|376:231|380:232|380:232|378:231|378:231|379:230|379:230|377:229|377:229|381:230|381:230|379:229|379:229|380:228|380:228|378:226|378:226|382:228|382:228|380:227|380:227|380:225|380:225|379:224|379:224|382:225|382:225|381:224|381:224|381:223|381:223|380:222|380:222|383:223|383:223|382:222|382:222|382:221|382:221|380:219|380:219|384:221|384:221|382:220|382:220|383:218|383:218|381:217|381:217|385:218|385:218|383:217|383:217|384:216|384:216|382:215|382:215|386:216|386:216|384:215|384:215|385:213|385:213|383:212|383:212|387:214|387:214|385:213|385:213|386:211|386:211|384:210|384:210|388:211|388:211|386:210|386:210|386:209|386:209|385:208|385:208|388:209|388:209|387:208|387:208|387:206|387:206|386:205|386:205|389:207|389:207|388:205|388:205|388:204|388:204|386:203|386:203|390:204|390:204|388:203|388:203|389:202|389:202|387:201|387:201|391:202|391:202|389:201|389:201|390:199|390:199|388:198|388:198|392:200|392:200|390:198|390:198|391:197|391:197|389:196|389:196|393:197|393:197|391:196|391:196|391:195|391:195|390:194|390:194|394:195|394:195|392:194|392:194|392:192|392:192|391:191|391:191|394:193|394:193|393:191|393:191|393:190|393:190|391:189|391:189|395:190|395:190|393:189|393:189|394:188|394:188|392:186|392:186|396:188|396:188|394:187|394:187|395:185|395:185|393:184|393:184|397:185|397:185|395:184|395:184|396:183|396:183|394:182|394:182|398:183|398:183|396:182|396:182|397:181|397:181|395:179|395:179|399:181|399:181|397:180|397:180|397:178|397:178|396:177|396:177|399:178|399:178|398:177|398:177|398:176|398:176|397:175|397:175|400:176|400:176|399:175|399:175|399:174|399:174|397:172|397:172|401:174|401:174|399:173|399:173|400:171|400:171|398:170|398:170|402:171|402:171|400:170|400:170|401:169|401:169|399:168|399:168|403:169|403:169|401:168|401:168|402:166|402:166|400:165|400:165|404:167|404:167|402:166|402:166|402:164|402:164|401:163|401:163|405:164|405:164|403:163|403:163|403:162|403:162|402:161|402:161|405:162|405:162|404:161|404:161|404:159|404:159|402:158|402:158|406:160|406:160|405:158,1,1766.01666272892,2|0,1:0|0:0,0:1:0:0:
342,66,240660,6,0,P|328:34|275:23,1,84.3750005364419,10|0,0:2|0:0,0:0:0:0:
237,80,240960,2,0,P|250:111|303:122,1,84.3750005364419
503,59,241260,6,0,L|395:73,1,84.3750005364419,0|0,1:0|0:0,0:0:0:0:
400,153,241560,2,0,L|508:139,1,84.3750005364419
501,267,241860,6,0,L|279:208,1,224.999992847443,10|0,0:2|1:0,0:0:0:0:
57,236,242460,6,0,B|54:257|34:278|34:278|128:272|169:224|169:224|119:203|119:153,1,281.25000178814,6|0,1:3|0:0,0:0:0:0:
65,106,242910,2,0,L|-5:93,1,56.2500003576279,6|0,0:3|0:0,0:0:0:0:
158,35,243060,6,0,B|173:65|173:65|315:43,1,168.750001072884,10|0,0:2|0:0,0:0:0:0:
359,98,243360,2,0,L|480:113,1,112.500000715256,6|0,0:3|0:0,0:0:0:0:
394,318,243660,6,0,L|412:380,3,56.2500003576279,2|2|2|2,1:2|0:2|0:2|0:2,0:0:0:0:
497,255,243960,2,0,L|479:193,3,56.2500003576279,2|2|2|2,0:2|0:2|0:2|0:2,0:0:0:0:
417,147,244260,1,10,0:2:0:0:
301,266,244410,6,0,P|270:251|256:224,1,56.2500003576279,2|0,0:2|0:0,0:0:0:0:
184,206,244560,2,0,P|188:171|210:150,1,56.2500003576279,2|0,0:2|0:0,0:0:0:0:
204,76,244710,2,0,P|237:69|265:83,1,56.2500003576279,10|0,0:2|0:0,0:0:0:0:
189,212,244860,6,2,B|188:213|188:213|188:215|188:215|186:211|186:211|187:213|187:213|185:213|185:213|185:215|185:215|184:212|184:212|184:214|184:214|183:214|183:214|183:216|183:216|182:212|182:212|182:215|182:215|181:215|181:215|181:217|181:217|179:213|179:213|180:215|180:215|178:216|178:216|178:218|178:218|177:214|177:214|177:216|177:216|176:217|176:217|176:219|176:219|175:215|175:215|175:217|175:217|174:218|174:218|174:220|174:220|172:216|172:216|173:218|173:218|171:218|171:218|171:220|171:220|170:217|170:217|170:219|170:219|169:219|169:219|169:221|169:221|168:218|168:218|168:220|168:220|166:220|166:220|167:222|167:222|165:218|165:218|166:220|166:220|164:221|164:221|164:223|164:223|163:219|163:219|163:221|163:221|162:222|162:222|162:224|162:224|161:220|161:220|161:222|161:222|159:223|159:223|160:225|160:225|158:221|158:221|158:223|158:223|157:223|157:223|157:226|157:226|156:222|156:222|156:224|156:224|155:224|155:224|155:226|155:226|154:223|154:223|154:225|154:225|152:225|152:225|153:227|153:227|151:223|151:223|151:226|151:226|150:226|150:226|150:228|150:228|149:224|149:224|149:226|149:226|148:227|148:227|148:229|148:229|147:225|147:225|147:227|147:227|145:228|145:228|146:230|146:230|144:226|144:226|144:228|144:228|143:229|143:229|143:231|143:231|142:227|142:227|142:229|142:229|141:229|141:229|141:231|141:231|139:228|139:228|140:230|140:230|138:230|138:230|138:232|138:232|137:229|137:229|137:231|137:231|136:231|136:231|136:233|136:233|135:229|135:229|135:231|135:231|134:232|134:232|134:234|134:234|132:230|132:230|133:232|133:232|131:233|131:233|131:235|131:235|130:231|130:231|130:233|130:233|129:234|129:234|129:236|129:236|128:232|128:232|128:234|128:234|127:234|127:234|127:237|127:237|125:233|125:233|126:235|126:235|124:235|124:235|124:237|124:237|123:234|123:234|123:236|123:236|122:236|122:236|122:238|122:238|121:234|121:234|121:236|121:236|119:237|119:237|120:239|120:239|118:235|118:235|119:237|119:237|117:238|117:238|117:240|117:240|116:236|116:236|116:238|116:238|115:239|115:239|115:241|115:241|114:237|114:237|114:239|114:239|112:240|112:240|113:242|113:242|111:238|111:238|111:240|111:240|110:240|110:240|110:242|110:242|109:239|109:239|109:241|109:241|108:241|108:241|108:243|108:243|107:239|107:239|107:242|107:242|105:242|105:242|106:244|106:244|104:240|104:240|104:242|104:242|103:243|103:243|103:245|103:245|102:241|102:241|102:243|102:243|101:244|101:244|101:246|101:246|100:242|100:242|100:244|100:244|98:245|98:245|99:247|99:247|97:243|97:243|97:245|97:245|96:245|96:245|96:247|96:247|95:244|95:244|95:246|95:246|94:246|94:246|94:248|94:248|93:245|93:245|93:247|93:247|91:247|91:247|92:249|92:249|90:245|90:245|90:247|90:247|89:248|89:248|89:250|89:250|88:246|88:246|88:248|88:248|87:249|87:249|87:251|87:251|85:247|85:247|86:249|86:249|84:250|84:250|84:252|84:252|83:248|83:248|83:250|83:250|82:250|82:250|82:253|82:253|81:249|81:249|81:251|81:251|80:251|80:251|80:253|80:253|78:250|78:250|79:252|79:252|77:252|77:252|77:254|77:254|76:250|76:250|76:253|76:253|75:253|75:253|75:255|75:255|74:251|74:251|74:253|74:253|73:254|73:254|73:256|73:256|71:252|71:252|72:254|72:254|70:255|70:255|70:257|70:257|69:253|69:253|69:255|69:255|68:256|68:256|68:258|68:258|67:254|67:254|67:256|67:256|65:256|65:256|66:258|66:258|64:255|64:255|65:257|65:257|63:257|63:257|63:259|63:259|62:256|62:256|62:258|62:258|61:258|61:258|61:260|61:260|60:256|60:256|60:258|60:258|58:259|58:259|59:261|59:261|57:257|57:257|57:259|57:259|56:260|56:260|56:262|56:262|55:258|55:258|55:260|55:260|54:261|54:261|54:263|54:263|53:259|53:259|53:261|53:261|51:261|51:261|52:264|52:264|50:260|50:260|50:262|50:262|49:262|49:262|49:264|49:264|48:261|48:261|48:263|48:263|47:263|47:263|47:265|47:265|46:261|46:261|46:263|46:263|44:264|44:264|45:266|45:266|43:262|43:262|43:264|43:264|42:265|42:265|42:267|42:267|41:263|41:263|41:265|41:265|40:266|40:266|40:268|40:268|38:264|38:264|39:266|39:266|37:267|37:267|37:269|37:269|36:265|36:265|36:267|36:267|35:267|35:267|35:269|35:269|34:266|34:266|34:268|34:268|33:268|33:268|33:270|33:270|31:267|31:267|32:269|32:269|30:269|30:269|30:271|30:271|29:267|29:267|29:269|29:269|28:270|28:270|28:272|28:272|27:268|27:268|27:270|27:270|26:271|26:271|26:273|26:273|24:269|24:269|25:271|25:271|23:272|23:272|23:274|23:274|22:270|22:270|22:272|22:272|21:272|21:272|21:274|21:274|20:271|20:271|20:273|20:273|18:273|18:273|19:275|19:275|17:272|17:272|18:274|18:274|16:274|16:274|16:276|16:276|15:272|15:272|15:274|15:274|14:275|14:275|14:277|14:277|13:273|13:273|13:275|13:275|11:276|11:276|12:278|12:278|10:274|10:274|11:276|11:276|9:277|9:277|9:279|9:279|8:275|8:275|8:277|8:277|7:278|7:278|7:280|7:280|6:276|6:276|6:278|6:278|4:278|4:278|5:280|5:280|3:277|3:277|3:279|3:279|2:279|2:279|2:281|2:281|1:277|1:277|1:280|1:280|0:280|0:280|0:282|0:282|-1:278|-1:278|-1:280|-1:280|-3:281|-3:281|-2:283|-2:283|-4:279|-4:279|-4:281|-4:281|-5:282|-5:282|-5:284|-5:284|-6:280|-6:280|-6:282|-6:282|-7:283|-7:283|-7:285|-7:285|-8:281|-8:281|-8:283|-8:283|-10:283|-10:283|-9:285|-9:285|-11:282|-11:282|-11:284|-11:284|-12:284|-12:284|-12:286|-12:286|-13:283|-13:283|-13:285|-13:285|-14:285|-14:285|-14:287|-14:287|-16:283|-16:283|-15:285|-15:285|-17:286|-17:286|-17:288|-17:288|-18:284|-18:284|-18:286|-18:286|-19:287|-19:287|-19:289|-19:289|-20:285|-20:285|-20:287|-20:287|-21:288|-21:288|-21:290|-21:290|-23:286|-23:286|-22:288|-22:288|-24:288|-24:288|-24:291|-24:291|-25:287|-25:287|-25:289|-25:289|-26:289|-26:289|-26:291|-26:291|-27:288|-27:288|-27:290|-27:290|-28:290|-28:290|-26:289|-26:289|-28:292|-28:292|-27:291|-27:291|-25:291|-25:291|-24:290|-24:290|-26:293|-26:293|-24:292|-24:292|-23:292|-23:292|-22:291|-22:291|-23:294|-23:294|-22:293|-22:293|-21:293|-21:293|-19:292|-19:292|-21:295|-21:295|-20:294|-20:294|-19:294|-19:294|-17:293|-17:293|-19:296|-19:296|-18:295|-18:295|-16:296|-16:296|-15:294|-15:294|-17:298|-17:298|-15:296|-15:296|-14:297|-14:297|-13:295|-13:295|-14:299|-14:299|-13:297|-13:297|-12:298|-12:298|-10:296|-10:296|-12:300|-12:300|-11:298|-11:298|-10:299|-10:299|-8:297|-8:297|-10:301|-10:301|-9:299|-9:299|-7:300|-7:300|-6:298|-6:298|-8:302|-8:302|-6:300|-6:300|-5:301|-5:301|-4:299|-4:299|-5:303|-5:303|-4:301|-4:301|-3:302|-3:302|-1:300|-1:300|-3:304|-3:304|-2:302|-2:302|0:303|0:303|1:301|1:301|-1:305|-1:305|0:303|0:303|2:304|2:304|3:302|3:302|1:306|1:306|3:304|3:304|4:305|4:305|5:304|5:304|4:307|4:307|5:306|5:306|6:306|6:306|8:305|8:305|6:308|6:308|7:307|7:307|9:307|9:307|10:306|10:306|8:309|8:309|9:308|9:308|11:308|11:308|12:307|12:307|10:310|10:310|12:309|12:309|13:309|13:309|14:308|14:308|13:311|13:311|14:310|14:310|15:310|15:310|17:309|17:309|15:312|15:312|16:311|16:311|18:312|18:312|19:310|19:310|17:314|17:314|18:312|18:312|20:313|20:313|21:311|21:311|19:315|19:315|21:313|21:313|22:314|22:314|23:312|23:312|22:316|22:316|23:314|23:314|24:315|24:315|26:313|26:313|24:317|24:317|25:315|25:315|27:316|27:316|25:315|25:315|29:316|29:316|27:315|27:315|28:314|28:314|26:313|26:313|30:314|30:314|28:313|28:313|29:311|29:311|27:310|27:310|31:311|31:311|29:310|29:310|29:309|29:309|28:308|28:308|31:309|31:309|30:308|30:308|30:307|30:307|29:305|29:305|32:307|32:307|31:306|31:306|31:304|31:304|29:303|29:303|33:304|33:304|31:303|31:303|32:302|32:302|30:301|30:301|34:302|34:302|32:301|32:301|33:300|33:300|31:298|31:298|35:300|35:300|33:299|33:299|33:297|33:297|32:296|32:296|36:297|36:297|34:296|34:296|34:295|34:295|33:294|33:294|36:295|36:295|35:294|35:294|35:292|35:292|33:291|33:291|37:293|37:293|35:291|35:291|36:290|36:290|34:289|34:289|38:290|38:290|36:289|36:289|37:288|37:288|35:287|35:287|39:288|39:288|37:287|37:287|38:285|38:285|36:284|36:284|40:286|40:286|38:284|38:284|38:283|38:283|37:282|37:282|40:283|40:283|39:282|39:282|39:281|39:281|37:280|37:280|41:281|41:281|40:280|40:280|40:278|40:278|38:277|38:277|42:278|42:278|40:277|40:277|41:276|41:276|39:275|39:275|43:276|43:276|41:275|41:275|42:274|42:274|40:272|40:272|44:274|44:274|42:273|42:273|42:271|42:271|41:270|41:270|44:271|44:271|43:270|43:270|43:269|43:269|42:268|42:268|45:269|45:269|44:268|44:268|44:267|44:267|42:265|42:265|46:267|46:267|44:266|44:266|45:264|45:264|43:263|43:263|47:264|47:264|45:263|45:263|46:262|46:262|44:261|44:261|48:262|48:262|46:261|46:261|46:259|46:259|45:258|45:258|49:260|49:260|47:258|47:258|47:257|47:257|46:256|46:256|49:257|49:257|48:256|48:256|48:255|48:255|46:254|46:254|50:255|50:255|48:254|48:254|49:252|49:252|47:251|47:251|51:253|51:253|49:251|49:251|50:250|50:250|48:249|48:249|52:250|52:250|50:249|50:249|51:248|51:248|49:247|49:247|53:248|53:248|51:247|51:247|51:245|51:245|50:244|50:244|53:245|53:245|52:244|52:244|52:243|52:243|50:242|50:242|54:243|54:243|52:242|52:242|53:241|53:241|51:239|51:239|55:241|55:241|53:240|53:240|54:238|54:238|52:237|52:237|56:238|56:238|54:237|54:237|55:236|55:236|53:235|53:235|57:236|57:236|55:235|55:235|55:234|55:234|54:232|54:232|57:234|57:234|56:233|56:233|56:231|56:231|55:230|55:230|58:231|58:231|57:230|57:230|57:229|57:229|55:228|55:228|59:229|59:229|57:228|57:228|58:226|58:226|56:225|56:225|60:227|60:227|58:226|58:226|59:224|59:224|57:223|57:223|61:224|61:224|59:223|59:223|59:222|59:222|58:221|58:221|62:222|62:222|60:221|60:221|60:219|60:219|59:218|59:218|62:220|62:220|61:218|61:218|61:217|61:217|59:216|59:216|63:217|63:217|61:216|61:216|62:215|62:215|60:214|60:214|64:215|64:215|62:214|62:214|63:212|63:212|61:211|61:211|65:212|65:212|63:211|63:211|64:210|64:210|62:209|62:209|66:210|66:210|64:209|64:209|64:208|64:208|63:206|63:206|66:208|66:208|65:207|65:207|65:205|65:205|63:204|63:204|67:205|67:205|65:204|65:204|66:203|66:203|64:202|64:202|68:203|68:203|66:202|66:202|67:201|67:201|65:199|65:199|69:201|69:201|67:200|67:200|68:198|68:198|66:197|66:197|70:198|70:198|68:197|68:197|68:196|68:196|67:195|67:195|70:196|70:196|69:195|69:195|69:193|69:193|68:192|68:192|71:194|71:194|70:193|70:193|70:191|70:191|68:190|68:190|72:191|72:191|70:190|70:190|71:189|71:189|69:188|69:188|73:189|73:189|71:188|71:188|72:186|72:186|70:185|70:185|74:187|74:187|72:185|72:185|72:184|72:184|71:183|71:183|75:184|75:184|73:183|73:183|73:182|73:182|72:181|72:181|75:182|75:182|74:181|74:181|74:179|74:179|72:178|72:178|76:179|76:179|74:178|74:178|75:177|75:177|73:176|73:176|77:177|77:177|75:176|75:176|76:175|76:175|74:173|74:173|78:175|78:175|76:174|76:174|77:172|77:172|75:171|75:171|79:172|79:172|77:171|77:171|77:170|77:170|76:169|76:169|79:170|79:170|78:169|78:169|78:168|78:168|76:166|76:166|80:168|80:168|78:167|78:167|79:166,1,1756.82049142746,2|0,1:0|0:0,0:1:0:0:
23,113,245460,6,0,L|-10:35,1,84.3750005364419,10|0,0:2|0:0,0:0:0:0:
57,0,245760,2,0,L|90:78,1,84.3750005364419
248,152,246060,6,0,L|281:74,1,84.3750005364419,0|0,1:0|0:0,0:0:0:0:
214,39,246360,2,0,L|181:117,1,84.3750005364419
128,203,246660,6,0,L|372:160,1,224.999992847443,10|0,0:2|1:0,0:0:0:0:
456,211,247260,6,0,P|480:239|484:258,1,56.2500003576279,6|0,1:3|0:0,0:0:0:0:
448,291,247410,2,0,P|428:322|411:332,1,56.2500003576279,2|0,0:2|0:0,0:0:0:0:
324,321,247560,6,0,P|288:312|273:299,1,56.2500003576279,6|0,0:3|0:0,0:0:0:0:
283,251,247710,2,0,P|280:214|287:196,1,56.2500003576279,2|0,0:2|0:0,0:0:0:0:
391,91,247860,6,0,L|451:81,1,56.2500003576279,10|0,0:2|0:0,0:0:0:0:
298,13,248010,2,0,L|358:23,1,56.2500003576279,6|0,0:3|0:0,0:0:0:0:
254,116,248160,2,0,L|314:106,1,56.2500003576279,2|0,0:2|0:0,0:0:0:0:
161,38,248310,2,0,L|221:48,1,56.2500003576279,2|0,0:2|0:0,0:0:0:0:
102,123,248460,6,0,B|25:107|25:107|52:234,1,187.499994039536,2|0,1:2|0:0,0:0:0:0:
41,226,248910,1,0,0:0:0:0:
121,316,249060,2,0,B|196:347|254:280|250:272|246:261|303:163|410:223,1,281.25000178814,10|0,0:2|0:0,0:0:0:0:
426,288,249510,2,0,P|437:262|431:236,1,56.2500003576279,10|0,0:2|0:0,0:0:0:0:
214,104,249660,6,2,B|213:103|213:103|211:104|211:104|214:101|214:101|212:103|212:103|211:102|211:102|210:103|210:103|212:100|212:100|211:101|211:101|210:100|210:100|208:101|208:101|210:99|210:99|209:100|209:100|208:99|208:99|206:100|206:100|209:97|209:97|207:98|207:98|206:98|206:98|205:99|205:99|207:96|207:96|205:97|205:97|205:96|204:96|204:96|203:97|203:97|205:95|205:95|204:96|204:96|203:95|203:95|201:96|201:96|203:93|203:93|202:94|202:94|201:94|201:94|200:95|200:95|202:92|202:92|200:93|200:93|199:93|199:93|198:94|198:94|200:91|200:91|199:92|199:92|198:91|197:91|197:91|196:93|196:93|198:90|198:90|197:91|197:91|196:90|196:90|195:91|195:91|196:89|196:89|195:90|195:90|194:89|194:89|193:90|193:90|194:88|194:88|193:89|193:89|192:88|192:88|191:89|191:89|193:87|193:87|192:88|192:88|191:87|190:87|190:87|189:88|189:88|191:86|191:86|190:87|190:87|189:86|189:86|187:88|187:88|189:84|189:84|188:86|188:86|187:85|187:85|185:87|185:87|187:83|187:83|186:85|186:85|185:84|184:84|184:84|183:86|183:86|185:82|185:82|183:84|183:84|183:83|182:83|182:83|181:85|181:85|183:81|183:81|181:83|181:83|180:82|180:82|179:84|179:84|181:80|181:80|179:82|179:82|178:81|178:81|177:83|177:83|178:79|178:79|177:81|177:81|176:80|176:80|175:82|175:82|176:78|176:78|175:80|175:80|174:80|174:80|173:81|173:81|174:77|174:77|173:79|173:79|172:79|172:79|171:81|171:81|172:77|172:77|171:78|171:78|170:78|170:78|169:80|169:80|170:76|170:76|169:78|169:78|168:78|168:78|167:79|167:79|168:75|168:75|167:77|167:77|166:77|166:77|165:79|165:79|166:75|166:75|165:77|165:77|164:76|164:76|163:78|163:78|164:74|164:74|163:76|163:76|162:76|162:76|161:78|161:78|162:74|162:74|161:76|161:76|160:75|160:75|159:77|159:77|159:73|159:73|159:75|159:75|158:75|158:75|157:77|157:77|157:73|157:73|157:75|157:75|156:75|156:75|155:77|155:77|155:73|155:73|155:74|155:74|154:74|154:74|153:76|153:76|153:72|153:72|153:74|153:74|152:74|151:74|151:74|150:76|150:76|151:72|151:72|150:74|150:74|149:74|149:74|148:76|148:76|149:72|149:72|148:74|148:74|147:74|147:74|146:75|146:75|146:72|146:72|146:73|146:73|145:73|144:73|144:73|144:75|144:75|144:71|144:71|143:73|143:73|142:73|142:73|142:75|142:75|142:71|142:71|141:73|141:73|140:73|140:73|140:75|140:75|140:71|140:71|139:73|139:73|138:73|138:73|137:75|137:75|137:72|137:72|137:73|137:73|136:73|136:73|135:75|135:75|135:72|135:72|135:73|135:73|134:73|134:74|134:74|133:75|133:75|133:72|133:72|133:74|133:74|132:74|132:74|131:76|131:76|131:72|131:72|131:74|131:74|130:74|129:74|129:74|129:76|129:76|129:72|129:72|129:74|129:74|128:74|127:74|127:74|127:76|127:76|127:73|127:73|127:74|127:74|126:74|125:75|125:75|125:76|125:76|125:73|125:73|125:75|125:75|124:75|123:75|123:75|123:77|123:77|122:73|122:73|122:75|122:75|121:75|121:75|121:78|121:78|120:73|120:73|120:76|120:76|119:76|119:76|119:78|119:78|118:74|118:74|118:76|118:76|117:77|117:77|117:79|117:79|116:75|116:75|116:77|116:77|115:77|115:77|115:80|115:80|114:75|114:75|114:78|114:78|113:78|113:78|113:80|113:80|112:76|112:76|112:78|112:78|112:79|111:79|111:79|111:81|111:81|110:77|110:77|110:79|110:79|109:80|109:80|110:82|110:82|108:78|108:78|108:80|108:80|107:81|107:81|108:83|108:83|106:79|106:79|106:81|106:81|105:81|105:81|106:84|106:84|104:80|104:80|105:82|105:82|104:82|104:83|104:83|104:85|104:85|102:81|102:81|103:83|103:83|102:84|102:84|102:86|102:86|100:82|100:82|101:84|101:84|100:85|100:85|101:87|101:87|98:84|98:84|99:86|99:86|98:86|98:86|99:88|99:88|97:85|97:85|97:87|97:87|96:88|96:88|97:89|97:89|95:86|95:86|96:88|96:88|95:89|95:89|96:91|96:91|93:88|93:88|94:90|94:90|93:90|93:90|94:92|94:92|92:89|92:89|93:91|93:91|92:92|92:92|93:93|93:93|90:91|90:91|91:93|91:93|90:93|90:93|91:95|91:95|89:93|89:93|90:94|90:94|89:95|89:95|90:96|90:96|87:94|87:94|89:96|89:96|88:96|88:96|89:98|89:98|86:96|86:96|87:97|87:97|87:98|87:98|88:100|88:100|84:98|84:98|86:99|86:99|86:100|85:100|85:100|87:102|87:102|83:99|83:99|85:101|85:101|84:102|84:102|86:103|86:103|82:101|82:101|84:103|84:103|83:104|83:104|85:105|85:105|81:103|81:103|83:105|83:105|83:106|82:106|82:106|84:107|84:107|80:105|80:105|82:107|82:107|82:108|82:108|83:109|83:109|79:108|79:108|81:109|81:109|81:110|81:110|83:111|83:111|79:110|79:110|81:111|81:111|80:111|80:112|80:112|82:113|82:113|78:112|78:112|80:113|80:113|80:114|80:114|82:115|82:115|78:114|78:114|80:115|80:115|79:115|79:116|79:116|81:117|81:117|77:116|77:116|79:117|79:117|79:118|79:118|81:119|81:119|77:118|77:118|79:119|79:119|79:120|79:120|81:121|81:121|77:120|77:120|79:121|79:121|79:122|79:122|81:122|81:122|77:122|77:122|79:123|79:123|79:124|79:124|81:124|81:124|77:125|77:125|79:125|79:125|79:126|79:126|81:126|81:126|77:127|77:127|79:127|79:127|79:128|79:128|81:128|81:128|77:129|77:129|79:129|79:129|79:130|79:130|81:130|81:130|77:131|77:131|79:131|79:131|79:132|80:132|80:132|82:132|82:132|78:133|78:133|80:133|80:133|80:134|80:134|82:134|82:134|78:135|78:135|80:135|80:135|80:136|81:136|81:136|83:136|83:136|79:137|79:137|81:137|81:137|81:138|81:138|83:138|83:138|79:139|79:139|82:139|82:139|82:140|82:140|84:140|84:140|80:141|80:141|82:141|82:141|83:142|83:142|85:142|85:142|81:143|81:143|83:143|83:143|84:144|84:144|86:143|86:143|82:145|82:145|84:145|84:145|85:146|85:146|87:145|87:145|83:147|83:147|85:147|85:147|86:147|86:148|86:148|88:147|88:147|84:149|84:149|86:149|86:149|87:149|87:149|89:149|89:149|86:151|86:151|88:150|88:150|88:151|88:151|90:150|90:150|87:153|87:153|89:152|89:152|89:153|90:153|90:153|92:152|92:152|88:155|88:155|90:154|90:154|91:154|91:155|91:155|93:154|93:154|90:156|90:156|92:155|92:155|92:156|93:156|93:156|94:155|94:155|92:158|92:158|93:157|93:157|94:157|94:158|94:158|96:157|96:157|93:159|93:159|95:158|95:158|95:159|95:159|97:158|97:158|95:161|95:161|96:160|96:160|97:160|97:160|99:159|99:159|96:162|96:162|98:161|98:161|99:162|99:162|100:160|100:160|98:163|98:163|99:162|99:162|100:163|100:163|102:162|102:162|100:165|100:165|101:163|101:163|102:164|102:164|104:163|104:163|101:166|101:166|103:165|103:165|104:165|104:165|105:164|105:164|103:167|103:167|105:166|105:166|106:166|106:166|107:165|107:165|105:168|105:168|107:167|107:167|108:167|108:167|109:166|109:166|107:169|107:169|109:168|109:168|110:168|110:168|111:167|111:167|109:170|109:170|111:169|111:169|112:169|112:169|113:168|113:168|111:171|111:171|113:170|113:170|115:168|115:168|113:172|113:172|114:171|114:171|115:171|115:171|117:169|117:169|115:173|115:173|116:171|116:171|117:172|117:172|118:170|118:170|117:174|117:174|118:172|118:172|119:172|119:172|120:170|120:170|119:174|119:174|120:173|120:173|121:173|121:173|122:171|122:171|121:175|121:175|122:173|122:173|123:173|123:173|124:171|124:171|123:176|123:176|124:174|124:174|125:174|125:174|126:172|126:172|125:176|125:176|126:174|126:174|127:174|127:174|128:172|128:172|128:177|128:177|129:175|129:175|130:175|130:175|130:173|130:173|130:177|130:177|131:175|131:175|132:175|132:175|133:173|133:173|132:177|132:177|133:175|133:175|134:175|134:175|135:173|135:173|134:178|134:178|135:176|135:176|136:176|136:176|137:173|137:173|137:178|137:178|137:176|137:176|138:176|138:176|139:174|139:174|139:178|139:178|140:176|140:176|141:176|141:176|141:174|141:174|141:178|141:178|142:176|142:176|143:176|143:176|143:174|143:174|143:178|143:178|144:176|144:176|145:176|145:176|145:174|145:174|145:178|145:178|146:176|146:176|147:176|147:176|147:174|147:174|147:178|147:178|148:176|148:176|149:176|149:176|149:174|149:174|149:178|149:178|150:176|150:176|151:176|151:176|151:174|151:174|152:178|152:178|152:176|152:176|153:176|153:176|153:174|153:174|154:178|154:178|154:176|154:176|155:176|155:176|156:174|156:174|156:177|156:177|156:176|156:176|157:175|157:175|158:174|158:174|158:177|158:177|158:175|158:175|160:175|160:175|160:173|160:173|160:177|160:177|160:175|160:175|162:175|162:175|162:173|162:173|162:177|162:177|163:175|163:175|164:174|164:174|164:173|164:173|165:176|165:176|165:174|165:174|166:174|166:174|166:172|166:172|167:176|167:176|167:174|167:174|168:174|168:174|168:172|168:172|169:175|169:175|169:173|169:173|170:173|170:173|170:171|170:171|171:175|171:175|171:173|171:173|173:173|173:173|173:171|173:171|174:174|174:174|174:172|174:172|175:172|175:172|175:170|175:170|176:174|176:174|176:172|176:172|177:171|177:171|177:169|177:169|178:173|178:173|178:171|178:171|179:171|179:171|179:169|179:169|180:173|180:173|180:171|180:171|181:170|181:170|181:168|181:168|182:172|182:172|182:170|182:170|183:170|183:170|183:168|183:168|184:171|184:171|184:169|184:169|185:169|185:169|185:167|185:167|186:171|186:171|186:169|186:169|187:168|187:168|187:166|187:166|188:170|188:170|188:168|188:168|189:168|189:168|188:166|188:166|190:169|190:169|190:167|190:167|191:167|191:167|190:165|190:165|192:169|192:169|192:167|192:167|192:166|193:166|193:166|192:164|192:164|194:168|194:168|194:166|194:166|194:165|194:165|194:163|194:163|196:167|196:167|195:165|195:165|196:165|196:164|196:164|196:162|196:162|198:166|198:166|197:164|197:164|198:164|198:164|198:161|198:161|200:165|200:165|199:163|199:163|200:163|200:163|200:161|200:161|202:164|202:164|201:162|201:162|202:162|202:162|202:160|202:160|204:163|204:163|203:161|203:161|204:161|204:161|204:159|204:159|206:162|206:162|205:160|205:160|206:160|206:160|206:158|206:158|208:161|208:161|207:159|207:159|208:159|208:159|207:157|207:157|210:160|210:160|209:158|209:158|210:158|210:158|209:156|209:156|211:159|211:159|211:157|211:157|212:157|212:157|211:154|211:154|213:158|213:158|213:156|213:156|214:156|214:156|213:153|213:153|215:157|215:157|215:155|215:155|216:155|216:154|216:154|215:152|215:152|217:156|217:156|217:154|217:154|217:153|218:153|218:153|217:151|217:151|219:155|219:155|219:153|219:153|219:152|219:152|219:150|219:150|221:154|221:154|220:151|220:151|221:151|221:151|221:149|221:149|223:152|223:152|222:150|222:150|223:150|223:150|222:147|222:147|225:151|225:151|224:149|224:149|225:148|225:148|224:146|224:146|227:150|227:150|226:148|226:148|227:147|227:147|226:145|226:145|229:149|229:149|228:146|228:146|229:146|229:146|228:144|228:144|231:147|231:147|230:145|230:145|231:144|231:144|230:142|230:142|232:146|232:146|232:144|232:144|232:143|232:143|232:141|232:141|234:144|234:144|233:142|233:142|234:142|234:142|233:139|233:139|236:143|236:143|235:141|235:141|236:140|236:140|235:138|235:138|238:142|238:142|237:139|237:139|238:139|238:139|237:137|237:137|240:140|240:140|239:138|239:138|240:137|240:137|239:135|239:135|242:139|242:139|241:137|241:137|241:136|241:136|240:134|240:134|243:137|243:137|242:135|242:135|243:134|243:134|242:132|242:132|245:136|245:136|244:134|244:134|245:133|245:133|244:131|244:131|247:134|247:134|246:132|246:132|247:131|247:131|246:129|246:129|249:133|249:133|248:130|248:130|247:128|247:128|250:131|250:131|249:129|249:129|250:128|250:128|249:126|249:126|252:129|252:129|251:127|251:127|252:127|252:127|251:124|251:124|254:128|254:128|253:126|253:126|253:125|253:125|252:123|252:123|255:126|255:126|254:124|254:124|255:123|255:123|254:121|254:121|257:124|257:124|256:122|256:122|257:122|257:122|255:120|255:120|259:123|259:123|258:121|258:121|258:120|258:120|257:118|257:118|260:121|260:121|259:119|259:119|260:118|260:118|259:116|259:116|262:119|262:119|261:117|261:117|262:117|262:117|260:115|260:115|264:118|264:118|262:116|262:116|263:115|263:115|262:113|262:113|265:116|265:116|264:114|264:114|264:113|265:113|265:113|263:111|263:111|267:114|267:114|265:112|265:112|266:112|266:111|266:111|265:110|265:110|268:113|268:113|267:111|267:111|267:110|268:110|268:110|266:108|266:108|270:111|270:111|268:109|268:109|269:108|269:108|268:106|268:106|271:109|271:109|270:107|270:107|270:106|271:106|271:106|269:104|269:104|273:107|273:107|271:105|271:105|272:105|272:105|271:103|271:103|274:106|274:106|273:104|273:104|273:103|273:103|272:101|272:101|275:104|275:104|274:102|274:102|275:101|275:101|273:99|273:99|277:102|277:102|275:100|275:100|276:99|276:99|275:97|275:97|278:100|278:100|277:98|277:98|276:96|276:96|280:98|280:98|278:97|278:97|279:96|279:96|277:94|277:94|281:97|281:97|279:95|279:95|280:94|280:94|279:92|279:92|282:95|282:95|281:93|281:93|281:92|281:92|280:91|280:91|283:93|283:93|282:91|282:91|282:90|282:90|281:89|281:89|285:91|285:91|283:90|283:90|284:89|284:89|282:87|282:87|286:89|286:89|284:88|284:88|285:87|285:87|283:85|283:85|287:88|287:88|285:86|285:86|286:85|286:85|285:84|285:84|288:86|288:86|287:84|287:84|287:83|287:83|286:82|286:82|289:84|289:84|288:83|288:83|288:82|288:82|287:80|287:80|290:82|290:82|289:81|289:81|289:80|289:80|288:79|288:79|291:81|291:81|290:79|290:79|290:78|290:78|289:77|289:77|292:79|292:79|291:77|291:77|292:76|292:75,1,1984.73268971428,2|0,1:1|3:0,0:1:0:0:
397,62,250260,6,0,P|422:31|478:35,1,84.3750005364419,10|0,0:2|0:0,0:0:0:0:
498,98,250560,2,0,P|473:129|417:125,1,84.3750005364419,0|0,3:0|0:0,0:0:0:0:
299,211,250860,6,0,P|323:258|331:300,1,84.3750005364419,0|0,1:0|0:0,0:0:0:0:
399,264,251160,2,0,P|388:223|368:186,1,84.3750005364419,0|0,3:0|0:0,0:0:0:0:
413,365,251460,6,0,P|309:321|191:318,1,224.999992847443,10|0,0:2|1:0,0:0:0:0:
53,298,252060,6,0,B|-1:254|14:125|146:113|174:233|105:226,1,281.25000178814,6|0,1:3|0:0,0:0:0:0:
76,216,252510,2,0,P|61:183|71:157,1,56.2500003576279,6|0,3:0|0:0,0:0:0:0:
154,60,252660,2,0,B|228:79|228:79|236:91|236:91|335:116,1,168.750001072884,10|0,0:2|0:0,0:0:0:0:
330,104,252960,2,0,B|364:58|364:58|326:-3,1,112.500000715256,6|0,3:0|0:0,0:0:0:0:
180,156,253260,6,0,L|158:211,3,56.2500003576279,2|2|2|2,1:2|0:2|0:2|0:2,0:0:0:0:
192,349,253560,2,0,L|212:296,3,56.2500003576279,10|2|2|2,0:2|0:2|0:2|0:2,0:0:0:0:
244,227,253860,1,10,0:2:0:0:
411,142,254010,6,0,P|376:155|365:176,1,56.2500003576279,2|0,0:2|0:0,0:0:0:0:
399,240,254160,2,0,P|427:263|451:262,1,56.2500003576279,2|0,0:2|0:0,0:0:0:0:
489,201,254310,2,0,P|495:164|482:144,1,56.2500003576279,10|0,0:2|0:0,0:0:0:0:
319,69,254460,6,2,B|320:70|320:70|322:69|322:69|319:72|319:72|321:70|321:70|322:71|322:71|323:70|323:70|321:73|321:73|322:72|322:72|323:73|323:73|325:72|325:72|323:74|323:74|324:73|324:73|325:74|325:74|327:73|327:73|324:76|324:76|326:75|326:75|327:75|327:75|328:74|328:74|326:77|326:77|327:76|327:76|328:77|329:77|329:77|330:76|330:76|328:78|328:78|329:77|329:77|330:78|330:78|332:77|332:77|330:80|330:80|331:79|331:79|332:79|332:79|333:78|333:78|331:81|331:81|333:80|333:80|334:80|334:80|335:79|335:79|333:82|333:82|334:81|334:81|335:81|335:82|335:82|337:80|337:80|335:83|335:83|336:82|336:82|337:83|337:83|338:82|338:82|337:84|337:84|338:83|338:83|339:84|339:84|340:83|340:83|338:85|338:85|340:84|340:84|341:85|341:85|342:84|342:84|340:86|340:86|341:85|341:85|342:86|342:86|344:85|344:85|342:87|342:87|343:86|343:86|344:87|344:87|346:85|346:85|344:89|344:89|345:87|345:87|346:88|346:88|348:86|348:86|346:90|346:90|347:88|347:88|348:89|348:89|350:87|350:87|348:91|348:91|349:89|349:89|350:90|351:90|351:90|352:88|352:88|350:92|350:92|352:90|352:90|352:91|353:91|353:91|354:89|354:89|352:93|352:93|354:91|354:91|355:92|355:92|356:90|356:90|354:94|354:94|356:92|356:92|357:92|357:93|357:93|358:91|358:91|357:95|357:95|358:93|358:93|359:93|359:93|360:91|360:91|359:96|359:96|360:94|360:94|361:94|361:94|362:92|362:92|361:96|361:96|362:94|362:94|363:95|363:95|364:93|364:93|363:97|363:97|364:95|364:95|365:95|365:95|366:94|366:94|365:98|365:98|366:96|366:96|367:96|367:96|368:94|368:94|367:98|367:98|368:96|368:96|369:97|369:97|370:95|370:95|369:99|369:99|370:97|370:97|371:97|371:97|372:95|372:95|371:99|371:99|372:97|372:97|373:98|373:98|374:96|374:96|373:100|373:100|374:98|374:98|375:98|375:98|376:96|376:96|375:100|375:100|376:98|376:98|377:98|377:98|378:96|378:96|377:100|377:100|378:98|378:98|379:99|379:99|380:97|380:97|379:101|379:101|380:99|380:99|381:99|382:99|382:99|382:97|382:97|382:101|382:101|383:99|383:99|384:99|384:99|385:97|385:97|384:101|384:101|385:99|385:99|386:99|386:99|387:98|387:98|386:101|386:101|387:99|387:99|388:100|388:100|389:98|389:98|389:101|389:101|389:100|389:100|390:100|391:100|391:100|391:98|391:98|391:102|391:102|391:100|391:100|392:100|393:100|393:100|393:98|393:98|393:102|393:102|394:100|394:100|395:100|395:100|395:98|395:98|395:101|395:101|396:100|396:100|397:100|397:100|397:98|397:98|398:101|398:101|398:100|398:100|399:100|399:99|399:99|399:98|399:98|400:101|400:101|400:99|400:99|401:99|401:99|401:97|401:97|402:101|402:101|402:99|402:99|403:99|403:99|403:97|403:97|404:101|404:101|404:99|404:99|405:99|405:99|405:97|405:97|406:100|406:100|406:99|406:99|407:99|407:98|407:98|407:97|407:97|408:100|408:100|408:98|408:98|409:98|409:98|409:96|409:96|410:100|410:100|410:98|410:98|411:98|411:98|411:95|411:95|412:100|412:100|412:97|412:97|413:97|414:97|414:97|413:95|413:95|415:99|415:99|415:97|415:97|416:96|416:96|416:94|416:94|417:98|417:98|417:96|417:96|418:96|418:96|417:94|417:94|419:98|419:98|419:95|419:95|420:95|420:95|419:93|419:93|421:97|421:97|421:95|421:95|421:94|422:94|422:94|421:92|421:92|423:96|423:96|423:94|423:94|424:93|424:93|423:91|423:91|425:95|425:95|425:93|425:93|425:90|425:90|427:94|427:94|426:92|426:92|427:92|427:92|427:90|427:90|429:93|429:93|428:91|428:91|429:91|429:91|429:89|429:89|431:92|431:92|430:90|430:90|431:90|431:89|431:89|430:87|430:87|433:91|433:91|432:89|432:89|433:88|433:88|432:86|432:86|434:89|434:89|434:88|434:88|434:87|435:87|435:87|434:85|434:85|436:88|436:88|435:86|435:86|436:86|436:86|436:84|436:84|438:87|438:87|437:85|437:85|438:84|438:84|437:82|437:82|440:85|440:85|439:84|439:84|439:83|440:83|440:83|439:81|439:81|441:84|441:84|440:82|440:82|441:82|441:81|441:81|440:80|440:80|443:82|443:82|442:81|442:81|442:80|442:80|441:78|441:78|444:81|444:81|443:79|443:79|444:79|444:78|444:78|443:77|443:77|445:79|445:79|444:78|444:78|445:77|445:77|444:75|444:75|447:77|447:77|445:76|445:76|446:75|446:75|445:73|445:73|448:76|448:76|447:74|447:74|447:73|447:73|446:72|446:72|449:74|449:74|448:72|448:72|448:71|448:71|447:70|447:70|451:72|451:72|449:70|449:70|448:68|448:68|452:70|452:70|450:69|450:69|450:68|450:68|449:66|449:66|453:68|453:68|451:67|451:67|451:66|451:66|449:64|449:64|453:66|453:66|452:65|452:65|452:64|452:64|450:62|450:62|454:64|454:64|452:63|452:63|453:62|453:62|451:61|451:61|455:62|455:62|453:61|453:61|453:60|453:60|451:59|451:59|455:60|455:60|453:59|453:59|454:58|454:58|452:57|452:57|456:57|456:57|454:57|454:57|454:56|454:56|452:55|452:55|456:55|456:55|454:55|454:55|454:54|454:53|454:53|452:53|452:53|456:53|456:53|454:52|454:52|454:51|454:51|452:51|452:51|456:51|456:51|454:50|454:50|454:49|454:49|452:49|452:49|456:49|456:49|454:48|454:48|454:47|454:47|452:47|452:47|456:47|456:47|454:46|454:46|454:45|454:45|452:45|452:45|456:45|456:45|454:44|454:44|454:43|454:43|452:43|452:43|456:42|456:42|454:42|454:42|454:41|454:41|452:41|452:41|456:40|456:40|453:40|453:40|453:39|453:39|451:39|451:39|455:38|455:38|453:38|453:38|453:37|453:37|451:37|451:37|455:36|455:36|452:36|452:36|452:35|452:35|450:35|450:35|454:34|454:34|452:34|452:34|452:33|451:33|451:33|449:33|449:33|453:32|453:32|451:32|451:32|451:31|451:31|448:32|448:32|452:30|452:30|450:30|450:30|450:29|450:29|448:30|448:30|451:28|451:28|449:28|449:28|449:27|449:27|447:28|447:28|450:26|450:26|448:26|448:26|448:25|448:25|446:26|446:26|449:24|449:24|447:25|447:25|447:24|447:24|445:24|445:24|448:22|448:22|446:23|446:23|446:22|445:22|445:22|443:23|443:23|447:20|447:20|445:21|445:21|444:20|444:20|442:21|442:21|445:18|445:18|443:19|443:19|443:18|443:18|441:19|441:19|444:16|444:16|442:18|442:18|441:17|441:17|440:18|440:18|442:15|442:15|441:16|441:16|440:15|440:15|438:16|438:16|441:14|441:14|439:15|439:15|439:14|438:14|438:14|437:15|437:15|439:12|439:12|438:13|438:13|437:13|437:12|437:12|435:14|435:14|438:11|438:11|436:12|436:12|436:11|435:11|435:11|434:12|434:12|436:9|436:9|435:10|435:10|434:10|434:10|432:11|432:11|434:8|434:8|433:9|433:9|432:9|432:9|430:10|430:10|433:7|433:7|431:8|431:8|430:8|430:7|430:7|429:9|429:9|431:5|431:5|429:7|429:7|429:6|428:6|428:6|427:8|427:8|429:4|429:4|427:6|427:6|427:5|426:5|426:5|425:7|425:7|427:3|427:3|426:5|426:5|425:4|425:4|423:6|423:6|425:2|425:2|424:4|424:4|423:3|423:3|421:5|421:5|423:1|423:1|422:3|422:3|421:2|421:2|420:3|420:3|421:1|421:1|420:2|420:2|419:1|419:1|418:3|418:3|419:-1|419:-1|418:1|418:1|417:1|417:1|416:2|416:2|417:-1|417:-1|416:0|416:0|415:0|415:0|414:2|414:2|415:-2|415:-2|414:0|414:0|413:-1|413:-1|412:1|412:1|413:-3|413:-3|412:-1|412:-1|411:-1|411:-1|410:1|410:1|411:-3|411:-3|410:-2|410:-2|409:-2|409:-2|408:0|408:0|409:-4|409:-4|408:-2|408:-2|407:-2|407:-2|406:0|406:0|407:-5|407:-5|406:-3|406:-3|405:-3|405:-3|404:-1|404:-1|405:-5|405:-5|404:-3|404:-3|403:-3|403:-3|402:-1|402:-1|403:-5|403:-5|402:-3|402:-3|401:-4|401:-4|400:-1|400:-1|400:-6|400:-6|400:-4|400:-4|398:-4|398:-4|398:-2|398:-2|398:-6|398:-6|397:-4|397:-4|396:-4|396:-4|395:-2|395:-2|396:-6|396:-6|395:-4|395:-4|394:-4|394:-4|393:-2|393:-2|394:-7|394:-7|393:-4|393:-4|392:-5|392:-4|392:-4|391:-3|391:-3|391:-6|391:-6|391:-5|391:-5|390:-5|390:-5|389:-3|389:-3|389:-6|389:-6|389:-5|389:-5|388:-5|388:-5|387:-3|387:-3|387:-6|387:-6|387:-5|387:-5|386:-5|386:-5|385:-3|385:-3|385:-6|385:-6|385:-5|385:-5|383:-5|383:-5|383:-3|383:-3|383:-6|383:-6|383:-5|383:-5|381:-4|381:-4|381:-3|381:-3|381:-6|381:-6|381:-4|381:-4|379:-4|379:-4|379:-3|379:-3|379:-6|379:-6|378:-4|378:-4|377:-4|377:-4|377:-2|377:-2|377:-6|377:-6|376:-4|376:-4|375:-4|375:-4|375:-2|375:-2|374:-6|374:-6|374:-4|374:-4|373:-4|373:-4|373:-2|373:-2|372:-5|372:-5|372:-4|372:-4|371:-3|371:-3|371:-1|371:-1|370:-5|370:-5|370:-3|370:-3|369:-3|369:-3|368:-1|368:-1|368:-5|368:-5|368:-3|368:-3|366:-3|366:-3|366:-1|366:-1|366:-4|366:-4|365:-2|365:-2|364:-2|364:-2|364:0|364:0|363:-4|363:-4|363:-2|363:-2|362:-2|362:-2|362:0|362:0|361:-4|361:-4|361:-2|361:-2|360:-1|360:-1|360:1|360:1|359:-3|359:-3|359:-1|359:-1|358:-1|358:-1|358:1|358:1|357:-2|357:-2|357:0|357:0|355:0|355:0|355:2|355:2|354:-2|354:-2|354:0|354:0|353:1|353:1|353:3|353:3|352:-1|352:-1|352:1|352:1|351:1|351:1|351:3|351:3|350:-1|350:-1|350:1|350:1|349:2|349:2|349:4|349:4|348:0|348:0|348:2|348:2|347:2|347:2|348:5|348:5|346:1|346:1|346:3|346:3|345:3|345:3|346:5|346:5|344:1|344:1|345:4|345:4|344:4|344:4|344:6|344:6|342:2|342:2|343:4|343:4|342:5|342:5|342:7|342:7|340:3|340:3|341:5|341:5|340:5|340:5|340:8|340:8|338:4|338:4|339:6|339:6|338:6|338:6|338:8|338:8|336:4|336:4|337:7|337:7|336:7|336:7|336:9|336:9|334:5|334:5|335:7|335:7|334:8|334:8|334:10|334:10|333:6|333:6|333:8|333:8|332:9|332:9|332:11|332:11|331:7|331:7|331:9|331:9|330:10|330:10|331:12|331:12|329:8|329:8|329:10|329:10|328:11|328:11|329:13|329:13|327:9|327:9|327:11|327:11|326:12|326:12|327:14|327:14|325:10|325:10|325:12|325:12|324:13|324:13|325:15|325:15|323:11|323:11|323:13|323:13|323:14|322:14|322:14|323:16|323:16|321:12|321:12|321:14|321:14|321:15|320:15|320:15|321:17|321:17|319:13|319:13|320:15|320:15|319:16|319:16|319:18|319:18|317:14|317:14|318:17|318:17|317:17|317:17|317:19|317:19|315:16|315:16|316:18|316:18|315:18|315:18|316:21|316:21|313:17|313:17|314:19|314:19|313:19|313:20|313:20|314:22|314:22|311:18|311:18|312:20|312:20|311:21|311:21|312:23|312:23|309:19|309:19|310:21|310:21|309:22|309:22|310:24|310:24|307:20|307:20|308:23|308:23|307:23|307:23|308:25|308:25|306:22|306:22|306:24|306:24|305:25|305:25|306:27|306:27|304:23|304:23|305:25|305:25|304:26|304:26|305:28|305:28|302:24|302:24|303:27|303:27|302:27|302:27|303:29|303:29|300:26|300:26|301:28|301:28|300:29|300:29|301:31|301:31|298:27|298:27|299:29|299:29|298:30|298:30|299:32|299:32|296:29|296:29|297:31|297:31|296:32|296:32|297:34|297:34|294:30|294:30|295:32|295:32|295:33|295:33|296:35|296:35|293:32|293:32|294:34|294:34|293:34|293:34|294:37|294:37|291:33|291:33|292:35|292:35|291:36|291:36|292:38|292:38|289:35|289:35|290:37|290:37|289:37|289:37|290:40|290:40|287:36|287:36|288:38|288:38|288:39|288:39|289:41|289:41|286:38|286:38|287:40|287:40|286:40|286:41|286:41|287:43|287:43|284:39|284:39|285:41|285:41|284:42|284:42|285:44|285:44|282:41|282:41|283:43|283:43|283:44|282:44|282:44|284:46|284:46|280:42|280:42|282:45|282:45|281:45|281:45|282:47|282:47|279:44|279:44|280:46|280:46|279:47|279:47|280:49|280:49|277:46|277:46|278:48|278:48|278:49|278:49|279:51|279:51|275:47|275:47|277:49|277:49|276:50|276:50|277:52|277:52|274:49|274:49|275:51|275:51|274:52|274:52|276:54|276:54|272:51|272:51|273:53|273:53|273:54|273:54|274:56|274:56|271:53|271:53|272:55|272:55|271:55|271:55|272:57|272:57|269:54|269:54|270:56|270:56|270:57|270:57|271:59|271:59|267:56|267:56|269:58|269:58|268:59|268:59|269:61|269:61|266:58|266:58|267:60|267:60|267:61|267:61|268:63|268:63|264:60|264:60|266:62|266:62|265:62|265:62|266:64|266:64|263:61|263:61|264:63|264:63|264:64|264:64|265:66|265:66|261:63|261:63|263:65|263:65|262:66|262:66|264:68|264:68|260:65|260:65|261:67|261:67|261:68|261:68|262:70|262:70|259:67|259:67|260:69|260:69|259:69|259:70|259:70|261:71|261:71|257:69|257:69|259:70|259:70|258:71|258:71|259:73|259:73|256:70|256:70|257:72|257:72|257:73|257:73|258:75|258:75|254:72|254:72|256:74|256:74|255:75|255:75|257:77|257:77|253:74|253:74|255:76|255:76|254:77|254:77|255:79|255:79|252:76|252:76|253:78|253:78|253:79|253:79|254:80|254:80|251:78|251:78|252:79|252:79|252:80|251:80|251:80|253:82|253:82|249:80|249:80|251:81|251:81|250:82|250:82|252:84|252:84|248:81|248:81|250:83|250:83|249:84|249:84|251:86|251:86|247:83|247:83|248:85|248:85|248:86|248:86|249:87|249:87|246:85|246:85|247:87|247:87|247:88|247:88|248:89|248:89|245:87|245:87|246:89|246:89|247:91|247:91|244:89|244:89|245:90|245:90|245:91|245:91|246:93|246:93|242:91|242:91|244:92|244:92|244:93|243:93|243:93|245:95|245:95|241:92|241:92|243:94|243:94|242:95|242:96,1,2000.898929967,0|0,1:0|3:0,0:1:0:0:
75,179,255060,2,0,P|38:147|43:107,1,84.3750005364419,10|0,0:2|0:0,0:0:0:0:
106,73,255360,2,0,P|143:105|138:145,1,84.3750005364419,0|0,3:0|0:0,0:0:0:0:
185,310,255660,6,0,L|83:288,1,84.3750005364419,0|0,1:0|0:0,0:0:0:0:
148,223,255960,2,0,L|250:245,1,84.3750005364419,0|0,3:0|0:0,0:0:0:0:
295,338,256260,6,0,L|229:122,1,224.999992847443,10|0,0:2|1:0,0:0:0:0:
391,8,256860,6,0,P|427:23|439:44,1,56.2500003576279,2|0,1:2|0:0,0:0:0:0:
502,71,257010,2,0,P|498:109|482:127,1,56.2500003576279,2|0,0:2|0:0,0:0:0:0:
404,200,257160,6,0,L|340:186,1,56.2500003576279,6|0,0:3|0:0,0:0:0:0:
320,105,257310,2,0,L|384:119,1,56.2500003576279,2|0,0:3|0:0,0:0:0:0:
438,277,257460,6,0,P|400:286|378:276,1,56.2500003576279,2|0,0:3|0:0,0:0:0:0:
311,291,257610,2,0,P|290:257|293:233,1,56.2500003576279,4|0,0:3|0:0,0:0:0:0:
231,188,257760,6,0,P|193:178|171:188,1,56.2500003576279,2|0,0:2|0:0,0:0:0:0:
104,174,257910,2,0,P|83:207|86:231,1,56.2500003576279,2|0,0:2|0:0,0:0:0:0:
145,333,258060,6,0,L|231:346,4,74.9999976158143,0|0|0|0|0,3:0|3:0|3:0|3:0|3:0,0:0:0:0:
145,333,258960,1,2,0:3:0:0:
27,141,259260,5,6,1:1:0:0:
