osu file format v14

[General]
AudioFilename: audio.mp3
AudioLeadIn: 0
PreviewTime: 181718
Countdown: 0
SampleSet: Soft
StackLeniency: 0.7
Mode: 3
LetterboxInBreaks: 0
SpecialStyle: 0
WidescreenStoryboard: 0

[Editor]
Bookmarks: 1012,23601,46189,57483,68777,91365,113954,125248,147836,159130,170424,181718,204307,226895,249483
DistanceSpacing: 1
BeatDivisor: 4
GridSize: 16
TimelineZoom: 2.699999

[Metadata]
Title:Club Night (Original Mix)
TitleUnicode:Club Night (Original Mix)
Artist:Matduke
ArtistUnicode:Matduke
Creator:Worms
Version:temp
Source:
Tags:pump it up hardstyle hardcore
BeatmapID:2164478
BeatmapSetID:1035261

[Difficulty]
HPDrainRate:9
CircleSize:7
OverallDifficulty:8
ApproachRate:5
SliderMultiplier:1.4
SliderTickRate:1

[Events]
//Background and Video events
0,0,"maxresdefault.jpg",0,0
//Break Periods
//Storyboard Layer 0 (Background)
//Storyboard Layer 1 (Fail)
//Storyboard Layer 2 (Pass)
//Storyboard Layer 3 (Foreground)
//Storyboard Layer 4 (Overlay)
//Storyboard Sound Samples

[TimingPoints]
1013,352.941176470588,4,2,0,5,1,0
68954,-40,4,2,0,5,0,1
69042,-10000,4,2,0,5,0,1
69130,-100,4,2,0,5,0,1
69307,-40,4,2,0,5,0,1
69395,-10000,4,2,0,5,0,1
69483,-100,4,2,0,5,0,1
69660,-40,4,2,0,5,0,1
69748,-10000,4,2,0,5,0,1
69836,-66.6666666666667,4,2,0,5,0,1
69924,-200,4,2,0,5,0,1
70012,-40,4,2,0,5,0,1
70101,-10000,4,2,0,5,0,1
70189,-100,4,2,0,5,0,1
70365,-40,4,2,0,5,0,1
70454,-10000,4,2,0,5,0,1
70542,-100,4,2,0,5,0,1
70718,-40,4,2,0,5,0,1
70807,-10000,4,2,0,5,0,1
70895,-100,4,2,0,5,0,1
71071,-40,4,2,0,5,0,1
71115,-10000,4,2,0,5,0,1
71160,-100,4,2,0,5,0,1
71248,-40,4,2,0,5,0,1
71336,-10000,4,2,0,5,0,1
71424,-40,4,2,0,5,0,1
71512,-10000,4,2,0,5,0,1
71601,-100,4,2,0,5,0,1
71777,-40,4,2,0,5,0,1
71865,-10000,4,2,0,5,0,1
71954,-100,4,2,0,5,0,1
72130,-40,4,2,0,5,0,1
72218,-10000,4,2,0,5,0,1
72307,-100,4,2,0,5,0,1
72483,-40,4,2,0,5,0,1
72527,-2000,4,2,0,5,0,1
72571,-40,4,2,0,5,0,1
72615,-2000,4,2,0,5,0,1
72660,-100,4,2,0,5,0,1
72836,-40,4,2,0,5,0,1
72924,-10000,4,2,0,5,0,1
73012,-100,4,2,0,5,0,1
73189,-40,4,2,0,5,0,1
73277,-10000,4,2,0,5,0,1
73365,-100,4,2,0,5,0,1
73542,-40,4,2,0,5,0,1
73630,-10000,4,2,0,5,0,1
73718,-100,4,2,0,5,0,1
73895,-40,4,2,0,5,0,1
73983,-10000,4,2,0,5,0,1
74071,-133.333333333333,4,2,0,5,0,1
74160,-66.6666666666667,4,2,0,5,0,1
74248,-133.333333333333,4,2,0,5,0,1
74336,-66.6666666666667,4,2,0,5,0,1
74424,-100,4,2,0,5,0,1
74601,-40,4,2,0,5,0,1
74689,-10000,4,2,0,5,0,1
74777,-100,4,2,0,5,0,1
74954,-40,4,2,0,5,0,1
75042,-10000,4,2,0,5,0,1
75130,-100,4,2,0,5,0,1
75307,-40,4,2,0,5,0,1
75395,-10000,4,2,0,5,0,1
75483,-66.6666666666667,4,2,0,5,0,1
75512,-133.333333333333,4,2,0,5,0,1
75542,-66.6666666666667,4,2,0,5,0,1
75571,-133.333333333333,4,2,0,5,0,1
75601,-66.6666666666667,4,2,0,5,0,1
75630,-133.333333333333,4,2,0,5,0,1
75660,-40,4,2,0,5,0,1
75748,-10000,4,2,0,5,0,1
75836,-100,4,2,0,5,0,1
76012,-40,4,2,0,5,0,1
76101,-10000,4,2,0,5,0,1
76189,-100,4,2,0,5,0,1
76365,-40,4,2,0,5,0,1
76454,-10000,4,2,0,5,0,1
76542,-100,4,2,0,5,0,1
76718,-40,4,2,0,5,0,1
76762,-10000,4,2,0,5,0,1
76807,-100,4,2,0,5,0,1
76895,-40,4,2,0,5,0,1
76983,-10000,4,2,0,5,0,1
77071,-40,4,2,0,5,0,1
77160,-10000,4,2,0,5,0,1
77248,-100,4,2,0,5,0,1
77424,-40,4,2,0,5,0,1
77512,-10000,4,2,0,5,0,1
77601,-100,4,2,0,5,0,1
77777,-40,4,2,0,5,0,1
77865,-10000,4,2,0,5,0,1
77954,-100,4,2,0,5,0,1
78130,-40,4,2,0,5,0,1
78218,-10000,4,2,0,5,0,1
78307,-100,4,2,0,5,0,1
78483,-40,4,2,0,5,0,1
78571,-10000,4,2,0,5,0,1
78660,-100,4,2,0,5,0,1
80954,-36.3636363636364,4,2,0,5,0,1
80983,-666.666666666667,4,2,0,5,0,1
81012,-36.3636363636364,4,2,0,5,0,1
81042,-666.666666666667,4,2,0,5,0,1
81071,-36.3636363636364,4,2,0,5,0,1
81101,-666.666666666667,4,2,0,5,0,1
81130,-100,4,2,0,5,0,1
81660,-40,4,2,0,5,0,1
81748,-10000,4,2,0,5,0,1
81836,-100,4,2,0,5,0,1
82012,-40,4,2,0,5,0,1
82101,-10000,4,2,0,5,0,1
82189,-100,4,2,0,5,0,1
82365,-40,4,2,0,5,0,1
82410,-10000,4,2,0,5,0,1
82454,-100,4,2,0,5,0,1
82542,-40,4,2,0,5,0,1
82630,-10000,4,2,0,5,0,1
82718,-40,4,2,0,5,0,1
82807,-10000,4,2,0,5,0,1
82895,-100,4,2,0,5,0,1
83071,-40,4,2,0,5,0,1
83160,-10000,4,2,0,5,0,1
83248,-100,4,2,0,5,0,1
83424,-40,4,2,0,5,0,1
83512,-10000,4,2,0,5,0,1
83601,-100,4,2,0,5,0,1
83777,-40,4,2,0,5,0,1
83865,-10000,4,2,0,5,0,1
83954,-100,4,2,0,5,0,1
84130,-40,4,2,0,5,0,1
84218,-10000,4,2,0,5,0,1
84307,-100,4,2,0,5,0,1
84483,-40,4,2,0,5,0,1
84571,-10000,4,2,0,5,0,1
84660,-100,4,2,0,5,0,1
84836,-40,4,2,0,5,0,1
84924,-10000,4,2,0,5,0,1
85012,-100,4,2,0,5,0,1
85189,-40,4,2,0,5,0,1
85277,-10000,4,2,0,5,0,1
85365,-200,4,2,0,5,0,1
85410,-50,4,2,0,5,0,1
85454,-200,4,2,0,5,0,1
85498,-50,4,2,0,5,0,1
85542,-40,4,2,0,5,0,1
85630,-10000,4,2,0,5,0,1
85718,-100,4,2,0,5,0,1
85895,-40,4,2,0,5,0,1
85983,-10000,4,2,0,5,0,1
86071,-100,4,2,0,5,0,1
86248,-40,4,2,0,5,0,1
86336,-10000,4,2,0,5,0,1
86424,-100,4,2,0,5,0,1
86601,-40,4,2,0,5,0,1
86689,-10000,4,2,0,5,0,1
86777,-285.714285714286,4,2,0,5,0,1
86865,-50,4,2,0,5,0,1
86954,-40,4,2,0,5,0,1
87042,-10000,4,2,0,5,0,1
87130,-100,4,2,0,5,0,1
87307,-40,4,2,0,5,0,1
87395,-10000,4,2,0,5,0,1
87483,-100,4,2,0,5,0,1
87660,-40,4,2,0,5,0,1
87748,-10000,4,2,0,5,0,1
87836,-100,4,2,0,5,0,1
88012,-40,4,2,0,5,0,1
88057,-10000,4,2,0,5,0,1
88101,-100,4,2,0,5,0,1
88189,-40,4,2,0,5,0,1
88277,-10000,4,2,0,5,0,1
88365,-40,4,2,0,5,0,1
88454,-10000,4,2,0,5,0,1
88542,-100,4,2,0,5,0,1
88718,-40,4,2,0,5,0,1
88807,-10000,4,2,0,5,0,1
88895,-100,4,2,0,5,0,1
89071,-40,4,2,0,5,0,1
89160,-10000,4,2,0,5,0,1
89248,-66.6666666666667,4,2,0,5,0,1
89292,-400,4,2,0,5,0,1
89336,-100,4,2,0,5,0,1
89424,-40,4,2,0,5,0,1
89512,-10000,4,2,0,5,0,1
89601,-100,4,2,0,5,0,1
89777,-36.3636363636364,4,2,0,5,0,1
89836,-666.666666666667,4,2,0,5,0,1
89895,-36.3636363636364,4,2,0,5,0,1
89924,-666.666666666667,4,2,0,5,0,1
89954,-100,4,2,0,5,0,1
91365,-100,4,2,0,5,0,0
181718,-100,4,2,0,5,0,1
226895,-100,4,2,0,5,0,0

[HitObjects]
256,192,7718,5,0,0:0:0:0:
475,192,10895,1,0,0:0:0:0:
402,192,10939,1,0,0:0:0:0:
329,192,10983,1,0,0:0:0:0:
36,192,11160,1,0,0:0:0:0:
109,192,11292,1,0,0:0:0:0:
182,192,11380,1,0,0:0:0:0:
256,192,11557,1,0,0:0:0:0:
475,192,11601,128,0,11689:0:0:0:0:
36,192,11601,128,0,11689:0:0:0:0:
182,192,13718,1,0,0:0:0:0:
329,192,13807,1,0,0:0:0:0:
182,192,13895,1,0,0:0:0:0:
329,192,13983,1,0,0:0:0:0:
256,192,14071,1,0,0:0:0:0:
475,192,14777,128,0,15130:0:0:0:0:
329,192,14954,128,0,15130:0:0:0:0:
36,192,16542,128,0,16895:0:0:0:0:
109,192,16630,128,0,16895:0:0:0:0:
182,192,16718,128,0,17071:0:0:0:0:
256,192,16895,128,0,17071:0:0:0:0:
36,192,19365,1,0,0:0:0:0:
475,192,19365,1,0,0:0:0:0:
402,192,19410,1,0,0:0:0:0:
109,192,19454,1,0,0:0:0:0:
329,192,19498,1,0,0:0:0:0:
182,192,19542,1,0,0:0:0:0:
256,192,19586,1,0,0:0:0:0:
329,192,19630,1,0,0:0:0:0:
182,192,19674,1,0,0:0:0:0:
402,192,19718,1,0,0:0:0:0:
109,192,19718,1,0,0:0:0:0:
402,192,20071,1,0,0:0:0:0:
109,192,20071,1,0,0:0:0:0:
329,192,20115,1,0,0:0:0:0:
182,192,20115,1,0,0:0:0:0:
256,192,20160,1,0,0:0:0:0:
402,192,20160,1,0,0:0:0:0:
109,192,20160,1,0,0:0:0:0:
402,192,22718,128,0,22807:0:0:0:0:
329,192,22895,1,0,0:0:0:0:
109,192,23027,128,0,23115:0:0:0:0:
256,192,23204,1,0,0:0:0:0:
36,192,23424,1,0,0:0:0:0:
475,192,23468,1,0,0:0:0:0:
402,192,23601,1,0,0:0:0:0:
329,192,23601,1,0,0:0:0:0:
182,192,23601,1,0,0:0:0:0:
109,192,23777,1,0,0:0:0:0:
36,192,23777,1,0,0:0:0:0:
256,192,23954,1,0,0:0:0:0:
109,192,24130,1,0,0:0:0:0:
36,192,24130,1,0,0:0:0:0:
329,192,24307,1,0,0:0:0:0:
402,192,24483,1,0,0:0:0:0:
402,192,24660,1,0,0:0:0:0:
256,192,24660,1,0,0:0:0:0:
475,192,24836,1,0,0:0:0:0:
109,192,25012,1,0,0:0:0:0:
36,192,25012,1,0,0:0:0:0:
329,192,25189,1,0,0:0:0:0:
36,192,25365,1,0,0:0:0:0:
109,192,25365,1,0,0:0:0:0:
402,192,25542,1,0,0:0:0:0:
256,192,25718,1,0,0:0:0:0:
109,192,25895,1,0,0:0:0:0:
36,192,25895,1,0,0:0:0:0:
182,192,26071,1,0,0:0:0:0:
36,192,26248,1,0,0:0:0:0:
109,192,26248,1,0,0:0:0:0:
402,192,26424,1,0,0:0:0:0:
256,192,26424,1,0,0:0:0:0:
182,192,26601,1,0,0:0:0:0:
109,192,26601,1,0,0:0:0:0:
329,192,26777,1,0,0:0:0:0:
109,192,26954,1,0,0:0:0:0:
182,192,26954,1,0,0:0:0:0:
402,192,27130,1,0,0:0:0:0:
475,192,27307,1,0,0:0:0:0:
475,192,27483,1,0,0:0:0:0:
36,192,27660,1,0,0:0:0:0:
182,192,27836,1,0,0:0:0:0:
109,192,27836,1,0,0:0:0:0:
475,192,28012,1,0,0:0:0:0:
109,192,28189,1,0,0:0:0:0:
182,192,28189,1,0,0:0:0:0:
402,192,28365,1,0,0:0:0:0:
329,192,28542,1,0,0:0:0:0:
182,192,28718,1,0,0:0:0:0:
109,192,28718,1,0,0:0:0:0:
256,192,28895,1,0,0:0:0:0:
109,192,29071,1,0,0:0:0:0:
182,192,29071,1,0,0:0:0:0:
256,192,29248,1,0,0:0:0:0:
475,192,29248,1,0,0:0:0:0:
36,192,29424,1,0,0:0:0:0:
182,192,29424,1,0,0:0:0:0:
329,192,29601,1,0,0:0:0:0:
182,192,29777,1,0,0:0:0:0:
36,192,29777,1,0,0:0:0:0:
402,192,29954,1,0,0:0:0:0:
475,192,30130,1,0,0:0:0:0:
475,192,30307,1,0,0:0:0:0:
256,192,30307,1,0,0:0:0:0:
109,192,30483,1,0,0:0:0:0:
182,192,30660,1,0,0:0:0:0:
36,192,30660,1,0,0:0:0:0:
402,192,30836,1,0,0:0:0:0:
36,192,31012,1,0,0:0:0:0:
182,192,31012,1,0,0:0:0:0:
402,192,31012,1,0,0:0:0:0:
475,192,31189,1,0,0:0:0:0:
329,192,31365,1,0,0:0:0:0:
182,192,31542,1,0,0:0:0:0:
36,192,31542,1,0,0:0:0:0:
256,192,31718,1,0,0:0:0:0:
36,192,31895,1,0,0:0:0:0:
182,192,31895,1,0,0:0:0:0:
329,192,32071,1,0,0:0:0:0:
475,192,32071,1,0,0:0:0:0:
256,192,32248,1,0,0:0:0:0:
109,192,32248,1,0,0:0:0:0:
402,192,32424,1,0,0:0:0:0:
109,192,32601,1,0,0:0:0:0:
256,192,32601,1,0,0:0:0:0:
475,192,32777,1,0,0:0:0:0:
36,192,32954,1,0,0:0:0:0:
329,192,33042,1,0,0:0:0:0:
475,192,33130,1,0,0:0:0:0:
402,192,33218,1,0,0:0:0:0:
182,192,33307,1,0,0:0:0:0:
36,192,33395,1,0,0:0:0:0:
256,192,33483,1,0,0:0:0:0:
109,192,33483,1,0,0:0:0:0:
475,192,33660,1,0,0:0:0:0:
109,192,33836,1,0,0:0:0:0:
256,192,33836,1,0,0:0:0:0:
402,192,34012,1,0,0:0:0:0:
329,192,34189,1,0,0:0:0:0:
256,192,34365,1,0,0:0:0:0:
109,192,34365,1,0,0:0:0:0:
402,192,34424,1,0,0:0:0:0:
475,192,34483,1,0,0:0:0:0:
182,192,34542,1,0,0:0:0:0:
109,192,34718,1,0,0:0:0:0:
256,192,34718,1,0,0:0:0:0:
329,192,34895,1,0,0:0:0:0:
36,192,34895,1,0,0:0:0:0:
109,192,34939,1,0,0:0:0:0:
182,192,34983,1,0,0:0:0:0:
475,192,35071,1,0,0:0:0:0:
402,192,35071,1,0,0:0:0:0:
256,192,35248,1,0,0:0:0:0:
402,192,35424,1,0,0:0:0:0:
475,192,35424,1,0,0:0:0:0:
182,192,35601,1,0,0:0:0:0:
109,192,35777,1,0,0:0:0:0:
475,192,35865,1,0,0:0:0:0:
109,192,35954,1,0,0:0:0:0:
256,192,35954,1,0,0:0:0:0:
329,192,36042,1,0,0:0:0:0:
36,192,36130,1,0,0:0:0:0:
182,192,36218,1,0,0:0:0:0:
475,192,36307,1,0,0:0:0:0:
402,192,36307,1,0,0:0:0:0:
329,192,36395,1,0,0:0:0:0:
256,192,36483,1,0,0:0:0:0:
109,192,36483,1,0,0:0:0:0:
329,192,36571,1,0,0:0:0:0:
402,192,36660,1,0,0:0:0:0:
475,192,36660,1,0,0:0:0:0:
36,192,36836,1,0,0:0:0:0:
182,192,37012,1,0,0:0:0:0:
475,192,37189,1,0,0:0:0:0:
402,192,37189,1,0,0:0:0:0:
256,192,37248,1,0,0:0:0:0:
109,192,37307,1,0,0:0:0:0:
329,192,37365,1,0,0:0:0:0:
475,192,37542,1,0,0:0:0:0:
402,192,37542,1,0,0:0:0:0:
36,192,37718,1,0,0:0:0:0:
256,192,37718,1,0,0:0:0:0:
182,192,37777,1,0,0:0:0:0:
109,192,37836,1,0,0:0:0:0:
402,192,37895,1,0,0:0:0:0:
329,192,37895,1,0,0:0:0:0:
182,192,38071,1,0,0:0:0:0:
329,192,38248,1,0,0:0:0:0:
402,192,38248,1,0,0:0:0:0:
109,192,38424,1,0,0:0:0:0:
36,192,38601,1,0,0:0:0:0:
402,192,38689,1,0,0:0:0:0:
36,192,38777,1,0,0:0:0:0:
182,192,38865,1,0,0:0:0:0:
475,192,38954,1,0,0:0:0:0:
256,192,39042,1,0,0:0:0:0:
402,192,39130,1,0,0:0:0:0:
329,192,39130,1,0,0:0:0:0:
36,192,39307,1,0,0:0:0:0:
329,192,39483,1,0,0:0:0:0:
402,192,39483,1,0,0:0:0:0:
109,192,39660,1,0,0:0:0:0:
182,192,39836,1,0,0:0:0:0:
402,192,40012,1,0,0:0:0:0:
329,192,40012,1,0,0:0:0:0:
36,192,40071,1,0,0:0:0:0:
109,192,40130,1,0,0:0:0:0:
256,192,40189,1,0,0:0:0:0:
475,192,40248,1,0,0:0:0:0:
182,192,40307,1,0,0:0:0:0:
329,192,40365,1,0,0:0:0:0:
402,192,40365,1,0,0:0:0:0:
256,192,40542,1,0,0:0:0:0:
109,192,40542,1,0,0:0:0:0:
402,192,40601,1,0,0:0:0:0:
36,192,40660,1,0,0:0:0:0:
329,192,40718,1,0,0:0:0:0:
475,192,40718,1,0,0:0:0:0:
182,192,40895,1,0,0:0:0:0:
475,192,41071,1,0,0:0:0:0:
329,192,41071,1,0,0:0:0:0:
109,192,41248,1,0,0:0:0:0:
36,192,41424,1,0,0:0:0:0:
475,192,41512,1,0,0:0:0:0:
36,192,41601,1,0,0:0:0:0:
256,192,41601,1,0,0:0:0:0:
182,192,41689,1,0,0:0:0:0:
402,192,41777,1,0,0:0:0:0:
109,192,41865,1,0,0:0:0:0:
329,192,41954,1,0,0:0:0:0:
475,192,41954,1,0,0:0:0:0:
182,192,42130,1,0,0:0:0:0:
475,192,42307,1,0,0:0:0:0:
329,192,42307,1,0,0:0:0:0:
182,192,42307,1,0,0:0:0:0:
109,192,42483,1,0,0:0:0:0:
256,192,42660,1,0,0:0:0:0:
329,192,42836,1,0,0:0:0:0:
475,192,42836,1,0,0:0:0:0:
182,192,42895,1,0,0:0:0:0:
36,192,42954,1,0,0:0:0:0:
402,192,43012,1,0,0:0:0:0:
475,192,43189,1,0,0:0:0:0:
329,192,43189,1,0,0:0:0:0:
182,192,43365,1,0,0:0:0:0:
36,192,43365,1,0,0:0:0:0:
329,192,43424,1,0,0:0:0:0:
109,192,43483,1,0,0:0:0:0:
402,192,43542,1,0,0:0:0:0:
256,192,43542,1,0,0:0:0:0:
109,192,43718,1,0,0:0:0:0:
256,192,43895,1,0,0:0:0:0:
402,192,43895,1,0,0:0:0:0:
36,192,44071,1,0,0:0:0:0:
475,192,44248,1,0,0:0:0:0:
256,192,44336,1,0,0:0:0:0:
36,192,44424,1,0,0:0:0:0:
109,192,44512,1,0,0:0:0:0:
329,192,44601,1,0,0:0:0:0:
182,192,44689,1,0,0:0:0:0:
402,192,44777,1,0,0:0:0:0:
256,192,44777,1,0,0:0:0:0:
36,192,44954,1,0,0:0:0:0:
256,192,45130,1,0,0:0:0:0:
402,192,45130,1,0,0:0:0:0:
109,192,45307,1,0,0:0:0:0:
475,192,45483,1,0,0:0:0:0:
182,192,45483,1,0,0:0:0:0:
329,192,45571,1,0,0:0:0:0:
109,192,45571,1,0,0:0:0:0:
402,192,45660,1,0,0:0:0:0:
256,192,45660,1,0,0:0:0:0:
475,192,45718,1,0,0:0:0:0:
36,192,45748,1,0,0:0:0:0:
182,192,45748,1,0,0:0:0:0:
329,192,45777,1,0,0:0:0:0:
109,192,45836,1,0,0:0:0:0:
256,192,45836,1,0,0:0:0:0:
475,192,45924,1,0,0:0:0:0:
36,192,45924,1,0,0:0:0:0:
256,192,46012,1,0,0:0:0:0:
402,192,46012,1,0,0:0:0:0:
329,192,46189,1,0,0:0:0:0:
475,192,46189,1,0,0:0:0:0:
182,192,46189,1,0,0:0:0:0:
36,192,46189,1,0,0:0:0:0:
402,192,46189,1,0,0:0:0:0:
36,192,46365,1,0,0:0:0:0:
109,192,46365,1,0,0:0:0:0:
256,192,46542,1,0,0:0:0:0:
109,192,46718,1,0,0:0:0:0:
36,192,46718,1,0,0:0:0:0:
329,192,46895,1,0,0:0:0:0:
402,192,47071,1,0,0:0:0:0:
402,192,47248,1,0,0:0:0:0:
256,192,47248,1,0,0:0:0:0:
475,192,47424,1,0,0:0:0:0:
109,192,47601,1,0,0:0:0:0:
36,192,47601,1,0,0:0:0:0:
329,192,47777,1,0,0:0:0:0:
36,192,47954,1,0,0:0:0:0:
109,192,47954,1,0,0:0:0:0:
402,192,48130,1,0,0:0:0:0:
256,192,48307,1,0,0:0:0:0:
109,192,48483,1,0,0:0:0:0:
36,192,48483,1,0,0:0:0:0:
182,192,48660,1,0,0:0:0:0:
36,192,48836,1,0,0:0:0:0:
109,192,48836,1,0,0:0:0:0:
256,192,49012,1,0,0:0:0:0:
182,192,49189,1,0,0:0:0:0:
109,192,49189,1,0,0:0:0:0:
329,192,49365,1,0,0:0:0:0:
109,192,49542,1,0,0:0:0:0:
182,192,49542,1,0,0:0:0:0:
402,192,49718,1,0,0:0:0:0:
475,192,49895,1,0,0:0:0:0:
475,192,50071,1,0,0:0:0:0:
36,192,50248,1,0,0:0:0:0:
182,192,50424,1,0,0:0:0:0:
109,192,50424,1,0,0:0:0:0:
475,192,50601,1,0,0:0:0:0:
109,192,50777,1,0,0:0:0:0:
182,192,50777,1,0,0:0:0:0:
402,192,50954,1,0,0:0:0:0:
329,192,51130,1,0,0:0:0:0:
182,192,51307,1,0,0:0:0:0:
109,192,51307,1,0,0:0:0:0:
256,192,51483,1,0,0:0:0:0:
109,192,51660,1,0,0:0:0:0:
182,192,51660,1,0,0:0:0:0:
256,192,51836,1,0,0:0:0:0:
182,192,52012,1,0,0:0:0:0:
36,192,52012,1,0,0:0:0:0:
329,192,52189,1,0,0:0:0:0:
36,192,52365,1,0,0:0:0:0:
182,192,52365,1,0,0:0:0:0:
402,192,52542,1,0,0:0:0:0:
475,192,52718,1,0,0:0:0:0:
475,192,52895,1,0,0:0:0:0:
256,192,52895,1,0,0:0:0:0:
109,192,53071,1,0,0:0:0:0:
182,192,53248,1,0,0:0:0:0:
36,192,53248,1,0,0:0:0:0:
329,192,53424,1,0,0:0:0:0:
36,192,53601,1,0,0:0:0:0:
182,192,53601,1,0,0:0:0:0:
402,192,53777,1,0,0:0:0:0:
256,192,53954,1,0,0:0:0:0:
182,192,54130,1,0,0:0:0:0:
36,192,54130,1,0,0:0:0:0:
109,192,54307,1,0,0:0:0:0:
36,192,54483,1,0,0:0:0:0:
182,192,54483,1,0,0:0:0:0:
475,192,54660,128,0,57395:0:0:0:0:
402,192,54660,128,0,57395:0:0:0:0:
36,192,55365,1,0,0:0:0:0:
36,192,55718,1,0,0:0:0:0:
36,192,56071,1,0,0:0:0:0:
36,192,56424,1,0,0:0:0:0:
36,192,56777,1,0,0:0:0:0:
36,192,57130,1,0,0:0:0:0:
36,192,57218,1,0,0:0:0:0:
475,192,57483,1,0,0:0:0:0:
36,192,57483,1,0,0:0:0:0:
182,192,57483,1,0,0:0:0:0:
256,192,57483,1,0,0:0:0:0:
109,192,57483,1,0,0:0:0:0:
402,192,57571,1,0,0:0:0:0:
329,192,57571,1,0,0:0:0:0:
256,192,57660,1,0,0:0:0:0:
182,192,57660,1,0,0:0:0:0:
109,192,57660,1,0,0:0:0:0:
475,192,57748,1,0,0:0:0:0:
402,192,57748,1,0,0:0:0:0:
329,192,57748,1,0,0:0:0:0:
109,192,57836,1,0,0:0:0:0:
36,192,57836,1,0,0:0:0:0:
256,192,57836,1,0,0:0:0:0:
475,192,57924,1,0,0:0:0:0:
402,192,57924,1,0,0:0:0:0:
329,192,58012,1,0,0:0:0:0:
256,192,58012,1,0,0:0:0:0:
182,192,58012,1,0,0:0:0:0:
109,192,58101,1,0,0:0:0:0:
36,192,58101,1,0,0:0:0:0:
475,192,58101,1,0,0:0:0:0:
402,192,58189,1,0,0:0:0:0:
329,192,58189,1,0,0:0:0:0:
256,192,58189,1,0,0:0:0:0:
182,192,58277,1,0,0:0:0:0:
109,192,58277,1,0,0:0:0:0:
36,192,58365,1,0,0:0:0:0:
402,192,58365,1,0,0:0:0:0:
475,192,58365,1,0,0:0:0:0:
329,192,58454,1,0,0:0:0:0:
256,192,58454,1,0,0:0:0:0:
182,192,58454,1,0,0:0:0:0:
109,192,58542,1,0,0:0:0:0:
36,192,58542,1,0,0:0:0:0:
475,192,58542,1,0,0:0:0:0:
402,192,58630,1,0,0:0:0:0:
329,192,58630,1,0,0:0:0:0:
256,192,58718,1,0,0:0:0:0:
182,192,58718,1,0,0:0:0:0:
402,192,58807,1,0,0:0:0:0:
475,192,58807,1,0,0:0:0:0:
329,192,58895,1,0,0:0:0:0:
36,192,58895,1,0,0:0:0:0:
256,192,58895,1,0,0:0:0:0:
182,192,58983,1,0,0:0:0:0:
109,192,58983,1,0,0:0:0:0:
402,192,59071,1,0,0:0:0:0:
329,192,59071,1,0,0:0:0:0:
256,192,59071,1,0,0:0:0:0:
109,192,59160,1,0,0:0:0:0:
36,192,59160,1,0,0:0:0:0:
475,192,59160,1,0,0:0:0:0:
182,192,59248,1,0,0:0:0:0:
329,192,59248,1,0,0:0:0:0:
256,192,59248,1,0,0:0:0:0:
402,192,59336,1,0,0:0:0:0:
475,192,59336,1,0,0:0:0:0:
109,192,59424,1,0,0:0:0:0:
36,192,59424,1,0,0:0:0:0:
182,192,59424,1,0,0:0:0:0:
329,192,59512,1,0,0:0:0:0:
402,192,59512,1,0,0:0:0:0:
256,192,59512,1,0,0:0:0:0:
109,192,59601,1,0,0:0:0:0:
36,192,59601,1,0,0:0:0:0:
475,192,59601,1,0,0:0:0:0:
402,192,59689,1,0,0:0:0:0:
329,192,59689,1,0,0:0:0:0:
182,192,59777,1,0,0:0:0:0:
256,192,59777,1,0,0:0:0:0:
109,192,59777,1,0,0:0:0:0:
36,192,59865,1,0,0:0:0:0:
402,192,59865,1,0,0:0:0:0:
475,192,59865,1,0,0:0:0:0:
329,192,59954,1,0,0:0:0:0:
182,192,59954,1,0,0:0:0:0:
256,192,59954,1,0,0:0:0:0:
109,192,60042,1,0,0:0:0:0:
36,192,60042,1,0,0:0:0:0:
329,192,60130,1,0,0:0:0:0:
402,192,60130,1,0,0:0:0:0:
475,192,60130,1,0,0:0:0:0:
256,192,60218,1,0,0:0:0:0:
182,192,60218,1,0,0:0:0:0:
402,192,60307,1,0,0:0:0:0:
475,192,60307,1,0,0:0:0:0:
109,192,60307,1,0,0:0:0:0:
329,192,60395,1,0,0:0:0:0:
256,192,60395,1,0,0:0:0:0:
182,192,60483,1,0,0:0:0:0:
109,192,60483,1,0,0:0:0:0:
36,192,60483,1,0,0:0:0:0:
329,192,60571,1,0,0:0:0:0:
402,192,60571,1,0,0:0:0:0:
475,192,60571,1,0,0:0:0:0:
256,192,60660,1,0,0:0:0:0:
182,192,60660,1,0,0:0:0:0:
36,192,60660,1,0,0:0:0:0:
402,192,60748,1,0,0:0:0:0:
329,192,60748,1,0,0:0:0:0:
475,192,60836,1,0,0:0:0:0:
109,192,60836,1,0,0:0:0:0:
36,192,60836,1,0,0:0:0:0:
182,192,60924,1,0,0:0:0:0:
256,192,60924,1,0,0:0:0:0:
329,192,60924,1,0,0:0:0:0:
475,192,61012,1,0,0:0:0:0:
402,192,61012,1,0,0:0:0:0:
36,192,61012,1,0,0:0:0:0:
182,192,61101,1,0,0:0:0:0:
256,192,61101,1,0,0:0:0:0:
329,192,61189,1,0,0:0:0:0:
402,192,61189,1,0,0:0:0:0:
475,192,61189,1,0,0:0:0:0:
256,192,61277,1,0,0:0:0:0:
182,192,61277,1,0,0:0:0:0:
109,192,61277,1,0,0:0:0:0:
36,192,61365,1,0,0:0:0:0:
402,192,61365,1,0,0:0:0:0:
475,192,61365,1,0,0:0:0:0:
109,192,61454,1,0,0:0:0:0:
182,192,61454,1,0,0:0:0:0:
256,192,61542,1,0,0:0:0:0:
329,192,61542,1,0,0:0:0:0:
402,192,61630,1,0,0:0:0:0:
475,192,61630,1,0,0:0:0:0:
182,192,61718,1,0,0:0:0:0:
329,192,61718,1,0,0:0:0:0:
256,192,61718,1,0,0:0:0:0:
109,192,61807,1,0,0:0:0:0:
36,192,61807,1,0,0:0:0:0:
402,192,61895,1,0,0:0:0:0:
329,192,61895,1,0,0:0:0:0:
475,192,61895,1,0,0:0:0:0:
182,192,61983,1,0,0:0:0:0:
109,192,61983,1,0,0:0:0:0:
256,192,61983,1,0,0:0:0:0:
475,192,62071,1,0,0:0:0:0:
402,192,62071,1,0,0:0:0:0:
36,192,62071,1,0,0:0:0:0:
256,192,62160,1,0,0:0:0:0:
329,192,62160,1,0,0:0:0:0:
109,192,62248,1,0,0:0:0:0:
182,192,62248,1,0,0:0:0:0:
36,192,62248,1,0,0:0:0:0:
402,192,62336,1,0,0:0:0:0:
256,192,62336,1,0,0:0:0:0:
329,192,62336,1,0,0:0:0:0:
109,192,62424,1,0,0:0:0:0:
36,192,62424,1,0,0:0:0:0:
475,192,62424,1,0,0:0:0:0:
182,192,62512,1,0,0:0:0:0:
256,192,62512,1,0,0:0:0:0:
329,192,62601,1,0,0:0:0:0:
402,192,62601,1,0,0:0:0:0:
475,192,62601,1,0,0:0:0:0:
109,192,62689,1,0,0:0:0:0:
36,192,62689,1,0,0:0:0:0:
182,192,62689,1,0,0:0:0:0:
402,192,62777,128,0,62954:0:0:0:0:
256,192,62777,128,0,62954:0:0:0:0:
329,192,62777,128,0,62954:0:0:0:0:
182,192,62954,128,0,63042:0:0:0:0:
109,192,62954,128,0,63042:0:0:0:0:
475,192,63042,128,0,63130:0:0:0:0:
36,192,63042,128,0,63130:0:0:0:0:
329,192,63130,1,0,0:0:0:0:
256,192,63130,1,0,0:0:0:0:
402,192,63130,1,0,0:0:0:0:
109,192,63130,1,0,0:0:0:0:
182,192,63218,1,0,0:0:0:0:
36,192,63218,1,0,0:0:0:0:
256,192,63307,1,0,0:0:0:0:
109,192,63307,1,0,0:0:0:0:
402,192,63307,1,0,0:0:0:0:
329,192,63395,1,0,0:0:0:0:
182,192,63395,1,0,0:0:0:0:
402,192,63483,1,0,0:0:0:0:
36,192,63483,1,0,0:0:0:0:
256,192,63483,1,0,0:0:0:0:
475,192,63571,1,0,0:0:0:0:
329,192,63571,1,0,0:0:0:0:
402,192,63660,1,0,0:0:0:0:
256,192,63660,1,0,0:0:0:0:
109,192,63660,1,0,0:0:0:0:
329,192,63748,1,0,0:0:0:0:
182,192,63748,1,0,0:0:0:0:
256,192,63836,1,0,0:0:0:0:
109,192,63836,1,0,0:0:0:0:
475,192,63836,1,0,0:0:0:0:
182,192,63924,1,0,0:0:0:0:
36,192,63924,1,0,0:0:0:0:
109,192,64012,1,0,0:0:0:0:
256,192,64012,1,0,0:0:0:0:
402,192,64012,1,0,0:0:0:0:
329,192,64101,1,0,0:0:0:0:
182,192,64101,1,0,0:0:0:0:
475,192,64101,1,0,0:0:0:0:
402,192,64189,1,0,0:0:0:0:
256,192,64189,1,0,0:0:0:0:
109,192,64189,1,0,0:0:0:0:
36,192,64277,1,0,0:0:0:0:
182,192,64277,1,0,0:0:0:0:
329,192,64277,1,0,0:0:0:0:
109,192,64365,1,0,0:0:0:0:
256,192,64365,1,0,0:0:0:0:
402,192,64365,1,0,0:0:0:0:
329,192,64454,1,0,0:0:0:0:
182,192,64454,1,0,0:0:0:0:
475,192,64454,1,0,0:0:0:0:
402,192,64542,1,0,0:0:0:0:
256,192,64542,1,0,0:0:0:0:
109,192,64542,1,0,0:0:0:0:
329,192,64630,1,0,0:0:0:0:
475,192,64630,1,0,0:0:0:0:
402,192,64718,1,0,0:0:0:0:
256,192,64718,1,0,0:0:0:0:
36,192,64718,1,0,0:0:0:0:
329,192,64807,1,0,0:0:0:0:
182,192,64807,1,0,0:0:0:0:
256,192,64895,1,0,0:0:0:0:
109,192,64895,1,0,0:0:0:0:
36,192,64895,1,0,0:0:0:0:
182,192,64983,1,0,0:0:0:0:
329,192,64983,1,0,0:0:0:0:
256,192,65071,1,0,0:0:0:0:
402,192,65071,1,0,0:0:0:0:
109,192,65071,1,0,0:0:0:0:
329,192,65160,1,0,0:0:0:0:
475,192,65160,1,0,0:0:0:0:
402,192,65248,1,0,0:0:0:0:
256,192,65248,1,0,0:0:0:0:
36,192,65248,1,0,0:0:0:0:
329,192,65336,1,0,0:0:0:0:
182,192,65336,1,0,0:0:0:0:
256,192,65424,1,0,0:0:0:0:
109,192,65424,1,0,0:0:0:0:
475,192,65424,1,0,0:0:0:0:
182,192,65512,1,0,0:0:0:0:
36,192,65512,1,0,0:0:0:0:
256,192,65601,1,0,0:0:0:0:
109,192,65601,1,0,0:0:0:0:
402,192,65601,1,0,0:0:0:0:
329,192,65689,1,0,0:0:0:0:
182,192,65689,1,0,0:0:0:0:
475,192,65777,1,0,0:0:0:0:
36,192,65799,1,0,0:0:0:0:
402,192,65821,1,0,0:0:0:0:
109,192,65843,1,0,0:0:0:0:
256,192,65865,1,0,0:0:0:0:
329,192,65954,1,0,0:0:0:0:
475,192,65954,1,0,0:0:0:0:
182,192,65954,1,0,0:0:0:0:
402,192,66042,1,0,0:0:0:0:
36,192,66042,1,0,0:0:0:0:
109,192,66042,1,0,0:0:0:0:
329,192,66130,1,0,0:0:0:0:
256,192,66130,1,0,0:0:0:0:
182,192,66130,1,0,0:0:0:0:
402,192,66218,1,0,0:0:0:0:
475,192,66218,1,0,0:0:0:0:
36,192,66218,1,0,0:0:0:0:
109,192,66307,1,0,0:0:0:0:
329,192,66307,1,0,0:0:0:0:
256,192,66307,1,0,0:0:0:0:
182,192,66395,1,0,0:0:0:0:
475,192,66395,1,0,0:0:0:0:
36,192,66395,1,0,0:0:0:0:
402,192,66483,1,0,0:0:0:0:
256,192,66483,1,0,0:0:0:0:
109,192,66483,1,0,0:0:0:0:
329,192,66571,1,0,0:0:0:0:
182,192,66571,1,0,0:0:0:0:
475,192,66571,1,0,0:0:0:0:
402,192,66660,1,0,0:0:0:0:
256,192,66660,1,0,0:0:0:0:
36,192,66660,1,0,0:0:0:0:
109,192,66748,1,0,0:0:0:0:
329,192,66748,1,0,0:0:0:0:
475,192,66748,1,0,0:0:0:0:
182,192,66836,1,0,0:0:0:0:
36,192,66836,1,0,0:0:0:0:
402,192,66836,1,0,0:0:0:0:
256,192,66924,1,0,0:0:0:0:
329,192,66924,1,0,0:0:0:0:
109,192,66924,1,0,0:0:0:0:
402,192,67012,1,0,0:0:0:0:
475,192,67012,1,0,0:0:0:0:
182,192,67012,1,0,0:0:0:0:
256,192,67101,1,0,0:0:0:0:
329,192,67101,1,0,0:0:0:0:
109,192,67101,1,0,0:0:0:0:
182,192,67189,1,0,0:0:0:0:
475,192,67189,1,0,0:0:0:0:
36,192,67189,1,0,0:0:0:0:
402,192,67277,1,0,0:0:0:0:
256,192,67277,1,0,0:0:0:0:
109,192,67277,1,0,0:0:0:0:
475,192,67365,1,0,0:0:0:0:
36,192,67365,1,0,0:0:0:0:
402,192,67410,1,0,0:0:0:0:
109,192,67410,1,0,0:0:0:0:
182,192,67454,1,0,0:0:0:0:
329,192,67454,1,0,0:0:0:0:
256,192,67498,1,0,0:0:0:0:
36,192,67498,1,0,0:0:0:0:
109,192,67542,1,0,0:0:0:0:
475,192,67542,1,0,0:0:0:0:
402,192,67586,1,0,0:0:0:0:
182,192,67586,1,0,0:0:0:0:
329,192,67630,1,0,0:0:0:0:
256,192,67630,1,0,0:0:0:0:
36,192,67674,1,0,0:0:0:0:
475,192,67674,1,0,0:0:0:0:
402,192,67718,1,0,0:0:0:0:
109,192,67718,1,0,0:0:0:0:
182,192,67762,1,0,0:0:0:0:
329,192,67762,1,0,0:0:0:0:
256,192,67807,1,0,0:0:0:0:
475,192,67807,1,0,0:0:0:0:
402,192,67851,1,0,0:0:0:0:
36,192,67851,1,0,0:0:0:0:
109,192,67895,1,0,0:0:0:0:
329,192,67895,1,0,0:0:0:0:
256,192,67939,1,0,0:0:0:0:
182,192,67939,1,0,0:0:0:0:
475,192,67983,1,0,0:0:0:0:
36,192,67983,1,0,0:0:0:0:
109,192,68027,1,0,0:0:0:0:
402,192,68027,1,0,0:0:0:0:
182,192,68071,1,0,0:0:0:0:
329,192,68071,1,0,0:0:0:0:
256,192,68115,1,0,0:0:0:0:
36,192,68115,1,0,0:0:0:0:
109,192,68160,1,0,0:0:0:0:
475,192,68160,1,0,0:0:0:0:
402,192,68204,1,0,0:0:0:0:
182,192,68204,1,0,0:0:0:0:
256,192,68248,1,0,0:0:0:0:
329,192,68248,1,0,0:0:0:0:
475,192,68292,1,0,0:0:0:0:
36,192,68292,1,0,0:0:0:0:
109,192,68336,1,0,0:0:0:0:
402,192,68336,1,0,0:0:0:0:
329,192,68380,1,0,0:0:0:0:
182,192,68380,1,0,0:0:0:0:
256,192,68424,1,0,0:0:0:0:
475,192,68424,1,0,0:0:0:0:
402,192,68601,1,0,0:0:0:0:
109,192,68601,1,0,0:0:0:0:
182,192,68777,1,0,0:0:0:0:
36,192,68777,1,0,0:0:0:0:
256,192,68777,1,0,0:0:0:0:
475,192,68777,1,0,0:0:0:0:
402,192,68777,1,0,0:0:0:0:
182,192,68954,128,0,69130:0:0:0:0:
475,192,68954,128,0,69130:0:0:0:0:
402,192,69130,1,0,0:0:0:0:
329,192,69130,1,0,0:0:0:0:
256,192,69130,1,0,0:0:0:0:
36,192,69130,1,0,0:0:0:0:
109,192,69130,1,0,0:0:0:0:
109,192,69307,128,0,69483:0:0:0:0:
402,192,69307,128,0,69483:0:0:0:0:
182,192,69483,1,0,0:0:0:0:
256,192,69483,1,0,0:0:0:0:
329,192,69483,1,0,0:0:0:0:
36,192,69483,1,0,0:0:0:0:
475,192,69483,1,0,0:0:0:0:
36,192,69660,128,0,69836:0:0:0:0:
329,192,69660,128,0,69836:0:0:0:0:
256,192,69836,1,0,0:0:0:0:
475,192,69836,1,0,0:0:0:0:
109,192,69836,128,0,70012:0:0:0:0:
182,192,69836,128,0,70012:0:0:0:0:
402,192,69836,128,0,70012:0:0:0:0:
475,192,70012,128,0,70189:0:0:0:0:
256,192,70012,128,0,70189:0:0:0:0:
329,192,70189,1,0,0:0:0:0:
402,192,70189,1,0,0:0:0:0:
182,192,70189,1,0,0:0:0:0:
109,192,70189,1,0,0:0:0:0:
36,192,70189,1,0,0:0:0:0:
402,192,70365,128,0,70542:0:0:0:0:
182,192,70365,128,0,70542:0:0:0:0:
329,192,70542,1,0,0:0:0:0:
256,192,70542,1,0,0:0:0:0:
36,192,70542,1,0,0:0:0:0:
109,192,70542,1,0,0:0:0:0:
475,192,70542,1,0,0:0:0:0:
329,192,70718,128,0,70895:0:0:0:0:
109,192,70718,128,0,70895:0:0:0:0:
402,192,70895,1,0,0:0:0:0:
475,192,70895,1,0,0:0:0:0:
256,192,70895,1,0,0:0:0:0:
36,192,70895,1,0,0:0:0:0:
182,192,70895,1,0,0:0:0:0:
256,192,71071,128,0,71248:0:0:0:0:
182,192,71071,128,0,71248:0:0:0:0:
36,192,71160,1,0,0:0:0:0:
475,192,71160,1,0,0:0:0:0:
329,192,71160,1,0,0:0:0:0:
109,192,71160,1,0,0:0:0:0:
402,192,71160,1,0,0:0:0:0:
109,192,71424,1,0,0:0:0:0:
182,192,71424,1,0,0:0:0:0:
36,192,71424,1,0,0:0:0:0:
402,192,71424,1,0,0:0:0:0:
475,192,71424,1,0,0:0:0:0:
256,192,71424,128,0,71601:0:0:0:0:
329,192,71424,128,0,71601:0:0:0:0:
109,192,71601,1,0,0:0:0:0:
402,192,71601,1,0,0:0:0:0:
36,192,71601,1,0,0:0:0:0:
182,192,71601,1,0,0:0:0:0:
475,192,71601,1,0,0:0:0:0:
36,192,71777,128,0,71954:0:0:0:0:
475,192,71777,128,0,71954:0:0:0:0:
182,192,71954,1,0,0:0:0:0:
329,192,71954,1,0,0:0:0:0:
109,192,71954,1,0,0:0:0:0:
402,192,71954,1,0,0:0:0:0:
256,192,71954,1,0,0:0:0:0:
402,192,72130,128,0,72307:0:0:0:0:
109,192,72130,128,0,72307:0:0:0:0:
256,192,72307,1,0,0:0:0:0:
475,192,72307,1,0,0:0:0:0:
182,192,72307,1,0,0:0:0:0:
36,192,72307,1,0,0:0:0:0:
329,192,72307,1,0,0:0:0:0:
182,192,72483,128,0,72660:0:0:0:0:
256,192,72483,128,0,72571:0:0:0:0:
329,192,72571,128,0,72660:0:0:0:0:
256,192,72660,1,0,0:0:0:0:
109,192,72660,1,0,0:0:0:0:
402,192,72660,1,0,0:0:0:0:
36,192,72660,1,0,0:0:0:0:
475,192,72660,1,0,0:0:0:0:
402,192,72836,128,0,73012:0:0:0:0:
36,192,72836,128,0,73012:0:0:0:0:
329,192,73012,1,0,0:0:0:0:
182,192,73012,1,0,0:0:0:0:
109,192,73012,1,0,0:0:0:0:
475,192,73012,1,0,0:0:0:0:
256,192,73012,1,0,0:0:0:0:
475,192,73189,128,0,73365:0:0:0:0:
109,192,73189,128,0,73365:0:0:0:0:
36,192,73365,1,0,0:0:0:0:
402,192,73365,1,0,0:0:0:0:
329,192,73365,1,0,0:0:0:0:
182,192,73365,1,0,0:0:0:0:
256,192,73365,1,0,0:0:0:0:
329,192,73542,128,0,73718:0:0:0:0:
36,192,73542,128,0,73718:0:0:0:0:
256,192,73718,1,0,0:0:0:0:
109,192,73718,1,0,0:0:0:0:
182,192,73718,1,0,0:0:0:0:
402,192,73718,1,0,0:0:0:0:
475,192,73718,1,0,0:0:0:0:
329,192,73895,1,0,0:0:0:0:
256,192,73895,1,0,0:0:0:0:
402,192,73895,1,0,0:0:0:0:
475,192,73895,128,0,74071:0:0:0:0:
182,192,73895,128,0,74071:0:0:0:0:
36,192,74071,1,0,0:0:0:0:
109,192,74115,1,0,0:0:0:0:
36,192,74248,1,0,0:0:0:0:
109,192,74292,1,0,0:0:0:0:
182,192,74424,1,0,0:0:0:0:
256,192,74424,1,0,0:0:0:0:
475,192,74424,1,0,0:0:0:0:
36,192,74424,1,0,0:0:0:0:
329,192,74424,1,0,0:0:0:0:
329,192,74601,128,0,74777:0:0:0:0:
475,192,74601,128,0,74777:0:0:0:0:
402,192,74777,1,0,0:0:0:0:
256,192,74777,1,0,0:0:0:0:
109,192,74777,1,0,0:0:0:0:
182,192,74777,1,0,0:0:0:0:
36,192,74777,1,0,0:0:0:0:
182,192,74954,128,0,75130:0:0:0:0:
36,192,74954,128,0,75130:0:0:0:0:
109,192,75130,1,0,0:0:0:0:
256,192,75130,1,0,0:0:0:0:
329,192,75130,1,0,0:0:0:0:
402,192,75130,1,0,0:0:0:0:
475,192,75130,1,0,0:0:0:0:
402,192,75307,128,0,75483:0:0:0:0:
475,192,75307,128,0,75483:0:0:0:0:
109,192,75483,1,0,0:0:0:0:
36,192,75483,1,0,0:0:0:0:
182,192,75542,1,0,0:0:0:0:
256,192,75542,1,0,0:0:0:0:
329,192,75601,1,0,0:0:0:0:
402,192,75601,1,0,0:0:0:0:
109,192,75660,128,0,75836:0:0:0:0:
36,192,75660,128,0,75836:0:0:0:0:
182,192,75836,1,0,0:0:0:0:
329,192,75836,1,0,0:0:0:0:
402,192,75836,1,0,0:0:0:0:
475,192,75836,1,0,0:0:0:0:
256,192,75836,1,0,0:0:0:0:
475,192,76012,128,0,76189:0:0:0:0:
36,192,76012,128,0,76189:0:0:0:0:
402,192,76189,1,0,0:0:0:0:
329,192,76189,1,0,0:0:0:0:
256,192,76189,1,0,0:0:0:0:
182,192,76189,1,0,0:0:0:0:
109,192,76189,1,0,0:0:0:0:
109,192,76365,128,0,76542:0:0:0:0:
402,192,76365,128,0,76542:0:0:0:0:
36,192,76542,1,0,0:0:0:0:
182,192,76542,1,0,0:0:0:0:
256,192,76542,1,0,0:0:0:0:
329,192,76542,1,0,0:0:0:0:
475,192,76542,1,0,0:0:0:0:
329,192,76718,128,0,76895:0:0:0:0:
182,192,76718,128,0,76895:0:0:0:0:
256,192,76807,1,0,0:0:0:0:
402,192,76807,1,0,0:0:0:0:
475,192,76807,1,0,0:0:0:0:
109,192,76807,1,0,0:0:0:0:
36,192,76807,1,0,0:0:0:0:
475,192,77071,128,0,77248:0:0:0:0:
36,192,77071,128,0,77248:0:0:0:0:
109,192,77071,1,0,0:0:0:0:
182,192,77071,1,0,0:0:0:0:
329,192,77071,1,0,0:0:0:0:
402,192,77071,1,0,0:0:0:0:
256,192,77071,1,0,0:0:0:0:
402,192,77248,1,0,0:0:0:0:
329,192,77248,1,0,0:0:0:0:
182,192,77248,1,0,0:0:0:0:
109,192,77248,1,0,0:0:0:0:
256,192,77248,1,0,0:0:0:0:
475,192,77424,128,0,77601:0:0:0:0:
402,192,77424,128,0,77601:0:0:0:0:
329,192,77601,1,0,0:0:0:0:
182,192,77601,1,0,0:0:0:0:
109,192,77601,1,0,0:0:0:0:
36,192,77601,1,0,0:0:0:0:
256,192,77601,1,0,0:0:0:0:
329,192,77777,128,0,77954:0:0:0:0:
256,192,77777,128,0,77954:0:0:0:0:
475,192,77954,1,0,0:0:0:0:
36,192,77954,1,0,0:0:0:0:
109,192,77954,1,0,0:0:0:0:
182,192,77954,1,0,0:0:0:0:
402,192,77998,1,0,0:0:0:0:
329,192,78042,1,0,0:0:0:0:
256,192,78086,1,0,0:0:0:0:
182,192,78130,128,0,78307:0:0:0:0:
109,192,78130,128,0,78307:0:0:0:0:
36,192,78307,1,0,0:0:0:0:
402,192,78307,1,0,0:0:0:0:
329,192,78307,1,0,0:0:0:0:
475,192,78307,128,0,78660:0:0:0:0:
256,192,78307,128,0,78660:0:0:0:0:
36,192,78483,128,0,78660:0:0:0:0:
329,192,78660,1,0,0:0:0:0:
402,192,78660,1,0,0:0:0:0:
109,192,78660,1,0,0:0:0:0:
182,192,78660,1,0,0:0:0:0:
256,192,78836,1,0,0:0:0:0:
182,192,78836,1,0,0:0:0:0:
36,192,78836,1,0,0:0:0:0:
109,192,79012,1,0,0:0:0:0:
256,192,79012,1,0,0:0:0:0:
329,192,79012,1,0,0:0:0:0:
475,192,79012,1,0,0:0:0:0:
402,192,79012,1,0,0:0:0:0:
36,192,79012,1,0,0:0:0:0:
182,192,79189,128,0,79365:0:0:0:0:
475,192,79189,128,0,79365:0:0:0:0:
402,192,79365,1,0,0:0:0:0:
109,192,79365,1,0,0:0:0:0:
256,192,79365,1,0,0:0:0:0:
36,192,79542,128,0,79718:0:0:0:0:
256,192,79542,1,0,0:0:0:0:
329,192,79542,128,0,79718:0:0:0:0:
109,192,79718,1,0,0:0:0:0:
402,192,79718,1,0,0:0:0:0:
182,192,79718,1,0,0:0:0:0:
256,192,79807,1,0,0:0:0:0:
475,192,79807,1,0,0:0:0:0:
329,192,79895,1,0,0:0:0:0:
182,192,79895,1,0,0:0:0:0:
36,192,79895,1,0,0:0:0:0:
402,192,79895,128,0,80071:0:0:0:0:
109,192,79895,128,0,80071:0:0:0:0:
329,192,80071,1,0,0:0:0:0:
256,192,80071,1,0,0:0:0:0:
182,192,80071,1,0,0:0:0:0:
36,192,80071,1,0,0:0:0:0:
475,192,80071,1,0,0:0:0:0:
475,192,80248,128,0,80336:0:0:0:0:
109,192,80248,128,0,80336:0:0:0:0:
36,192,80336,128,0,80424:0:0:0:0:
475,192,80424,128,0,80512:0:0:0:0:
475,192,80601,128,0,80689:0:0:0:0:
256,192,80601,128,0,80777:0:0:0:0:
402,192,80777,128,0,80865:0:0:0:0:
329,192,80954,1,0,0:0:0:0:
182,192,80954,1,0,0:0:0:0:
182,192,81012,1,0,0:0:0:0:
329,192,81012,1,0,0:0:0:0:
329,192,81071,1,0,0:0:0:0:
182,192,81071,1,0,0:0:0:0:
475,192,81130,128,0,81218:0:0:0:0:
475,192,81307,128,0,81395:0:0:0:0:
256,192,81307,128,0,81483:0:0:0:0:
402,192,81483,1,0,0:0:0:0:
329,192,81483,1,0,0:0:0:0:
109,192,81483,1,0,0:0:0:0:
36,192,81483,1,0,0:0:0:0:
182,192,81483,1,0,0:0:0:0:
182,192,81660,128,0,81836:0:0:0:0:
109,192,81660,128,0,81836:0:0:0:0:
475,192,81836,1,0,0:0:0:0:
402,192,81836,1,0,0:0:0:0:
329,192,81836,1,0,0:0:0:0:
36,192,81836,1,0,0:0:0:0:
256,192,81836,1,0,0:0:0:0:
329,192,82012,128,0,82189:0:0:0:0:
402,192,82012,128,0,82189:0:0:0:0:
475,192,82189,1,0,0:0:0:0:
109,192,82189,1,0,0:0:0:0:
182,192,82189,1,0,0:0:0:0:
36,192,82189,1,0,0:0:0:0:
256,192,82189,1,0,0:0:0:0:
256,192,82365,128,0,82542:0:0:0:0:
36,192,82365,128,0,82542:0:0:0:0:
109,192,82454,1,0,0:0:0:0:
182,192,82454,1,0,0:0:0:0:
329,192,82454,1,0,0:0:0:0:
402,192,82454,1,0,0:0:0:0:
475,192,82454,1,0,0:0:0:0:
256,192,82718,128,0,82895:0:0:0:0:
475,192,82718,128,0,82895:0:0:0:0:
402,192,82718,1,0,0:0:0:0:
329,192,82718,1,0,0:0:0:0:
182,192,82718,1,0,0:0:0:0:
109,192,82718,1,0,0:0:0:0:
36,192,82718,1,0,0:0:0:0:
36,192,82895,1,0,0:0:0:0:
109,192,82895,1,0,0:0:0:0:
182,192,82895,1,0,0:0:0:0:
329,192,82895,1,0,0:0:0:0:
402,192,82895,1,0,0:0:0:0:
402,192,83071,128,0,83248:0:0:0:0:
329,192,83071,128,0,83248:0:0:0:0:
256,192,83248,1,0,0:0:0:0:
182,192,83248,1,0,0:0:0:0:
109,192,83248,1,0,0:0:0:0:
36,192,83248,1,0,0:0:0:0:
475,192,83248,1,0,0:0:0:0:
182,192,83424,128,0,83601:0:0:0:0:
109,192,83424,128,0,83601:0:0:0:0:
36,192,83601,1,0,0:0:0:0:
256,192,83601,1,0,0:0:0:0:
329,192,83601,1,0,0:0:0:0:
475,192,83601,1,0,0:0:0:0:
402,192,83601,1,0,0:0:0:0:
402,192,83777,128,0,83954:0:0:0:0:
475,192,83777,128,0,83954:0:0:0:0:
329,192,83954,1,0,0:0:0:0:
256,192,83954,1,0,0:0:0:0:
182,192,83954,1,0,0:0:0:0:
109,192,83954,1,0,0:0:0:0:
36,192,83954,1,0,0:0:0:0:
36,192,84130,128,0,84307:0:0:0:0:
109,192,84130,128,0,84307:0:0:0:0:
182,192,84307,1,0,0:0:0:0:
256,192,84307,1,0,0:0:0:0:
402,192,84307,1,0,0:0:0:0:
475,192,84307,1,0,0:0:0:0:
329,192,84307,1,0,0:0:0:0:
256,192,84483,128,0,84660:0:0:0:0:
329,192,84483,128,0,84660:0:0:0:0:
402,192,84660,1,0,0:0:0:0:
475,192,84660,1,0,0:0:0:0:
182,192,84660,1,0,0:0:0:0:
109,192,84660,1,0,0:0:0:0:
36,192,84660,1,0,0:0:0:0:
182,192,84836,128,0,85012:0:0:0:0:
109,192,84836,128,0,85012:0:0:0:0:
256,192,85012,1,0,0:0:0:0:
329,192,85012,1,0,0:0:0:0:
475,192,85012,1,0,0:0:0:0:
402,192,85012,1,0,0:0:0:0:
36,192,85012,1,0,0:0:0:0:
402,192,85189,128,0,85365:0:0:0:0:
256,192,85189,1,0,0:0:0:0:
182,192,85189,1,0,0:0:0:0:
109,192,85189,1,0,0:0:0:0:
36,192,85189,1,0,0:0:0:0:
475,192,85189,1,0,0:0:0:0:
329,192,85189,128,0,85365:0:0:0:0:
36,192,85365,128,0,85454:0:0:0:0:
475,192,85365,128,0,85454:0:0:0:0:
402,192,85454,1,0,0:0:0:0:
109,192,85454,1,0,0:0:0:0:
256,192,85542,128,0,85718:0:0:0:0:
182,192,85542,128,0,85718:0:0:0:0:
329,192,85718,1,0,0:0:0:0:
402,192,85718,1,0,0:0:0:0:
475,192,85718,1,0,0:0:0:0:
109,192,85718,1,0,0:0:0:0:
36,192,85718,1,0,0:0:0:0:
36,192,85895,128,0,86071:0:0:0:0:
329,192,85895,128,0,86071:0:0:0:0:
109,192,86071,1,0,0:0:0:0:
182,192,86071,1,0,0:0:0:0:
256,192,86071,1,0,0:0:0:0:
402,192,86071,1,0,0:0:0:0:
475,192,86071,1,0,0:0:0:0:
475,192,86248,128,0,86424:0:0:0:0:
182,192,86248,128,0,86424:0:0:0:0:
402,192,86424,1,0,0:0:0:0:
329,192,86424,1,0,0:0:0:0:
256,192,86424,1,0,0:0:0:0:
109,192,86424,1,0,0:0:0:0:
36,192,86424,1,0,0:0:0:0:
329,192,86601,128,0,86777:0:0:0:0:
109,192,86601,128,0,86777:0:0:0:0:
36,192,86777,1,0,0:0:0:0:
475,192,86777,1,0,0:0:0:0:
402,192,86821,1,0,0:0:0:0:
182,192,86821,1,0,0:0:0:0:
256,192,86865,1,0,0:0:0:0:
329,192,86865,1,0,0:0:0:0:
182,192,86954,128,0,87130:0:0:0:0:
402,192,86954,128,0,87130:0:0:0:0:
475,192,87130,1,0,0:0:0:0:
329,192,87130,1,0,0:0:0:0:
256,192,87130,1,0,0:0:0:0:
109,192,87130,1,0,0:0:0:0:
36,192,87130,1,0,0:0:0:0:
256,192,87307,128,0,87483:0:0:0:0:
36,192,87307,128,0,87483:0:0:0:0:
109,192,87483,1,0,0:0:0:0:
182,192,87483,1,0,0:0:0:0:
329,192,87483,1,0,0:0:0:0:
402,192,87483,1,0,0:0:0:0:
475,192,87483,1,0,0:0:0:0:
109,192,87660,128,0,87836:0:0:0:0:
329,192,87660,128,0,87836:0:0:0:0:
475,192,87836,1,0,0:0:0:0:
402,192,87836,1,0,0:0:0:0:
256,192,87836,1,0,0:0:0:0:
182,192,87836,1,0,0:0:0:0:
36,192,87836,1,0,0:0:0:0:
182,192,88012,128,0,88189:0:0:0:0:
402,192,88012,128,0,88189:0:0:0:0:
256,192,88101,1,0,0:0:0:0:
329,192,88101,1,0,0:0:0:0:
475,192,88101,1,0,0:0:0:0:
109,192,88101,1,0,0:0:0:0:
36,192,88101,1,0,0:0:0:0:
256,192,88365,128,0,88542:0:0:0:0:
475,192,88365,128,0,88542:0:0:0:0:
402,192,88365,1,0,0:0:0:0:
329,192,88365,1,0,0:0:0:0:
182,192,88365,1,0,0:0:0:0:
109,192,88365,1,0,0:0:0:0:
36,192,88365,1,0,0:0:0:0:
402,192,88542,1,0,0:0:0:0:
329,192,88542,1,0,0:0:0:0:
182,192,88542,1,0,0:0:0:0:
109,192,88542,1,0,0:0:0:0:
36,192,88542,1,0,0:0:0:0:
329,192,88718,128,0,88895:0:0:0:0:
256,192,88718,128,0,88895:0:0:0:0:
402,192,88895,1,0,0:0:0:0:
475,192,88895,1,0,0:0:0:0:
182,192,88895,1,0,0:0:0:0:
109,192,88895,1,0,0:0:0:0:
36,192,88895,1,0,0:0:0:0:
256,192,89071,128,0,89248:0:0:0:0:
182,192,89071,128,0,89248:0:0:0:0:
329,192,89248,1,0,0:0:0:0:
402,192,89248,1,0,0:0:0:0:
475,192,89248,1,0,0:0:0:0:
109,192,89248,128,0,89336:0:0:0:0:
36,192,89248,128,0,89336:0:0:0:0:
256,192,89424,128,0,89601:0:0:0:0:
402,192,89424,128,0,89601:0:0:0:0:
475,192,89601,1,0,0:0:0:0:
329,192,89601,1,0,0:0:0:0:
182,192,89601,1,0,0:0:0:0:
109,192,89601,1,0,0:0:0:0:
36,192,89601,1,0,0:0:0:0:
256,192,89777,128,0,89954:0:0:0:0:
109,192,89777,128,0,89954:0:0:0:0:
475,192,89777,1,0,0:0:0:0:
475,192,89895,1,0,0:0:0:0:
329,192,89954,1,0,0:0:0:0:
475,192,89954,1,0,0:0:0:0:
402,192,89954,1,0,0:0:0:0:
182,192,89954,1,0,0:0:0:0:
36,192,89954,1,0,0:0:0:0:
475,192,90130,128,0,90307:0:0:0:0:
36,192,90130,128,0,90307:0:0:0:0:
36,192,90483,128,0,90660:0:0:0:0:
475,192,90483,128,0,90660:0:0:0:0:
475,192,90836,128,0,91012:0:0:0:0:
36,192,90836,128,0,91012:0:0:0:0:
36,192,91189,128,0,91365:0:0:0:0:
475,192,91189,128,0,91365:0:0:0:0:
109,192,91365,1,0,0:0:0:0:
402,192,91365,1,0,0:0:0:0:
256,192,91365,1,0,0:0:0:0:
182,192,91454,1,0,0:0:0:0:
256,192,91542,128,0,91718:0:0:0:0:
329,192,91542,1,0,0:0:0:0:
402,192,91630,1,0,0:0:0:0:
475,192,91718,1,0,0:0:0:0:
36,192,91718,1,0,0:0:0:0:
109,192,91718,1,0,0:0:0:0:
182,192,91807,1,0,0:0:0:0:
256,192,91895,128,0,92071:0:0:0:0:
329,192,91895,1,0,0:0:0:0:
36,192,91983,1,0,0:0:0:0:
109,192,92071,1,0,0:0:0:0:
475,192,92071,1,0,0:0:0:0:
182,192,92071,1,0,0:0:0:0:
329,192,92160,1,0,0:0:0:0:
256,192,92248,128,0,92424:0:0:0:0:
402,192,92248,1,0,0:0:0:0:
182,192,92336,1,0,0:0:0:0:
329,192,92424,1,0,0:0:0:0:
36,192,92424,1,0,0:0:0:0:
475,192,92424,1,0,0:0:0:0:
109,192,92512,1,0,0:0:0:0:
256,192,92601,128,0,92777:0:0:0:0:
182,192,92601,1,0,0:0:0:0:
329,192,92689,1,0,0:0:0:0:
109,192,92777,1,0,0:0:0:0:
36,192,92777,1,0,0:0:0:0:
475,192,92777,1,0,0:0:0:0:
182,192,92865,1,0,0:0:0:0:
256,192,92954,128,0,93130:0:0:0:0:
329,192,92954,1,0,0:0:0:0:
475,192,93042,1,0,0:0:0:0:
329,192,93130,1,0,0:0:0:0:
182,192,93130,1,0,0:0:0:0:
36,192,93130,1,0,0:0:0:0:
109,192,93218,1,0,0:0:0:0:
256,192,93307,128,0,93483:0:0:0:0:
402,192,93307,1,0,0:0:0:0:
36,192,93395,1,0,0:0:0:0:
475,192,93483,1,0,0:0:0:0:
329,192,93483,1,0,0:0:0:0:
109,192,93483,1,0,0:0:0:0:
182,192,93571,1,0,0:0:0:0:
256,192,93660,128,0,93836:0:0:0:0:
402,192,93660,1,0,0:0:0:0:
475,192,93748,1,0,0:0:0:0:
109,192,93836,1,0,0:0:0:0:
36,192,93836,1,0,0:0:0:0:
329,192,93836,1,0,0:0:0:0:
182,192,93924,1,0,0:0:0:0:
256,192,94012,128,0,94189:0:0:0:0:
402,192,94012,1,0,0:0:0:0:
329,192,94101,1,0,0:0:0:0:
475,192,94189,1,0,0:0:0:0:
36,192,94189,1,0,0:0:0:0:
109,192,94189,1,0,0:0:0:0:
182,192,94277,1,0,0:0:0:0:
256,192,94365,128,0,94542:0:0:0:0:
329,192,94365,1,0,0:0:0:0:
402,192,94454,1,0,0:0:0:0:
182,192,94542,1,0,0:0:0:0:
36,192,94542,1,0,0:0:0:0:
475,192,94542,1,0,0:0:0:0:
109,192,94630,1,0,0:0:0:0:
256,192,94718,128,0,94895:0:0:0:0:
329,192,94718,1,0,0:0:0:0:
36,192,94807,1,0,0:0:0:0:
109,192,94895,1,0,0:0:0:0:
475,192,94895,1,0,0:0:0:0:
402,192,94895,1,0,0:0:0:0:
182,192,94983,1,0,0:0:0:0:
256,192,95071,128,0,95248:0:0:0:0:
329,192,95071,1,0,0:0:0:0:
475,192,95160,1,0,0:0:0:0:
36,192,95248,1,0,0:0:0:0:
109,192,95248,1,0,0:0:0:0:
402,192,95248,1,0,0:0:0:0:
329,192,95336,1,0,0:0:0:0:
256,192,95424,128,0,95601:0:0:0:0:
182,192,95424,1,0,0:0:0:0:
109,192,95512,1,0,0:0:0:0:
36,192,95601,1,0,0:0:0:0:
475,192,95601,1,0,0:0:0:0:
329,192,95601,1,0,0:0:0:0:
182,192,95689,1,0,0:0:0:0:
256,192,95777,128,0,95954:0:0:0:0:
402,192,95777,1,0,0:0:0:0:
475,192,95865,1,0,0:0:0:0:
329,192,95954,1,0,0:0:0:0:
109,192,95954,1,0,0:0:0:0:
36,192,95954,1,0,0:0:0:0:
182,192,96042,1,0,0:0:0:0:
256,192,96130,128,0,96307:0:0:0:0:
402,192,96130,1,0,0:0:0:0:
109,192,96218,1,0,0:0:0:0:
182,192,96307,1,0,0:0:0:0:
329,192,96307,1,0,0:0:0:0:
475,192,96307,1,0,0:0:0:0:
36,192,96395,1,0,0:0:0:0:
256,192,96483,128,0,96660:0:0:0:0:
109,192,96483,1,0,0:0:0:0:
475,192,96571,1,0,0:0:0:0:
329,192,96660,1,0,0:0:0:0:
182,192,96660,1,0,0:0:0:0:
36,192,96660,1,0,0:0:0:0:
402,192,96748,1,0,0:0:0:0:
256,192,96836,128,0,97012:0:0:0:0:
475,192,96836,128,0,97012:0:0:0:0:
182,192,96924,128,0,97012:0:0:0:0:
402,192,97012,1,0,0:0:0:0:
329,192,97012,1,0,0:0:0:0:
36,192,97012,1,0,0:0:0:0:
109,192,97012,1,0,0:0:0:0:
182,192,97101,128,0,97189:0:0:0:0:
256,192,97189,128,0,97365:0:0:0:0:
329,192,97189,128,0,97277:0:0:0:0:
402,192,97277,128,0,97365:0:0:0:0:
109,192,97365,1,0,0:0:0:0:
36,192,97365,1,0,0:0:0:0:
475,192,97365,1,0,0:0:0:0:
182,192,97454,128,0,97542:0:0:0:0:
256,192,97542,128,0,97718:0:0:0:0:
329,192,97542,128,0,97630:0:0:0:0:
109,192,97630,128,0,97718:0:0:0:0:
182,192,97718,1,0,0:0:0:0:
402,192,97718,1,0,0:0:0:0:
475,192,97718,1,0,0:0:0:0:
36,192,97807,128,0,97895:0:0:0:0:
256,192,97895,128,0,98071:0:0:0:0:
329,192,97895,128,0,97983:0:0:0:0:
109,192,97983,128,0,98071:0:0:0:0:
182,192,98071,1,0,0:0:0:0:
36,192,98071,1,0,0:0:0:0:
475,192,98071,1,0,0:0:0:0:
329,192,98160,128,0,98248:0:0:0:0:
256,192,98248,128,0,98424:0:0:0:0:
402,192,98248,128,0,98336:0:0:0:0:
475,192,98336,128,0,98424:0:0:0:0:
329,192,98424,1,0,0:0:0:0:
182,192,98424,1,0,0:0:0:0:
109,192,98424,1,0,0:0:0:0:
36,192,98512,128,0,98601:0:0:0:0:
256,192,98601,128,0,98777:0:0:0:0:
402,192,98601,128,0,98689:0:0:0:0:
475,192,98689,128,0,98777:0:0:0:0:
329,192,98777,1,0,0:0:0:0:
182,192,98777,1,0,0:0:0:0:
36,192,98777,1,0,0:0:0:0:
109,192,98865,128,0,98954:0:0:0:0:
256,192,98954,128,0,99130:0:0:0:0:
402,192,98954,128,0,99042:0:0:0:0:
182,192,99042,128,0,99130:0:0:0:0:
329,192,99130,1,0,0:0:0:0:
36,192,99130,1,0,0:0:0:0:
475,192,99130,1,0,0:0:0:0:
109,192,99218,128,0,99307:0:0:0:0:
256,192,99307,128,0,99483:0:0:0:0:
402,192,99307,128,0,99395:0:0:0:0:
475,192,99395,128,0,99483:0:0:0:0:
109,192,99483,1,0,0:0:0:0:
36,192,99483,1,0,0:0:0:0:
182,192,99483,1,0,0:0:0:0:
329,192,99571,128,0,99660:0:0:0:0:
256,192,99660,128,0,99836:0:0:0:0:
402,192,99660,128,0,99748:0:0:0:0:
109,192,99748,128,0,99836:0:0:0:0:
182,192,99836,1,0,0:0:0:0:
329,192,99836,1,0,0:0:0:0:
475,192,99836,1,0,0:0:0:0:
36,192,99924,128,0,100012:0:0:0:0:
256,192,100012,128,0,100189:0:0:0:0:
109,192,100012,128,0,100101:0:0:0:0:
329,192,100101,128,0,100189:0:0:0:0:
402,192,100189,1,0,0:0:0:0:
182,192,100189,1,0,0:0:0:0:
475,192,100189,1,0,0:0:0:0:
109,192,100277,128,0,100365:0:0:0:0:
256,192,100365,128,0,100542:0:0:0:0:
329,192,100365,128,0,100454:0:0:0:0:
36,192,100454,128,0,100542:0:0:0:0:
182,192,100542,1,0,0:0:0:0:
109,192,100542,1,0,0:0:0:0:
475,192,100542,1,0,0:0:0:0:
329,192,100630,128,0,100718:0:0:0:0:
256,192,100718,128,0,100895:0:0:0:0:
402,192,100718,128,0,100807:0:0:0:0:
475,192,100807,128,0,100895:0:0:0:0:
182,192,100895,1,0,0:0:0:0:
109,192,100895,1,0,0:0:0:0:
36,192,100895,1,0,0:0:0:0:
402,192,100983,128,0,101071:0:0:0:0:
256,192,101071,128,0,101248:0:0:0:0:
329,192,101071,128,0,101160:0:0:0:0:
182,192,101160,128,0,101248:0:0:0:0:
475,192,101248,1,0,0:0:0:0:
402,192,101248,1,0,0:0:0:0:
109,192,101248,1,0,0:0:0:0:
36,192,101336,128,0,101424:0:0:0:0:
256,192,101424,128,0,101601:0:0:0:0:
182,192,101424,128,0,101512:0:0:0:0:
329,192,101512,128,0,101601:0:0:0:0:
109,192,101601,1,0,0:0:0:0:
36,192,101601,1,0,0:0:0:0:
475,192,101601,1,0,0:0:0:0:
182,192,101689,128,0,101777:0:0:0:0:
256,192,101777,128,0,101954:0:0:0:0:
329,192,101777,128,0,101865:0:0:0:0:
109,192,101865,128,0,101954:0:0:0:0:
36,192,101954,1,0,0:0:0:0:
475,192,101954,1,0,0:0:0:0:
402,192,101954,1,0,0:0:0:0:
182,192,102042,128,0,102130:0:0:0:0:
256,192,102130,128,0,102307:0:0:0:0:
329,192,102130,128,0,102218:0:0:0:0:
475,192,102218,128,0,102307:0:0:0:0:
109,192,102307,1,0,0:0:0:0:
36,192,102307,1,0,0:0:0:0:
182,192,102307,1,0,0:0:0:0:
402,192,102395,128,0,102483:0:0:0:0:
256,192,102483,128,0,102660:0:0:0:0:
475,192,102483,128,0,102571:0:0:0:0:
182,192,102571,128,0,102660:0:0:0:0:
109,192,102571,128,0,102660:0:0:0:0:
329,192,102660,1,0,0:0:0:0:
402,192,102660,1,0,0:0:0:0:
36,192,102660,1,0,0:0:0:0:
475,192,102748,1,0,0:0:0:0:
256,192,102748,128,0,102836:0:0:0:0:
109,192,102836,1,0,0:0:0:0:
329,192,102836,128,0,102924:0:0:0:0:
475,192,102924,1,0,0:0:0:0:
402,192,102924,128,0,103012:0:0:0:0:
256,192,103012,1,0,0:0:0:0:
36,192,103012,1,0,0:0:0:0:
109,192,103012,1,0,0:0:0:0:
402,192,103101,1,0,0:0:0:0:
182,192,103101,128,0,103189:0:0:0:0:
329,192,103189,1,0,0:0:0:0:
256,192,103189,128,0,103277:0:0:0:0:
182,192,103277,1,0,0:0:0:0:
109,192,103277,128,0,103365:0:0:0:0:
36,192,103365,1,0,0:0:0:0:
329,192,103365,1,0,0:0:0:0:
475,192,103365,1,0,0:0:0:0:
256,192,103454,1,0,0:0:0:0:
109,192,103454,128,0,103542:0:0:0:0:
475,192,103542,1,0,0:0:0:0:
182,192,103542,128,0,103630:0:0:0:0:
256,192,103630,1,0,0:0:0:0:
36,192,103630,128,0,103718:0:0:0:0:
182,192,103718,1,0,0:0:0:0:
402,192,103718,1,0,0:0:0:0:
329,192,103718,1,0,0:0:0:0:
36,192,103807,1,0,0:0:0:0:
109,192,103807,128,0,103895:0:0:0:0:
329,192,103895,1,0,0:0:0:0:
256,192,103895,128,0,103983:0:0:0:0:
109,192,103983,1,0,0:0:0:0:
402,192,103983,128,0,104071:0:0:0:0:
475,192,104071,1,0,0:0:0:0:
256,192,104071,1,0,0:0:0:0:
36,192,104071,1,0,0:0:0:0:
402,192,104160,1,0,0:0:0:0:
182,192,104160,128,0,104248:0:0:0:0:
36,192,104248,1,0,0:0:0:0:
329,192,104248,128,0,104336:0:0:0:0:
182,192,104336,1,0,0:0:0:0:
475,192,104336,128,0,104424:0:0:0:0:
256,192,104424,1,0,0:0:0:0:
329,192,104424,1,0,0:0:0:0:
475,192,104512,1,0,0:0:0:0:
109,192,104512,128,0,104601:0:0:0:0:
256,192,104601,1,0,0:0:0:0:
182,192,104601,128,0,104689:0:0:0:0:
109,192,104689,1,0,0:0:0:0:
36,192,104689,128,0,104777:0:0:0:0:
402,192,104777,1,0,0:0:0:0:
182,192,104777,1,0,0:0:0:0:
329,192,104777,1,0,0:0:0:0:
36,192,104865,1,0,0:0:0:0:
256,192,104865,128,0,104954:0:0:0:0:
109,192,104954,1,0,0:0:0:0:
329,192,104954,128,0,105042:0:0:0:0:
256,192,105042,1,0,0:0:0:0:
402,192,105042,128,0,105130:0:0:0:0:
182,192,105130,1,0,0:0:0:0:
109,192,105130,1,0,0:0:0:0:
475,192,105130,1,0,0:0:0:0:
402,192,105218,1,0,0:0:0:0:
329,192,105218,128,0,105307:0:0:0:0:
256,192,105307,1,0,0:0:0:0:
475,192,105307,128,0,105395:0:0:0:0:
329,192,105395,1,0,0:0:0:0:
182,192,105395,128,0,105483:0:0:0:0:
256,192,105483,1,0,0:0:0:0:
109,192,105483,1,0,0:0:0:0:
36,192,105483,1,0,0:0:0:0:
402,192,105571,1,0,0:0:0:0:
182,192,105571,128,0,105660:0:0:0:0:
109,192,105660,1,0,0:0:0:0:
329,192,105660,128,0,105748:0:0:0:0:
475,192,105748,1,0,0:0:0:0:
402,192,105748,128,0,105836:0:0:0:0:
329,192,105836,1,0,0:0:0:0:
36,192,105836,1,0,0:0:0:0:
256,192,105836,1,0,0:0:0:0:
475,192,105924,1,0,0:0:0:0:
182,192,105924,128,0,106012:0:0:0:0:
109,192,106012,1,0,0:0:0:0:
256,192,106012,128,0,106101:0:0:0:0:
182,192,106101,1,0,0:0:0:0:
36,192,106101,128,0,106189:0:0:0:0:
109,192,106189,1,0,0:0:0:0:
402,192,106189,1,0,0:0:0:0:
475,192,106189,1,0,0:0:0:0:
256,192,106277,1,0,0:0:0:0:
36,192,106277,128,0,106365:0:0:0:0:
402,192,106365,1,0,0:0:0:0:
329,192,106365,128,0,106454:0:0:0:0:
256,192,106454,1,0,0:0:0:0:
475,192,106454,128,0,106542:0:0:0:0:
329,192,106542,1,0,0:0:0:0:
182,192,106542,1,0,0:0:0:0:
109,192,106542,1,0,0:0:0:0:
402,192,106630,1,0,0:0:0:0:
475,192,106630,128,0,106718:0:0:0:0:
182,192,106718,1,0,0:0:0:0:
256,192,106718,128,0,106807:0:0:0:0:
402,192,106807,1,0,0:0:0:0:
36,192,106807,128,0,106895:0:0:0:0:
109,192,106895,1,0,0:0:0:0:
256,192,106895,1,0,0:0:0:0:
329,192,106895,1,0,0:0:0:0:
36,192,106983,1,0,0:0:0:0:
182,192,106983,128,0,107071:0:0:0:0:
475,192,107071,1,0,0:0:0:0:
329,192,107071,128,0,107160:0:0:0:0:
182,192,107160,1,0,0:0:0:0:
402,192,107160,128,0,107248:0:0:0:0:
475,192,107248,1,0,0:0:0:0:
256,192,107248,1,0,0:0:0:0:
109,192,107248,1,0,0:0:0:0:
329,192,107336,1,0,0:0:0:0:
182,192,107336,128,0,107424:0:0:0:0:
36,192,107424,1,0,0:0:0:0:
256,192,107424,128,0,107512:0:0:0:0:
329,192,107512,1,0,0:0:0:0:
109,192,107512,128,0,107601:0:0:0:0:
182,192,107601,1,0,0:0:0:0:
36,192,107601,1,0,0:0:0:0:
402,192,107601,1,0,0:0:0:0:
109,192,107689,1,0,0:0:0:0:
256,192,107689,128,0,107777:0:0:0:0:
329,192,107777,128,0,107865:0:0:0:0:
182,192,107777,1,0,0:0:0:0:
402,192,107865,128,0,107954:0:0:0:0:
256,192,107865,1,0,0:0:0:0:
475,192,107954,1,0,0:0:0:0:
329,192,107954,1,0,0:0:0:0:
36,192,107954,1,0,0:0:0:0:
182,192,108042,1,0,0:0:0:0:
402,192,108042,128,0,108130:0:0:0:0:
475,192,108130,1,0,0:0:0:0:
256,192,108130,1,0,0:0:0:0:
402,192,108174,1,0,0:0:0:0:
182,192,108174,1,0,0:0:0:0:
329,192,108218,1,0,0:0:0:0:
109,192,108218,1,0,0:0:0:0:
36,192,108262,1,0,0:0:0:0:
256,192,108262,1,0,0:0:0:0:
475,192,108307,1,0,0:0:0:0:
402,192,108307,1,0,0:0:0:0:
182,192,108307,1,0,0:0:0:0:
329,192,108307,1,0,0:0:0:0:
256,192,108395,128,0,108483:0:0:0:0:
109,192,108395,128,0,108483:0:0:0:0:
182,192,108483,128,0,108571:0:0:0:0:
36,192,108483,128,0,108571:0:0:0:0:
109,192,108571,128,0,108660:0:0:0:0:
329,192,108571,128,0,108660:0:0:0:0:
256,192,108660,1,0,0:0:0:0:
402,192,108660,1,0,0:0:0:0:
475,192,108660,1,0,0:0:0:0:
36,192,108660,1,0,0:0:0:0:
182,192,108748,128,0,108836:0:0:0:0:
329,192,108748,128,0,108836:0:0:0:0:
256,192,108836,128,0,108924:0:0:0:0:
109,192,108836,128,0,108924:0:0:0:0:
182,192,108924,128,0,109012:0:0:0:0:
36,192,108924,128,0,109012:0:0:0:0:
109,192,109012,1,0,0:0:0:0:
329,192,109012,1,0,0:0:0:0:
402,192,109012,1,0,0:0:0:0:
36,192,109101,128,0,109189:0:0:0:0:
256,192,109101,128,0,109189:0:0:0:0:
329,192,109189,128,0,109277:0:0:0:0:
182,192,109189,128,0,109277:0:0:0:0:
256,192,109277,128,0,109365:0:0:0:0:
402,192,109277,128,0,109365:0:0:0:0:
182,192,109365,1,0,0:0:0:0:
109,192,109365,1,0,0:0:0:0:
475,192,109365,1,0,0:0:0:0:
36,192,109365,1,0,0:0:0:0:
329,192,109454,128,0,109542:0:0:0:0:
402,192,109454,128,0,109542:0:0:0:0:
256,192,109542,128,0,109630:0:0:0:0:
109,192,109542,128,0,109630:0:0:0:0:
182,192,109630,128,0,109718:0:0:0:0:
329,192,109630,128,0,109718:0:0:0:0:
256,192,109718,1,0,0:0:0:0:
36,192,109718,1,0,0:0:0:0:
475,192,109718,1,0,0:0:0:0:
182,192,109807,128,0,109895:0:0:0:0:
109,192,109807,128,0,109895:0:0:0:0:
36,192,109895,128,0,109983:0:0:0:0:
329,192,109895,128,0,109983:0:0:0:0:
402,192,109983,128,0,110071:0:0:0:0:
109,192,109983,128,0,110071:0:0:0:0:
256,192,110071,1,0,0:0:0:0:
329,192,110071,1,0,0:0:0:0:
475,192,110071,1,0,0:0:0:0:
182,192,110071,1,0,0:0:0:0:
402,192,110160,128,0,110248:0:0:0:0:
36,192,110160,128,0,110248:0:0:0:0:
109,192,110248,128,0,110336:0:0:0:0:
256,192,110248,128,0,110336:0:0:0:0:
182,192,110336,128,0,110424:0:0:0:0:
36,192,110336,128,0,110424:0:0:0:0:
109,192,110424,1,0,0:0:0:0:
329,192,110424,1,0,0:0:0:0:
475,192,110424,1,0,0:0:0:0:
182,192,110512,128,0,110601:0:0:0:0:
256,192,110512,128,0,110601:0:0:0:0:
329,192,110601,128,0,110689:0:0:0:0:
402,192,110601,128,0,110689:0:0:0:0:
475,192,110689,128,0,110777:0:0:0:0:
256,192,110689,128,0,110777:0:0:0:0:
402,192,110777,1,0,0:0:0:0:
182,192,110777,1,0,0:0:0:0:
109,192,110777,1,0,0:0:0:0:
36,192,110777,1,0,0:0:0:0:
329,192,110865,128,0,110954:0:0:0:0:
475,192,110865,128,0,110954:0:0:0:0:
256,192,110954,128,0,111042:0:0:0:0:
109,192,110954,128,0,111042:0:0:0:0:
182,192,111042,128,0,111130:0:0:0:0:
329,192,111042,128,0,111130:0:0:0:0:
256,192,111130,1,0,0:0:0:0:
402,192,111130,1,0,0:0:0:0:
36,192,111130,1,0,0:0:0:0:
182,192,111218,128,0,111307:0:0:0:0:
109,192,111218,128,0,111307:0:0:0:0:
329,192,111307,128,0,111395:0:0:0:0:
402,192,111307,128,0,111395:0:0:0:0:
475,192,111395,128,0,111483:0:0:0:0:
109,192,111395,128,0,111483:0:0:0:0:
256,192,111483,1,0,0:0:0:0:
329,192,111483,1,0,0:0:0:0:
182,192,111483,1,0,0:0:0:0:
36,192,111483,1,0,0:0:0:0:
109,192,111571,128,0,111660:0:0:0:0:
402,192,111571,128,0,111660:0:0:0:0:
475,192,111660,128,0,111748:0:0:0:0:
256,192,111660,128,0,111748:0:0:0:0:
182,192,111748,128,0,111836:0:0:0:0:
402,192,111748,128,0,111836:0:0:0:0:
329,192,111836,1,0,0:0:0:0:
109,192,111836,1,0,0:0:0:0:
36,192,111836,1,0,0:0:0:0:
256,192,111924,128,0,112012:0:0:0:0:
182,192,111924,128,0,112012:0:0:0:0:
329,192,112012,128,0,112101:0:0:0:0:
402,192,112012,128,0,112101:0:0:0:0:
475,192,112101,128,0,112189:0:0:0:0:
256,192,112101,128,0,112189:0:0:0:0:
402,192,112189,1,0,0:0:0:0:
182,192,112189,1,0,0:0:0:0:
109,192,112189,1,0,0:0:0:0:
36,192,112189,1,0,0:0:0:0:
329,192,112277,128,0,112365:0:0:0:0:
475,192,112277,128,0,112365:0:0:0:0:
256,192,112365,128,0,112454:0:0:0:0:
182,192,112365,128,0,112454:0:0:0:0:
109,192,112454,128,0,112542:0:0:0:0:
329,192,112454,128,0,112542:0:0:0:0:
256,192,112542,1,0,0:0:0:0:
402,192,112542,1,0,0:0:0:0:
36,192,112542,1,0,0:0:0:0:
182,192,112630,128,0,112718:0:0:0:0:
109,192,112630,128,0,112718:0:0:0:0:
329,192,112718,128,0,112807:0:0:0:0:
402,192,112718,128,0,112807:0:0:0:0:
475,192,112807,128,0,112895:0:0:0:0:
182,192,112807,128,0,112895:0:0:0:0:
256,192,112895,1,0,0:0:0:0:
329,192,112895,1,0,0:0:0:0:
109,192,112895,1,0,0:0:0:0:
36,192,112895,1,0,0:0:0:0:
402,192,112983,128,0,113071:0:0:0:0:
475,192,112983,128,0,113071:0:0:0:0:
256,192,113071,128,0,113160:0:0:0:0:
182,192,113071,128,0,113160:0:0:0:0:
109,192,113160,128,0,113248:0:0:0:0:
402,192,113160,128,0,113248:0:0:0:0:
329,192,113248,1,0,0:0:0:0:
182,192,113248,1,0,0:0:0:0:
475,192,113248,1,0,0:0:0:0:
256,192,113248,1,0,0:0:0:0:
36,192,113248,1,0,0:0:0:0:
109,192,113336,1,0,0:0:0:0:
402,192,113336,1,0,0:0:0:0:
182,192,113424,1,0,0:0:0:0:
329,192,113424,1,0,0:0:0:0:
402,192,113483,1,0,0:0:0:0:
109,192,113483,1,0,0:0:0:0:
475,192,113542,1,0,0:0:0:0:
36,192,113542,1,0,0:0:0:0:
329,192,113601,128,0,113777:0:0:0:0:
182,192,113601,128,0,113777:0:0:0:0:
256,192,113601,128,0,113777:0:0:0:0:
402,192,113777,128,0,113865:0:0:0:0:
109,192,113777,128,0,113865:0:0:0:0:
36,192,113865,128,0,113954:0:0:0:0:
475,192,113865,128,0,113954:0:0:0:0:
402,192,113954,128,0,114042:0:0:0:0:
329,192,113954,128,0,114042:0:0:0:0:
256,192,113954,128,0,114042:0:0:0:0:
109,192,113954,128,0,114042:0:0:0:0:
182,192,114042,128,0,114130:0:0:0:0:
36,192,114042,128,0,114130:0:0:0:0:
109,192,114130,128,0,114218:0:0:0:0:
256,192,114130,128,0,114218:0:0:0:0:
329,192,114218,128,0,114307:0:0:0:0:
182,192,114218,128,0,114307:0:0:0:0:
256,192,114307,128,0,114395:0:0:0:0:
402,192,114307,128,0,114395:0:0:0:0:
475,192,114307,128,0,114395:0:0:0:0:
36,192,114307,128,0,114395:0:0:0:0:
329,192,114395,128,0,114483:0:0:0:0:
109,192,114395,128,0,114483:0:0:0:0:
182,192,114483,128,0,114571:0:0:0:0:
402,192,114483,128,0,114571:0:0:0:0:
256,192,114571,128,0,114660:0:0:0:0:
109,192,114571,128,0,114660:0:0:0:0:
182,192,114660,128,0,114748:0:0:0:0:
329,192,114660,128,0,114748:0:0:0:0:
475,192,114660,128,0,114748:0:0:0:0:
36,192,114660,128,0,114748:0:0:0:0:
256,192,114748,128,0,114836:0:0:0:0:
402,192,114748,128,0,114836:0:0:0:0:
329,192,114836,128,0,114924:0:0:0:0:
109,192,114836,128,0,114924:0:0:0:0:
36,192,114924,128,0,115012:0:0:0:0:
402,192,114924,128,0,115012:0:0:0:0:
475,192,115012,128,0,115101:0:0:0:0:
256,192,115012,128,0,115101:0:0:0:0:
182,192,115012,128,0,115101:0:0:0:0:
109,192,115012,128,0,115101:0:0:0:0:
329,192,115101,128,0,115189:0:0:0:0:
36,192,115101,128,0,115189:0:0:0:0:
402,192,115189,128,0,115277:0:0:0:0:
182,192,115189,128,0,115277:0:0:0:0:
256,192,115277,128,0,115365:0:0:0:0:
329,192,115277,128,0,115365:0:0:0:0:
402,192,115365,128,0,115454:0:0:0:0:
475,192,115365,128,0,115454:0:0:0:0:
109,192,115365,128,0,115454:0:0:0:0:
36,192,115365,128,0,115454:0:0:0:0:
182,192,115454,128,0,115542:0:0:0:0:
256,192,115454,128,0,115542:0:0:0:0:
329,192,115542,128,0,115630:0:0:0:0:
109,192,115542,128,0,115630:0:0:0:0:
402,192,115630,128,0,115718:0:0:0:0:
182,192,115630,128,0,115718:0:0:0:0:
36,192,115718,128,0,115807:0:0:0:0:
256,192,115718,128,0,115807:0:0:0:0:
329,192,115718,128,0,115807:0:0:0:0:
475,192,115718,128,0,115807:0:0:0:0:
402,192,115807,128,0,115895:0:0:0:0:
109,192,115807,128,0,115895:0:0:0:0:
182,192,115895,128,0,115983:0:0:0:0:
256,192,115895,128,0,115983:0:0:0:0:
109,192,115983,128,0,116071:0:0:0:0:
36,192,115983,128,0,116071:0:0:0:0:
182,192,116071,128,0,116160:0:0:0:0:
329,192,116071,128,0,116160:0:0:0:0:
402,192,116071,128,0,116160:0:0:0:0:
475,192,116071,128,0,116160:0:0:0:0:
256,192,116160,128,0,116248:0:0:0:0:
36,192,116160,128,0,116248:0:0:0:0:
109,192,116248,128,0,116336:0:0:0:0:
475,192,116248,128,0,116336:0:0:0:0:
256,192,116336,128,0,116424:0:0:0:0:
329,192,116336,128,0,116424:0:0:0:0:
402,192,116424,128,0,116512:0:0:0:0:
182,192,116424,128,0,116512:0:0:0:0:
109,192,116424,128,0,116512:0:0:0:0:
36,192,116424,128,0,116512:0:0:0:0:
475,192,116512,128,0,116601:0:0:0:0:
329,192,116512,128,0,116601:0:0:0:0:
182,192,116601,128,0,116777:0:0:0:0:
402,192,116601,128,0,116689:0:0:0:0:
256,192,116601,128,0,116689:0:0:0:0:
475,192,116689,128,0,116777:0:0:0:0:
109,192,116689,128,0,116777:0:0:0:0:
256,192,116777,128,0,116865:0:0:0:0:
329,192,116777,128,0,116865:0:0:0:0:
402,192,116777,128,0,116865:0:0:0:0:
36,192,116777,128,0,116865:0:0:0:0:
109,192,116865,128,0,116954:0:0:0:0:
475,192,116865,128,0,116954:0:0:0:0:
182,192,116954,128,0,117042:0:0:0:0:
329,192,116954,128,0,117042:0:0:0:0:
256,192,117042,128,0,117130:0:0:0:0:
109,192,117042,128,0,117130:0:0:0:0:
182,192,117130,128,0,117218:0:0:0:0:
36,192,117130,128,0,117218:0:0:0:0:
402,192,117130,128,0,117218:0:0:0:0:
475,192,117130,128,0,117218:0:0:0:0:
256,192,117218,128,0,117307:0:0:0:0:
329,192,117218,128,0,117307:0:0:0:0:
402,192,117307,128,0,117395:0:0:0:0:
109,192,117307,128,0,117395:0:0:0:0:
182,192,117395,128,0,117483:0:0:0:0:
329,192,117395,128,0,117483:0:0:0:0:
256,192,117483,128,0,117571:0:0:0:0:
109,192,117483,128,0,117571:0:0:0:0:
36,192,117483,128,0,117571:0:0:0:0:
475,192,117483,128,0,117571:0:0:0:0:
182,192,117571,128,0,117660:0:0:0:0:
402,192,117571,128,0,117660:0:0:0:0:
329,192,117660,128,0,117748:0:0:0:0:
256,192,117660,128,0,117748:0:0:0:0:
402,192,117748,128,0,117836:0:0:0:0:
475,192,117748,128,0,117836:0:0:0:0:
329,192,117836,128,0,117924:0:0:0:0:
182,192,117836,128,0,117924:0:0:0:0:
109,192,117836,128,0,117924:0:0:0:0:
36,192,117836,128,0,117924:0:0:0:0:
256,192,117924,128,0,118012:0:0:0:0:
475,192,117924,128,0,118012:0:0:0:0:
402,192,118012,128,0,118101:0:0:0:0:
109,192,118012,128,0,118101:0:0:0:0:
256,192,118101,128,0,118189:0:0:0:0:
329,192,118101,128,0,118189:0:0:0:0:
182,192,118189,128,0,118277:0:0:0:0:
36,192,118189,128,0,118277:0:0:0:0:
402,192,118189,128,0,118277:0:0:0:0:
475,192,118189,128,0,118277:0:0:0:0:
109,192,118277,128,0,118365:0:0:0:0:
329,192,118277,128,0,118365:0:0:0:0:
256,192,118365,128,0,118454:0:0:0:0:
182,192,118365,128,0,118454:0:0:0:0:
109,192,118454,128,0,118542:0:0:0:0:
402,192,118454,128,0,118542:0:0:0:0:
36,192,118542,128,0,118630:0:0:0:0:
475,192,118542,128,0,118630:0:0:0:0:
329,192,118542,128,0,118630:0:0:0:0:
256,192,118542,128,0,118630:0:0:0:0:
182,192,118630,128,0,118718:0:0:0:0:
402,192,118630,128,0,118718:0:0:0:0:
329,192,118718,128,0,118807:0:0:0:0:
109,192,118718,128,0,118807:0:0:0:0:
182,192,118807,128,0,118895:0:0:0:0:
256,192,118807,128,0,118895:0:0:0:0:
109,192,118895,128,0,118983:0:0:0:0:
36,192,118895,128,0,118983:0:0:0:0:
402,192,118895,128,0,118983:0:0:0:0:
475,192,118895,128,0,118983:0:0:0:0:
256,192,118983,128,0,119071:0:0:0:0:
329,192,118983,128,0,119071:0:0:0:0:
182,192,119071,128,0,119160:0:0:0:0:
36,192,119071,128,0,119160:0:0:0:0:
109,192,119160,128,0,119248:0:0:0:0:
329,192,119160,128,0,119248:0:0:0:0:
256,192,119248,128,0,119336:0:0:0:0:
182,192,119248,128,0,119336:0:0:0:0:
402,192,119248,128,0,119336:0:0:0:0:
475,192,119248,128,0,119336:0:0:0:0:
109,192,119336,128,0,119424:0:0:0:0:
36,192,119336,128,0,119424:0:0:0:0:
256,192,119424,128,0,119512:0:0:0:0:
329,192,119424,128,0,119512:0:0:0:0:
475,192,119512,128,0,119601:0:0:0:0:
36,192,119512,128,0,119601:0:0:0:0:
402,192,119601,128,0,119689:0:0:0:0:
329,192,119601,128,0,119689:0:0:0:0:
182,192,119601,128,0,119689:0:0:0:0:
109,192,119601,128,0,119689:0:0:0:0:
256,192,119689,128,0,119777:0:0:0:0:
475,192,119689,128,0,119777:0:0:0:0:
402,192,119777,128,0,119865:0:0:0:0:
182,192,119777,128,0,119865:0:0:0:0:
36,192,119777,128,0,119865:0:0:0:0:
256,192,119865,128,0,119954:0:0:0:0:
109,192,119865,128,0,119954:0:0:0:0:
36,192,119954,128,0,120042:0:0:0:0:
182,192,119954,128,0,120042:0:0:0:0:
329,192,119954,128,0,120042:0:0:0:0:
475,192,119954,128,0,120042:0:0:0:0:
109,192,120042,128,0,120130:0:0:0:0:
402,192,120042,128,0,120130:0:0:0:0:
329,192,120130,128,0,120218:0:0:0:0:
256,192,120130,128,0,120218:0:0:0:0:
475,192,120130,128,0,120218:0:0:0:0:
402,192,120218,128,0,120307:0:0:0:0:
182,192,120218,128,0,120307:0:0:0:0:
329,192,120307,128,0,120395:0:0:0:0:
256,192,120307,128,0,120395:0:0:0:0:
109,192,120307,128,0,120395:0:0:0:0:
36,192,120307,128,0,120395:0:0:0:0:
182,192,120395,128,0,120483:0:0:0:0:
475,192,120395,128,0,120483:0:0:0:0:
256,192,120483,128,0,120571:0:0:0:0:
402,192,120483,128,0,120571:0:0:0:0:
36,192,120483,128,0,120571:0:0:0:0:
109,192,120571,128,0,120660:0:0:0:0:
475,192,120571,128,0,120660:0:0:0:0:
402,192,120660,128,0,120748:0:0:0:0:
329,192,120660,128,0,120748:0:0:0:0:
182,192,120660,128,0,120748:0:0:0:0:
36,192,120660,128,0,120748:0:0:0:0:
256,192,120748,128,0,120836:0:0:0:0:
109,192,120748,128,0,120836:0:0:0:0:
182,192,120836,128,0,120924:0:0:0:0:
329,192,120836,128,0,120924:0:0:0:0:
475,192,120836,128,0,120924:0:0:0:0:
256,192,120924,128,0,121012:0:0:0:0:
402,192,120924,128,0,121012:0:0:0:0:
475,192,121012,128,0,121101:0:0:0:0:
329,192,121012,128,0,121101:0:0:0:0:
109,192,121012,128,0,121101:0:0:0:0:
36,192,121012,128,0,121101:0:0:0:0:
182,192,121101,128,0,121189:0:0:0:0:
256,192,121189,128,0,121277:0:0:0:0:
402,192,121189,128,0,121277:0:0:0:0:
109,192,121189,128,0,121277:0:0:0:0:
329,192,121277,128,0,121365:0:0:0:0:
182,192,121365,128,0,121454:0:0:0:0:
256,192,121365,128,0,121454:0:0:0:0:
475,192,121365,128,0,121454:0:0:0:0:
36,192,121365,128,0,121454:0:0:0:0:
109,192,121454,128,0,121542:0:0:0:0:
182,192,121542,128,0,121630:0:0:0:0:
329,192,121542,128,0,121630:0:0:0:0:
402,192,121542,128,0,121630:0:0:0:0:
256,192,121630,128,0,121718:0:0:0:0:
402,192,121718,128,0,121807:0:0:0:0:
475,192,121718,128,0,121807:0:0:0:0:
36,192,121718,128,0,121807:0:0:0:0:
109,192,121718,128,0,121807:0:0:0:0:
329,192,121807,128,0,121895:0:0:0:0:
256,192,121895,128,0,121983:0:0:0:0:
182,192,121895,128,0,121983:0:0:0:0:
36,192,121895,128,0,121983:0:0:0:0:
109,192,121983,128,0,122071:0:0:0:0:
329,192,122071,128,0,122336:0:0:0:0:
475,192,122071,128,0,122336:0:0:0:0:
36,192,122248,128,0,122336:0:0:0:0:
182,192,122248,128,0,122336:0:0:0:0:
256,192,122424,1,0,0:0:0:0:
109,192,122424,1,0,0:0:0:0:
182,192,122512,1,0,0:0:0:0:
329,192,122512,1,0,0:0:0:0:
256,192,122601,1,0,0:0:0:0:
402,192,122601,1,0,0:0:0:0:
36,192,122601,1,0,0:0:0:0:
329,192,122689,1,0,0:0:0:0:
475,192,122689,1,0,0:0:0:0:
402,192,122777,1,0,0:0:0:0:
256,192,122777,1,0,0:0:0:0:
329,192,122865,1,0,0:0:0:0:
182,192,122865,1,0,0:0:0:0:
256,192,122954,1,0,0:0:0:0:
109,192,122954,1,0,0:0:0:0:
475,192,122954,1,0,0:0:0:0:
182,192,123042,1,0,0:0:0:0:
36,192,123042,1,0,0:0:0:0:
109,192,123130,1,0,0:0:0:0:
256,192,123130,1,0,0:0:0:0:
182,192,123218,1,0,0:0:0:0:
329,192,123218,1,0,0:0:0:0:
256,192,123307,1,0,0:0:0:0:
402,192,123307,1,0,0:0:0:0:
36,192,123307,1,0,0:0:0:0:
329,192,123395,1,0,0:0:0:0:
475,192,123395,1,0,0:0:0:0:
402,192,123483,1,0,0:0:0:0:
256,192,123483,1,0,0:0:0:0:
329,192,123571,1,0,0:0:0:0:
182,192,123571,1,0,0:0:0:0:
256,192,123660,1,0,0:0:0:0:
109,192,123660,1,0,0:0:0:0:
475,192,123660,1,0,0:0:0:0:
36,192,123748,1,0,0:0:0:0:
182,192,123748,1,0,0:0:0:0:
109,192,123836,1,0,0:0:0:0:
256,192,123836,1,0,0:0:0:0:
329,192,123924,1,0,0:0:0:0:
402,192,124012,1,0,0:0:0:0:
475,192,124101,1,0,0:0:0:0:
182,192,124189,1,0,0:0:0:0:
36,192,124189,1,0,0:0:0:0:
256,192,124277,1,0,0:0:0:0:
329,192,124365,1,0,0:0:0:0:
402,192,124454,1,0,0:0:0:0:
109,192,124542,1,0,0:0:0:0:
36,192,124542,1,0,0:0:0:0:
182,192,124630,1,0,0:0:0:0:
256,192,124718,1,0,0:0:0:0:
329,192,124807,1,0,0:0:0:0:
36,192,124895,1,0,0:0:0:0:
475,192,124895,1,0,0:0:0:0:
109,192,124983,1,0,0:0:0:0:
182,192,125071,1,0,0:0:0:0:
329,192,125071,1,0,0:0:0:0:
475,192,125071,1,0,0:0:0:0:
256,192,125160,1,0,0:0:0:0:
402,192,125160,1,0,0:0:0:0:
109,192,125160,1,0,0:0:0:0:
329,192,125248,1,0,0:0:0:0:
475,192,125248,1,0,0:0:0:0:
182,192,125248,1,0,0:0:0:0:
36,192,125248,1,0,0:0:0:0:
475,192,125336,1,0,0:0:0:0:
329,192,125336,1,0,0:0:0:0:
256,192,125424,1,0,0:0:0:0:
109,192,125424,1,0,0:0:0:0:
182,192,125512,1,0,0:0:0:0:
256,192,125601,1,0,0:0:0:0:
329,192,125623,1,0,0:0:0:0:
402,192,125645,1,0,0:0:0:0:
475,192,125667,1,0,0:0:0:0:
36,192,125689,1,0,0:0:0:0:
109,192,125777,1,0,0:0:0:0:
256,192,125777,1,0,0:0:0:0:
182,192,125777,1,0,0:0:0:0:
329,192,125799,1,0,0:0:0:0:
402,192,125821,1,0,0:0:0:0:
109,192,125865,1,0,0:0:0:0:
182,192,125865,1,0,0:0:0:0:
475,192,125954,1,0,0:0:0:0:
402,192,125954,1,0,0:0:0:0:
329,192,125983,1,0,0:0:0:0:
36,192,125983,1,0,0:0:0:0:
475,192,126130,1,0,0:0:0:0:
256,192,126218,1,0,0:0:0:0:
402,192,126307,1,0,0:0:0:0:
109,192,126307,1,0,0:0:0:0:
36,192,126307,1,0,0:0:0:0:
182,192,126329,1,0,0:0:0:0:
329,192,126351,1,0,0:0:0:0:
475,192,126483,1,0,0:0:0:0:
182,192,126571,1,0,0:0:0:0:
402,192,126660,1,0,0:0:0:0:
109,192,126660,1,0,0:0:0:0:
109,192,126748,1,0,0:0:0:0:
402,192,126748,1,0,0:0:0:0:
182,192,126836,1,0,0:0:0:0:
329,192,126836,1,0,0:0:0:0:
256,192,126924,1,0,0:0:0:0:
36,192,127012,1,0,0:0:0:0:
475,192,127035,1,0,0:0:0:0:
109,192,127057,1,0,0:0:0:0:
402,192,127079,1,0,0:0:0:0:
329,192,127101,1,0,0:0:0:0:
182,192,127189,1,0,0:0:0:0:
256,192,127189,1,0,0:0:0:0:
402,192,127211,1,0,0:0:0:0:
475,192,127233,1,0,0:0:0:0:
182,192,127277,1,0,0:0:0:0:
256,192,127277,1,0,0:0:0:0:
109,192,127365,1,0,0:0:0:0:
475,192,127365,1,0,0:0:0:0:
329,192,127395,1,0,0:0:0:0:
402,192,127395,1,0,0:0:0:0:
36,192,127542,1,0,0:0:0:0:
182,192,127586,1,0,0:0:0:0:
329,192,127630,1,0,0:0:0:0:
475,192,127674,1,0,0:0:0:0:
256,192,127718,1,0,0:0:0:0:
182,192,127740,1,0,0:0:0:0:
109,192,127762,1,0,0:0:0:0:
36,192,127785,1,0,0:0:0:0:
329,192,127807,1,0,0:0:0:0:
256,192,127829,1,0,0:0:0:0:
182,192,127851,1,0,0:0:0:0:
109,192,127873,1,0,0:0:0:0:
402,192,127895,1,0,0:0:0:0:
329,192,127917,1,0,0:0:0:0:
256,192,127939,1,0,0:0:0:0:
182,192,127961,1,0,0:0:0:0:
475,192,127983,1,0,0:0:0:0:
402,192,128005,1,0,0:0:0:0:
329,192,128027,1,0,0:0:0:0:
256,192,128049,1,0,0:0:0:0:
36,192,128071,1,0,0:0:0:0:
182,192,128071,1,0,0:0:0:0:
109,192,128071,1,0,0:0:0:0:
109,192,128160,1,0,0:0:0:0:
36,192,128160,1,0,0:0:0:0:
329,192,128248,1,0,0:0:0:0:
256,192,128248,1,0,0:0:0:0:
402,192,128336,1,0,0:0:0:0:
475,192,128424,1,0,0:0:0:0:
329,192,128446,1,0,0:0:0:0:
182,192,128468,1,0,0:0:0:0:
36,192,128490,1,0,0:0:0:0:
256,192,128512,1,0,0:0:0:0:
402,192,128601,1,0,0:0:0:0:
109,192,128601,1,0,0:0:0:0:
475,192,128601,1,0,0:0:0:0:
182,192,128623,1,0,0:0:0:0:
36,192,128645,1,0,0:0:0:0:
402,192,128689,1,0,0:0:0:0:
475,192,128689,1,0,0:0:0:0:
329,192,128777,1,0,0:0:0:0:
109,192,128777,1,0,0:0:0:0:
182,192,128807,1,0,0:0:0:0:
256,192,128807,1,0,0:0:0:0:
36,192,128954,1,0,0:0:0:0:
182,192,129042,1,0,0:0:0:0:
475,192,129130,1,0,0:0:0:0:
329,192,129130,1,0,0:0:0:0:
109,192,129130,1,0,0:0:0:0:
256,192,129152,1,0,0:0:0:0:
402,192,129174,1,0,0:0:0:0:
182,192,129307,1,0,0:0:0:0:
256,192,129395,1,0,0:0:0:0:
402,192,129483,1,0,0:0:0:0:
329,192,129483,1,0,0:0:0:0:
329,192,129571,1,0,0:0:0:0:
402,192,129571,1,0,0:0:0:0:
182,192,129660,1,0,0:0:0:0:
109,192,129660,1,0,0:0:0:0:
256,192,129748,1,0,0:0:0:0:
475,192,129836,1,0,0:0:0:0:
402,192,129858,1,0,0:0:0:0:
36,192,129880,1,0,0:0:0:0:
109,192,129902,1,0,0:0:0:0:
256,192,129924,1,0,0:0:0:0:
329,192,130012,1,0,0:0:0:0:
402,192,130035,1,0,0:0:0:0:
475,192,130057,1,0,0:0:0:0:
182,192,130101,1,0,0:0:0:0:
329,192,130189,1,0,0:0:0:0:
36,192,130189,1,0,0:0:0:0:
182,192,130218,1,0,0:0:0:0:
109,192,130218,1,0,0:0:0:0:
256,192,130233,1,0,0:0:0:0:
256,192,130365,1,0,0:0:0:0:
36,192,130410,1,0,0:0:0:0:
402,192,130542,1,0,0:0:0:0:
36,192,130542,1,0,0:0:0:0:
256,192,130586,1,0,0:0:0:0:
402,192,130718,1,0,0:0:0:0:
256,192,130718,1,0,0:0:0:0:
36,192,130762,1,0,0:0:0:0:
329,192,130895,1,0,0:0:0:0:
475,192,130895,1,0,0:0:0:0:
109,192,130895,1,0,0:0:0:0:
182,192,130895,1,0,0:0:0:0:
329,192,130983,1,0,0:0:0:0:
182,192,130983,1,0,0:0:0:0:
402,192,131071,1,0,0:0:0:0:
36,192,131071,1,0,0:0:0:0:
256,192,131160,1,0,0:0:0:0:
329,192,131248,1,0,0:0:0:0:
182,192,131270,1,0,0:0:0:0:
109,192,131292,1,0,0:0:0:0:
36,192,131314,1,0,0:0:0:0:
402,192,131336,1,0,0:0:0:0:
329,192,131424,1,0,0:0:0:0:
475,192,131424,1,0,0:0:0:0:
256,192,131424,1,0,0:0:0:0:
36,192,131446,1,0,0:0:0:0:
109,192,131468,1,0,0:0:0:0:
329,192,131512,1,0,0:0:0:0:
256,192,131512,1,0,0:0:0:0:
182,192,131601,1,0,0:0:0:0:
402,192,131601,1,0,0:0:0:0:
475,192,131630,1,0,0:0:0:0:
36,192,131630,1,0,0:0:0:0:
256,192,131689,1,0,0:0:0:0:
329,192,131777,1,0,0:0:0:0:
109,192,131865,1,0,0:0:0:0:
182,192,131954,1,0,0:0:0:0:
402,192,131954,1,0,0:0:0:0:
475,192,131954,1,0,0:0:0:0:
329,192,131976,1,0,0:0:0:0:
256,192,131998,1,0,0:0:0:0:
36,192,132130,1,0,0:0:0:0:
475,192,132218,1,0,0:0:0:0:
329,192,132307,1,0,0:0:0:0:
109,192,132307,1,0,0:0:0:0:
109,192,132395,1,0,0:0:0:0:
329,192,132395,1,0,0:0:0:0:
402,192,132483,1,0,0:0:0:0:
256,192,132483,1,0,0:0:0:0:
182,192,132571,1,0,0:0:0:0:
475,192,132660,1,0,0:0:0:0:
329,192,132682,1,0,0:0:0:0:
256,192,132704,1,0,0:0:0:0:
182,192,132726,1,0,0:0:0:0:
36,192,132748,1,0,0:0:0:0:
402,192,132836,1,0,0:0:0:0:
475,192,132836,1,0,0:0:0:0:
109,192,132858,1,0,0:0:0:0:
36,192,132880,1,0,0:0:0:0:
475,192,132924,1,0,0:0:0:0:
402,192,132924,1,0,0:0:0:0:
329,192,133012,1,0,0:0:0:0:
182,192,133012,1,0,0:0:0:0:
256,192,133042,1,0,0:0:0:0:
109,192,133042,1,0,0:0:0:0:
402,192,133189,1,0,0:0:0:0:
36,192,133189,1,0,0:0:0:0:
475,192,133189,1,0,0:0:0:0:
329,192,133365,1,0,0:0:0:0:
109,192,133365,1,0,0:0:0:0:
36,192,133542,1,0,0:0:0:0:
402,192,133542,1,0,0:0:0:0:
