osu file format v14

[General]
AudioFilename: audio.mp3
AudioLeadIn: 0
PreviewTime: 110831
Countdown: 1
SampleSet: Normal
StackLeniency: 0.7
Mode: 0
LetterboxInBreaks: 0
WidescreenStoryboard: 0

[Editor]
DistanceSpacing: 1
BeatDivisor: 4
GridSize: 4
TimelineZoom: 2.2

[Metadata]
Title:Bloodlip
TitleUnicode:Bloodlip
Artist:Matduke & Veela
ArtistUnicode:Matduke & Veela
Creator:Trust
Version:Vicious
Source:
Tags:english electronic monstercat 007 solace progressive house
BeatmapID:1552820
BeatmapSetID:735660

[Difficulty]
HPDrainRate:6
CircleSize:4
OverallDifficulty:7
ApproachRate:8
SliderMultiplier:1.6
SliderTickRate:1

[Events]
//Background and Video events
0,0,"bldlip.jpg",0,0
//Break Periods
//Storyboard Layer 0 (Background)
//Storyboard Layer 1 (Fail)
//Storyboard Layer 2 (Pass)
//Storyboard Layer 3 (Foreground)
//Storyboard Layer 4 (Overlay)
//Storyboard Sound Samples

[TimingPoints]
57,461.538461538462,4,2,0,50,1,0
14133,-100,4,2,0,30,0,0
14364,-100,4,2,0,20,0,0
14826,-166.666666666667,4,2,0,50,0,0
29595,-125,4,2,0,50,0,0
44364,-90.9090909090909,4,1,1,50,0,0
47826,-90.9090909090909,4,1,1,20,0,0
48057,-90.9090909090909,4,1,1,70,0,0
51518,-90.9090909090909,4,1,1,20,0,0
51749,-90.9090909090909,4,1,1,70,0,0
52787,-90.9090909090909,4,1,1,50,0,0
52903,-90.9090909090909,4,1,1,70,0,0
53710,-90.9090909090909,4,1,1,50,0,0
53826,-90.9090909090909,4,1,1,70,0,0
54633,-90.9090909090909,4,1,1,50,0,0
54749,-90.9090909090909,4,1,1,70,0,0
55210,-90.9090909090909,4,1,1,20,0,0
55441,-90.9090909090909,4,1,1,70,0,0
73903,-90.9090909090909,4,1,1,65,0,0
96057,-90.9090909090909,4,1,1,55,0,0
103441,-86.9565217391304,4,1,1,70,0,0
106903,-86.9565217391304,4,1,1,20,0,0
107133,-86.9565217391304,4,1,1,70,0,0
110595,-86.9565217391304,4,1,1,20,0,0
110826,-86.9565217391304,4,1,1,60,0,0
114287,-86.9565217391304,4,1,1,20,0,0
114518,-86.9565217391304,4,1,1,70,0,0
117980,-86.9565217391304,4,1,1,20,0,0
118210,-86.9565217391304,4,1,1,70,0,0
134364,-142.857142857143,4,2,1,40,0,0
147749,-142.857142857143,4,2,0,60,0,0
162518,-125,4,2,0,60,0,0
184672,-125,4,1,1,50,0,0
192057,-100,4,1,1,60,0,0
199441,-95.2380952380952,4,1,1,65,0,0
206826,-95.2380952380952,4,1,1,70,0,1
228980,-95.2380952380952,4,1,1,70,0,0
229095,-95.2380952380952,4,2,0,70,0,0
229903,-95.2380952380952,4,2,0,50,0,0
230826,-95.2380952380952,4,2,0,40,0,0
236364,-95.2380952380952,4,2,0,50,0,0
251133,-333.333333333333,4,2,1,50,0,0
255057,-333.333333333333,4,2,1,5,0,0

[Colours]
Combo1 : 202,241,244
Combo2 : 213,250,209
Combo3 : 252,188,203
Combo4 : 241,227,255

[HitObjects]
267,192,57,6,0,P|319:168|391:172,1,120,4|0,0:0|0:0,0:0:0:0:
409,178,518,1,8,0:0:0:0:
214,275,749,2,0,P|173:218|197:124,1,160
53,191,1441,1,8,0:0:0:0:
159,34,1672,1,0,0:0:0:0:
159,34,1787,1,0,0:0:0:0:
159,34,1903,6,0,L|302:20,1,120,2|0,0:0|0:0,0:0:0:0:
305,20,2364,1,8,0:0:0:0:
465,58,2595,2,0,P|426:109|330:111,1,160
465,58,3287,1,8,0:0:0:0:
349,201,3518,1,0,0:0:0:0:
349,201,3633,1,0,0:0:0:0:
349,201,3749,6,0,L|332:330,1,120,2|0,0:0|0:0,0:0:0:0:
329,346,4210,1,8,0:0:0:0:
105,294,4441,2,0,P|179:244|244:263,1,160
88,128,5133,1,8,0:0:0:0:
188,92,5364,1,0,0:0:0:0:
188,92,5480,1,0,0:0:0:0:
188,92,5595,6,0,P|240:116|320:93,1,120,2|0,0:0|0:0,0:0:0:0:
328,93,6057,1,8,0:0:0:0:
511,209,6287,2,0,P|431:159|349:197,1,160
221,291,6980,1,8,0:0:0:0:
133,252,7210,1,0,0:0:0:0:
48,207,7441,6,0,L|43:81,1,120,4|0,0:0|0:0,0:0:0:0:
43,60,7903,1,8,0:0:0:0:
286,0,8133,2,0,P|214:51|128:22,1,160
349,115,8826,1,8,0:0:0:0:
415,41,9057,1,0,0:0:0:0:
415,41,9172,1,0,0:0:0:0:
415,41,9287,6,0,P|448:97|435:163,1,120,2|0,0:0|0:0,0:0:0:0:
431,180,9749,1,8,0:0:0:0:
359,359,9980,2,0,P|321:287|352:207,1,160
473,88,10672,1,8,0:0:0:0:
384,36,10903,1,0,0:0:0:0:
384,36,11018,1,0,0:0:0:0:
384,36,11133,6,0,L|247:62,1,120,4|0,0:0|0:0,0:0:0:0:
239,65,11595,1,8,0:0:0:0:
157,14,11826,1,0,0:0:0:0:
109,242,12057,6,0,P|112:169|155:125,1,120,4|0,0:0|0:0,0:0:0:0:
168,120,12518,1,8,0:0:0:0:
77,83,12749,1,0,0:0:0:0:
201,212,12980,6,0,L|335:198,1,120,4|0,0:0|0:0,0:0:0:0:
351,197,13441,1,8,0:0:0:0:
447,275,13672,1,0,0:0:0:0:
447,275,13787,1,0,0:0:0:0:
447,275,13903,6,0,P|463:323|461:348,1,40,2|0,0:0|0:0,0:0:0:0:
384,322,14133,2,0,P|382:341|377:361,1,40
306,326,14364,2,0,P|267:347|255:349,3,40
240,355,14826,6,0,P|212:296|216:248,1,95.9999970703126,4|0,0:0|0:0,0:0:0:0:
138,162,15518,1,0,0:0:0:0:
204,108,15749,2,0,P|219:142|229:172,1,47.9999985351563
138,162,16210,1,0,0:0:0:0:
272,64,16441,6,0,P|300:128|312:168,1,95.9999970703126
169,292,17364,1,0,0:0:0:0:
241,266,17595,1,2,0:0:0:0:
310,298,17826,1,0,0:0:0:0:
364,352,18057,1,0,0:0:0:0:
431,316,18287,1,0,0:0:0:0:
504,190,18518,6,0,P|427:187|397:162,1,95.9999970703126,2|0,0:0|0:0,0:0:0:0:
299,67,19210,1,0,0:0:0:0:
417,27,19441,2,0,P|377:62|371:70,1,47.9999985351563,2|0,0:0|0:0,0:0:0:0:
349,130,19903,1,0,0:0:0:0:
208,86,20133,6,0,P|258:64|308:70,1,95.9999970703126
468,160,21057,1,0,0:0:0:0:
427,226,21287,1,2,0:0:0:0:
441,302,21518,1,0,0:0:0:0:
505,345,21749,1,0,0:0:0:0:
320,304,22210,6,0,P|278:308|235:325,1,71.9999978027344,2|0,0:0|0:0,0:0:0:0:
236,324,22672,1,0,0:0:0:0:
187,257,22903,1,0,0:0:0:0:
220,132,23133,2,0,L|204:200,1,47.9999985351563,2|0,0:0|0:0,0:0:0:0:
187,257,23595,1,0,0:0:0:0:
17,294,23826,6,0,L|131:271,1,95.9999970703126
334,143,24749,1,0,0:0:0:0:
263,175,24980,1,2,0:0:0:0:
190,151,25210,1,0,0:0:0:0:
163,78,25441,1,0,0:0:0:0:
209,16,25672,1,0,0:0:0:0:
334,143,25903,6,0,L|328:236,1,71.9999978027344,2|0,0:0|0:0,0:0:0:0:
327,232,26364,1,0,0:0:0:0:
388,276,26595,1,0,0:0:0:0:
441,222,26826,2,0,L|432:162,1,47.9999985351563,2|0,0:0|0:0,0:0:0:0:
485,117,27287,1,0,0:0:0:0:
327,232,27518,6,0,P|276:241|230:220,1,95.9999970703126
121,27,28441,1,0,0:0:0:0:
156,95,28672,1,2,0:0:0:0:
121,163,28903,1,0,0:0:0:0:
67,217,29133,1,0,0:0:0:0:
50,291,29364,1,0,0:0:0:0:
83,360,29595,6,0,P|163:337|180:344,1,96,4|0,0:0|0:0,0:0:0:0:
201,350,30057,1,0,0:0:0:0:
265,281,30287,1,0,0:0:0:0:
352,313,30518,2,0,P|415:299|441:294,1,64,2|0,0:0|0:0,0:0:0:0:
201,350,30980,1,0,0:0:0:0:
279,153,31210,6,0,L|264:281,1,128
201,350,31903,1,0,0:0:0:0:
84,220,32133,1,0,0:0:0:0:
176,200,32364,2,0,L|164:280,1,64,2|0,0:0|0:0,0:0:0:0:
56,143,32826,2,0,L|68:63,1,64
293,36,33287,6,0,P|222:50|153:63,1,128,2|0,0:0|0:0,0:0:0:0:
67,83,33980,1,0,0:0:0:0:
216,232,34210,2,0,P|223:168|226:150,1,64,2|0,0:0|0:0,0:0:0:0:
308,208,34672,1,0,0:0:0:0:
118,251,34903,6,0,P|132:137|134:113,1,128
192,57,35595,1,0,0:0:0:0:
119,4,35826,1,0,0:0:0:0:
132,124,36057,2,0,P|73:135|41:143,1,64,2|0,0:0|0:0,0:0:0:0:
192,57,36518,2,0,P|251:46|283:38,1,64
112,276,36980,5,2,0:0:0:0:
256,200,37326,1,0,0:0:0:0:
256,200,37441,2,0,P|252:149|251:117,1,64
340,160,37903,1,2,0:0:0:0:
332,252,38133,1,0,0:0:0:0:
416,216,38364,1,0,0:0:0:0:
256,200,38595,6,0,P|173:206|105:215,2,128
332,252,39749,1,2,0:0:0:0:
416,216,39980,1,0,0:0:0:0:
340,160,40210,5,0,0:0:0:0:
408,304,40441,1,0,0:0:0:0:
500,172,40672,1,4,0:0:0:0:
256,192,40787,12,0,43903,0:0:0:0:
85,196,44364,6,0,P|142:180|213:209,1,132.00000402832,4|0,0:0|2:0,0:0:0:0:
239,224,44826,1,8,0:0:0:0:
396,192,45057,1,0,0:0:0:0:
329,299,45287,2,0,P|318:227|311:150,1,132.00000402832,0|0,0:0|2:0,0:0:0:0:
310,132,45749,1,8,0:0:0:0:
396,192,45980,1,0,0:0:0:0:
240,367,46210,6,0,P|229:295|222:218,1,132.00000402832,0|0,0:0|2:0,0:0:0:0:
221,202,46672,1,8,0:0:0:0:
310,132,46903,1,0,0:0:0:0:
88,80,47133,2,0,P|140:104|216:92,1,132.00000402832,0|0,0:0|2:0,0:0:0:0:
249,19,47595,2,0,P|217:55|215:109,1,88.000002685547,8|0,0:0|0:0,0:0:0:0:
256,304,48057,6,0,P|292:236|284:184,1,132.00000402832,4|0,0:0|2:0,0:0:0:0:
268,160,48518,1,8,0:0:0:0:
360,116,48749,1,0,0:0:0:0:
216,236,48980,2,0,P|144:232|76:212,1,132.00000402832,0|0,0:0|2:0,0:0:0:0:
56,200,49441,1,8,0:0:0:0:
136,148,49672,1,0,0:0:0:0:
264,312,49903,6,0,P|336:308|404:288,1,132.00000402832,0|0,0:0|2:0,0:0:0:0:
424,276,50364,1,8,0:0:0:0:
512,332,50595,1,0,0:0:0:0:
424,276,50826,2,0,P|404:184|400:172,1,88.000002685547
476,44,51287,2,0,P|496:136|500:148,1,88.000002685547,8|0,0:0|0:0,0:0:0:0:
424,276,51749,6,0,P|372:284|308:228,1,132.00000402832,4|0,0:0|2:0,0:0:0:0:
300,208,52210,1,8,0:0:0:0:
344,128,52441,1,0,0:0:0:0:
240,72,52672,1,0,0:0:0:0:
240,72,52787,2,0,P|180:84|128:96,1,88.000002685547
124,96,53133,1,8,0:0:0:0:
156,8,53364,1,0,0:0:0:0:
292,152,53595,5,0,0:0:0:0:
292,152,53710,2,0,P|352:140|404:128,1,88.000002685547
408,128,54056,1,8,0:0:0:0:
344,56,54287,1,0,0:0:0:0:
268,240,54518,1,0,0:0:0:0:
268,240,54633,2,0,P|226:250|182:258,1,88.000002685547
148,264,54980,1,8,0:0:0:0:
238,338,55210,1,0,0:0:0:0:
352,136,55441,6,0,P|396:124|472:172,1,132.00000402832,0|0,0:0|2:0,0:0:0:0:
480,192,55903,1,8,0:0:0:0:
512,92,56133,1,0,0:0:0:0:
392,216,56364,2,0,P|348:228|272:180,1,132.00000402832,0|0,0:0|2:0,0:0:0:0:
260,152,56826,1,8,0:0:0:0:
352,136,57057,1,0,0:0:0:0:
168,168,57287,6,0,P|160:88|144:36,1,132.00000402832,0|0,0:0|2:0,0:0:0:0:
136,16,57749,1,8,0:0:0:0:
240,40,57980,1,0,0:0:0:0:
80,148,58210,2,0,P|88:228|104:280,1,132.00000402832,0|0,0:0|2:0,0:0:0:0:
120,304,58672,1,8,0:0:0:0:
16,272,58903,1,0,0:0:0:0:
180,232,59133,6,0,P|232:268|316:248,1,132.00000402832,4|0,0:0|2:0,0:0:0:0:
328,236,59595,1,8,0:0:0:0:
256,172,59826,1,0,0:0:0:0:
333,64,60057,2,0,P|285:128|245:188,1,132.00000402832,0|0,0:0|2:0,0:0:0:0:
240,200,60518,1,8,0:0:0:0:
168,128,60749,1,0,0:0:0:0:
164,116,60864,1,0,0:0:0:0:
160,104,60980,6,0,P|104:92|56:76,1,88.000002685547
200,304,61441,2,0,P|256:316|304:332,1,88.000002685547,8|0,0:0|0:0,0:0:0:0:
428,312,61903,1,0,0:0:0:0:
312,244,62133,1,0,0:0:0:0:
452,236,62364,1,8,0:0:0:0:
336,164,62595,1,0,0:0:0:0:
476,160,62826,6,0,P|500:100|472:36,1,132.00000402832,0|0,0:0|2:0,0:0:0:0:
452,16,63287,1,8,0:0:0:0:
476,160,63518,1,0,0:0:0:0:
244,120,63749,2,0,P|328:112|384:104,1,132.00000402832,0|0,0:0|2:0,0:0:0:0:
408,100,64210,1,8,0:0:0:0:
244,120,64441,1,0,0:0:0:0:
480,192,64672,6,0,P|396:200|340:208,1,132.00000402832,0|0,0:0|2:0,0:0:0:0:
320,216,65133,1,8,0:0:0:0:
256,336,65364,1,0,0:0:0:0:
157,244,65595,1,0,0:0:0:0:
163,214,65710,1,0,0:0:0:0:
307,72,65942,1,0,0:0:0:0:
277,80,66057,1,0,0:0:0:0:
83,29,66287,1,0,0:0:0:0:
174,107,66518,6,0,P|166:167|130:258,1,132.00000402832,4|0,0:0|2:0,0:0:0:0:
129,257,66980,1,8,0:0:0:0:
61,191,67210,1,0,0:0:0:0:
174,107,67441,2,0,P|250:118|313:75,1,132.00000402832,0|0,0:0|2:0,0:0:0:0:
315,73,67903,1,8,0:0:0:0:
226,22,68133,1,0,0:0:0:0:
406,20,68364,6,0,P|411:90|416:127,1,88.000002685547
449,128,68710,1,0,0:0:0:0:
449,128,68826,2,0,P|453:171|456:215,1,88.000002685547,8|0,0:0|0:0,0:0:0:0:
354,314,69287,1,0,0:0:0:0:
495,294,69518,1,0,0:0:0:0:
369,228,69750,1,8,0:0:0:0:
456,215,69980,1,0,0:0:0:0:
432,356,70210,5,8,0:0:0:0:
340,372,70441,1,8,0:0:0:0:
235,265,70672,5,8,0:0:0:0:
367,273,70903,1,8,0:0:0:0:
453,168,71133,5,8,0:0:0:0:
301,150,71364,1,0,0:0:0:0:
168,60,71595,5,8,0:0:0:0:
360,43,71826,1,8,0:0:0:0:
444,138,72057,5,0,0:0:0:0:
444,146,72172,1,0,0:0:0:0:
444,154,72287,1,0,0:0:0:0:
444,162,72403,1,0,0:0:0:0:
444,170,72518,1,0,0:0:0:0:
444,178,72633,1,0,0:0:0:0:
444,186,72749,1,0,0:0:0:0:
444,194,72864,1,0,0:0:0:0:
444,202,72980,1,0,0:0:0:0:
262,262,73210,5,0,0:0:0:0:
254,219,73326,1,0,0:0:0:0:
374,274,73557,1,0,0:0:0:0:
366,317,73673,1,0,0:0:0:0:
188,332,73903,6,0,P|120:364|56:340,1,132.00000402832,4|0,0:0|2:0,0:0:0:0:
58,277,74364,2,0,P|126:245|190:269,1,132.00000402832,8|0,0:0|2:0,0:0:0:0:
188,332,74826,1,0,0:0:0:0:
277,122,75057,1,0,0:0:0:0:
277,122,75172,1,0,0:0:0:0:
277,122,75287,2,0,P|249:170|249:218,1,88.000002685547,8|0,0:0|0:0,0:0:0:0:
388,351,75749,6,0,P|404:279|368:207,1,132.00000402832,0|0,0:0|2:0,0:0:0:0:
321,188,76210,2,0,P|246:173|177:168,1,132.00000402832,8|0,0:0|2:0,0:0:0:0:
140,75,76672,2,0,P|215:90|284:95,1,132.00000402832,0|0,0:0|2:0,0:0:0:0:
334,55,77133,1,8,0:0:0:0:
334,55,77364,1,0,0:0:0:0:
232,240,77595,5,2,0:0:0:0:
480,64,78057,1,10,0:0:0:0:
480,64,78518,2,0,P|416:104|356:84,1,132.00000402832,0|0,0:0|2:0,0:0:0:0:
330,68,78980,1,8,0:0:0:0:
480,64,79210,1,0,0:0:0:0:
238,72,79441,5,2,0:0:0:0:
361,348,79903,1,10,0:0:0:0:
361,348,80364,2,0,P|377:284|341:220,1,132.00000402832,0|0,0:0|2:0,0:0:0:0:
321,199,80826,1,8,0:0:0:0:
397,96,81057,1,0,0:0:0:0:
232,136,81287,6,0,P|180:144|136:148,1,88.000002685547,4|0,0:0|0:0,0:0:0:0:
116,152,81633,1,0,0:0:0:0:
116,152,81749,1,8,0:0:0:0:
172,60,81980,1,0,0:0:0:0:
296,208,82210,2,0,P|372:198|440:188,1,132.00000402832,0|0,0:0|2:0,0:0:0:0:
460,184,82672,1,8,0:0:0:0:
360,104,82903,1,0,0:0:0:0:
312,291,83133,6,0,P|293:244|300:195,1,88.000002685547
308,176,83480,1,0,0:0:0:0:
308,176,83595,1,8,0:0:0:0:
392,232,83826,1,0,0:0:0:0:
208,260,84057,2,0,P|132:270|64:280,1,132.00000402832,0|0,0:0|2:0,0:0:0:0:
40,284,84518,1,8,0:0:0:0:
208,260,84749,1,0,0:0:0:0:
112,120,84980,5,2,0:0:0:0:
390,45,85441,1,10,0:0:0:0:
314,318,85903,1,2,0:0:0:0:
349,188,86249,1,2,0:0:0:0:
218,223,86595,1,2,0:0:0:0:
254,94,86826,5,2,0:0:0:0:
314,318,87287,1,10,0:0:0:0:
254,94,87749,1,2,0:0:0:0:
284,206,88095,1,2,0:0:0:0:
314,318,88441,1,2,0:0:0:0:
440,272,88672,6,0,P|448:196|452:176,1,88.000002685547,4|0,0:0|0:0,0:0:0:0:
460,156,89018,1,0,0:0:0:0:
460,156,89133,1,8,0:0:0:0:
368,176,89364,1,0,0:0:0:0:
480,8,89595,2,0,P|504:96|464:148,1,132.00000402832,0|0,0:0|2:0,0:0:0:0:
460,156,90057,1,8,0:0:0:0:
332,96,90287,5,0,0:0:0:0:
304,84,90403,1,0,0:0:0:0:
272,84,90518,1,0,0:0:0:0:
244,92,90633,1,0,0:0:0:0:
220,108,90749,1,0,0:0:0:0:
204,136,90864,1,0,0:0:0:0:
200,168,90980,2,0,P|159:188|138:190,1,44.0000013427735,8|0,0:0|0:0,0:0:0:0:
98,82,91326,1,0,0:0:0:0:
339,192,91557,1,0,0:0:0:0:
234,273,91787,1,0,0:0:0:0:
220,283,91903,2,0,P|212:240|207:197,1,88.000002685547,8|0,0:0|0:0,0:0:0:0:
12,356,92364,6,0,P|76:344|128:328,1,88.000002685547,6|0,0:0|0:0,0:0:0:0:
336,344,92826,2,0,P|272:356|220:372,1,88.000002685547,10|0,0:0|0:0,0:0:0:0:
98,337,93287,2,0,P|60:260|80:200,1,132.00000402832,0|0,0:0|2:0,0:0:0:0:
80,188,93749,1,8,0:0:0:0:
4,132,93980,1,0,0:0:0:0:
184,104,94210,6,0,P|172:176|168:216,1,88.000002685547,2|0,0:0|0:0,0:0:0:0:
208,258,94557,2,0,P|213:214|221:171,1,88.000002685547
312,32,95018,1,0,0:0:0:0:
416,48,95249,1,0,0:0:0:0:
400,152,95480,1,0,0:0:0:0:
400,152,95595,1,8,0:0:0:0:
292,132,95826,1,0,0:0:0:0:
452,248,96057,5,6,0:0:0:0:
452,248,96518,1,2,0:0:0:0:
171,292,96980,1,0,0:0:0:0:
357,263,97326,1,0,0:0:0:0:
262,278,97672,1,0,0:0:0:0:
452,248,97903,5,2,0:0:0:0:
452,248,98364,1,2,0:0:0:0:
452,248,98826,1,0,0:0:0:0:
262,278,99172,1,0,0:0:0:0:
357,263,99518,1,0,0:0:0:0:
171,292,99749,5,2,0:0:0:0:
196,88,100210,1,2,0:0:0:0:
171,292,100672,1,0,0:0:0:0:
184,190,101018,1,0,0:0:0:0:
196,88,101364,1,0,0:0:0:0:
248,277,101595,6,0,P|307:319|398:292,1,132.00000402832,0|0,0:0|2:0,0:0:0:0:
398,300,102057,1,0,0:0:0:0:
398,300,102287,1,0,0:0:0:0:
438,54,102518,2,0,B|465:101|437:156|437:156|437:108|390:74,1,176.000005371094
339,161,103210,1,0,0:0:0:0:
88,56,103441,6,0,P|96:124|104:208,1,138.000002632141,4|0,0:0|2:0,0:0:0:0:
111,232,103903,1,8,0:0:0:0:
196,292,104133,1,0,0:0:0:0:
116,360,104364,2,0,P|92:300|128:212,1,138.000002632141,0|0,0:0|2:0,0:0:0:0:
136,200,104826,1,8,0:0:0:0:
196,292,105057,1,0,0:0:0:0:
352,164,105287,6,0,P|365:107|377:28,1,138.000002632141,0|0,0:0|2:0,0:0:0:0:
386,0,105749,1,8,0:0:0:0:
285,34,105980,1,0,0:0:0:0:
453,127,106210,2,0,P|440:184|428:263,1,138.000002632141,0|0,0:0|2:0,0:0:0:0:
463,342,106672,2,0,P|441:273|396:251,1,92.0000017547608,8|0,0:0|0:0,0:0:0:0:
250,361,107133,6,0,P|328:371|381:323,1,138.000002632141,4|0,0:0|2:0,0:0:0:0:
392,305,107595,1,8,0:0:0:0:
324,228,107826,1,0,0:0:0:0:
368,96,108057,2,0,P|406:165|450:231,1,138.000002632141,0|0,0:0|2:0,0:0:0:0:
456,240,108518,1,8,0:0:0:0:
496,144,108749,1,0,0:0:0:0:
324,228,108980,6,0,P|272:244|192:196,1,138.000002632141,0|0,0:0|2:0,0:0:0:0:
184,184,109441,1,8,0:0:0:0:
96,220,109672,1,0,0:0:0:0:
276,151,109903,2,0,P|310:93|296:28,1,138.000002632141,0|0,0:0|2:0,0:0:0:0:
276,0,110364,1,8,0:0:0:0:
380,30,110595,1,0,0:0:0:0:
300,320,110826,6,0,P|284:248|276:176,1,138.000002632141,4|0,0:0|2:0,0:0:0:0:
276,151,111287,1,8,0:0:0:0:
368,208,111518,1,0,0:0:0:0:
212,384,111749,2,0,P|196:312|188:240,1,138.000002632141,0|0,0:0|2:0,0:0:0:0:
188,216,112210,1,8,0:0:0:0:
104,272,112441,1,0,0:0:0:0:
80,44,112672,6,0,P|113:111|93:173,1,138.000002632141,0|0,0:0|2:0,0:0:0:0:
72,196,113133,1,8,0:0:0:0:
16,116,113364,1,0,0:0:0:0:
201,162,113595,2,0,P|280:149|354:149,1,138.000002632141,0|0,0:0|2:0,0:0:0:0:
400,216,114057,2,0,P|432:164|426:113,1,92.0000017547608,8|0,0:0|0:0,0:0:0:0:
201,162,114518,6,0,P|186:224|226:301,1,138.000002632141,0|0,0:0|2:0,0:0:0:0:
239,313,114980,1,8,0:0:0:0:
311,246,115210,1,0,0:0:0:0:
448,234,115441,2,0,P|368:237|297:249,1,138.000002632141,0|0,0:0|2:0,0:0:0:0:
279,251,115903,1,8,0:0:0:0:
209,188,116133,1,0,0:0:0:0:
343,141,116364,6,0,P|423:138|494:126,1,138.000002632141,0|0,0:0|2:0,0:0:0:0:
511,110,116826,1,8,0:0:0:0:
474,211,117057,1,0,0:0:0:0:
342,140,117287,2,0,P|325:75|354:14,1,138.000002632141,0|0,0:0|2:0,0:0:0:0:
385,0,117749,1,8,0:0:0:0:
482,46,117980,1,0,0:0:0:0:
254,180,118210,6,0,P|271:245|242:306,1,138.000002632141,4|0,0:0|2:0,0:0:0:0:
218,331,118672,1,8,0:0:0:0:
318,360,118903,1,0,0:0:0:0:
179,235,119133,1,0,0:0:0:0:
179,235,119249,2,0,P|170:174|167:133,1,92.0000017547608
167,110,119595,1,8,0:0:0:0:
83,192,119826,1,0,0:0:0:0:
269,181,120057,5,0,0:0:0:0:
269,181,120173,2,0,P|273:226|280:272,1,92.0000017547608
299,305,120518,1,8,0:0:0:0:
430,278,120749,1,0,0:0:0:0:
355,245,120980,1,0,0:0:0:0:
341,379,121210,1,0,0:0:0:0:
421,361,121441,1,8,0:0:0:0:
299,305,121672,1,0,0:0:0:0:
180,353,121903,6,0,P|111:372|38:314,1,138.000002632141,0|0,0:0|2:0,0:0:0:0:
35,318,122364,1,8,0:0:0:0:
35,318,122595,1,0,0:0:0:0:
123,140,122826,2,0,P|146:201|114:277,1,138.000002632141,0|0,0:0|2:0,0:0:0:0:
103,292,123287,1,8,0:0:0:0:
48,203,123518,1,0,0:0:0:0:
232,281,123749,6,0,P|329:278|396:264,1,138.000002632141,0|0,0:0|2:0,0:0:0:0:
402,267,124210,1,8,0:0:0:0:
483,324,124441,1,0,0:0:0:0:
502,191,124672,1,0,0:0:0:0:
507,156,124787,1,0,0:0:0:0:
384,84,125018,1,0,0:0:0:0:
389,119,125133,1,0,0:0:0:0:
276,156,125364,1,0,0:0:0:0:
181,87,125595,6,0,P|101:69|40:128,1,138.000002632141,4|0,0:0|2:0,0:0:0:0:
36,122,126057,1,8,0:0:0:0:
4,18,126287,1,0,0:0:0:0:
126,161,126518,2,0,P|115:215|85:310,1,138.000002632141,0|0,0:0|2:0,0:0:0:0:
81,318,126980,1,8,0:0:0:0:
126,161,127210,1,0,0:0:0:0:
164,244,127441,6,0,P|96:248|41:183,1,138.000002632141,0|0,0:0|2:0,0:0:0:0:
30,167,127903,1,8,0:0:0:0:
247,208,128133,1,0,0:0:0:0:
188,108,128364,2,0,P|203:44|209:4,1,92.0000017547608
305,156,128826,2,0,P|290:220|284:260,1,92.0000017547608,8|0,0:0|0:0,0:0:0:0:
489,340,129287,6,0,P|436:293|360:311,1,138.000002632141,4|0,0:0|2:0,0:0:0:0:
344,314,129749,1,8,0:0:0:0:
267,370,129980,1,0,0:0:0:0:
62,267,130210,2,0,P|115:314|191:296,1,138.000002632141,0|0,0:0|2:0,0:0:0:0:
207,293,130672,1,8,0:0:0:0:
284,237,130903,1,0,0:0:0:0:
205,64,131133,6,0,P|195:138|198:203,1,138.000002632141,4|0,0:0|2:0,0:0:0:0:
102,260,131595,2,0,P|112:186|109:121,1,138.000002632141,4|0,0:0|2:0,0:0:0:0:
106,40,132057,5,8,0:0:0:0:
89,12,132172,1,0,0:0:0:0:
57,5,132287,1,0,0:0:0:0:
29,22,132403,1,0,0:0:0:0:
20,53,132518,1,8,0:0:0:0:
33,82,132633,1,0,0:0:0:0:
50,108,132749,1,0,0:0:0:0:
54,139,132864,1,0,0:0:0:0:
41,168,132980,1,4,0:0:0:0:
177,206,134364,5,2,0:0:0:0:
303,291,134826,2,0,P|356:270|419:261,1,111.999996582031,2|0,0:0|0:0,0:0:0:0:
282,382,135518,2,0,P|229:361|166:352,1,111.999996582031,2|0,0:0|0:0,0:0:0:0:
45,236,136441,1,0,0:0:0:0:
45,236,136672,6,0,L|0:124,1,111.999996582031,2|0,0:0|0:0,0:0:0:0:
102,111,137364,2,0,L|109:-7,1,111.999996582031,2|0,0:0|0:0,0:0:0:0:
285,129,138287,1,0,0:0:0:0:
285,129,138518,1,2,0:0:0:0:
363,57,138749,2,0,L|495:31,2,111.999996582031
192,11,140133,1,0,0:0:0:0:
119,75,140364,6,0,P|87:144|72:192,1,111.999996582031,2|0,0:0|0:0,0:0:0:0:
176,176,141057,2,0,P|164:251|163:301,1,111.999996582031,2|0,0:0|0:0,0:0:0:0:
109,384,141749,5,0,0:0:0:0:
265,298,142210,2,0,P|318:277|380:267,1,111.999996582031,2|0,0:0|0:0,0:0:0:0:
481,200,142903,2,0,P|441:186|367:169,1,111.999996582031,2|0,0:0|0:0,0:0:0:0:
147,183,143595,1,0,0:0:0:0:
226,228,143826,1,0,0:0:0:0:
303,177,144057,6,0,L|288:105,2,55.9999982910157,2|0|0,0:0|0:0|0:0,0:0:0:0:
412,211,144749,1,0,0:0:0:0:
412,211,144980,2,0,L|395:288,2,55.9999982910157,2|0|0,0:0|0:0|0:0,0:0:0:0:
292,123,145672,1,0,0:0:0:0:
292,123,145903,2,0,L|281:68,2,55.9999982910157,2|0|0,0:0|0:0|0:0,0:0:0:0:
340,208,146595,5,0,0:0:0:0:
352,298,146826,1,2,0:0:0:0:
259,309,147057,1,0,0:0:0:0:
249,218,147287,2,0,P|256:165|284:121,1,83.9999974365235
305,146,147749,6,0,P|401:153|485:111,2,167.999994873047,4|0|0,0:0|0:0|0:0,0:0:0:0:
24,288,149826,2,0,P|99:252|189:257,1,167.999994873047,0|2,0:0|0:0,0:0:0:0:
364,80,150980,1,0,0:0:0:0:
284,240,151441,6,0,P|298:299|320:360,1,111.999996582031,2|0,0:0|0:0,0:0:0:0:
148,132,152133,2,0,P|134:73|112:12,1,111.999996582031
272,176,152826,2,0,P|200:252|71:235,1,223.999993164063
87,248,154672,1,0,0:0:0:0:
416,94,155133,6,0,P|392:138|372:214,1,111.999996582031,2|0,0:0|0:0,0:0:0:0:
264,356,155826,2,0,P|248:302|222:252,1,111.999996582031
63,118,156518,2,0,P|139:146|251:70,1,223.999993164063
143,34,158364,1,0,0:0:0:0:
352,160,158826,6,0,P|424:148|480:148,1,111.999996582031,2|0,0:0|0:0,0:0:0:0:
228,228,159518,2,0,P|156:216|100:216,1,111.999996582031
288,313,160210,2,0,P|332:253|340:85,1,223.999993164063
160,24,161364,2,0,P|148:96|192:196,1,167.999994873047
356,339,162518,5,4,0:0:0:0:
116,128,163903,1,0,0:0:0:0:
100,208,164133,1,0,0:0:0:0:
180,184,164364,2,0,P|260:164|332:160,1,128,2|0,0:0|0:0,0:0:0:0:
408,56,165057,2,0,P|328:76|256:80,1,128
160,12,165749,2,0,P|172:72|180:104,1,64
348,308,166210,6,0,P|355:247|244:204,1,192,2|0,0:0|0:0,0:0:0:0:
164,244,167133,2,0,P|96:252|32:216,1,128
68,72,167826,2,0,P|136:64|200:100,2,128
280,16,169210,1,0,0:0:0:0:
120,156,169672,1,0,0:0:0:0:
120,156,169903,6,0,P|224:152|320:136,1,192,2|0,0:0|0:0,0:0:0:0:
384,196,170826,1,0,0:0:0:0:
328,268,171057,1,0,0:0:0:0:
396,108,171287,1,2,0:0:0:0:
509,172,171518,2,0,P|417:188|365:200,1,128
264,257,172210,2,0,P|332:269|348:273,1,64
204,192,172672,2,0,P|140:208|120:216,1,64,2|0,0:0|0:0,0:0:0:0:
56,248,173133,1,0,0:0:0:0:
56,248,173595,6,0,P|16:196|24:116,1,128
236,324,174518,2,0,P|276:272|268:192,1,128,2|0,0:0|0:0,0:0:0:0:
144,0,175441,1,0,0:0:0:0:
404,64,175903,1,0,0:0:0:0:
320,112,176133,2,0,P|268:92|184:92,1,128
120,4,176826,1,0,0:0:0:0:
112,236,177287,5,4,0:1:0:0:
256,328,177749,1,0,0:0:0:0:
400,236,178210,1,0,0:0:0:0:
316,136,178557,5,2,0:0:0:0:
256,236,178903,1,0,0:0:0:0:
196,136,179133,1,0,0:0:0:0:
400,236,179595,5,0,0:0:0:0:
256,152,180057,5,0,0:0:0:0:
256,240,180403,1,2,0:0:0:0:
256,324,180749,1,0,0:0:0:0:
124,284,180980,5,0,0:0:0:0:
388,284,181441,1,0,0:0:0:0:
124,284,181903,5,0,0:0:0:0:
60,208,182249,1,2,0:0:0:0:
156,192,182595,1,0,0:0:0:0:
256,324,182826,5,0,0:0:0:0:
256,324,183287,1,0,0:0:0:0:
356,192,183749,5,0,0:0:0:0:
452,208,184095,1,2,0:0:0:0:
388,284,184441,1,0,0:0:0:0:
324,100,184672,6,0,P|332:52|340:20,1,64,4|0,0:0|0:0,0:0:0:0:
344,12,185018,1,0,0:0:0:0:
344,12,185133,1,8,0:0:0:0:
424,80,185364,1,0,0:0:0:0:
204,192,185595,2,0,P|136:196|108:180,1,96,0|0,0:0|2:0,0:0:0:0:
84,160,186057,1,8,0:0:0:0:
4,208,186287,1,0,0:0:0:0:
164,112,186518,6,0,P|156:56|152:24,1,64
152,16,186864,1,0,0:0:0:0:
152,16,186979,1,8,0:0:0:0:
256,72,187210,1,0,0:0:0:0:
97,254,187441,2,0,P|90:207|83:159,1,96,0|0,0:0|2:0,0:0:0:0:
80,124,187903,1,8,0:0:0:0:
108,340,188133,1,0,0:0:0:0:
266,225,188364,6,0,P|240:244|215:264,1,64
180,290,188710,1,0,0:0:0:0:
180,290,188826,1,8,0:0:0:0:
346,164,189057,1,0,0:0:0:0:
441,175,189287,2,0,P|354:164|328:162,1,96,0|0,0:0|2:0,0:0:0:0:
314,162,189749,1,8,0:0:0:0:
378,258,189980,1,0,0:0:0:0:
510,95,190210,6,0,P|440:86|419:84,1,64
413,81,190557,1,0,0:0:0:0:
413,81,190672,1,8,0:0:0:0:
314,162,190903,1,0,0:0:0:0:
229,0,191133,2,0,P|218:46|207:93,1,96,0|0,0:0|2:0,0:0:0:0:
188,178,191595,1,8,0:0:0:0:
306,59,191826,1,0,0:0:0:0:
110,97,192057,6,0,P|54:75|27:67,1,80,4|0,0:0|0:0,0:0:0:0:
0,57,192403,1,0,0:0:0:0:
0,57,192518,1,8,0:0:0:0:
38,165,192749,1,0,0:0:0:0:
179,29,192980,2,0,P|205:75|193:144,1,120,0|0,0:0|2:0,0:0:0:0:
148,216,193441,1,8,0:0:0:0:
282,73,193672,5,0,0:0:0:0:
310,61,193788,1,0,0:0:0:0:
342,61,193903,1,0,0:0:0:0:
370,69,194018,1,0,0:0:0:0:
394,85,194134,1,0,0:0:0:0:
410,113,194249,1,0,0:0:0:0:
414,142,194364,2,0,P|459:128|483:130,1,40,8|0,0:0|0:0,0:0:0:0:
512,27,194711,1,0,0:0:0:0:
327,146,194942,1,0,0:0:0:0:
476,215,195172,1,0,0:0:0:0:
491,235,195288,2,0,P|479:315|475:333,1,80,8|0,0:0|0:0,0:0:0:0:
297,349,195749,6,0,P|285:269|281:251,1,80,2|0,0:0|0:0,0:0:0:0:
280,243,196095,1,0,0:0:0:0:
280,243,196210,1,10,0:0:0:0:
384,286,196441,1,0,0:0:0:0:
197,315,196672,2,0,P|135:325|69:339,1,120,0|0,0:0|2:0,0:0:0:0:
40,347,197133,1,8,0:0:0:0:
109,233,197364,1,0,0:0:0:0:
109,233,197480,1,0,0:0:0:0:
108,232,197595,6,0,P|147:225|187:219,1,80
241,163,197941,2,0,P|201:170|162:176,1,80
79,121,198403,1,0,0:0:0:0:
166,81,198633,1,0,0:0:0:0:
161,175,198864,1,0,0:0:0:0:
161,175,198980,1,8,0:0:0:0:
79,121,199210,1,0,0:0:0:0:
248,133,199441,6,0,P|274:207|291:276,1,125.999996154785,2|0,0:0|2:0,0:0:0:0:
396,292,199903,2,0,P|370:218|353:149,1,125.999996154785,10|0,0:0|2:0,0:0:0:0:
388,80,200364,1,0,0:0:0:0:
218,124,200595,1,0,0:0:0:0:
218,124,200710,1,0,0:0:0:0:
218,124,200826,1,8,0:0:0:0:
277,0,201057,2,0,P|265:35|260:46,1,41.9999987182618
218,124,201287,6,0,P|145:139|88:92,1,125.999996154785,2|0,0:0|2:0,0:0:0:0:
51,32,201749,2,0,P|110:15|166:42,1,125.999996154785,2|0,0:0|2:0,0:0:0:0:
217,124,202210,1,8,0:0:0:0:
77,204,202441,1,0,0:0:0:0:
77,204,202557,1,0,0:0:0:0:
77,204,202672,2,0,P|68:265|66:302,1,83.9999974365235,8|0,0:0|0:0,0:0:0:0:
64,313,203018,1,0,0:0:0:0:
64,313,203133,5,2,0:0:0:0:
151,286,203364,1,0,0:0:0:0:
254,323,203595,5,8,0:0:0:0:
77,204,203826,1,0,0:0:0:0:
327,284,204057,5,0,0:0:0:0:
415,318,204287,1,0,0:0:0:0:
429,202,204518,5,8,0:0:0:0:
254,323,204749,1,0,0:0:0:0:
270,174,204980,5,0,0:0:0:0:
297,153,205095,1,0,0:0:0:0:
330,142,205210,1,0,0:0:0:0:
364,137,205326,1,0,0:0:0:0:
398,140,205441,1,0,0:0:0:0:
431,148,205556,1,0,0:0:0:0:
460,166,205672,1,0,0:0:0:0:
483,191,205787,1,0,0:0:0:0:
500,221,205903,6,0,P|515:285|515:289,1,41.9999987182618
450,345,206133,1,0,0:0:0:0:
425,356,206249,1,0,0:0:0:0:
401,367,206364,2,0,P|409:315|440:256,1,83.9999974365235
248,32,206826,6,0,P|216:84|232:176,1,125.999996154785,6|0,0:0|2:0,0:0:0:0:
187,262,207287,2,0,P|219:210|203:118,1,125.999996154785,10|0,0:0|2:0,0:0:0:0:
112,80,207749,2,0,P|56:72|8:68,1,83.9999974365235
248,32,208210,1,8,0:0:0:0:
457,138,208441,6,0,B|379:170|379:170|314:115,1,167.999994873047,2|0,0:0|0:0,0:0:0:0:
500,221,209133,2,0,L|404:258,1,83.9999974365235,8|0,0:0|0:0,0:0:0:0:
247,181,209595,2,0,L|325:246,1,83.9999974365235
408,64,210057,1,8,0:0:0:0:
352,320,210287,1,0,0:0:0:0:
408,64,210518,6,0,P|316:33|264:27,1,125.999996154785,2|0,0:0|2:0,0:0:0:0:
208,100,210980,2,0,P|299:130|351:136,1,125.999996154785,10|0,0:0|2:0,0:0:0:0:
408,64,211441,2,0,P|432:8|448:-20,1,83.9999974365235
338,266,211903,1,8,0:0:0:0:
387,141,212133,1,0,0:0:0:0:
259,314,212364,6,0,P|293:349|395:328,1,125.999996154785,2|0,0:0|2:0,0:0:0:0:
445,303,212826,2,0,P|410:267|308:288,1,125.999996154785,10|0,0:0|2:0,0:0:0:0:
259,313,213287,1,0,0:0:0:0:
427,140,213518,1,0,0:0:0:0:
268,187,213749,2,0,P|259:246|259:326,1,125.999996154785,8|0,0:0|2:0,0:0:0:0:
157,246,214210,6,0,P|166:187|166:107,1,125.999996154785,6|0,0:0|2:0,0:0:0:0:
102,52,214672,2,0,P|49:43|12:31,1,83.9999974365235,10|0,0:0|0:0,0:0:0:0:
266,76,215133,1,0,0:0:0:0:
70,135,215364,1,0,0:0:0:0:
188,31,215595,1,8,0:0:0:0:
102,52,215826,1,0,0:0:0:0:
206,203,216057,6,0,P|223:260|231:337,1,125.999996154785,2|0,0:0|2:0,0:0:0:0:
322,384,216518,2,0,P|338:318|326:266,1,83.9999974365235,10|0,0:0|0:0,0:0:0:0:
424,176,216980,2,0,P|488:152|530:153,2,83.9999974365235,0|0|8,0:0|0:0|0:0,0:0:0:0:
469,55,217672,1,0,0:0:0:0:
228,26,217903,6,0,P|153:55|124:113,1,125.999996154785,2|0,0:0|2:0,0:0:0:0:
65,24,218364,2,0,P|39:100|64:159,1,125.999996154785,10|0,0:0|2:0,0:0:0:0:
104,220,218826,2,0,P|112:284|96:320,1,83.9999974365235
16,260,219287,1,8,0:0:0:0:
53,140,219518,1,0,0:0:0:0:
218,228,219749,6,0,P|134:240|90:200,1,125.999996154785,2|0,0:0|2:0,0:0:0:0:
53,140,220210,2,0,P|112:122|168:148,1,125.999996154785,10|0,0:0|2:0,0:0:0:0:
218,227,220672,2,0,P|212:269|207:311,1,83.9999974365235
309,279,221133,1,8,0:0:0:0:
73,106,221364,1,0,0:0:0:0:
224,37,221595,6,0,P|257:137|275:176,1,125.999996154785,6|0,0:0|2:0,0:0:0:0:
205,269,222057,2,0,P|172:169|154:130,1,125.999996154785,10|0,0:0|2:0,0:0:0:0:
82,104,222518,2,0,P|24:93|-14:88,1,83.9999974365235
164,151,222980,1,8,0:0:0:0:
224,37,223210,1,0,0:0:0:0:
82,104,223441,6,0,P|70:163|97:223,1,125.999996154785,2|0,0:0|2:0,0:0:0:0:
189,210,223903,2,0,P|198:148|168:94,1,125.999996154785,10|0,0:0|2:0,0:0:0:0:
95,221,224364,1,0,0:0:0:0:
161,361,224595,1,0,0:0:0:0:
285,272,224826,2,0,L|301:156,1,83.9999974365235,8|0,0:0|0:0,0:0:0:0:
231,104,225172,1,0,0:0:0:0:
231,104,225287,6,0,P|218:61|222:13,1,83.9999974365235,2|0,0:0|0:0,0:0:0:0:
409,116,225749,2,0,P|378:113|313:56,1,83.9999974365235,10|0,0:0|0:0,0:0:0:0:
409,16,226210,1,0,0:0:0:0:
333,86,226441,1,0,0:0:0:0:
112,73,226672,1,8,0:0:0:0:
192,1,226903,1,0,0:0:0:0:
352,192,227133,6,0,P|291:188|248:156,1,83.9999974365235,2|0,0:0|0:0,0:0:0:0:
67,298,227595,2,0,P|121:296|171:262,1,83.9999974365235,10|0,0:0|0:0,0:0:0:0:
352,192,228057,1,0,0:0:0:0:
121,119,228287,1,0,0:0:0:0:
302,32,228518,2,0,B|260:58|260:58|249:153,1,125.999996154785,8|0,0:0|2:0,0:0:0:0:
237,231,228980,5,6,0:0:0:0:
256,192,229095,12,2,232672,0:0:0:0:
108,214,233133,5,2,0:0:0:0:
108,214,233595,2,0,P|44:219|25:230,2,83.9999974365235
217,271,234287,6,0,B|190:318|220:367|220:367|226:317|265:291,1,167.999994873047,2|0,0:0|0:0,0:0:0:0:
446,243,235210,1,0,0:0:0:0:
285,158,235441,2,0,P|288:110|319:70,1,83.9999974365235,2|0,0:0|0:0,0:0:0:0:
396,59,235903,2,0,P|393:107|362:147,1,83.9999974365235
87,185,236364,6,2,P|72:125|45:51,1,125.999996154785,6|2,0:0|2:0,0:0:0:0:
142,0,236826,2,0,P|143:45|162:90,1,83.9999974365235,8|2,0:0|0:0,0:0:0:0:
174,111,237172,1,0,0:0:0:0:
174,111,237287,2,0,P|231:81|306:66,1,125.999996154785,0|0,0:0|2:0,0:0:0:0:
324,67,237749,1,8,0:0:0:0:
443,243,237980,1,0,0:0:0:0:
443,243,238095,1,0,0:0:0:0:
443,243,238210,6,0,L|485:109,1,125.999996154785,2|0,0:0|2:0,0:0:0:0:
506,23,238672,2,0,P|450:44|413:46,1,83.9999974365235,8|0,0:0|0:0,0:0:0:0:
364,123,239018,1,0,0:0:0:0:
364,123,239133,2,0,P|330:60|346:-12,1,125.999996154785,2|0,0:0|2:0,0:0:0:0:
444,142,239595,1,8,0:0:0:0:
288,178,239826,1,0,0:0:0:0:
261,207,239941,1,0,0:0:0:0:
232,235,240057,6,0,L|80:214,1,125.999996154785,2|0,0:0|2:0,0:0:0:0:
167,66,240518,2,0,P|203:121|209:150,1,83.9999974365235,8|0,0:0|0:0,0:0:0:0:
232,235,240864,1,0,0:0:0:0:
232,235,240980,2,0,L|246:310,1,41.9999987182618,2|0,0:0|0:0,0:0:0:0:
326,326,241210,2,0,L|333:284,1,41.9999987182618
375,201,241441,2,0,P|428:176|462:175,1,83.9999974365235,8|0,0:0|0:0,0:0:0:0:
388,94,241787,1,0,0:0:0:0:
306,135,241903,6,0,P|272:82|270:16,1,125.999996154785,2|0,0:0|2:0,0:0:0:0:
472,92,242364,2,0,L|447:193,1,83.9999974365235,8|0,0:0|0:0,0:0:0:0:
409,277,242710,1,0,0:0:0:0:
409,277,242826,2,0,P|355:257|342:255,1,41.9999987182618,2|0,0:0|0:0,0:0:0:0:
290,210,243057,2,0,P|236:232|225:239,1,41.9999987182618
184,301,243287,1,8,0:0:0:0:
154,271,243403,1,0,0:0:0:0:
113,263,243518,1,0,0:0:0:0:
73,276,243633,1,0,0:0:0:0:
46,310,243749,6,0,P|26:198|4:174,1,125.999996154785,4|0,0:0|2:0,0:0:0:0:
2,164,244210,1,8,0:0:0:0:
128,48,244441,1,0,0:0:0:0:
143,57,244557,1,0,0:0:0:0:
158,64,244672,2,0,P|105:98|26:83,1,125.999996154785,2|0,0:0|2:0,0:0:0:0:
220,0,245133,2,0,P|245:50|266:79,1,83.9999974365235,8|0,0:0|0:0,0:0:0:0:
375,56,245480,1,0,0:0:0:0:
375,56,245595,6,0,P|300:46|257:77,1,125.999996154785,2|0,0:0|2:0,0:0:0:0:
242,153,246057,2,0,P|261:72|271:54,1,83.9999974365235,8|0,0:0|0:0,0:0:0:0:
145,98,246403,1,0,0:0:0:0:
145,98,246518,2,0,L|84:119,1,41.9999987182618,2|0,0:0|0:0,0:0:0:0:
242,153,246749,2,0,L|281:166,1,41.9999987182618
223,305,246980,2,0,L|192:215,1,83.9999974365235,8|0,0:0|0:0,0:0:0:0:
116,184,247326,1,0,0:0:0:0:
116,184,247441,6,0,P|49:221|-19:203,1,125.999996154785,2|0,0:0|2:0,0:0:0:0:
105,89,247903,2,0,P|185:117|198:133,1,83.9999974365235,8|0,0:0|0:0,0:0:0:0:
272,90,248249,1,0,0:0:0:0:
343,150,248364,2,0,L|360:212,1,41.9999987182618,2|0,0:0|0:0,0:0:0:0:
272,90,248595,2,0,L|288:44,1,41.9999987182618
415,5,248826,1,8,0:0:0:0:
449,28,248941,1,0,0:0:0:0:
467,65,249057,1,0,0:0:0:0:
461,106,249172,1,0,0:0:0:0:
434,138,249287,6,0,P|436:212|488:270,1,125.999996154785,2|0,0:0|2:0,0:0:0:0:
391,329,249749,2,0,P|336:309|291:315,1,83.9999974365235,8|0,0:0|0:0,0:0:0:0:
230,367,250095,1,0,0:0:0:0:
230,367,250210,2,0,L|210:313,1,41.9999987182618,2|0,0:0|0:0,0:0:0:0:
107,343,250441,2,0,L|129:289,1,41.9999987182618
152,223,250672,1,8,0:0:0:0:
22,47,250903,6,0,L|42:110,1,41.9999987182618,2|0,0:0|0:0,0:0:0:0:
63,168,251133,2,0,B|255:90|256:288|455:168,1,407.999987548828,4|0,0:0|0:0,0:0:0:0:
256,192,255172,12,0,264057,0:0:0:0:
