osu file format v14

[General]
AudioFilename: audio.mp3
AudioLeadIn: 0
PreviewTime: 156598
Countdown: 0
SampleSet: Soft
StackLeniency: 0.7
Mode: 2
LetterboxInBreaks: 0
WidescreenStoryboard: 0

[Editor]
Bookmarks: 255,23505,47505,71505,92692,108630,120630,132630,156630,180255,198630,224505,228255,244942,251880
DistanceSpacing: 2
BeatDivisor: 4
GridSize: 16
TimelineZoom: 3.1

[Metadata]
Title:MAIDCORE
TitleUnicode:MAIDCORE
Artist:Masyunya the Maid
ArtistUnicode:Masyunya the Maid
Creator:Kimitakari
Version:Neco Arc
Source:
Tags:nelly russian русский rock рок punk панк flynnflytaggart flynn fly taggart fft cold nordic nipples
BeatmapID:4246711
BeatmapSetID:2036359

[Difficulty]
HPDrainRate:5
CircleSize:3.6
OverallDifficulty:9.2
ApproachRate:9.2
SliderMultiplier:2.35
SliderTickRate:1

[Events]
//Background and Video events
0,0,"bg.jpg",0,0
//Break Periods
//Storyboard Layer 0 (Background)
//Storyboard Layer 1 (Fail)
//Storyboard Layer 2 (Pass)
//Storyboard Layer 3 (Foreground)
//Storyboard Layer 4 (Overlay)
//Storyboard Sound Samples

[TimingPoints]
266,375,4,2,1,50,1,0
7109,-125,4,2,1,50,0,0
7766,-100,4,2,1,50,0,0
10016,375,4,2,1,50,1,0
68422,-125,4,2,1,40,0,0
71516,-100,4,2,1,50,0,0
75828,375,4,2,1,50,1,0
86140,375,4,2,1,50,1,0
153546,-125,4,2,1,40,0,0
156640,-100,4,2,1,50,0,0
160952,375,4,2,1,50,1,0
171264,375,4,2,1,50,1,0
180264,-125,4,2,1,40,0,0
183639,-83.3333333333333,4,2,1,50,0,0
184014,-100,4,2,1,50,0,0
198639,375,4,2,1,50,1,1
206514,375,4,2,1,50,1,0
210639,375,4,2,1,50,1,0
217764,375,4,2,1,50,1,0
220014,375,4,2,1,50,1,0
228264,375,4,2,1,50,1,0
232576,375,4,2,1,50,1,0
242888,375,4,2,1,50,1,0

[Colours]
Combo1 : 160,107,153
Combo2 : 197,64,111

[HitObjects]
256,192,266,5,4,3:0:0:0:
256,192,828,12,0,2141,0:0:0:0:
320,33,2422,5,2,3:0:0:0:
232,115,2516,2,0,L|349:106,1,117.5,8|0,0:0|0:0,0:0:0:0:
172,192,2891,2,0,P|115:247|171:303,1,176.25,2|0,3:0|0:0,0:0:0:0:
359,303,3266,5,2,3:0:0:0:
183,285,3547,1,2,3:0:0:0:
293,208,3766,1,2,3:0:0:0:
153,198,3828,1,8,0:0:0:0:
449,101,4766,5,2,3:0:0:0:
272,118,5047,1,2,3:0:0:0:
383,196,5266,1,2,3:0:0:0:
243,206,5328,1,8,0:0:0:0:
155,218,5516,2,0,L|141:393,1,176.25,2|2,0:0|0:0,0:0:0:0:
200,262,5891,2,0,L|209:379,1,117.5,2|2,0:0|0:0,0:0:0:0:
469,373,6266,5,2,3:0:0:0:
292,356,6547,1,2,3:0:0:0:
469,373,6828,1,2,3:0:0:0:
205,384,7109,2,0,L|197:99,1,282,8|0,0:0|0:0,0:0:0:0:
424,35,7767,6,0,L|307:26,1,117.5,8|2,0:0|3:0,0:0:0:0:
118,129,8047,2,0,L|235:120,1,117.5,8|0,0:0|0:0,0:0:0:0:
306,212,8328,2,0,L|189:203,1,117.5,2|0,3:0|0:0,0:0:0:0:
260,282,8609,2,0,L|269:165,1,117.5,12|2,0:0|3:0,0:0:0:0:
460,103,8891,2,0,L|401:98,1,58.75,8|0,0:0|0:0,0:0:0:0:
190,78,9078,1,2,3:0:0:0:
308,85,9266,6,0,L|322:121,2,39.1666666666667,0|0|0,0:0|0:0|0:0,0:0:0:0:
261,78,9453,1,2,3:0:0:0:
120,205,9641,1,0,0:0:0:0:
159,202,9703,1,0,0:0:0:0:
198,199,9766,1,0,0:0:0:0:
338,192,9828,1,8,0:0:0:0:
220,225,10016,6,0,L|211:342,1,117.5,4|0,3:0|0:0,0:0:0:0:
376,365,10297,2,0,L|317:360,1,58.75,0|8,0:0|0:0,0:0:0:0:
141,336,10578,1,0,0:0:0:0:
259,325,10767,2,0,L|268:208,1,117.5
91,187,11142,2,0,L|86:128,1,58.75,8|2,0:0|3:0,0:0:0:0:
439,70,11517,6,0,L|430:187,1,117.5,2|0,3:0|0:0,0:0:0:0:
265,216,11798,2,0,L|206:221,1,58.75,0|8,0:0|0:0,0:0:0:0:
383,330,12079,2,0,L|392:213,1,117.5,2|0,3:0|0:0,0:0:0:0:
227,276,12360,2,0,L|218:159,1,117.5,8|2,0:0|3:0,0:0:0:0:
307,115,12642,2,0,L|190:106,1,117.5,8|2,0:0|3:0,0:0:0:0:
449,48,13016,6,0,L|458:165,1,117.5,2|0,3:0|0:0,0:0:0:0:
293,230,13297,2,0,L|352:235,1,58.75,0|8,0:0|0:0,0:0:0:0:
175,337,13578,2,0,P|118:281|175:226,1,176.25,2|0,3:0|0:0,0:0:0:0:
264,162,13953,2,0,L|147:153,1,117.5,2|2,3:0|3:0,0:0:0:0:
335,84,14234,2,0,L|452:75,1,117.5,12|0,0:0|0:0,0:0:0:0:
380,156,14516,6,0,L|375:214,1,58.75,2|0,3:0|0:0,0:0:0:0:
210,237,14703,1,8,0:0:0:0:
280,293,14798,2,0,L|163:284,1,117.5,2|0,3:0|0:0,0:0:0:0:
234,330,15078,2,0,L|351:321,1,117.5,2|8,3:0|0:0,0:0:0:0:
163,269,15359,2,0,L|154:152,1,117.5,2|0,3:0|0:0,0:0:0:0:
243,165,15641,2,0,L|248:107,1,58.75,2|0,3:0|0:0,0:0:0:0:
36,72,15828,1,8,0:0:0:0:
154,151,16016,6,0,L|271:142,1,117.5,2|0,3:0|0:0,0:0:0:0:
107,232,16297,2,0,L|48:227,1,58.75,0|8,0:0|0:0,0:0:0:0:
225,295,16578,1,2,3:0:0:0:
342,212,16766,2,0,L|225:203,1,117.5,0|2,0:0|3:0,0:0:0:0:
402,140,17142,2,0,L|407:81,1,58.75,8|2,0:0|3:0,0:0:0:0:
54,32,17516,6,0,L|63:149,1,117.5,2|0,3:0|0:0,0:0:0:0:
228,185,17797,2,0,L|287:190,1,58.75,0|8,0:0|0:0,0:0:0:0:
110,253,18078,1,2,3:0:0:0:
369,265,18267,1,8,0:0:0:0:
281,258,18359,2,0,L|272:141,1,117.5,2|2,3:0|3:0,0:0:0:0:
463,86,18642,2,0,L|484:140,2,58.75,8|2|2,0:0|3:0|3:0,0:0:0:0:
204,80,19016,6,0,L|195:197,1,117.5,2|0,3:0|0:0,0:0:0:0:
283,258,19297,2,0,L|166:249,1,117.5,2|0,3:0|0:0,0:0:0:0:
354,334,19579,2,0,L|363:217,1,117.5,8|2,0:0|3:0,0:0:0:0:
104,113,19953,2,0,L|221:104,1,117.5,8|0,0:0|0:0,0:0:0:0:
292,196,20234,2,0,L|175:187,1,117.5,2|0,3:0|0:0,0:0:0:0:
246,282,20516,6,0,L|255:165,1,117.5,2|0,3:0|0:0,0:0:0:0:
326,128,20797,2,0,L|443:119,1,117.5,2|0,3:0|0:0,0:0:0:0:
254,57,21078,1,8,0:0:0:0:
136,149,21266,2,0,L|311:134,1,176.25,2|2,0:0|0:0,0:0:0:0:
312,239,21641,2,0,L|192:229,1,117.5,2|2,0:0|3:0,0:0:0:0:
372,364,22017,6,0,L|386:188,1,176.25,2|2,3:0|3:0,0:0:0:0:
445,173,22391,1,2,0:0:0:0:
187,57,22578,2,0,L|201:233,1,176.25,8|2,0:0|3:0,0:0:0:0:
366,260,22953,1,2,3:0:0:0:
248,249,23142,2,0,L|237:192,3,58.75,2|2|2|2,3:0|3:0|3:0|3:0,0:0:0:0:
48,127,23517,6,0,L|168:117,1,117.5,4|0,3:0|0:0,0:0:0:0:
342,211,23891,2,0,L|222:201,1,117.5,8|0,0:0|0:0,0:0:0:0:
284,247,24172,1,2,3:0:0:0:
373,287,24266,2,0,L|432:292,2,58.75,0|2|2,0:0|3:0|3:0,0:0:0:0:
196,366,24641,2,0,L|316:356,1,117.5,8|0,0:0|0:0,0:0:0:0:
136,296,25016,6,0,L|126:178,1,117.5,2|0,3:0|0:0,0:0:0:0:
303,243,25391,2,0,L|312:125,1,117.5,8|0,0:0|0:0,0:0:0:0:
254,139,25672,1,2,3:0:0:0:
166,190,25766,2,0,L|175:72,1,117.5,2|0,3:0|0:0,0:0:0:0:
352,37,26141,1,8,0:0:0:0:
293,32,26235,1,0,0:0:0:0:
234,27,26328,1,0,0:0:0:0:
493,146,26516,6,0,L|502:263,1,117.5,4|0,3:2|0:0,0:0:0:0:
326,358,26891,2,0,L|443:348,1,117.5,8|0,0:0|0:0,0:0:0:0:
384,319,27172,1,0,0:0:0:0:
296,302,27266,2,0,L|237:297,2,58.75,0|0|2,0:0|0:0|3:0,0:0:0:0:
473,321,27641,2,0,L|482:203,1,117.5,8|0,0:0|0:0,0:0:0:0:
306,153,28016,6,0,L|423:143,1,117.5,2|0,3:0|0:0,0:0:0:0:
246,95,28391,1,8,0:0:0:0:
363,116,28578,2,0,L|367:174,1,58.75,0|2,0:0|3:0,0:0:0:0:
279,211,28766,2,0,L|220:206,2,58.75,0|2|2,0:0|3:0|3:0,0:0:0:0:
102,304,29141,2,0,L|93:186,1,117.5,8|2,0:0|3:0,0:0:0:0:
352,124,29516,6,0,L|470:115,1,117.5,4|0,0:0|0:0,0:0:0:0:
293,186,29891,2,0,L|284:304,1,117.5,8|0,0:0|0:0,0:0:0:0:
343,319,30172,1,2,3:0:0:0:
254,342,30266,2,0,L|195:337,2,58.75,0|2|2,0:0|3:0|3:0,0:0:0:0:
431,274,30641,2,0,L|313:265,1,117.5,8|0,0:0|0:0,0:0:0:0:
137,182,31016,6,0,L|255:173,1,117.5,2|0,3:0|0:0,0:0:0:0:
77,103,31391,1,8,0:0:0:0:
194,125,31578,2,0,L|215:179,2,58.75,0|2|2,0:0|3:0|3:0,0:0:0:0:
77,103,31953,1,2,3:0:0:0:
254,51,32141,2,0,L|372:42,1,117.5,8|2,0:0|3:0,0:0:0:0:
112,141,32516,6,0,L|103:259,1,117.5,4|0,0:0|0:0,0:0:0:0:
280,302,32891,1,8,0:0:0:0:
163,313,33078,2,0,L|104:308,2,58.75,0|2|2,0:0|3:0|3:0,0:0:0:0:
251,238,33359,2,0,L|192:233,1,58.75,2|2,3:0|3:0,0:0:0:0:
370,161,33641,2,0,L|488:152,1,117.5,8|0,0:0|0:0,0:0:0:0:
310,29,34016,6,0,L|301:147,1,117.5,2|0,3:0|0:0,0:0:0:0:
124,174,34391,1,8,0:0:0:0:
241,205,34578,2,0,L|300:200,1,58.75
109,273,34766,2,0,L|50:268,1,58.75,2|2,3:0|3:0,0:0:0:0:
133,249,34953,2,0,L|138:190,1,58.75,2|2,3:0|3:0,0:0:0:0:
222,166,35141,1,8,0:0:0:0:
140,164,35234,2,0,L|101:209,2,58.75,2|2|2,3:0|3:0|3:0,0:0:0:0:
331,143,35516,6,0,L|213:134,1,117.5,4|0,3:2|0:0,0:0:0:0:
391,210,35891,2,0,L|400:328,1,117.5,8|0,0:0|0:0,0:0:0:0:
341,343,36172,1,2,3:0:0:0:
252,357,36266,2,0,L|193:352,2,58.75,0|2|2,0:0|3:0|3:0,0:0:0:0:
428,341,36641,2,0,L|437:223,1,117.5,8|0,0:0|0:0,0:0:0:0:
261,137,37016,6,0,L|379:145,2,117.5,2|0|8,3:0|0:0|0:0,0:0:0:0:
85,137,37578,2,0,L|64:191,2,58.75,0|2|2,0:0|3:0|3:0,0:0:0:0:
202,115,37953,1,2,3:0:0:0:
25,57,38141,2,0,L|143:48,1,117.5,8|0,0:0|0:0,0:0:0:0:
401,145,38516,6,0,L|283:136,2,117.5,4|2|8,0:0|3:0|0:0,0:0:0:0:
225,207,39078,2,0,L|220:266,1,58.75,0|2,0:0|3:0,0:0:0:0:
279,285,39266,1,0,0:0:0:0:
368,301,39359,2,0,L|373:360,1,58.75,2|2,3:0|3:0,0:0:0:0:
195,384,39641,2,0,L|186:266,1,117.5,8|0,0:0|0:0,0:0:0:0:
9,176,40016,6,0,L|127:185,2,117.5,2|0|8,3:0|0:0|0:0,0:0:0:0:
185,48,40578,2,0,L|190:107,1,58.75,2|2,3:0|3:0,0:0:0:0:
100,136,40766,2,0,L|41:131,2,58.75,0|2|2,0:0|3:0|3:0,0:0:0:0:
277,152,41141,1,8,0:0:0:0:
160,240,41328,2,0,L|219:235,1,58.75,2|2,3:0|3:0,0:0:0:0:
409,332,41516,6,0,L|291:323,1,117.5,4|0,0:0|0:0,0:0:0:0:
469,244,41891,1,8,0:0:0:0:
351,221,42078,2,0,L|330:167,2,58.75,0|2|0,0:0|3:0|0:0,0:0:0:0:
469,244,42453,1,2,3:0:0:0:
291,323,42641,2,0,L|409:314,1,117.5,8|0,0:0|0:0,0:0:0:0:
232,248,43016,6,0,L|223:130,1,117.5,2|0,3:0|0:0,0:0:0:0:
46,65,43391,2,0,L|164:56,1,117.5,8|0,0:0|0:0,0:0:0:0:
75,146,43672,2,0,L|80:205,1,58.75,2|2,3:0|3:0,0:0:0:0:
198,220,43953,1,2,3:0:0:0:
21,346,44141,2,0,L|30:228,1,117.5,8|2,0:0|3:0,0:0:0:0:
289,163,44516,6,0,L|171:154,2,117.5,4|0|8,0:0|0:0|0:0,0:0:0:0:
465,262,45078,2,0,L|406:257,1,58.75,2|2,3:0|3:0,0:0:0:0:
289,348,45359,2,0,L|348:343,1,58.75,2|2,3:0|3:0,0:0:0:0:
170,300,45641,2,0,L|179:182,1,117.5,8|0,0:0|0:0,0:0:0:0:
238,175,45922,1,2,3:0:0:0:
426,168,46016,5,2,3:0:0:0:
309,195,46203,2,0,L|300:313,1,117.5,8|0,0:0|0:0,0:0:0:0:
465,368,46484,2,0,L|406:363,1,58.75,8|2,0:0|3:0,0:0:0:0:
146,351,46766,2,0,L|137:233,1,117.5,2|2,3:0|3:0,0:0:0:0:
396,162,47141,2,0,L|278:153,1,117.5,8|2,0:0|3:0,0:0:0:0:
20,90,47516,6,0,L|198:76,2,176.25,2|2|2,3:0|3:0|3:0,0:0:0:0:
279,174,48266,1,8,0:0:0:0:
119,288,48922,1,2,3:0:0:0:
308,277,49016,6,0,L|483:290,2,176.25,2|2|2,3:0|3:0|3:0,0:0:0:0:
49,257,49766,1,8,0:0:0:0:
189,239,50047,2,0,L|180:121,1,117.5,2|8,3:0|0:0,0:0:0:0:
121,111,50328,1,2,3:0:0:0:
380,45,50516,6,0,L|205:58,2,176.25,2|2|2,3:0|3:0|3:0,0:0:0:0:
121,154,51266,1,8,0:0:0:0:
297,231,51453,2,0,L|292:290,1,58.75,2|2,3:0|3:0,0:0:0:0:
151,317,51828,1,2,3:0:0:0:
410,361,52017,6,0,L|235:348,2,176.25,2|2|2,3:0|3:0|3:0,0:0:0:0:
151,272,52767,1,8,0:0:0:0:
292,251,53048,1,2,3:0:0:0:
279,193,53142,1,8,0:0:0:0:
245,147,53235,1,2,3:0:0:0:
194,118,53329,1,2,3:0:0:0:
136,113,53423,1,2,3:0:0:0:
325,66,53517,6,0,L|500:79,2,176.25,2|2|2,3:0|3:0|3:0,0:0:0:0:
66,51,54266,1,8,0:0:0:0:
242,149,54547,2,0,L|183:144,1,58.75,2|8,3:0|0:0,0:0:0:0:
360,237,54828,1,2,3:0:0:0:
101,337,55016,6,0,L|276:324,1,176.25,2|2,3:0|3:0,0:0:0:0:
101,246,55484,1,8,0:0:0:0:
42,237,55578,2,0,L|47:178,1,58.75,0|2,0:0|3:0,0:0:0:0:
238,114,55766,2,0,L|120:105,1,117.5,8|4,0:0|0:0,0:0:0:0:
298,193,56141,2,0,L|309:250,3,58.75,2|2|2|2,3:0|3:0|3:0|3:0,3:0:0:0:
120,347,56516,6,0,L|295:334,2,176.25,2|2|2,3:0|3:0|3:0,0:0:0:0:
379,246,57266,1,8,0:0:0:0:
262,231,57453,2,0,L|248:195,2,39.1666666666667
431,138,57641,2,0,L|313:129,1,117.5,8|2,0:0|3:0,0:0:0:0:
55,61,58016,6,0,L|230:48,2,176.25,2|2|2,3:0|3:0|3:0,0:0:0:0:
314,117,58766,2,0,L|323:235,1,117.5,8|0,0:0|0:0,0:0:0:0:
264,249,59047,2,0,L|323:254,1,58.75,2|2,3:0|3:0,0:0:0:0:
134,316,59234,2,0,L|75:321,1,58.75,8|2,0:0|3:0,0:0:0:0:
336,218,59516,6,0,L|218:209,1,117.5,2|0,3:0|0:0,0:0:0:0:
384,133,59797,2,0,L|325:128,1,58.75,8|0,0:0|0:0,0:0:0:0:
184,112,60078,1,2,3:0:0:0:
443,210,60266,2,0,P|500:265|444:321,1,176.25,8|0,0:0|0:0,0:0:0:0:
356,366,60641,2,0,L|474:357,1,117.5,2|2,3:0|3:0,0:0:0:0:
414,334,60922,1,2,3:0:0:0:
226,313,61016,6,0,L|51:300,2,176.25,2|8|2,3:0|0:0|3:0,0:0:0:0:
403,198,61766,2,0,L|228:211,2,176.25,8|2|8,0:0|3:0|0:0,0:0:0:0:
144,90,62516,6,0,L|319:103,2,176.25,2|2|2,3:0|3:0|3:0,0:0:0:0:
403,184,63266,2,0,L|412:302,1,117.5,8|2,0:0|3:0,0:0:0:0:
353,341,63547,2,0,L|412:346,2,58.75,2|0|0,3:0|0:0|0:0,0:0:0:0:
164,322,63828,1,8,0:0:0:0:
423,206,64016,6,0,L|248:219,2,176.25,2|2|2,3:0|3:0|3:0,0:0:0:0:
164,193,64766,2,0,P|107:137|164:82,1,176.25,8|2,0:0|3:0,0:0:0:0:
353,82,65141,2,0,L|412:87,1,58.75,8|2,0:0|3:0,0:0:0:0:
294,172,65422,1,2,3:0:0:0:
106,249,65516,6,0,L|281:262,2,176.25,2|8|2,3:0|0:0|3:0,0:0:0:0:
365,178,66266,2,0,L|356:60,1,117.5,8|2,0:0|3:0,0:0:0:0:
238,33,66641,2,0,L|217:87,2,58.75,0|2|2,0:0|3:0|3:0,0:0:0:0:
497,10,67016,6,0,L|322:23,2,176.25,2|2|8,3:0|3:0|0:0,0:0:0:0:
238,118,67766,2,0,L|413:131,1,176.25,2|2,3:0|3:0,0:0:0:0:
226,236,68422,6,0,L|217:258,1,23.5,2|2,0:0|0:0,0:0:0:0:
226,236,68517,2,0,L|440:225,1,211.5,2|0,0:0|0:0,0:0:0:0:
304,133,69203,5,2,0:0:0:0:
260,138,69266,1,2,0:0:0:0:
244,172,69328,1,2,0:0:0:0:
260,206,69391,2,0,L|385:211,1,125.333333333333,2|0,0:0|0:0,0:0:0:0:
197,321,70016,5,2,0:0:0:0:
256,192,70203,12,0,71141,0:0:0:0:
476,204,71516,6,0,L|358:195,1,117.5,6|0,3:0|0:0,0:0:0:0:
418,170,71797,1,0,0:0:0:0:
229,143,71891,1,8,0:0:0:0:
346,247,72078,2,0,L|405:242,1,58.75,0|2,0:0|3:0,0:0:0:0:
214,150,72266,2,0,L|332:159,2,117.5,2|2|8,3:0|3:0|0:0,0:0:0:0:
472,358,72828,6,0,L|481:240,1,117.5,2|0,3:0|0:0,0:0:0:0:
222,170,73203,2,0,L|340:161,1,117.5,2|0,3:0|0:0,0:0:0:0:
80,339,73578,2,0,L|71:221,1,117.5,2|0,3:0|0:0,0:0:0:0:
236,166,73859,2,0,L|177:161,1,58.75,8|2,0:0|3:0,0:0:0:0:
319,67,74141,2,0,L|437:58,1,117.5,8|2,0:0|3:0,0:0:0:0:
177,151,74516,5,2,3:0:0:0:
435,225,74703,2,0,L|317:216,2,117.5,2|8|2,3:0|0:0|3:0,0:0:0:0:
176,308,75266,1,2,3:0:0:0:
435,225,75453,2,0,L|317:216,1,117.5,2|8,3:0|0:0,0:0:0:0:
59,208,75828,6,0,L|68:90,1,117.5,2|0,3:0|0:0,0:0:0:0:
126,83,76109,1,0,0:0:0:0:
315,73,76203,1,8,0:0:0:0:
197,155,76391,2,0,L|256:160,1,58.75,0|2,0:0|3:0,0:0:0:0:
67,230,76578,1,2,3:0:0:0:
208,332,76766,1,2,3:0:0:0:
149,327,76860,1,2,3:0:0:0:
90,323,76953,1,8,0:0:0:0:
349,253,77141,6,0,L|467:244,1,117.5,2|0,3:0|0:0,0:0:0:0:
207,166,77516,2,0,L|325:157,1,117.5,2|0,3:0|0:0,0:0:0:0:
65,79,77891,2,0,L|183:70,1,117.5,2|0,3:0|0:0,0:0:0:0:
347,55,78172,2,0,L|406:50,1,58.75,8|2,0:0|3:0,0:0:0:0:
288,136,78453,2,0,L|279:254,1,117.5,2|2,3:0|3:0,0:0:0:0:
20,308,78828,5,2,3:0:0:0:
138,220,79016,2,0,L|20:211,1,117.5,0|2,0:0|3:0,0:0:0:0:
197,48,79391,2,0,L|206:165,1,117.5,8|0,0:0|0:0,0:0:0:0:
324,187,79766,1,2,3:0:0:0:
148,288,79953,2,0,L|266:279,1,117.5,8|0,0:0|0:0,0:0:0:0:
441,195,80328,6,0,L|323:186,2,117.5,2|0|2,3:0|0:0|3:0,0:0:0:0:
264,361,80891,2,0,L|255:244,1,117.5,8|0,0:0|0:0,0:0:0:0:
373,201,81266,1,2,3:0:0:0:
197,188,81453,1,8,0:0:0:0:
268,175,81547,1,4,0:0:0:0:
298,120,81641,1,2,3:0:0:0:
268,65,81734,1,8,0:0:0:0:
80,52,81828,6,0,L|71:169,1,117.5,6|0,3:0|0:0,0:0:0:0:
130,182,82109,1,0,0:0:0:0:
319,204,82203,1,8,0:0:0:0:
201,265,82391,2,0,L|142:269,1,58.75,0|2,0:0|3:0,0:0:0:0:
331,358,82578,2,0,L|213:349,2,117.5,2|2|8,3:0|3:0|0:0,0:0:0:0:
72,379,83141,6,0,L|63:262,1,117.5,2|0,3:0|0:0,0:0:0:0:
322,194,83516,2,0,L|440:185,1,117.5,2|0,3:0|0:0,0:0:0:0:
180,200,83891,2,0,L|189:83,1,117.5,2|0,3:0|0:0,0:0:0:0:
354,43,84172,2,0,L|295:38,1,58.75,8|2,0:0|3:0,0:0:0:0:
437,141,84453,2,0,L|319:132,1,117.5,8|2,0:0|3:0,0:0:0:0:
61,110,84828,5,2,3:0:0:0:
320,97,85016,2,0,L|202:88,2,117.5,2|8|2,3:0|0:0|3:0,0:0:0:0:
62,203,85578,2,0,L|180:194,2,117.5,8|2|2,0:0|3:0|3:0,0:0:0:0:
321,286,86141,6,0,L|439:295,1,117.5,2|0,3:0|0:0,0:0:0:0:
379,330,86422,1,0,0:0:0:0:
191,350,86516,1,8,0:0:0:0:
308,274,86703,2,0,L|249:269,1,58.75,0|2,0:0|3:0,0:0:0:0:
440,181,86891,2,0,L|322:190,2,117.5,2|2|8,3:0|3:0|0:0,0:0:0:0:
183,118,87452,1,2,3:0:0:0:
442,227,87640,6,0,L|324:218,1,117.5,8|2,0:0|3:0,0:0:0:0:
137,201,88202,2,0,L|123:18,1,176.25,6|0,3:2|0:0,0:0:0:0:
212,0,88577,2,0,L|330:9,1,117.5,2|0,3:0|0:0,0:0:0:0:
258,81,88858,2,0,L|140:90,1,117.5,2|0,3:0|0:0,0:0:0:0:
331,175,89140,6,0,L|449:184,2,117.5,2|2|2,3:0|3:0|3:0,0:0:0:0:
155,207,89703,1,8,0:0:0:0:
273,230,89891,2,0,L|264:347,1,117.5,0|2,0:0|3:0,0:0:0:0:
87,365,90266,2,0,L|205:356,1,117.5,8|2,0:0|3:0,0:0:0:0:
381,344,90641,5,2,3:0:0:0:
264,336,90828,1,0,0:0:0:0:
259,277,90922,1,2,3:0:0:0:
254,218,91016,1,2,3:0:0:0:
77,195,91203,1,8,0:0:0:0:
254,144,91390,2,0,L|195:139,1,58.75,2|2,3:0|3:0,0:0:0:0:
78,125,91671,1,8,0:0:0:0:
267,65,91765,2,0,L|326:60,1,58.75,2|2,3:0|3:0,3:0:0:0:
267,108,91952,2,0,L|208:103,1,58.75,2|2,3:0|3:0,3:0:0:0:
399,183,92140,5,2,3:0:0:0:
222,200,92422,1,2,3:0:0:0:
333,278,92641,1,2,3:0:0:0:
193,288,92703,1,8,0:0:0:0:
54,296,93453,1,8,0:0:0:0:
313,309,93641,6,0,L|304:192,1,117.5,6|0,3:0|0:0,0:0:0:0:
139,157,93922,2,0,L|80:152,1,58.75,2|8,3:0|0:0,0:0:0:0:
257,73,94203,2,0,L|140:64,1,117.5,12|2,0:0|3:0,0:0:0:0:
328,159,94484,2,0,L|445:150,1,117.5,8|2,0:0|3:0,0:0:0:0:
373,209,94766,2,0,L|364:326,1,117.5,8|2,0:0|3:0,0:0:0:0:
105,355,95141,6,0,L|222:346,1,117.5,2|0,3:0|0:0,0:0:0:0:
387,325,95422,2,0,L|328:320,1,58.75,2|8,3:0|0:0,0:0:0:0:
152,304,95703,2,0,P|95:248|152:193,1,176.25,2|0,3:0|0:0,0:0:0:0:
239,193,96078,2,0,L|234:134,1,58.75,2|0,3:0|0:0,0:0:0:0:
175,122,96266,1,2,3:0:0:0:
362,98,96359,6,0,L|479:89,1,117.5,12|0,0:0|0:0,0:0:0:0:
311,182,96641,2,0,L|290:236,2,58.75,2|2|0,3:0|3:0|0:0,0:0:0:0:
222,251,96922,2,0,L|163:246,2,58.75,2|0|0,3:0|0:0|0:0,0:0:0:0:
408,231,97203,5,2,3:0:0:0:
479,206,97297,2,0,L|474:147,1,58.75,2|2,3:0|3:0,0:0:0:0:
415,135,97483,1,2,3:0:0:0:
228,90,97578,2,0,L|345:81,1,117.5,2|0,3:0|0:0,0:0:0:0:
257,157,97859,1,2,3:0:0:0:
198,172,97953,2,0,L|193:231,1,58.75,2|8,3:0|0:0,0:0:0:0:
383,264,98141,6,0,L|500:255,1,117.5,2|0,3:0|0:0,0:0:0:0:
312,360,98422,2,0,L|307:301,1,58.75,2|8,3:0|0:0,0:0:0:0:
130,249,98703,1,2,3:0:0:0:
247,166,98891,2,0,L|130:157,1,117.5,0|2,0:0|3:0,0:0:0:0:
389,92,99266,2,0,L|448:87,1,58.75,8|2,0:0|3:0,0:0:0:0:
94,184,99641,6,0,L|85:300,1,117.5,2|0,3:0|0:0,0:0:0:0:
250,360,99922,2,0,L|191:355,1,58.75,2|8,3:0|0:0,0:0:0:0:
368,300,100203,2,0,L|377:183,1,117.5,2|0,3:0|0:0,0:0:0:0:
288,148,100484,2,0,L|405:139,1,117.5,8|2,0:0|3:0,0:0:0:0:
214,67,100766,2,0,L|331:58,1,117.5,8|2,0:0|3:0,0:0:0:0:
72,150,101141,6,0,L|67:209,1,58.75,2|2,3:0|3:0,0:0:0:0:
208,300,101422,2,0,L|149:295,1,58.75,2|2,3:0|3:0,0:0:0:0:
326,375,101703,2,0,L|443:366,1,117.5,8|2,0:0|3:0,0:0:0:0:
184,303,102078,6,0,L|174:185,1,117.5,2|0,3:0|0:0,0:0:0:0:
246,157,102358,2,0,L|363:148,1,117.5,6|0,0:0|0:0,0:0:0:0:
172,88,102641,2,0,L|55:79,1,117.5,2|0,3:0|0:0,0:0:0:0:
114,127,102922,1,2,3:0:0:0:
303,201,103016,6,0,L|186:210,1,117.5,8|2,0:0|3:0,0:0:0:0:
363,361,103391,2,0,P|420:305|363:250,1,176.25,2|2,0:0|3:0,0:0:0:0:
176,185,103766,2,0,L|293:176,1,117.5,8|2,0:0|3:0,0:0:0:0:
116,249,104140,2,0,P|59:193|116:138,1,176.25,2|2,0:0|3:0,0:0:0:0:
303,138,104516,6,0,L|420:147,1,117.5,8|2,0:0|3:0,0:0:0:0:
244,252,104891,2,0,L|361:243,1,117.5,2|0,3:0|0:0,0:0:0:0:
290,182,105172,2,0,L|173:173,1,117.5,2|0,3:0|0:0,0:0:0:0:
362,95,105453,2,0,L|303:90,1,58.75,8|2,0:0|3:0,0:0:0:0:
113,24,105640,6,0,L|288:10,1,176.25,4|2,3:2|3:0,0:0:0:0:
289,107,106016,2,0,L|172:98,1,117.5,8|2,0:0|3:0,0:0:0:0:
348,183,106391,2,0,L|362:358,1,176.25,2|2,0:0|3:0,0:0:0:0:
274,372,106766,2,0,L|391:363,1,117.5,8|2,0:0|3:0,0:0:0:0:
215,304,107141,6,0,P|157:286|157:184,1,176.25,2|2,0:0|3:0,0:0:0:0:
244,158,107516,2,0,L|361:149,1,117.5,8|2,0:0|3:0,0:0:0:0:
243,62,107891,1,2,3:0:0:0:
80,80,107984,2,0,L|71:197,1,117.5,2|2,3:0|3:0,0:0:0:0:
261,275,108266,2,0,L|144:266,1,117.5,8|2,0:0|3:0,0:0:0:0:
403,362,108641,6,0,L|412:245,1,117.5,6|0,3:0|0:0,0:0:0:0:
235,298,109016,2,0,L|226:181,1,117.5,8|2,0:0|3:0,0:0:0:0:
403,110,109391,1,0,0:0:0:0:
344,105,109484,1,2,3:0:0:0:
285,100,109578,1,2,3:0:0:0:
108,189,109766,2,0,L|225:180,1,117.5,8|2,0:0|3:0,0:0:0:0:
49,367,110141,6,0,L|40:250,1,117.5,2|0,3:0|0:0,0:0:0:0:
217,207,110516,1,8,0:0:0:0:
334,131,110703,2,0,L|275:126,1,58.75,2|2,3:0|3:0,3:0:0:0:
134,53,110984,2,0,L|192:48,1,58.75,2|2,3:0|3:0,3:0:0:0:
370,73,111266,2,0,L|379:190,1,117.5,8|2,0:0|3:0,0:0:0:0:
120,285,111641,6,0,L|237:276,2,117.5,2|0|8,3:0|0:0|0:0,0:0:0:0:
296,315,112203,2,0,L|287:198,1,117.5,2|0,3:0|0:0,0:0:0:0:
229,155,112484,2,0,L|287:150,1,58.75,2|2,3:0|3:0,0:0:0:0:
465,70,112766,2,0,L|348:61,1,117.5,8|2,0:0|3:0,0:0:0:0:
171,167,113140,2,0,L|288:158,1,117.5,2|0,3:0|0:0,0:0:0:0:
465,264,113516,5,8,0:0:0:0:
348,253,113703,2,0,L|343:195,1,58.75,0|2,0:0|3:0,0:0:0:0:
484,178,113984,2,0,L|479:120,1,58.75,0|0,0:0|0:0,0:0:0:0:
420,106,114172,1,2,3:0:0:0:
332,97,114266,2,0,L|327:155,1,58.75,2|2,3:0|3:0,3:0:0:0:
397,149,114453,2,0,L|392:207,1,58.75,2|2,3:0|3:0,3:0:0:0:
201,237,114640,6,0,L|84:246,1,117.5,4|0,0:0|0:0,0:0:0:0:
260,364,115016,2,0,L|269:247,1,117.5,8|2,0:0|3:0,0:0:0:0:
92,164,115391,1,0,0:0:0:0:
151,159,115484,1,2,3:0:0:0:
210,155,115578,1,2,3:0:0:0:
387,65,115766,2,0,L|270:56,1,117.5,8|2,0:0|3:0,0:0:0:0:
447,146,116141,6,0,L|456:263,1,117.5,2|0,3:0|0:0,0:0:0:0:
279,322,116516,1,8,0:0:0:0:
162,242,116703,2,0,L|221:237,1,58.75,0|2,0:0|3:0,0:0:0:0:
338,223,116984,2,0,L|397:218,2,58.75,2|2|0,3:0|3:0|0:0,0:0:0:0:
249,232,117266,2,0,L|132:223,1,117.5,8|2,0:0|3:0,0:0:0:0:
391,321,117641,6,0,L|274:330,2,117.5,2|0|8,3:0|0:0|0:0,0:0:0:0:
215,263,118203,2,0,L|224:146,1,117.5,2|0,3:0|0:0,0:0:0:0:
312,166,118484,2,0,L|316:107,1,58.75,2|2,3:0|3:0,0:0:0:0:
138,42,118766,2,0,L|255:33,1,117.5,8|2,0:0|3:0,0:0:0:0:
79,122,119141,6,0,L|70:239,1,117.5,2|0,3:0|0:0,0:0:0:0:
247,278,119516,1,8,0:0:0:0:
106,207,119703,2,0,L|165:203,1,58.75,2|8,3:0|0:0,0:0:0:0:
282,189,119984,2,0,L|341:185,2,58.75,2|2|0,3:0|3:0|0:0,0:0:0:0:
80,345,120265,2,0,L|71:228,1,117.5,8|0,0:0|0:0,0:0:0:0:
330,162,120641,6,0,L|213:153,1,117.5,8|2,0:0|3:0,0:0:0:0:
472,347,121015,2,0,L|481:230,1,117.5,8|2,0:0|3:0,0:0:0:0:
222,167,121390,6,0,L|339:158,2,117.5,8|2|8,0:0|3:0|0:0,0:0:0:0:
164,172,121858,1,0,3:0:0:0:
352,241,121952,2,0,L|293:236,1,58.75,2|2,3:0|3:0,0:0:0:0:
120,213,122140,6,0,L|3:204,1,117.5,8|2,0:0|3:0,0:0:0:0:
262,116,122515,2,0,L|145:107,1,117.5,8|2,0:0|3:0,0:0:0:0:
404,19,122891,6,0,L|287:10,1,117.5,8|2,0:0|3:0,0:0:0:0:
346,54,123171,1,2,3:0:0:0:
158,89,123265,1,8,0:0:0:0:
275,171,123452,2,0,L|216:167,1,58.75,2|2,3:0|3:0,0:0:0:0:
26,199,123641,6,0,L|17:316,1,117.5,8|2,0:0|3:0,0:0:0:0:
277,366,124016,2,0,L|160:357,1,117.5,8|2,0:0|3:0,0:0:0:0:
219,322,124296,1,2,3:0:0:0:
408,248,124390,6,0,L|291:239,1,117.5,8|2,0:0|3:0,0:0:0:0:
32,223,124765,1,8,0:0:0:0:
149,137,124952,2,0,L|90:133,1,58.75,2|2,3:0|3:0,0:0:0:0:
281,48,125140,6,0,L|398:39,1,117.5,8|2,0:0|3:0,0:0:0:0:
139,157,125515,2,0,L|22:148,1,117.5,8|2,0:0|3:0,0:0:0:0:
281,267,125890,6,0,L|164:258,1,117.5,8|2,0:0|3:0,0:0:0:0:
423,377,126265,1,8,0:0:0:0:
164,295,126452,2,0,L|223:291,1,58.75,2|2,3:0|3:0,0:0:0:0:
389,270,126640,6,0,L|506:261,1,117.5,8|2,0:0|3:0,0:0:0:0:
247,185,127015,2,0,L|364:176,1,117.5,8|2,0:0|3:0,0:0:0:0:
105,230,127390,6,0,L|96:113,1,117.5,8|2,0:0|3:0,0:0:0:0:
355,21,127765,1,8,0:0:0:0:
284,34,127859,1,2,3:0:0:0:
254,89,127953,1,2,3:0:0:0:
284,144,128046,1,2,3:0:0:0:
473,227,128140,6,0,L|356:218,1,117.5,8|2,0:0|3:0,0:0:0:0:
97,324,128515,2,0,L|214:315,1,117.5,8|2,0:0|3:0,0:0:0:0:
473,227,128890,6,0,L|356:218,2,117.5,8|2|8,0:0|3:0|0:0,0:0:0:0:
286,137,129358,2,0,L|227:141,2,58.75,2|2|2,3:0|3:0|3:0,0:0:0:0:
95,188,129640,6,0,L|86:305,1,117.5,8|2,0:0|3:0,0:0:0:0:
345,366,130015,2,0,L|228:357,1,117.5,8|2,0:0|3:0,0:0:0:0:
487,288,130390,6,0,L|496:171,1,117.5,8|2,0:0|3:0,0:0:0:0:
237,127,130765,1,8,0:0:0:0:
354,165,130952,2,0,L|358:224,1,58.75,2|2,3:0|3:0,0:0:0:0:
167,309,131140,6,0,L|284:300,1,117.5,8|2,0:0|3:0,0:0:0:0:
96,229,131421,2,0,L|37:225,2,58.75,8|2|2,0:0|3:0|3:0,0:0:0:0:
184,159,131702,2,0,L|243:155,2,58.75,8|2|2,0:0|3:0|3:0,0:0:0:0:
373,86,131983,6,0,L|432:90,2,58.75,8|2|2,0:0|3:0|3:0,0:0:0:0:
183,76,132265,2,0,L|124:72,1,58.75,8|2,0:0|3:0,0:0:0:0:
313,176,132452,2,0,L|372:172,1,58.75,8|2,0:0|3:0,0:0:0:0:
124,269,132640,6,0,L|299:282,2,176.25,2|2|2,3:0|3:0|3:0,0:0:0:0:
383,177,133390,1,8,0:0:0:0:
393,288,134046,1,2,3:0:0:0:
204,277,134140,6,0,L|29:290,2,176.25,2|2|2,3:0|3:0|3:0,0:0:0:0:
463,257,134890,1,8,0:0:0:0:
323,239,135171,2,0,L|332:121,1,117.5,2|8,3:0|0:0,0:0:0:0:
391,111,135452,1,2,3:0:0:0:
132,45,135640,6,0,L|307:58,2,176.25,2|2|2,3:0|3:0|3:0,0:0:0:0:
391,154,136390,1,8,0:0:0:0:
215,231,136577,2,0,L|220:290,1,58.75,2|2,3:0|3:0,0:0:0:0:
361,317,136952,1,2,3:0:0:0:
102,361,137141,6,0,L|277:348,2,176.25,2|2|2,3:0|3:0|3:0,0:0:0:0:
361,272,137891,1,8,0:0:0:0:
220,251,138172,1,2,3:0:0:0:
233,193,138266,1,8,0:0:0:0:
267,147,138359,1,2,3:0:0:0:
318,118,138453,1,2,3:0:0:0:
376,113,138547,1,2,3:0:0:0:
187,66,138641,6,0,L|12:79,2,176.25,2|2|2,3:0|3:0|3:0,0:0:0:0:
446,51,139390,1,8,0:0:0:0:
270,149,139671,2,0,L|329:144,1,58.75,2|8,3:0|0:0,0:0:0:0:
152,237,139952,1,2,3:0:0:0:
411,337,140140,6,0,L|236:324,1,176.25,2|2,3:0|3:0,0:0:0:0:
411,246,140608,1,8,0:0:0:0:
470,237,140702,2,0,L|465:178,1,58.75,0|2,0:0|3:0,0:0:0:0:
274,114,140890,2,0,L|392:105,1,117.5,8|0,0:0|0:0,0:0:0:0:
214,193,141265,2,0,L|203:250,3,58.75,2|2|2|2,3:0|3:0|3:0|3:0,3:0:0:0:
392,347,141640,6,0,L|217:334,2,176.25,2|2|2,3:0|3:0|3:0,0:0:0:0:
133,246,142390,1,8,0:0:0:0:
250,231,142577,2,0,L|264:195,2,39.1666666666667,0|0|0,0:0|0:0|0:0,0:0:0:0:
81,138,142765,2,0,L|199:129,1,117.5,8|2,0:0|3:0,0:0:0:0:
457,61,143140,6,0,L|282:48,2,176.25,2|2|2,3:0|3:0|3:0,0:0:0:0:
198,117,143890,2,0,L|189:235,1,117.5,8|0,0:0|0:0,0:0:0:0:
248,249,144171,2,0,L|189:254,1,58.75,2|2,3:0|3:0,0:0:0:0:
378,316,144358,2,0,L|437:321,1,58.75,8|2,0:0|3:0,0:0:0:0:
177,350,144640,6,0,L|2:363,2,176.25,2|8|2,3:0|0:0|3:0,0:0:0:0:
436,275,145390,2,0,L|318:266,1,117.5,8|2,0:0|3:0,0:0:0:0:
407,220,145671,2,0,L|402:161,1,58.75,2|2,3:0|3:0,0:0:0:0:
225,185,145952,2,0,L|220:126,1,58.75,2|2,3:0|3:0,0:0:0:0:
411,37,146140,6,0,L|236:50,2,176.25,2|8|2,3:0|0:0|3:0,0:0:0:0:
234,154,146890,2,0,L|59:141,2,176.25,8|2|8,0:0|3:0|0:0,0:0:0:0:
493,239,147640,6,0,L|318:252,2,176.25,2|2|2,3:0|3:0|3:0,0:0:0:0:
234,372,148390,2,0,L|225:254,1,117.5,8|2,0:0|3:0,0:0:0:0:
167,247,148671,1,2,3:0:0:0:
343,169,148858,2,0,L|402:164,1,58.75,2|8,3:0|0:0,0:0:0:0:
141,48,149140,6,0,L|316:61,2,176.25,2|2|2,3:0|3:0|3:0,0:0:0:0:
400,156,149890,2,0,L|409:274,1,117.5,8|0,0:0|0:0,0:0:0:0:
350,291,150171,1,2,3:0:0:0:
185,304,150265,2,0,L|126:299,1,58.75,8|2,0:0|3:0,0:0:0:0:
244,215,150546,1,2,3:0:0:0:
432,184,150640,6,0,L|257:171,2,176.25,2|8|2,3:0|0:0|3:0,0:0:0:0:
173,294,151390,2,0,L|291:285,1,117.5,2|2,3:0|3:0,0:0:0:0:
114,214,151765,2,0,L|103:157,3,58.75,2|2|2|2,3:0|3:0|3:0|3:0,3:0:0:0:
292,83,152140,6,0,L|467:96,2,176.25,2|2|8,3:0|3:0|0:0,0:0:0:0:
115,128,152890,2,0,L|102:303,1,176.25,2|2,3:0|3:0,0:0:0:0:
286,236,153546,6,0,L|296:263,1,23.5,2|2,0:0|0:0,0:0:0:0:
286,236,153640,2,0,L|72:225,1,211.5,2|0,0:0|0:0,0:0:0:0:
208,133,154327,5,2,0:0:0:0:
252,138,154390,1,2,0:0:0:0:
268,172,154452,1,2,0:0:0:0:
252,206,154515,2,0,L|127:211,1,125.333333333333,2|0,0:0|0:0,0:0:0:0:
315,321,155140,5,2,0:0:0:0:
256,192,155327,12,0,156265,0:0:0:0:
36,204,156641,6,0,L|154:195,1,117.5,6|0,3:0|0:0,0:0:0:0:
94,170,156921,1,0,0:0:0:0:
283,143,157015,1,8,0:0:0:0:
166,247,157202,2,0,L|107:242,1,58.75,0|2,0:0|3:0,0:0:0:0:
298,150,157390,2,0,L|180:159,2,117.5,2|2|8,3:0|3:0|0:0,0:0:0:0:
40,358,157952,6,0,L|31:240,1,117.5,2|0,3:0|0:0,0:0:0:0:
290,170,158327,2,0,L|172:161,1,117.5,2|0,3:0|0:0,0:0:0:0:
432,339,158702,2,0,L|441:221,1,117.5,2|0,3:0|0:0,0:0:0:0:
276,166,158983,2,0,L|335:161,1,58.75,8|2,0:0|3:0,0:0:0:0:
193,67,159265,2,0,L|75:58,1,117.5,8|2,0:0|3:0,0:0:0:0:
335,151,159640,5,2,3:0:0:0:
77,225,159827,2,0,L|195:216,2,117.5,2|8|2,3:0|0:0|3:0,0:0:0:0:
336,308,160390,1,2,3:0:0:0:
77,225,160577,2,0,L|195:216,1,117.5,2|8,3:0|0:0,0:0:0:0:
453,208,160952,6,0,L|444:90,1,117.5,2|0,3:0|0:0,0:0:0:0:
386,83,161233,1,0,0:0:0:0:
197,73,161327,1,8,0:0:0:0:
315,155,161515,2,0,L|256:160,1,58.75,0|2,0:0|3:0,0:0:0:0:
445,230,161702,1,2,3:0:0:0:
304,332,161890,1,2,3:0:0:0:
363,327,161984,1,2,3:0:0:0:
422,323,162077,1,8,0:0:0:0:
163,253,162265,6,0,L|45:244,1,117.5,2|0,3:0|0:0,0:0:0:0:
305,166,162640,2,0,L|187:157,1,117.5,2|0,3:0|0:0,0:0:0:0:
447,79,163015,6,0,L|329:70,1,117.5,2|0,3:0|0:0,0:0:0:0:
165,150,163295,2,0,L|224:145,1,58.75,8|2,0:0|3:0,0:0:0:0:
82,255,163577,2,0,L|200:246,1,117.5,2|2,3:0|3:0,0:0:0:0:
258,251,163858,1,2,3:0:0:0:
492,308,163952,5,2,3:0:0:0:
374,220,164140,2,0,L|492:211,1,117.5,0|2,0:0|3:0,0:0:0:0:
315,48,164515,2,0,L|306:165,1,117.5,8|0,0:0|0:0,0:0:0:0:
188,187,164890,1,2,3:0:0:0:
364,288,165077,2,0,L|246:279,1,117.5,8|0,0:0|0:0,0:0:0:0:
71,195,165452,6,0,L|189:186,2,117.5,2|0|2,3:0|0:0|3:0,0:0:0:0:
248,361,166015,2,0,L|257:244,1,117.5,8|0,0:0|0:0,0:0:0:0:
139,201,166390,1,2,3:0:0:0:
315,188,166577,1,8,0:0:0:0:
244,175,166671,1,4,3:2:0:0:
214,120,166765,1,2,3:0:0:0:
244,65,166858,1,8,0:0:0:0:
432,52,166952,6,0,L|441:169,1,117.5,6|0,3:0|0:0,0:0:0:0:
382,182,167233,1,0,0:0:0:0:
193,204,167327,1,8,0:0:0:0:
311,265,167515,2,0,L|370:269,1,58.75,0|2,0:0|3:0,0:0:0:0:
181,358,167702,2,0,L|299:349,2,117.5,2|2|8,3:0|3:0|0:0,0:0:0:0:
440,379,168265,6,0,L|449:262,1,117.5,2|0,3:0|0:0,0:0:0:0:
190,194,168640,2,0,L|72:185,1,117.5,2|0,3:0|0:0,0:0:0:0:
332,200,169015,2,0,L|323:83,1,117.5,2|0,3:0|0:0,0:0:0:0:
158,43,169296,2,0,L|217:38,1,58.75,8|2,0:0|3:0,0:0:0:0:
75,141,169577,2,0,L|193:132,1,117.5,8|2,0:0|3:0,0:0:0:0:
451,110,169952,5,2,3:0:0:0:
192,97,170140,2,0,L|310:88,2,117.5,2|8|2,3:0|0:0|3:0,0:0:0:0:
450,203,170702,2,0,L|332:194,2,117.5,8|2|2,0:0|3:0|3:0,0:0:0:0:
191,286,171264,6,0,L|73:295,1,117.5,2|0,3:0|0:0,0:0:0:0:
133,330,171545,1,0,0:0:0:0:
321,350,171639,1,8,0:0:0:0:
204,274,171826,2,0,L|263:269,1,58.75,0|2,0:0|3:0,0:0:0:0:
72,181,172014,2,0,L|190:190,2,117.5,2|2|8,3:0|3:0|0:0,0:0:0:0:
329,118,172576,1,2,3:0:0:0:
70,227,172764,6,0,L|188:218,1,117.5,8|2,0:0|3:0,0:0:0:0:
375,201,173326,6,0,L|389:18,1,176.25,4|8,3:2|0:0,0:0:0:0:
200,14,173701,2,0,L|318:5,1,117.5,2|0,3:0|0:0,0:0:0:0:
228,76,173982,2,0,L|207:130,2,58.75,2|2|2,3:0|3:0|3:0,0:0:0:0:
418,60,174264,5,2,3:0:0:0:
301,176,174451,1,2,3:0:0:0:
359,171,174546,1,0,0:0:0:0:
418,167,174640,1,8,0:0:0:0:
159,355,174827,2,0,L|168:237,1,117.5,2|0,3:0|0:0,0:0:0:0:
345,202,175202,1,2,3:0:0:0:
86,246,175390,2,0,L|77:128,1,117.5,8|2,0:0|3:0,0:0:0:0:
336,49,175764,6,0,L|218:40,1,117.5,2|2,3:0|3:0,0:0:0:0:
478,142,176139,1,8,0:0:0:0:
220,326,176326,2,0,L|229:208,1,117.5,2|0,3:0|0:0,0:0:0:0:
394,157,176607,2,0,L|335:152,1,58.75,2|2,3:0|3:0,0:0:0:0:
158,136,176889,1,8,0:0:0:0:
100,140,176982,2,0,L|91:258,1,117.5,2|2,3:0|3:0,0:0:0:0:
258,344,177264,6,0,L|140:335,1,117.5,2|2,3:0|3:0,0:0:0:0:
411,318,177639,1,8,0:0:0:0:
294,302,177826,2,0,L|285:184,1,117.5,2|0,3:0|0:0,0:0:0:0:
108,146,178201,1,2,3:0:0:0:
367,105,178389,2,0,L|485:114,1,117.5,8|2,0:0|3:0,0:0:0:0:
425,152,178670,1,2,3:0:0:0:
236,243,178764,6,0,L|354:234,2,117.5,2|2|8,3:0|3:0|0:0,0:0:0:0:
494,355,179326,2,0,L|485:237,1,117.5,2|0,3:0|0:0,0:0:0:0:
426,225,179607,1,2,3:0:0:0:
238,220,179701,1,2,3:0:0:0:
356,207,179889,1,8,0:0:0:0:
98,113,180076,1,2,3:0:0:0:
362,120,180265,6,0,P|468:222|363:326,1,329,4|2,3:0|3:0,0:0:0:0:
268,326,181014,1,2,3:0:0:0:
174,244,181201,2,0,L|315:233,1,141,2|2,3:0|3:0,0:0:0:0:
173,155,181764,2,0,L|165:54,1,94,2|2,3:0|3:0,0:0:0:0:
354,33,182139,6,0,L|213:22,1,141,2|2,3:0|3:0,0:0:0:0:
26,33,182795,1,0,0:0:0:0:
120,46,182889,2,0,L|221:38,1,94,2|2,3:0|3:0,0:0:0:0:
73,131,183357,2,0,L|65:232,1,94,2|0,3:0|0:0,0:0:0:0:
294,318,183640,2,0,L|152:306,1,140.999995697022,2|2,3:0|3:0,0:0:0:0:
436,239,184014,6,0,L|318:229,1,117.5,4|0,3:0|0:0,0:0:0:0:
154,143,184295,2,0,L|328:128,1,176.25,2|2,3:0|3:0,0:0:0:0:
70,57,184764,1,8,0:0:0:0:
187,159,184951,2,0,L|12:144,1,176.25,2|2,3:0|3:0,0:0:0:0:
188,310,185420,2,0,L|192:251,1,58.75,0|2,0:0|3:0,0:0:0:0:
370,221,185701,1,8,0:0:0:0:
111,151,185889,6,0,L|229:141,1,117.5,4|0,3:0|0:0,0:0:0:0:
393,57,186170,2,0,L|219:42,1,176.25,2|2,3:0|3:0,0:0:0:0:
477,157,186639,1,8,0:0:0:0:
360,175,186826,2,0,L|344:350,1,176.25,2|2,3:0|3:0,0:0:0:0:
227,363,187295,2,0,L|286:359,1,58.75,2|8,3:0|0:0,0:0:0:0:
462,347,187576,1,2,3:0:0:0:
203,268,187764,6,0,L|85:258,1,117.5,4|0,3:0|0:0,0:0:0:0:
251,189,188045,2,0,L|425:174,1,176.25,2|2,3:0|3:0,0:0:0:0:
368,155,188420,1,2,3:0:0:0:
180,97,188514,2,0,L|298:87,1,117.5,8|2,0:0|3:0,0:0:0:0:
121,199,188982,1,2,3:0:0:0:
239,242,189170,2,0,L|235:301,1,58.75,2|2,3:0|3:0,0:0:0:0:
57,330,189451,1,8,0:0:0:0:
316,373,189639,6,0,L|326:255,1,117.5,4|0,3:0|0:0,0:0:0:0:
161,304,189920,2,0,L|151:186,1,117.5,2|0,3:0|0:0,0:0:0:0:
340,130,190201,2,0,L|222:120,1,117.5,8|0,0:0|0:0,0:0:0:0:
34,45,190482,2,0,L|152:35,1,117.5,8|0,0:0|0:0,0:0:0:0:
342,25,190764,6,0,L|460:35,1,117.5,4|0,3:0|0:0,0:0:0:0:
294,105,191045,2,0,L|120:120,1,176.25,2|2,3:0|3:0,0:0:0:0:
177,139,191420,1,2,3:0:0:0:
367,193,191514,1,8,0:0:0:0:
250,293,191701,2,0,L|425:277,1,176.25,2|2,3:0|3:0,0:0:0:0:
308,201,192170,2,0,L|244:195,1,58.75,0|2,0:0|3:0,0:0:0:0:
426,130,192451,1,8,0:0:0:0:
167,118,192639,6,0,L|285:108,1,117.5,4|0,3:0|0:0,0:0:0:0:
449,219,192920,2,0,L|273:203,1,176.25,2|2,3:0|3:0,0:0:0:0:
14,321,193389,2,0,L|132:311,1,117.5,8|2,0:0|3:0,0:0:0:0:
308,223,193857,2,0,L|190:213,1,117.5,2|2,3:0|3:0,0:0:0:0:
280,179,194139,2,0,L|398:169,1,117.5,8|2,0:0|3:0,0:0:0:0:
123,68,194514,6,0,L|5:58,1,117.5,4|0,3:0|0:0,0:0:0:0:
171,158,194795,2,0,L|347:142,1,176.25,2|2,3:0|3:0,0:0:0:0:
288,190,195170,1,2,3:0:0:0:
99,280,195264,2,0,L|217:270,1,117.5,8|2,0:0|3:0,0:0:0:0:
392,253,195732,1,2,3:0:0:0:
180,146,196014,2,0,L|170:264,1,117.5,2|8,3:0|0:0,0:0:0:0:
429,229,196389,6,0,L|439:347,1,117.5,6|0,3:0|0:0,0:0:0:0:
274,261,196670,2,0,L|264:379,1,117.5,2|0,3:0|0:0,0:0:0:0:
75,371,196951,2,0,L|193:361,1,117.5,8|0,0:0|0:0,0:0:0:0:
357,290,197232,2,0,L|239:280,1,117.5,8|0,0:0|0:0,0:0:0:0:
407,223,197514,2,0,L|417:105,1,117.5,8|0,0:0|0:0,0:0:0:0:
252,178,197795,2,0,L|242:60,1,117.5,8|0,0:0|0:0,0:0:0:0:
54,36,198076,1,2,3:0:0:0:
256,129,198639,6,0,L|138:119,1,117.5,4|0,3:0|0:0,0:0:0:0:
198,165,198920,1,2,3:0:0:0:
387,186,199014,1,8,0:0:0:0:
270,201,199201,2,0,L|255:376,1,176.25,2|0,3:0|0:0,0:0:0:0:
314,382,199576,1,2,3:0:0:0:
55,326,199764,2,0,L|173:316,1,117.5,8|0,0:0|0:0,0:0:0:0:
431,293,200139,6,0,L|421:175,1,117.5,2|0,3:0|0:0,0:0:0:0:
362,166,200420,1,2,3:0:0:0:
173,153,200514,1,8,0:0:0:0:
290,74,200701,2,0,L|115:59,1,176.25,2|2,3:0|3:0,0:0:0:0:
373,18,201170,2,0,P|430:74|373:129,1,176.25,8|2,0:0|3:0,0:0:0:0:
315,211,201545,2,0,L|374:206,1,58.75,2|2,3:0|3:0,0:0:0:0:
185,295,201732,6,0,L|67:285,1,117.5,8|0,0:0|0:0,0:0:0:0:
235,212,202014,2,0,L|353:202,1,117.5,2|0,3:0|0:0,0:0:0:0:
187,131,202295,2,0,L|246:125,1,58.75,2|8,3:0|0:0,0:0:0:0:
505,102,202576,2,0,L|387:92,1,117.5,2|0,3:0|0:0,0:0:0:0:
223,75,202857,2,0,L|164:69,1,58.75,8|2,0:0|3:0,0:0:0:0:
425,175,203139,6,0,L|435:293,1,117.5,2|0,3:0|0:0,0:0:0:0:
376,306,203420,1,2,3:0:0:0:
187,333,203514,1,8,0:0:0:0:
304,317,203701,2,0,L|294:199,1,117.5,2|0,3:0|0:0,0:0:0:0:
176,182,204076,1,2,3:0:0:0:
435,213,204264,2,0,L|445:95,1,117.5,8|0,0:0|0:0,0:0:0:0:
186,43,204639,6,0,L|304:33,1,117.5,2|0,3:0|0:0,0:0:0:0:
244,79,204920,1,2,3:0:0:0:
55,100,205014,1,8,0:0:0:0:
172,129,205201,2,0,L|182:247,1,117.5,2|0,3:0|0:0,0:0:0:0:
17,334,205482,2,0,L|75:329,1,58.75,8|2,0:0|3:0,0:0:0:0:
336,244,205764,6,0,L|160:229,1,176.25,2|2,3:0|3:0,0:0:0:0:
349,145,206139,2,0,L|467:135,1,117.5,8|2,0:0|3:0,0:0:0:0:
207,23,206514,2,0,L|197:141,1,117.5,2|0,0:0|0:0,0:0:0:0:
256,150,206795,1,2,3:0:0:0:
91,240,206889,2,0,L|149:235,1,58.75,8|2,0:0|3:0,0:0:0:0:
338,210,207076,2,0,L|456:200,1,117.5,2|0,3:0|0:0,0:0:0:0:
266,290,207357,5,8,0:0:0:0:
168,282,207514,1,2,3:0:0:0:
247,202,207639,1,2,3:0:0:0:
207,198,207701,1,2,3:0:0:0:
168,195,207764,1,2,3:0:0:0:
286,121,207889,2,0,L|246:117,1,39.1666666666667,2|2,3:0|3:0,3:0:0:0:
66,106,208014,6,0,P|9:162|66:217,1,176.25,4|2,3:2|3:0,0:0:0:0:
230,316,208389,2,0,L|112:306,1,117.5,8|2,0:0|3:0,0:0:0:0:
372,122,208764,2,0,P|429:178|372:233,1,176.25,2|2,3:0|3:0,0:0:0:0:
208,332,209139,2,0,L|326:322,1,117.5,8|2,0:0|3:0,0:0:0:0:
148,241,209514,5,8,0:0:0:0:
334,226,209607,2,0,L|452:216,1,117.5,2|0,3:0|0:0,0:0:0:0:
284,134,209889,2,0,L|402:124,1,117.5,2|8,3:0|0:0,0:0:0:0:
224,41,210264,1,2,3:0:0:0:
295,54,210358,1,2,3:0:0:0:
325,109,210452,1,2,3:0:0:0:
295,164,210545,1,2,3:0:0:0:
130,185,210639,6,0,L|12:195,1,117.5,6|0,3:0|0:0,0:0:0:0:
72,229,210920,1,2,3:0:0:0:
260,247,211014,1,8,0:0:0:0:
143,263,211201,2,0,L|157:86,1,176.25,2|0,3:0|0:0,0:0:0:0:
217,84,211576,1,2,3:0:0:0:
476,74,211764,2,0,L|358:64,1,117.5,8|2,0:0|3:0,0:0:0:0:
100,103,212139,6,0,L|90:221,1,117.5,2|0,3:0|0:0,0:0:0:0:
149,238,212420,1,2,3:0:0:0:
336,262,212514,1,8,0:0:0:0:
219,187,212701,2,0,L|394:172,1,176.25,2|2,3:0|3:0,0:0:0:0:
135,40,213170,2,0,P|78:96|135:151,1,176.25,8|2,0:0|3:0,0:0:0:0:
193,233,213545,2,0,L|134:228,1,58.75,2|2,3:0|3:0,0:0:0:0:
323,316,213732,6,0,L|441:306,1,117.5,8|0,0:0|0:0,0:0:0:0:
273,239,214014,2,0,L|155:229,1,117.5,2|0,3:0|0:0,0:0:0:0:
215,201,214295,1,2,3:0:0:0:
404,183,214389,1,8,0:0:0:0:
287,195,214576,2,0,L|277:313,1,117.5,2|0,3:0|0:0,0:0:0:0:
113,335,214857,2,0,L|54:340,1,58.75,8|2,0:0|3:0,0:0:0:0:
315,353,215139,6,0,L|305:235,1,117.5,2|0,3:0|0:0,0:0:0:0:
246,227,215420,1,2,3:0:0:0:
434,195,215514,1,8,0:0:0:0:
317,158,215701,2,0,L|199:168,2,117.5,2|0|2,3:0|0:0|3:0,0:0:0:0:
57,269,216264,2,0,L|47:151,1,117.5,8|0,0:0|0:0,0:0:0:0:
306,60,216639,6,0,L|188:50,1,117.5,2|0,3:0|0:0,0:0:0:0:
248,97,216920,1,2,3:0:0:0:
437,129,217014,1,8,0:0:0:0:
320,185,217201,2,0,L|202:175,1,117.5,2|2,3:0|3:0,0:0:0:0:
369,282,217482,2,0,L|310:277,1,58.75,2|8,3:0|0:0,0:0:0:0:
50,203,217764,6,0,L|226:188,1,176.25,4|2,3:2|3:0,0:0:0:0:
414,102,218139,2,0,L|296:92,1,117.5,8|2,0:0|3:0,0:0:0:0:
38,81,218514,2,0,L|28:199,1,117.5,2|0,3:0|0:0,0:0:0:0:
87,208,218795,1,2,3:0:0:0:
252,219,218889,2,0,L|311:214,1,58.75,8|0,0:0|0:0,0:0:0:0:
122,324,219076,2,0,L|240:314,1,117.5,2|0,3:0|0:0,0:0:0:0:
428,298,219357,5,8,0:0:0:0:
330,290,219514,1,2,3:0:0:0:
409,210,219639,1,2,3:0:0:0:
369,206,219701,1,2,3:0:0:0:
330,203,219764,1,2,3:0:0:0:
448,129,219889,2,0,L|408:125,1,39.1666666666667,2|2,3:0|3:0,0:0:0:0:
226,49,220014,6,0,L|402:34,1,176.25,4|2,3:2|3:0,0:0:0:0:
213,148,220389,2,0,L|331:138,1,117.5,8|2,0:0|3:0,0:0:0:0:
71,138,220764,2,0,P|14:194|71:249,1,176.25,2|2,3:0|3:0,0:0:0:0:
235,348,221139,2,0,L|117:338,1,117.5,8|2,0:0|3:0,0:0:0:0:
295,259,221514,5,8,0:0:0:0:
117,180,221607,2,0,L|235:170,1,117.5,2|0,3:0|0:0,0:0:0:0:
401,152,221889,2,0,P|457:95|400:40,1,176.25,2|0,3:0|0:0,0:0:0:0:
188,35,222264,6,0,L|365:19,1,176.25,2|2,3:0|3:0,0:0:0:0:
231,121,222756,1,2,3:0:0:0:
187,119,222826,1,8,0:0:0:0:
488,204,223014,2,0,L|312:219,1,176.25,2|2,3:0|3:0,0:0:0:0:
391,250,223420,1,2,3:0:0:0:
450,224,223496,1,2,3:0:0:0:
440,169,223576,1,2,3:0:0:0:
181,92,223764,2,0,L|299:82,1,117.5,8|2,0:0|3:0,0:0:0:0:
121,168,224139,2,0,L|111:286,1,117.5,2|2,3:0|3:0,0:0:0:0:
370,328,224514,5,4,3:2:0:0:
311,325,224701,1,2,3:0:0:0:
370,328,224889,1,2,3:0:0:0:
282,306,225076,1,2,3:0:0:0:
370,328,225264,1,2,3:0:0:0:
253,345,225451,1,2,3:0:0:0:
370,328,225639,1,2,3:0:0:0:
223,297,225826,1,2,3:0:0:0:
370,328,226014,1,2,3:0:0:0:
194,353,226201,1,2,3:0:0:0:
370,328,226389,1,2,3:0:0:0:
112,278,226576,1,2,3:0:0:0:
289,262,226764,1,2,3:0:0:0:
112,278,226951,1,2,3:0:0:0:
371,163,227139,1,2,3:0:0:0:
112,139,227326,1,2,3:0:0:0:
453,64,227514,1,8,3:2:0:0:
112,340,228264,6,0,L|122:222,1,117.5,4|0,3:0|0:0,0:0:0:0:
181,212,228545,1,2,3:0:0:0:
368,203,228639,1,8,0:0:0:0:
251,127,228826,2,0,L|310:122,1,58.75,2|2,3:0|3:0,0:0:0:0:
119,32,229014,2,0,L|237:41,2,117.5,2|2|8,3:0|3:0|0:0,0:0:0:0:
377,111,229576,6,0,L|387:229,1,117.5,2|0,3:0|0:0,0:0:0:0:
128,188,229951,2,0,L|118:306,1,117.5,2|0,3:0|0:0,0:0:0:0:
377,365,230326,2,0,L|259:355,1,117.5,2|0,3:0|0:0,0:0:0:0:
424,280,230607,2,0,L|365:275,1,58.75,8|2,0:0|3:0,0:0:0:0:
105,197,230889,2,0,L|223:187,1,117.5,8|2,0:0|3:0,0:0:0:0:
481,167,231264,5,2,3:0:0:0:
223,187,231451,2,0,L|233:305,1,117.5,2|8,3:0|0:0,0:0:0:0:
351,322,231826,1,2,3:0:0:0:
92,353,232014,2,0,L|210:343,2,117.5,8|2|4,0:0|3:0|3:2,0:0:0:0:
352,248,232576,6,0,L|470:258,1,117.5,2|0,3:0|0:0,0:0:0:0:
410,292,232857,1,2,3:0:0:0:
222,312,232951,1,8,0:0:0:0:
340,333,233139,2,0,L|399:328,1,58.75,2|2,3:0|3:0,0:0:0:0:
210,223,233326,2,0,L|328:233,2,117.5,2|2|8,3:0|3:0|0:0,0:0:0:0:
471,335,233889,6,0,L|481:217,1,117.5,2|0,3:0|0:0,0:0:0:0:
222,150,234264,2,0,L|340:140,1,117.5,2|0,3:0|0:0,0:0:0:0:
80,347,234639,2,0,L|90:229,1,117.5,2|0,3:0|0:0,0:0:0:0:
255,156,234920,2,0,L|196:151,1,58.75,8|2,0:0|3:0,0:0:0:0:
456,67,235201,1,2,3:0:0:0:
338,111,235389,2,0,L|333:170,1,58.75,2|2,3:0|3:0,0:0:0:0:
145,221,235576,6,0,L|27:211,2,117.5,2|0|2,3:0|0:0|3:0,0:0:0:0:
323,363,236139,2,0,L|313:245,1,117.5,8|0,0:0|0:0,0:0:0:0:
195,221,236514,1,2,3:0:0:0:
371,145,236701,2,0,L|253:135,1,117.5,8|0,0:0|0:0,0:0:0:0:
431,29,237076,6,0,L|441:147,1,117.5,2|0,3:0|0:0,0:0:0:0:
323,181,237451,1,2,3:0:0:0:
146,210,237639,2,0,L|156:328,1,117.5,8|0,0:0|0:0,0:0:0:0:
333,344,238014,1,2,3:0:0:0:
157,373,238201,2,0,L|216:368,1,58.75,2|4,3:0|3:2,0:0:0:0:
216,289,238389,2,0,L|157:284,1,58.75,2|8,3:0|0:0,0:0:0:0:
346,208,238576,6,0,L|464:198,1,117.5,4|0,3:0|0:0,0:0:0:0:
404,161,238857,1,2,3:0:0:0:
215,146,238951,1,8,0:0:0:0:
333,73,239139,2,0,L|274:68,1,58.75,2|2,3:0|3:0,0:0:0:0:
86,43,239326,2,0,L|204:33,2,117.5,2|2|8,3:0|3:0|0:0,0:0:0:0:
346,120,239889,6,0,L|464:130,1,117.5,2|0,3:0|0:0,0:0:0:0:
204,346,240264,2,0,L|194:228,1,117.5,2|0,3:0|0:0,0:0:0:0:
453,271,240639,2,0,L|463:153,1,117.5,2|0,3:0|0:0,0:0:0:0:
298,99,240920,2,0,L|357:94,1,58.75,8|2,0:0|3:0,0:0:0:0:
97,200,241201,2,0,L|87:318,1,117.5,8|2,0:0|3:0,0:0:0:0:
346,360,241576,5,2,3:0:0:0:
87,281,241764,2,0,L|205:271,2,117.5,2|8|2,3:0|0:0|3:0,0:0:0:0:
346,174,242326,2,0,L|228:164,2,117.5,8|2|4,0:0|3:0|3:2,0:0:0:0:
87,57,242888,6,0,L|205:47,1,117.5,2|0,3:0|0:0,0:0:0:0:
145,93,243169,1,2,3:0:0:0:
333,108,243263,1,8,0:0:0:0:
216,186,243450,2,0,L|275:181,1,58.75,2|2,3:0|3:0,0:0:0:0:
84,277,243638,2,0,L|202:287,2,117.5,2|2|8,3:0|3:0|0:0,0:0:0:0:
343,369,244200,6,0,L|461:359,1,117.5,2|8,3:0|0:0,0:0:0:0:
201,267,244575,2,0,L|319:257,1,117.5,2|8,3:0|0:0,0:0:0:0:
59,165,244950,1,6,3:0:0:0:
256,192,245888,12,2,251888,3:0:0:0:
