osu file format v14

[General]
AudioFilename: audio.mp3
AudioLeadIn: 0
PreviewTime: 32024
Countdown: 0
SampleSet: Soft
StackLeniency: 0.7
Mode: 0
LetterboxInBreaks: 0
WidescreenStoryboard: 1

[Editor]
DistanceSpacing: 1
BeatDivisor: 1
GridSize: 32
TimelineZoom: 1.7

[Metadata]
Title:St. Annu
TitleUnicode:サント・アンヌ号
Artist:Masuda Junichi
ArtistUnicode:増田順一
Creator:Veridian
Version:Insane
Source:ポケットモンスター赤
Tags:Saint Anne Pokemon Pocket Monster Monsters Red Blue 1st first generation jessie james team rocket video game theme vgm bgm 8 bit eight retro classic gameboy
BeatmapID:1473908
BeatmapSetID:695685

[Difficulty]
HPDrainRate:5
CircleSize:4
OverallDifficulty:6
ApproachRate:8.5
SliderMultiplier:1.6
SliderTickRate:1

[Events]
//Background and Video events
0,0,"pokemon-15-02.png",0,0
//Break Periods
//Storyboard Layer 0 (Background)
//Storyboard Layer 1 (Fail)
//Storyboard Layer 2 (Pass)
//Storyboard Layer 3 (Foreground)
//Storyboard Sound Samples

[TimingPoints]
176,401.875418620228,4,2,0,55,1,0
2587,-100,4,2,0,65,0,0
6304,-100,4,2,0,5,0,0
6405,-100,4,2,0,65,0,0
6505,-100,4,2,0,5,0,0
6606,-100,4,2,0,65,0,0
19466,-100,4,2,0,65,0,1
27905,-100,4,2,0,50,0,1
29111,-100,4,2,0,65,0,1
30718,-100,4,2,0,75,0,1
31522,-100,4,2,0,85,0,1
32309,401.875418620228,4,2,0,55,1,0
35122,-100,4,2,0,65,0,0
38437,-100,4,2,0,5,0,0
38538,-100,4,2,0,70,0,0
38638,-100,4,2,0,5,0,0
38739,-100,4,2,0,65,0,0
51599,-100,4,2,0,65,0,1
60038,-100,4,2,0,50,0,1
61244,-100,4,2,0,65,0,1
62851,-100,4,2,0,75,0,1
63655,-100,4,2,0,85,0,1
64459,-100,4,2,0,95,0,0
65262,-100,4,2,0,65,0,0
66066,-100,4,2,0,50,0,0
66468,-100,4,2,0,30,0,0
66870,-100,4,2,0,10,0,0
67272,-100,4,2,0,5,0,0

[Colours]
Combo1 : 255,66,255
Combo2 : 253,165,2
Combo3 : 255,57,0
Combo4 : 23,255,139
Combo5 : 0,210,255
SliderTrackOverride : 224,253,255

[HitObjects]
256,144,176,5,2,0:2:0:0:
256,240,376,1,0,0:2:0:0:
360,184,577,2,0,L|329:10,2,160,2|0|2,0:2|0:2|0:2,0:0:0:0:
388,356,1582,1,0,1:2:0:0:
456,300,1783,5,2,1:2:0:0:
412,268,1917,1,2,0:2:0:0:
360,268,2051,1,2,0:2:0:0:
316,300,2185,2,0,P|276:311|214:282,1,80,0|2,0:2|0:2,0:0:0:0:
276,224,2587,1,2,1:2:0:0:
220,320,2788,1,8,0:2:0:0:
239,145,2989,2,0,P|281:137|341:163,1,80,10|0,1:2|1:2,0:0:0:0:
372,68,3391,5,6,1:2:0:0:
448,200,3591,1,2,0:2:0:0:
512,140,3792,2,0,L|496:49,1,80,6|0,1:2|1:2,0:0:0:0:
440,220,4194,2,0,L|453:298,1,80,6|0,1:2|0:0,0:0:0:0:
392,376,4596,1,2,0:2:0:0:
248,272,4797,1,2,0:2:0:0:
178,326,4998,6,0,P|222:358|326:306,1,160,6|2,1:2|0:2,0:0:0:0:
332,232,5601,1,2,0:2:0:0:
400,176,5802,2,0,P|331:141|263:176,1,160,4|10,1:2|1:2,0:0:0:0:
208,112,6405,1,2,0:2:0:0:
128,228,6606,5,6,1:2:0:0:
220,88,6806,1,2,0:2:0:0:
96,132,7007,2,0,L|-2:114,1,80,2|0,1:2|1:2,0:0:0:0:
140,248,7409,2,0,L|218:261,1,80,6|0,1:2|0:2,0:0:0:0:
305,298,7811,2,0,P|316:255|290:205,1,80,6|0,1:2|0:2,0:0:0:0:
232,156,8213,5,0,1:2:0:0:
276,188,8347,1,2,0:2:0:0:
329,188,8481,1,2,0:2:0:0:
364,152,8615,2,0,L|345:45,1,80,2|2,1:2|0:2,0:0:0:0:
452,188,9017,2,0,L|465:266,1,80,6|8,1:2|1:2,0:0:0:0:
396,340,9419,1,14,1:2:0:0:
408,360,9821,5,2,1:2:0:0:
328,248,10021,1,2,0:2:0:0:
252,336,10222,2,0,P|209:346|160:324,1,80,6|0,1:2|0:2,0:0:0:0:
289,172,10624,2,0,P|332:162|381:184,1,80,6|0,1:2|0:0,0:0:0:0:
216,256,11026,1,2,0:2:0:0:
140,144,11227,1,2,0:2:0:0:
260,84,11428,6,0,L|230:253,1,160,6|2,1:2|1:2,0:0:0:0:
148,296,12031,1,2,1:2:0:0:
88,220,12232,2,0,L|115:62,1,160,6|8,1:2|1:2,0:0:0:0:
120,40,13036,1,2,0:2:0:0:
192,152,13236,1,2,0:2:0:0:
264,80,13437,2,0,P|304:56|424:104,2,160,0|6|6,1:2|1:2|1:2,0:0:0:0:
360,292,14643,5,2,1:2:0:0:
353,252,14777,1,2,0:2:0:0:
344,201,14911,1,2,0:2:0:0:
334,150,15045,1,2,1:2:0:0:
264,244,15246,1,0,0:2:0:0:
432,216,15447,2,0,L|416:120,1,80,6|8,1:2|1:2,0:0:0:0:
268,272,15849,2,0,L|281:350,1,80,14|0,1:2|0:2,0:0:0:0:
368,376,16251,5,2,1:2:0:0:
184,328,16451,1,2,0:2:0:0:
306,196,16652,2,0,P|270:184|214:212,1,80,6|0,1:2|1:2,0:0:0:0:
43,327,17054,2,0,P|83:355|187:323,1,160,6|2,1:2|1:2,0:0:0:0:
115,268,17657,1,2,0:2:0:0:
48,188,17858,6,0,L|67:77,1,80,6|0,1:2|0:0,0:0:0:0:
140,256,18260,2,0,L|153:177,1,80,2|2,1:2|0:2,0:0:0:0:
248,224,18662,2,0,L|261:145,1,80,6|0,1:2|0:2,0:0:0:0:
276,48,19064,1,0,0:2:0:0:
296,40,19466,5,4,1:2:0:0:
176,84,19666,1,2,0:2:0:0:
348,164,19867,1,0,0:2:0:0:
156,72,20068,2,0,P|116:62|63:84,1,80,2|4,0:2|1:2,0:0:0:0:
40,264,20470,5,2,0:2:0:0:
116,144,20671,1,0,1:2:0:0:
28,288,20872,1,2,1:2:0:0:
104,360,21073,5,6,1:2:0:0:
256,264,21274,1,2,0:2:0:0:
132,344,21475,1,2,0:2:0:0:
284,248,21676,1,2,0:2:0:0:
228,164,21877,5,4,1:2:0:0:
284,344,22078,1,10,0:2:0:0:
352,164,22279,1,0,1:2:0:0:
284,372,22480,1,10,0:2:0:0:
284,248,22681,5,4,1:2:0:0:
204,312,22881,1,2,0:2:0:0:
364,308,23082,1,0,0:2:0:0:
200,220,23283,2,0,P|190:186|209:130,1,80,2|4,0:2|1:2,0:0:0:0:
336,36,23685,5,2,0:2:0:0:
272,176,23886,1,0,1:2:0:0:
212,36,24087,1,2,1:2:0:0:
372,116,24288,5,6,1:2:0:0:
296,272,24489,1,2,0:2:0:0:
384,224,24690,2,0,P|418:214|474:233,1,80,6|2,1:3|0:2,0:0:0:0:
292,356,25092,5,4,1:2:0:0:
292,180,25293,1,10,0:2:0:0:
420,308,25494,1,12,1:2:0:0:
216,216,25695,2,0,P|206:182|225:126,1,80,10|4,1:2|1:2,0:0:0:0:
136,108,26096,5,2,0:2:0:0:
292,180,26297,1,0,0:2:0:0:
132,260,26498,2,0,L|29:241,1,80,2|4,0:2|1:2,0:0:0:0:
100,164,26900,5,2,0:2:0:0:
156,352,27101,1,0,1:2:0:0:
216,248,27302,1,2,1:2:0:0:
64,332,27503,5,6,1:2:0:0:
256,372,27704,1,0,0:2:0:0:
40,328,27905,1,2,0:2:0:0:
232,368,28106,1,0,0:2:0:0:
140,220,28307,5,6,1:3:0:0:
160,304,28508,1,10,0:2:0:0:
248,280,28709,1,6,1:2:0:0:
226,200,28910,1,10,0:2:0:0:
152,316,29111,5,4,1:2:0:0:
272,296,29311,1,2,0:2:0:0:
120,208,29512,1,0,0:2:0:0:
234,373,29713,2,0,P|272:382|310:372,1,80,2|4,0:2|1:2,0:0:0:0:
324,168,30115,5,2,0:2:0:0:
272,296,30316,1,0,1:2:0:0:
408,352,30517,1,2,0:2:0:0:
304,128,30718,5,6,1:2:0:0:
408,264,30919,1,2,0:2:0:0:
512,128,31120,1,2,0:2:0:0:
408,240,31321,1,2,0:2:0:0:
208,76,31522,5,14,1:2:0:0:
408,156,31723,1,10,0:2:0:0:
188,68,31924,1,10,0:2:0:0:
388,149,32125,1,10,0:2:0:0:
256,244,32309,5,2,0:2:0:0:
256,152,32509,1,0,0:0:0:0:
332,304,32710,2,0,P|253:278|169:319,2,160,2|0|2,0:0|0:0|0:0,0:0:0:0:
400,380,33715,1,0,0:0:0:0:
504,296,33916,5,6,1:2:0:0:
494,244,34050,1,2,0:2:0:0:
485,193,34184,1,2,0:2:0:0:
476,142,34318,2,0,L|458:43,1,80,2|2,1:2|1:2,0:0:0:0:
288,84,34720,1,2,1:2:0:0:
392,160,34921,1,8,0:2:0:0:
326,3,35122,2,0,P|287:-7|222:30,1,80,10|0,1:2|0:2,0:0:0:0:
184,160,35524,5,6,1:2:0:0:
288,84,35724,1,2,0:2:0:0:
100,124,35925,2,0,P|88:164|123:223,1,80,6|0,1:2|1:2,0:0:0:0:
172,256,36327,2,0,L|266:239,1,80,6|0,1:2|0:0,0:0:0:0:
316,176,36729,1,2,1:2:0:0:
252,332,36930,1,2,0:2:0:0:
376,244,37131,6,0,P|404:204|348:88,1,160,6|2,1:2|0:2,0:0:0:0:
316,32,37734,1,2,0:2:0:0:
256,104,37935,2,0,P|223:174|256:244,1,160,6|10,1:2|1:2,0:0:0:0:
316,176,38538,1,2,0:2:0:0:
156,244,38739,5,6,1:2:0:0:
312,320,38939,1,2,0:2:0:0:
136,248,39140,2,0,L|45:263,1,80,2|0,1:2|1:2,0:0:0:0:
140,360,39542,2,0,L|218:346,1,80,6|0,1:2|0:2,0:0:0:0:
120,224,39944,2,0,L|29:239,1,80,6|0,1:2|0:2,0:0:0:0:
248,336,40346,5,2,1:2:0:0:
280,292,40480,1,2,0:2:0:0:
280,240,40614,1,2,0:2:0:0:
248,196,40748,2,0,P|238:156|267:97,1,80,2|2,1:2|0:2,0:0:0:0:
420,144,41150,2,0,L|342:158,1,80,6|8,1:2|1:2,0:0:0:0:
388,56,41552,2,0,L|466:42,1,80,14|0,1:2|0:0,0:0:0:0:
416,236,41954,5,2,1:2:0:0:
324,140,42154,1,2,0:2:0:0:
500,196,42355,2,0,P|510:236|481:295,1,80,6|0,1:2|1:2,0:0:0:0:
328,272,42757,2,0,P|318:232|347:173,1,80,6|0,1:2|0:2,0:0:0:0:
416,92,43159,1,2,1:2:0:0:
416,236,43360,1,2,0:2:0:0:
360,20,43561,6,0,B|404:-4|404:-4|540:36,1,160,6|2,1:2|1:2,0:0:0:0:
416,92,44164,1,2,0:2:0:0:
324,108,44365,2,0,B|280:132|280:132|144:92,1,160,6|8,1:2|1:2,0:0:0:0:
152,92,45169,5,6,0:2:0:0:
4,168,45369,1,2,0:2:0:0:
148,256,45570,1,2,1:2:0:0:
104,168,45771,1,0,1:2:0:0:
110,331,45972,2,0,P|148:341|186:331,1,80,6|0,1:2|0:2,0:0:0:0:
320,256,46374,2,0,P|281:245|243:255,1,80,6|0,1:2|0:2,0:0:0:0:
384,324,46776,5,2,1:2:0:0:
420,284,46910,1,2,0:2:0:0:
420,232,47044,1,2,0:2:0:0:
388,188,47178,1,2,1:2:0:0:
472,120,47379,1,2,0:2:0:0:
356,0,47580,2,0,L|375:110,1,80,6|8,1:2|0:2,0:0:0:0:
504,204,47982,2,0,L|490:125,1,80,14|0,1:2|0:0,0:0:0:0:
472,24,48384,5,2,1:2:0:0:
292,112,48584,1,2,0:2:0:0:
256,200,48785,2,0,P|294:210|332:200,1,80,6|0,1:2|1:2,0:0:0:0:
196,124,49187,2,0,P|157:113|119:123,1,80,6|0,1:2|0:2,0:0:0:0:
48,280,49589,1,2,1:2:0:0:
156,200,49790,1,2,0:2:0:0:
16,88,49991,6,0,L|33:186,1,80,6|0,1:2|0:2,0:0:0:0:
176,304,50393,2,0,L|162:225,1,80,2|2,1:2|0:2,0:0:0:0:
248,56,50795,2,0,L|261:134,1,80,6|0,1:2|0:0,0:0:0:0:
360,188,51197,1,2,0:2:0:0:
376,200,51599,5,4,1:2:0:0:
440,112,51799,1,2,0:2:0:0:
376,296,52000,1,0,0:2:0:0:
288,200,52201,2,0,P|248:192|188:216,1,80,2|4,0:2|1:2,0:0:0:0:
144,372,52603,5,2,0:2:0:0:
248,288,52804,1,0,1:2:0:0:
124,244,53005,1,2,1:2:0:0:
140,384,53206,5,6,1:2:0:0:
108,236,53407,1,2,0:2:0:0:
268,288,53608,1,2,0:2:0:0:
176,308,53809,1,2,0:2:0:0:
264,160,54010,5,4,1:2:0:0:
352,308,54211,1,10,0:2:0:0:
264,136,54412,1,0,1:2:0:0:
176,288,54613,2,0,L|81:271,1,80,10|4,0:2|1:2,0:0:0:0:
12,200,55014,5,2,0:2:0:0:
160,120,55215,1,0,0:2:0:0:
8,40,55416,2,0,P|48:51|105:18,1,80,2|4,0:2|1:2,0:0:0:0:
188,24,55818,5,2,0:2:0:0:
60,136,56019,1,0,1:2:0:0:
228,188,56220,1,2,1:2:0:0:
40,128,56421,5,6,1:2:0:0:
74,324,56622,1,0,0:2:0:0:
120,202,56823,2,0,L|151:113,1,80,6|0,1:3|0:2,0:0:0:0:
12,231,57225,5,4,1:2:0:0:
164,291,57426,1,10,0:2:0:0:
32,239,57627,1,10,1:2:0:0:
192,295,57828,2,0,P|229:306|275:289,1,80,10|4,1:2|1:2,0:0:0:0:
333,141,58229,5,2,0:2:0:0:
229,221,58430,1,0,0:2:0:0:
417,177,58631,2,0,P|428:140|411:94,1,80,2|4,0:2|1:2,0:0:0:0:
344,32,59033,5,2,0:2:0:0:
256,144,59234,1,0,1:2:0:0:
168,32,59435,1,2,1:2:0:0:
272,160,59636,5,2,1:2:0:0:
152,224,59837,1,0,0:2:0:0:
220,344,60038,1,2,0:2:0:0:
340,280,60239,1,0,0:2:0:0:
262,197,60440,5,4,1:3:0:0:
190,235,60641,1,10,0:2:0:0:
230,307,60842,1,4,1:2:0:0:
302,269,61043,1,10,0:2:0:0:
164,228,61244,5,4,1:2:0:0:
80,360,61444,1,2,0:2:0:0:
24,264,61645,1,0,0:2:0:0:
104,140,61846,2,0,L|202:122,1,80,2|4,0:2|1:2,0:0:0:0:
328,48,62248,5,2,0:2:0:0:
256,200,62449,1,0,1:2:0:0:
186,48,62650,1,2,0:2:0:0:
356,156,62851,5,6,1:2:0:0:
160,252,63052,1,2,0:2:0:0:
376,144,63253,1,2,0:2:0:0:
256,340,63454,1,2,0:2:0:0:
172,120,63655,5,10,1:2:0:0:
356,272,63856,1,10,0:2:0:0:
148,100,64057,1,10,0:2:0:0:
372,288,64258,1,10,0:2:0:0:
256,192,64459,5,2,0:2:0:0:
256,192,64659,12,0,67272,0:0:0:0:
