osu file format v14

[General]
AudioFilename: audio.mp3
AudioLeadIn: 0
PreviewTime: 32024
Countdown: 0
SampleSet: Soft
StackLeniency: 0.7
Mode: 0
LetterboxInBreaks: 0
WidescreenStoryboard: 1

[Editor]
DistanceSpacing: 1.2
BeatDivisor: 1
GridSize: 32
TimelineZoom: 1.7

[Metadata]
Title:St. Annu
TitleUnicode:サント・アンヌ号
Artist:Masuda Junichi
ArtistUnicode:増田順一
Creator:Veridian
Version:Hard
Source:ポケットモンスター赤
Tags:Saint Anne Pokemon Pocket Monster Monsters Red Blue 1st first generation jessie james team rocket video game theme vgm bgm 8 bit eight retro classic gameboy
BeatmapID:1473907
BeatmapSetID:695685

[Difficulty]
HPDrainRate:5
CircleSize:3.5
OverallDifficulty:6
ApproachRate:7
SliderMultiplier:1.4
SliderTickRate:1

[Events]
//Background and Video events
0,0,"pokemon-15-02.png",0,0
//Break Periods
//Storyboard Layer 0 (Background)
//Storyboard Layer 1 (Fail)
//Storyboard Layer 2 (Pass)
//Storyboard Layer 3 (Foreground)
//Storyboard Sound Samples

[TimingPoints]
176,401.875418620228,4,2,0,35,1,0
2587,-100,4,2,0,65,0,0
6304,-100,4,2,0,5,0,0
6405,-100,4,2,0,65,0,0
6505,-100,4,2,0,5,0,0
6606,-100,4,2,0,65,0,0
19466,-100,4,2,0,65,0,1
27905,-100,4,2,0,50,0,1
29111,-100,4,2,0,65,0,1
30718,-100,4,2,0,75,0,1
31522,-100,4,2,0,85,0,1
32309,401.875418620228,4,2,0,35,1,0
35122,-100,4,2,0,65,0,0
38437,-100,4,2,0,5,0,0
38538,-100,4,2,0,70,0,0
38638,-100,4,2,0,5,0,0
38739,-100,4,2,0,65,0,0
51599,-100,4,2,0,65,0,1
60038,-100,4,2,0,50,0,1
61244,-100,4,2,0,65,0,1
62851,-100,4,2,0,75,0,1
63655,-100,4,2,0,85,0,1
64459,-100,4,2,0,95,0,0
65262,-100,4,2,0,65,0,0
66066,-100,4,2,0,50,0,0
66468,-100,4,2,0,30,0,0
66870,-100,4,2,0,10,0,0
67272,-100,4,2,0,5,0,0

[Colours]
Combo1 : 255,66,255
Combo2 : 253,165,2
Combo3 : 255,57,0
Combo4 : 23,255,139
Combo5 : 0,210,255
SliderTrackOverride : 224,253,255

[HitObjects]
256,148,176,6,0,L|256:60,2,70,2|0|0,0:2|0:2|0:2,0:0:0:0:
256,332,980,1,2,0:2:0:0:
96,288,1381,2,0,L|149:217,1,70,2|2,0:0|0:0,0:0:0:0:
84,148,1784,5,2,1:2:0:0:
96,132,1918,1,2,0:2:0:0:
108,116,2051,1,2,0:2:0:0:
120,100,2185,2,0,P|157:90|205:112,1,70,0|2,0:2|0:2,0:0:0:0:
256,156,2587,2,0,P|320:180|388:152,1,140,2|10,1:2|1:2,0:0:0:0:
456,96,3190,1,0,1:2:0:0:
508,224,3391,6,0,L|488:312,1,70,6|2,1:2|0:2,0:0:0:0:
408,260,3793,2,0,L|384:352,1,70,6|0,1:2|1:2,0:0:0:0:
308,280,4195,2,0,B|236:256|236:312|152:272,1,140,6|2,1:2|0:2,0:0:0:0:
104,228,4798,1,2,0:2:0:0:
41,172,4999,6,0,P|85:148|173:180,1,140,6|2,1:2|0:2,0:0:0:0:
235,122,5601,1,2,0:2:0:0:
300,176,5802,2,0,L|448:164,1,140,4|10,1:2|1:2,0:0:0:0:
492,96,6405,1,2,0:2:0:0:
384,32,6606,6,0,L|288:40,1,70,6|2,1:2|0:2,0:0:0:0:
244,84,7008,2,0,L|148:92,1,70,2|0,1:2|1:2,0:0:0:0:
116,28,7410,2,0,P|140:72|96:168,1,140,6|6,1:2|1:2,0:0:0:0:
184,308,8214,5,0,1:2:0:0:
196,292,8348,1,2,0:2:0:0:
208,276,8481,1,2,0:2:0:0:
220,260,8615,2,0,P|257:250|305:272,1,70,2|2,1:2|0:2,0:0:0:0:
352,312,9017,2,0,P|389:322|437:300,1,70,6|8,1:2|1:2,0:0:0:0:
484,260,9419,2,0,P|492:216|464:168,1,70,14|0,1:2|0:2,0:0:0:0:
408,92,9821,6,0,L|312:104,1,70,2|2,1:2|0:2,0:0:0:0:
272,48,10223,2,0,L|184:56,1,70,6|0,1:2|0:2,0:0:0:0:
124,20,10625,2,0,B|96:96|160:96|120:168,1,140,6|2,1:2|0:2,0:0:0:0:
60,208,11228,1,2,0:2:0:0:
128,256,11429,2,0,L|292:236,1,140,6|2,1:2|1:2,0:0:0:0:
332,292,12031,1,2,1:2:0:0:
400,240,12232,2,0,P|409:204|384:160,2,70,6|8|8,1:2|0:2|1:2,0:0:0:0:
436,76,13036,6,0,L|344:88,1,70,2|2,0:2|0:2,0:0:0:0:
290,44,13438,2,0,P|254:36|210:52,1,70,0|0,1:2|1:2,0:0:0:0:
145,85,13840,2,0,L|76:76,1,70,6|0,1:2|0:2,0:0:0:0:
12,132,14242,1,6,1:2:0:0:
52,296,14644,5,2,1:2:0:0:
64,280,14778,1,2,0:2:0:0:
76,264,14911,1,2,0:2:0:0:
88,248,15045,2,0,P|125:238|173:260,1,70,2|0,1:2|0:2,0:0:0:0:
192,324,15447,2,0,P|256:344|336:316,1,140,6|14,1:2|1:2,0:0:0:0:
464,168,16251,6,0,P|472:124|448:80,1,70,2|2,1:2|0:2,0:0:0:0:
404,40,16653,2,0,P|360:32|316:56,1,70,6|0,1:2|1:2,0:0:0:0:
272,96,17055,2,0,L|112:88,1,140,6|2,1:2|1:2,0:0:0:0:
72,148,17658,1,2,0:2:0:0:
132,208,17859,2,0,L|271:201,1,140,6|2,1:2|1:2,0:0:0:0:
336,256,18461,1,2,0:2:0:0:
272,312,18662,2,0,L|132:305,1,140,6|0,1:2|0:2,0:0:0:0:
48,160,19466,5,4,1:2:0:0:
104,96,19667,2,0,P|140:88|192:112,1,70,2|0,0:2|0:2,0:0:0:0:
228,156,20069,2,0,P|284:176|372:144,1,140,2|2,0:2|0:2,0:0:0:0:
436,116,20672,2,0,L|448:216,1,70,0|2,1:2|1:2,0:0:0:0:
500,288,21074,5,6,1:2:0:0:
452,356,21275,1,2,0:2:0:0:
368,356,21476,1,2,0:2:0:0:
312,292,21677,1,2,0:2:0:0:
248,236,21878,1,4,1:2:0:0:
164,236,22079,1,10,0:2:0:0:
104,292,22279,2,0,P|60:300|25:288,2,70,0|10|4,1:2|0:2|1:2,0:0:0:0:
64,172,22882,6,0,P|56:131|79:87,1,70,2|0,0:2|0:2,0:0:0:0:
132,52,23284,2,0,L|288:64,1,140,2|2,0:2|0:2,0:0:0:0:
348,28,23887,2,0,P|356:61|348:95,1,70,0|2,1:2|1:2,0:0:0:0:
392,212,24289,5,6,1:2:0:0:
344,144,24490,1,2,0:2:0:0:
260,144,24690,1,6,1:3:0:0:
208,212,24891,1,2,0:2:0:0:
148,272,25092,1,4,1:2:0:0:
64,272,25294,1,10,0:2:0:0:
8,212,25494,2,0,P|1:175|20:120,1,70,12|10,1:2|1:2,0:0:0:0:
96,52,25896,5,4,1:2:0:0:
160,108,26096,2,0,L|252:104,1,70,2|0,0:2|0:2,0:0:0:0:
292,44,26499,2,0,P|272:84|304:188,1,140,2|2,0:2|0:2,0:0:0:0:
257,252,27102,2,0,P|291:259|325:252,1,70,0|2,1:2|1:2,0:0:0:0:
352,112,27504,5,6,1:2:0:0:
420,60,27705,1,0,0:2:0:0:
500,92,27906,1,2,0:2:0:0:
512,176,28107,1,0,0:2:0:0:
452,236,28307,2,0,L|460:336,3,70,6|10|6|10,1:3|0:2|1:2|0:2,0:0:0:0:
344,348,29111,5,4,1:2:0:0:
268,304,29311,2,0,L|276:204,1,70,2|0,0:2|0:2,0:0:0:0:
328,168,29714,2,0,B|256:200|256:144|184:176,1,140,2|2,0:2|0:2,0:0:0:0:
116,208,30317,2,0,P|108:180|124:128,1,70,0|2,1:2|0:2,0:0:0:0:
52,32,30719,5,6,1:2:0:0:
136,40,30920,1,2,0:2:0:0:
220,52,31120,1,2,0:2:0:0:
304,64,31321,1,2,0:2:0:0:
388,76,31522,5,6,1:2:0:0:
472,64,31723,1,10,0:2:0:0:
508,140,31924,1,10,0:2:0:0:
452,200,32125,1,10,0:2:0:0:
376,164,32309,6,0,P|340:156|292:172,1,70,0|0,0:2|0:0,0:0:0:0:
256,228,32711,1,0,0:0:0:0:
256,60,33113,1,0,0:0:0:0:
96,96,33514,2,0,L|153:174,1,70,0|2,0:0|0:0,0:0:0:0:
112,256,33917,5,6,1:2:0:0:
124,272,34051,1,2,0:2:0:0:
136,288,34184,1,2,0:2:0:0:
148,304,34318,2,0,P|185:314|233:292,1,70,2|2,1:2|1:2,0:0:0:0:
276,248,34720,2,0,P|336:228|424:264,1,140,2|10,1:2|1:2,0:0:0:0:
468,308,35323,1,0,0:2:0:0:
508,188,35524,6,0,L|496:112,1,70,6|2,1:2|0:2,0:0:0:0:
416,140,35926,2,0,L|400:44,1,70,6|0,1:2|1:2,0:0:0:0:
332,32,36328,2,0,P|260:12|188:40,1,140,6|2,1:2|1:2,0:0:0:0:
128,76,36931,1,2,0:2:0:0:
52,44,37132,6,0,B|20:116|92:116|48:188,1,140,6|2,1:2|0:2,0:0:0:0:
0,244,37734,1,2,0:2:0:0:
76,288,37935,2,0,L|168:280,1,70,6|8,1:2|0:2,0:0:0:0:
208,340,38337,1,10,1:2:0:0:
208,340,38538,1,2,0:2:0:0:
304,260,38739,6,0,P|312:224|288:168,1,70,6|2,1:2|0:2,0:0:0:0:
252,128,39141,2,0,P|216:120|160:144,1,70,2|0,1:2|1:2,0:0:0:0:
136,60,39543,2,0,L|128:212,1,140,6|6,1:2|1:2,0:0:0:0:
196,356,40347,5,2,1:2:0:0:
212,344,40481,1,2,0:2:0:0:
228,332,40614,1,2,0:2:0:0:
244,320,40748,2,0,P|254:283|232:235,1,70,2|2,1:2|0:2,0:0:0:0:
320,212,41150,2,0,P|300:152|340:64,1,140,6|14,1:2|1:2,0:0:0:0:
424,216,41954,6,0,L|400:312,1,70,2|2,1:2|0:2,0:0:0:0:
324,296,42356,2,0,L|300:384,1,70,6|0,1:2|1:2,0:0:0:0:
224,344,42758,2,0,B|148:320|148:376|64:340,1,140,6|2,1:2|1:2,0:0:0:0:
28,288,43361,1,2,0:2:0:0:
88,228,43562,2,0,P|108:168|68:80,1,140,6|2,1:2|1:2,0:0:0:0:
144,36,44164,1,2,0:2:0:0:
204,96,44365,2,0,B|254:143|254:143|354:144,1,140,6|0,1:2|1:2,0:0:0:0:
436,20,45169,6,0,P|428:56|452:112,1,70,6|2,0:2|0:2,0:0:0:0:
480,160,45571,2,0,P|488:193|480:227,1,70,2|0,1:2|1:2,0:0:0:0:
432,296,45973,2,0,L|336:288,1,70,6|0,1:2|0:2,0:0:0:0:
300,344,46375,1,6,1:2:0:0:
152,268,46777,5,2,1:2:0:0:
136,256,46911,1,2,0:2:0:0:
120,244,47044,1,2,0:2:0:0:
104,232,47178,2,0,P|94:195|116:147,1,70,2|2,1:2|0:2,0:0:0:0:
156,100,47580,2,0,L|8:120,1,140,6|14,1:2|1:2,0:0:0:0:
184,196,48384,6,0,L|280:184,1,70,2|2,1:2|0:2,0:0:0:0:
280,268,48786,2,0,L|372:256,1,70,6|0,1:2|1:2,0:0:0:0:
412,316,49188,2,0,P|388:256|432:176,1,140,6|2,1:2|1:2,0:0:0:0:
472,124,49791,1,2,0:2:0:0:
416,60,49992,2,0,P|368:56|300:128,1,140,6|2,1:2|1:2,0:0:0:0:
256,184,50594,1,2,0:2:0:0:
208,114,50795,2,0,P|164:62|96:60,1,140,6|2,1:2|0:2,0:0:0:0:
14,207,51599,5,4,1:2:0:0:
68,272,51800,2,0,L|156:264,1,70,2|0,0:2|0:2,0:0:0:0:
196,328,52202,2,0,L|352:316,1,140,2|2,0:2|0:2,0:0:0:0:
416,348,52805,2,0,B|424:312|424:312|408:260,1,70,0|2,1:2|1:2,0:0:0:0:
508,196,53207,5,6,1:2:0:0:
456,132,53408,1,2,0:2:0:0:
372,132,53609,1,2,0:2:0:0:
316,196,53810,1,2,0:2:0:0:
260,260,54010,1,4,1:2:0:0:
176,260,54211,1,10,0:2:0:0:
120,196,54412,2,0,P|112:168|136:104,2,70,0|10|4,1:2|0:2|1:2,0:0:0:0:
80,40,55015,6,0,L|160:32,1,70,2|0,0:2|0:2,0:0:0:0:
204,100,55417,2,0,L|376:80,1,140,2|2,0:2|0:2,0:0:0:0:
408,140,56020,2,0,L|488:132,1,70,0|2,1:2|1:2,0:0:0:0:
508,256,56422,5,6,1:2:0:0:
456,324,56623,1,0,0:2:0:0:
372,324,56824,1,6,1:3:0:0:
324,256,57025,1,0,0:2:0:0:
264,196,57226,1,4,1:2:0:0:
180,196,57427,1,10,0:2:0:0:
120,256,57627,2,0,P|112:296|140:348,1,70,10|10,1:2|1:2,0:0:0:0:
256,372,58029,5,4,1:2:0:0:
312,312,58230,2,0,L|300:224,1,70,2|0,0:2|0:2,0:0:0:0:
388,248,58632,2,0,L|364:96,1,140,2|2,0:2|0:2,0:0:0:0:
400,32,59235,2,0,P|360:24|316:44,1,70,0|2,1:2|1:2,0:0:0:0:
264,140,59637,5,2,1:2:0:0:
232,216,59838,1,0,0:2:0:0:
152,240,60039,1,2,0:2:0:0:
72,216,60240,1,0,0:2:0:0:
40,140,60441,2,0,L|52:56,3,70,4|10|4|10,1:3|0:2|1:2|0:2,0:0:0:0:
168,32,61244,5,4,1:2:0:0:
240,76,61445,2,0,L|249:145,1,70,2|0,0:2|0:2,0:0:0:0:
331,163,61847,2,0,L|311:4,1,140,2|2,0:2|0:2,0:0:0:0:
395,43,62450,2,0,P|431:35|483:55,1,70,0|2,1:2|0:2,0:0:0:0:
502,161,62851,5,6,1:2:0:0:
418,169,63052,1,2,0:2:0:0:
334,181,63252,1,2,0:2:0:0:
250,193,63453,1,2,0:2:0:0:
166,205,63654,5,6,1:2:0:0:
82,193,63855,1,10,0:2:0:0:
46,269,64056,1,10,0:2:0:0:
102,329,64257,1,10,0:2:0:0:
181,290,64459,1,0,0:0:0:0:
256,192,64659,12,0,67272,0:0:0:0:
