osu file format v14

[General]
AudioFilename: audio.mp3
AudioLeadIn: 0
PreviewTime: 32024
Countdown: 0
SampleSet: Soft
StackLeniency: 0.7
Mode: 0
LetterboxInBreaks: 0
WidescreenStoryboard: 1

[Editor]
DistanceSpacing: 1
BeatDivisor: 1
GridSize: 32
TimelineZoom: 2.5

[Metadata]
Title:St. Annu
TitleUnicode:サント・アンヌ号
Artist:Masuda Junichi
ArtistUnicode:増田順一
Creator:Veridian
Version:Expert
Source:ポケットモンスター赤
Tags:Saint Anne Pokemon Pocket Monster Monsters Red Blue 1st first generation jessie james team rocket video game theme vgm bgm 8 bit eight retro classic gameboy
BeatmapID:1688159
BeatmapSetID:695685

[Difficulty]
HPDrainRate:5
CircleSize:4.5
OverallDifficulty:6
ApproachRate:9.2
SliderMultiplier:1.8
SliderTickRate:1

[Events]
//Background and Video events
0,0,"pokemon-15-02.png",0,0
//Break Periods
//Storyboard Layer 0 (Background)
//Storyboard Layer 1 (Fail)
//Storyboard Layer 2 (Pass)
//Storyboard Layer 3 (Foreground)
//Storyboard Sound Samples

[TimingPoints]
176,401.875418620228,4,2,0,55,1,0
2587,-100,4,2,0,65,0,0
6304,-100,4,2,0,5,0,0
6405,-100,4,2,0,65,0,0
6505,-100,4,2,0,5,0,0
6606,-100,4,2,0,65,0,0
19466,-100,4,2,0,65,0,1
27905,-100,4,2,0,50,0,1
29111,-100,4,2,0,65,0,1
30718,-100,4,2,0,75,0,1
31522,-100,4,2,0,85,0,1
32309,401.875418620228,4,2,0,55,1,0
35122,-100,4,2,0,65,0,0
38437,-100,4,2,0,5,0,0
38538,-100,4,2,0,70,0,0
38638,-100,4,2,0,5,0,0
38739,-100,4,2,0,65,0,0
51599,-100,4,2,0,65,0,1
60038,-100,4,2,0,50,0,1
61244,-100,4,2,0,65,0,1
62851,-100,4,2,0,75,0,1
63655,-100,4,2,0,85,0,1
64459,-100,4,2,0,95,0,0
65262,-100,4,2,0,65,0,0
66066,-100,4,2,0,50,0,0
66468,-100,4,2,0,30,0,0
66870,-100,4,2,0,10,0,0
67272,-100,4,2,0,5,0,0

[Colours]
Combo1 : 255,66,255
Combo2 : 253,165,2
Combo3 : 255,57,0
Combo4 : 23,255,139
Combo5 : 0,210,255
SliderTrackOverride : 224,253,255

[HitObjects]
100,140,176,5,2,0:2:0:0:
188,293,376,1,0,0:2:0:0:
232,217,577,2,0,B|145:172|146:268|40:210,2,180,2|0|2,0:2|0:2|0:2,0:0:0:0:
300,357,1582,1,0,1:2:0:0:
436,276,1783,5,2,1:2:0:0:
379,220,1917,1,2,0:2:0:0:
322,276,2051,1,2,0:2:0:0:
379,333,2185,1,0,0:2:0:0:
464,192,2386,5,2,0:2:0:0:
304,92,2587,1,2,1:2:0:0:
492,204,2788,1,8,0:2:0:0:
387,49,2989,2,0,P|399:105|357:162,1,90,10|0,1:2|1:2,0:0:0:0:
256,260,3391,5,6,1:2:0:0:
188,120,3591,1,2,0:2:0:0:
364,240,3792,2,0,L|345:342,1,90,6|0,1:2|1:2,0:0:0:0:
163,328,4194,2,0,L|148:240,1,90,6|0,1:2|0:0,0:0:0:0:
79,155,4596,1,2,0:2:0:0:
256,260,4797,1,2,0:2:0:0:
0,89,4998,6,0,P|60:53|168:105,1,180,6|2,1:2|0:2,0:0:0:0:
248,16,5601,1,2,0:2:0:0:
364,116,5802,2,0,L|261:134,1,90,4|8,1:2|0:2,0:0:0:0:
92,152,6204,1,10,1:2:0:0:
200,240,6405,1,2,0:2:0:0:
0,156,6606,5,6,1:2:0:0:
184,88,6806,1,2,0:2:0:0:
92,320,7007,1,2,1:2:0:0:
8,184,7208,1,0,1:2:0:0:
188,276,7409,2,0,P|198:323|186:365,1,90,6|0,1:2|0:2,0:0:0:0:
104,132,7811,2,0,P|93:88|103:45,1,90,6|0,1:2|0:2,0:0:0:0:
304,92,8213,5,0,1:2:0:0:
247,36,8347,1,2,0:2:0:0:
190,92,8481,1,2,0:2:0:0:
247,149,8615,1,2,1:2:0:0:
328,12,8816,5,2,0:2:0:0:
164,176,9017,2,0,L|181:274,1,90,6|8,1:2|1:2,0:0:0:0:
332,264,9419,2,0,L|348:176,1,90,14|0,1:2|0:2,0:0:0:0:
424,92,9821,5,2,1:2:0:0:
256,128,10021,1,2,0:2:0:0:
440,212,10222,2,0,P|452:172|438:119,1,90,6|0,1:2|0:2,0:0:0:0:
416,316,10624,2,0,L|504:300,1,90,6|0,1:2|0:0,0:0:0:0:
252,240,11026,1,2,0:2:0:0:
344,384,11227,1,2,0:2:0:0:
328,180,11428,2,0,L|127:215,1,180,6|2,1:2|1:2,0:0:0:0:
20,231,12031,1,2,1:2:0:0:
84,152,12232,2,0,P|115:190|52:320,2,180,6|8|2,1:2|1:2|0:2,0:0:0:0:
172,36,13236,5,2,0:2:0:0:
256,216,13437,1,0,1:2:0:0:
340,36,13638,1,0,1:2:0:0:
168,176,13839,2,0,B|153:219|153:219|170:267,1,90,6|0,1:2|0:2,0:0:0:0:
344,260,14241,2,0,B|359:219|359:219|344:176,1,90,6|0,1:2|0:2,0:0:0:0:
256,12,14643,5,2,1:2:0:0:
200,69,14777,1,2,0:2:0:0:
256,126,14911,1,2,0:2:0:0:
313,69,15045,1,2,1:2:0:0:
168,152,15246,5,0,0:2:0:0:
376,240,15447,1,6,1:2:0:0:
164,340,15648,1,8,1:2:0:0:
256,244,15849,1,14,1:2:0:0:
276,244,16251,5,2,1:2:0:0:
72,168,16451,1,2,0:2:0:0:
160,368,16652,2,0,L|178:265,1,90,6|0,1:2|1:2,0:0:0:0:
92,56,17054,2,0,L|73:158,1,90,6|0,1:2|0:2,0:0:0:0:
188,104,17456,1,2,1:2:0:0:
12,0,17657,1,2,0:2:0:0:
324,172,17858,2,0,B|240:124|236:224|145:182,2,180,6|2|6,1:2|1:2|1:2,0:0:0:0:
344,188,19064,1,0,0:2:0:0:
368,172,19466,5,4,1:2:0:0:
312,76,19666,1,2,0:2:0:0:
368,296,19867,1,0,0:2:0:0:
451,213,20068,2,0,B|466:172|466:172|448:111,1,90,2|4,0:2|1:2,0:0:0:0:
224,92,20470,5,2,0:2:0:0:
368,172,20671,1,0,1:2:0:0:
224,256,20872,1,2,1:2:0:0:
336,28,21073,5,6,1:2:0:0:
113,157,21274,1,2,0:2:0:0:
312,44,21475,1,2,0:2:0:0:
144,140,21676,1,2,0:2:0:0:
284,60,21877,1,4,1:2:0:0:
176,124,22078,1,10,0:2:0:0:
268,160,22279,1,0,1:2:0:0:
188,28,22480,1,10,0:2:0:0:
112,248,22681,5,4,1:2:0:0:
204,236,22881,1,2,0:2:0:0:
52,180,23082,1,0,0:2:0:0:
68,328,23283,2,0,B|109:341|109:341|169:322,1,90,2|4,0:2|1:2,0:0:0:0:
336,232,23685,5,2,0:2:0:0:
152,132,23886,1,0,1:2:0:0:
356,244,24087,1,2,1:2:0:0:
224,284,24288,5,6,1:2:0:0:
337,99,24489,1,2,0:2:0:0:
324,124,24690,2,0,L|400:124,1,45,6|0,1:3|0:0,0:0:0:0:
236,260,24891,1,2,0:2:0:0:
312,148,25092,1,4,1:2:0:0:
132,180,25293,1,10,0:2:0:0:
352,260,25494,1,12,1:2:0:0:
204,64,25695,1,10,1:2:0:0:
160,308,25896,5,4,1:2:0:0:
224,172,26096,1,2,0:2:0:0:
48,256,26297,1,0,0:2:0:0:
120,384,26498,2,0,B|161:397|161:397|221:378,1,90,2|4,0:2|1:2,0:0:0:0:
336,244,26900,5,2,0:2:0:0:
160,308,27101,1,0,1:2:0:0:
336,372,27302,1,2,1:2:0:0:
228,120,27503,5,6,1:2:0:0:
404,184,27704,1,0,0:2:0:0:
248,128,27905,1,2,0:2:0:0:
376,172,28106,1,0,0:2:0:0:
352,164,28307,2,0,L|363:100,1,45,6|0,1:3|0:0,0:0:0:0:
272,136,28508,1,10,0:2:0:0:
244,44,28709,1,6,1:2:0:0:
296,228,28910,1,10,0:2:0:0:
460,136,29111,5,4,1:2:0:0:
265,228,29311,1,2,0:2:0:0:
456,320,29512,1,0,0:2:0:0:
376,176,29713,2,0,B|364:132|364:132|386:60,1,90,2|4,0:2|1:2,0:0:0:0:
472,48,30115,5,2,0:2:0:0:
376,260,30316,1,0,1:2:0:0:
276,44,30517,1,2,0:2:0:0:
508,172,30718,5,6,1:2:0:0:
248,340,30919,1,2,0:2:0:0:
328,168,31120,1,2,0:2:0:0:
408,340,31321,1,2,0:2:0:0:
156,128,31522,5,14,1:2:0:0:
484,240,31723,1,10,0:2:0:0:
156,376,31924,1,10,0:2:0:0:
460,240,32125,1,10,0:2:0:0:
240,172,32309,5,2,0:2:0:0:
284,360,32509,1,0,0:0:0:0:
320,252,32710,2,0,P|348:216|288:76,2,180,2|0|2,0:0|0:0|0:0,0:0:0:0:
120,172,33715,1,0,0:0:0:0:
264,172,33916,5,6,1:2:0:0:
207,229,34050,1,2,0:2:0:0:
151,172,34184,1,2,0:2:0:0:
207,115,34318,1,2,1:2:0:0:
204,312,34519,5,2,1:2:0:0:
72,172,34720,1,2,1:2:0:0:
236,312,34921,1,8,0:2:0:0:
84,368,35122,2,0,L|102:261,1,90,10|0,1:2|0:2,0:0:0:0:
124,108,35524,5,6,1:2:0:0:
176,192,35724,1,2,0:2:0:0:
24,108,35925,1,6,1:2:0:0:
176,24,36126,1,0,1:2:0:0:
260,148,36327,2,0,P|271:190|252:245,1,90,6|0,1:2|0:0,0:0:0:0:
88,312,36729,1,2,1:2:0:0:
176,192,36930,1,2,0:2:0:0:
392,316,37131,6,0,B|300:268|300:352|216:312,1,180,6|2,1:2|0:2,0:0:0:0:
168,216,37734,1,2,0:2:0:0:
56,376,37935,2,0,L|76:265,1,90,6|8,1:2|0:2,0:0:0:0:
96,116,38337,1,10,1:2:0:0:
168,240,38538,1,2,0:2:0:0:
244,120,38739,5,6,1:2:0:0:
168,324,38939,1,2,0:2:0:0:
76,196,39140,1,2,1:2:0:0:
268,276,39341,1,0,1:2:0:0:
118,119,39542,2,0,B|76:105|76:105|20:123,1,90,6|0,1:2|0:2,0:0:0:0:
200,188,39944,2,0,B|243:201|243:201|285:187,1,90,6|0,1:2|0:2,0:0:0:0:
432,112,40346,5,2,1:2:0:0:
375,55,40480,1,2,0:2:0:0:
319,112,40614,1,2,0:2:0:0:
375,169,40748,1,2,1:2:0:0:
292,32,40949,5,2,0:2:0:0:
504,154,41150,2,0,P|515:113|498:61,1,90,6|8,1:2|1:2,0:0:0:0:
368,192,41552,2,0,P|355:234|366:277,1,90,14|0,1:2|0:0,0:0:0:0:
284,328,41954,5,2,1:2:0:0:
448,236,42154,1,2,0:2:0:0:
284,144,42355,2,0,P|241:131|198:142,1,90,6|0,1:2|1:2,0:0:0:0:
52,248,42757,2,0,P|94:260|143:244,1,90,6|0,1:2|0:2,0:0:0:0:
94,173,43159,1,2,1:2:0:0:
192,320,43360,1,2,0:2:0:0:
19,116,43561,6,0,P|82:76|183:144,1,180,6|2,1:2|1:2,0:0:0:0:
252,24,44164,1,2,0:2:0:0:
420,132,44365,2,0,L|325:115,1,90,6|8,1:2|0:2,0:0:0:0:
252,8,44767,1,8,1:2:0:0:
296,208,45169,5,6,0:2:0:0:
392,36,45369,1,2,0:2:0:0:
488,208,45570,2,0,P|500:256|484:300,1,90,2|0,1:2|1:2,0:0:0:0:
392,144,45972,2,0,P|380:96|396:52,1,90,6|0,1:2|0:2,0:0:0:0:
400,252,46374,2,0,L|301:234,1,90,6|0,1:2|0:2,0:0:0:0:
164,280,46776,5,2,1:2:0:0:
108,223,46910,1,2,0:2:0:0:
164,166,47044,1,2,0:2:0:0:
221,223,47178,1,2,1:2:0:0:
164,360,47379,5,2,0:2:0:0:
84,208,47580,1,6,1:2:0:0:
244,256,47781,1,8,0:2:0:0:
164,360,47982,2,0,B|116:373|116:373|65:359,1,90,14|0,1:2|0:0,0:0:0:0:
240,220,48384,5,2,1:2:0:0:
332,352,48584,1,2,0:2:0:0:
424,144,48785,1,6,1:2:0:0:
332,268,48986,1,0,1:2:0:0:
495,99,49187,2,0,P|507:143|478:205,1,90,6|0,1:2|0:2,0:0:0:0:
428,276,49589,1,2,1:2:0:0:
324,112,49790,1,2,0:2:0:0:
196,188,49991,6,0,B|280:144|280:232|380:184,2,180,6|2|6,1:2|1:2|1:2,0:0:0:0:
168,200,51197,1,2,0:2:0:0:
144,212,51599,5,4,1:2:0:0:
200,308,51799,1,2,0:2:0:0:
144,88,52000,1,0,0:2:0:0:
61,171,52201,2,0,B|46:212|46:212|64:273,1,90,2|4,0:2|1:2,0:0:0:0:
288,292,52603,5,2,0:2:0:0:
144,212,52804,1,0,1:2:0:0:
288,128,53005,1,2,1:2:0:0:
176,356,53206,5,6,1:2:0:0:
399,227,53407,1,2,0:2:0:0:
200,340,53608,1,2,0:2:0:0:
368,244,53809,1,2,0:2:0:0:
228,324,54010,1,4,1:2:0:0:
336,260,54211,1,10,0:2:0:0:
244,224,54412,1,0,1:2:0:0:
324,356,54613,1,10,0:2:0:0:
400,136,54814,5,4,1:2:0:0:
308,148,55014,1,2,0:2:0:0:
460,204,55215,1,0,0:2:0:0:
444,56,55416,2,0,B|403:43|403:43|343:62,1,90,2|4,0:2|1:2,0:0:0:0:
176,152,55818,5,2,0:2:0:0:
360,252,56019,1,0,1:2:0:0:
156,140,56220,1,2,1:2:0:0:
288,100,56421,5,6,1:2:0:0:
175,285,56622,1,0,0:2:0:0:
188,260,56823,2,0,L|112:260,1,45,6|0,1:3|0:0,0:0:0:0:
276,124,57024,1,0,0:2:0:0:
200,236,57225,1,4,1:2:0:0:
380,204,57426,1,10,0:2:0:0:
160,124,57627,1,10,1:2:0:0:
308,320,57828,1,10,1:2:0:0:
352,76,58029,5,4,1:2:0:0:
288,212,58229,1,2,0:2:0:0:
464,128,58430,1,0,0:2:0:0:
392,0,58631,2,0,B|351:-13|351:-13|291:6,1,90,2|4,0:2|1:2,0:0:0:0:
176,140,59033,5,2,0:2:0:0:
352,76,59234,1,0,1:2:0:0:
176,12,59435,1,2,1:2:0:0:
284,264,59636,5,2,1:2:0:0:
108,200,59837,1,0,0:2:0:0:
264,256,60038,1,2,0:2:0:0:
136,212,60239,1,0,0:2:0:0:
160,220,60440,2,0,L|171:283,1,45,4|0,1:3|0:0,0:0:0:0:
240,248,60641,1,10,0:2:0:0:
268,340,60842,1,4,1:2:0:0:
216,156,61043,1,10,0:2:0:0:
52,248,61244,5,4,1:2:0:0:
247,156,61444,1,2,0:2:0:0:
56,64,61645,1,0,0:2:0:0:
136,208,61846,2,0,B|148:252|148:252|126:324,1,90,2|4,0:2|1:2,0:0:0:0:
40,336,62248,5,2,0:2:0:0:
136,124,62449,1,0,1:2:0:0:
236,340,62650,1,2,0:2:0:0:
4,212,62851,5,6,1:2:0:0:
264,44,63052,1,2,0:2:0:0:
184,216,63253,1,2,0:2:0:0:
104,44,63454,1,2,0:2:0:0:
356,256,63655,5,10,1:2:0:0:
28,144,63856,1,10,0:2:0:0:
356,8,64057,1,10,0:2:0:0:
52,144,64258,1,10,0:2:0:0:
256,192,64442,5,0,0:0:0:0:
256,192,64659,12,0,67272,0:0:0:0:
