osu file format v14

[General]
AudioFilename: audio.mp3
AudioLeadIn: 0
PreviewTime: -1
Countdown: 1
SampleSet: Soft
StackLeniency: 0.7
Mode: 0
LetterboxInBreaks: 0
WidescreenStoryboard: 0

[Editor]
Bookmarks: 74550
DistanceSpacing: 0.3
BeatDivisor: 4
GridSize: 8
TimelineZoom: 1.7

[Metadata]
Title:Sento! Champion (Kanto)
TitleUnicode:戦闘!チャンピオン (カントー)
Artist:Masuda Junichi
ArtistUnicode:増田順一
Creator:ShiraKai
Version:Finale
Source:ポケットモンスター ブラック2・ホワイト2
Tags:kacha nintendo pocket monsters pokemon pokémon game freak junichi masuda
BeatmapID:1369076
BeatmapSetID:646121

[Difficulty]
HPDrainRate:7.2
CircleSize:4.8
OverallDifficulty:8.6
ApproachRate:9.1
SliderMultiplier:1.7
SliderTickRate:1

[Events]
//Background and Video events
0,0,"green.png",0,0
//Break Periods
//Storyboard Layer 0 (Background)
//Storyboard Layer 1 (Fail)
//Storyboard Layer 2 (Pass)
//Storyboard Layer 3 (Foreground)
//Storyboard Sound Samples

[TimingPoints]
597,348.837209302326,4,2,1,60,1,0
3387,-100,4,2,1,60,0,0
3474,-200,4,2,1,60,0,0
3998,-200,4,2,1,5,0,0
4085,-100,4,2,1,60,0,0
4172,-200,4,2,1,60,0,0
4695,-200,4,2,1,5,0,0
4783,-100,4,2,1,60,0,0
4870,-200,4,2,1,60,0,0
5393,-200,4,2,1,5,0,0
5480,-100,4,2,1,60,0,0
5567,-200,4,2,1,60,0,0
6091,-200,4,2,1,5,0,0
6178,-100,4,2,1,60,0,0
14550,-142.857142857143,4,2,1,60,0,0
17341,-166.666666666667,4,2,1,60,0,0
17690,-200,4,2,1,60,0,0
18038,-100,4,2,1,60,0,0
28765,-100,4,2,1,5,0,0
28852,-333.333333333333,4,2,1,60,0,0
29114,-333.333333333333,4,2,1,5,0,0
29201,-100,4,2,1,60,0,0
29463,-100,4,2,1,5,0,0
29550,-333.333333333333,4,2,1,60,0,0
29812,-333.333333333333,4,2,1,5,0,0
29899,-100,4,2,1,60,0,0
30160,-100,4,2,1,5,0,0
30248,-333.333333333333,4,2,1,60,0,0
30509,-333.333333333333,4,2,1,5,0,0
30597,-66.6666666666667,4,2,1,60,0,0
30771,-333.333333333333,4,2,1,60,0,0
31207,-333.333333333333,4,2,1,5,0,0
31294,-100,4,2,1,60,0,0
43852,-200,4,2,1,60,0,0
44899,-142.857142857143,4,2,1,60,0,0
45248,-200,4,2,1,60,0,0
46294,-100,4,2,1,60,0,0
46992,-333.333333333333,4,2,1,60,0,0
53271,-142.857142857143,4,2,1,60,0,0
53620,-333.333333333333,4,2,1,60,0,0
57806,-100,4,2,1,60,0,0
65829,-142.857142857143,4,2,1,60,0,0
66178,-100,4,2,1,60,0,0

[HitObjects]
256,112,597,5,0,0:0:0:0:
260,100,684,1,0,0:0:0:0:
261,87,771,1,0,0:0:0:0:
257,74,858,1,0,0:0:0:0:
238,127,945,2,0,P|240:148|246:168,3,42.5
393,177,1294,5,0,0:0:0:0:
384,168,1381,1,0,0:0:0:0:
372,162,1469,1,0,0:0:0:0:
359,160,1556,1,0,0:0:0:0:
400,199,1643,2,0,L|441:188,3,42.5
313,275,1992,5,0,0:0:0:0:
311,262,2079,1,0,0:0:0:0:
309,249,2166,1,0,0:0:0:0:
307,236,2253,1,0,0:0:0:0:
336,283,2341,2,0,L|331:325,3,42.5
195,323,2690,5,0,0:0:0:0:
199,310,2777,1,0,0:0:0:0:
208,302,2864,1,0,0:0:0:0:
220,298,2951,1,0,0:0:0:0:
191,346,3038,5,0,0:0:0:0:
172,328,3126,1,0,0:0:0:0:
164,303,3213,1,0,0:0:0:0:
164,277,3300,1,0,0:0:0:0:
181,258,3387,5,0,0:0:0:0:
73,287,3474,2,0,L|89:161,1,127.5
89,160,4085,5,0,0:0:0:0:
243,206,4172,2,0,L|226:80,1,127.5
226,79,4783,5,0,0:0:0:0:
43,61,4870,2,0,P|103:65|138:15,1,127.5
138,14,5480,5,0,0:0:0:0:
320,132,5567,2,0,L|447:146,1,127.5
447,146,6178,5,0,0:0:0:0:
458,128,6265,1,0,0:0:0:0:
461,107,6352,1,0,0:0:0:0:
456,86,6440,1,0,0:0:0:0:
443,69,6527,1,0,0:0:0:0:
314,208,6701,2,0,P|320:228|328:247,1,42.5
478,232,6876,5,0,0:0:0:0:
462,230,6963,1,0,0:0:0:0:
446,227,7050,1,0,0:0:0:0:
429,224,7138,1,0,0:0:0:0:
413,221,7225,1,0,0:0:0:0:
334,92,7399,2,0,P|328:112|320:132,1,42.5
164,180,7573,5,0,0:0:0:0:
180,178,7660,1,0,0:0:0:0:
196,175,7747,1,0,0:0:0:0:
213,172,7835,1,0,0:0:0:0:
229,169,7922,1,0,0:0:0:0:
410,339,8097,2,0,P|389:333|370:323,1,42.5
269,299,8271,5,0,0:0:0:0:
254,314,8358,1,0,0:0:0:0:
248,334,8445,1,0,0:0:0:0:
249,355,8533,1,0,0:0:0:0:
260,372,8620,2,0,P|270:353|275:333,1,42.5
328,247,8794,2,0,P|320:228|314:208,1,42.5
212,109,8969,5,0,0:0:0:0:
222,141,9056,1,0,0:0:0:0:
254,151,9143,1,0,0:0:0:0:
286,142,9230,1,0,0:0:0:0:
302,112,9317,1,0,0:0:0:0:
295,78,9405,1,0,0:0:0:0:
266,59,9492,1,0,0:0:0:0:
232,63,9579,1,0,0:0:0:0:
212,109,9666,5,0,0:0:0:0:
194,127,9753,1,0,0:0:0:0:
170,138,9841,1,0,0:0:0:0:
144,139,9928,1,0,0:0:0:0:
119,133,10015,1,0,0:0:0:0:
98,118,10102,1,0,0:0:0:0:
80,99,10190,1,0,0:0:0:0:
76,73,10277,1,0,0:0:0:0:
89,30,10364,5,0,0:0:0:0:
96,59,10451,1,0,0:0:0:0:
100,89,10538,1,0,0:0:0:0:
98,118,10625,1,0,0:0:0:0:
90,147,10712,1,0,0:0:0:0:
81,175,10800,1,0,0:0:0:0:
77,205,10887,1,0,0:0:0:0:
80,234,10974,1,0,0:0:0:0:
87,263,11062,6,0,P|88:273|90:283,3,21.25
111,299,11236,6,0,P|130:291|151:286,1,42.5
267,247,11410,2,0,P|247:239|226:234,1,42.5
150,210,11585,2,0,L|160:251,1,42.5
134,368,11759,5,0,0:0:0:0:
152,357,11847,1,0,0:0:0:0:
173,356,11934,1,0,0:0:0:0:
193,360,12021,1,0,0:0:0:0:
212,367,12108,1,0,0:0:0:0:
231,376,12195,1,0,0:0:0:0:
251,380,12283,1,0,0:0:0:0:
272,379,12370,1,0,0:0:0:0:
291,369,12457,6,0,P|300:350|305:330,3,42.5
385,290,12806,1,0,0:0:0:0:
385,290,12893,1,0,0:0:0:0:
385,290,12980,2,0,P|404:280|424:275,1,42.5
318,233,13155,5,0,0:0:0:0:
308,209,13242,1,0,0:0:0:0:
306,183,13329,1,0,0:0:0:0:
313,158,13416,1,0,0:0:0:0:
332,141,13503,1,0,0:0:0:0:
356,132,13591,1,0,0:0:0:0:
381,133,13678,1,0,0:0:0:0:
402,145,13765,1,0,0:0:0:0:
416,165,13852,6,0,L|411:203,3,21.25
388,209,14027,6,0,L|394:250,1,42.5
496,106,14201,2,0,L|489:147,1,42.5
390,31,14376,5,0,0:0:0:0:
390,31,14463,1,0,0:0:0:0:
390,31,14550,2,0,B|368:41|350:57|350:57|321:33|288:21,1,118.999996368408
232,111,15073,1,0,0:0:0:0:
232,111,15160,1,0,0:0:0:0:
232,111,15248,2,0,L|109:99,1,118.999996368408
390,31,15945,6,0,B|368:41|350:57|350:57|321:33|288:21,1,118.999996368408
232,111,16469,1,0,0:0:0:0:
232,111,16556,1,0,0:0:0:0:
232,111,16644,2,0,L|109:99,1,118.999996368408
50,9,17166,5,0,0:0:0:0:
50,9,17253,1,0,0:0:0:0:
50,9,17341,2,0,P|42:46|22:79,1,76.4999976654053
113,99,17690,6,0,P|118:131|120:163,1,63.75
100,185,18038,6,0,L|58:178,1,42.5
194,252,18213,1,0,0:0:0:0:
38,350,18387,1,0,0:0:0:0:
38,350,18474,1,0,0:0:0:0:
75,271,18649,5,0,0:0:0:0:
75,271,18736,2,0,L|116:264,1,42.5
194,252,18910,1,0,0:0:0:0:
263,374,19172,5,0,0:0:0:0:
250,351,19259,1,0,0:0:0:0:
252,325,19347,1,0,0:0:0:0:
267,305,19434,2,0,P|275:324|278:345,1,42.5
368,224,19695,6,0,P|359:243|356:264,1,42.5
390,297,19870,1,0,0:0:0:0:
415,294,19957,1,0,0:0:0:0:
440,290,20044,1,0,0:0:0:0:
465,285,20131,6,0,B|457:239|457:239|466:214|466:214|454:160,1,127.5
454,160,20480,1,0,0:0:0:0:
285,221,20655,5,0,0:0:0:0:
285,221,20742,1,0,0:0:0:0:
285,221,20829,2,0,B|293:175|293:175|284:150|284:150|296:96,1,127.5
296,96,21178,1,0,0:0:0:0:
454,160,21352,5,0,0:0:0:0:
454,160,21440,1,0,0:0:0:0:
454,160,21527,2,0,B|446:114|446:114|455:89|455:89|443:35,1,127.5
443,35,21876,1,0,0:0:0:0:
296,96,22050,5,0,0:0:0:0:
296,96,22137,1,0,0:0:0:0:
296,96,22224,2,0,B|288:142|288:142|297:167|297:167|285:221,1,127.5
285,221,22573,1,0,0:0:0:0:
443,35,22748,5,0,0:0:0:0:
443,35,22835,1,0,0:0:0:0:
443,36,22922,2,0,B|455:89|455:89|446:114|446:114|454:159,1,127.5
454,159,23271,1,0,0:0:0:0:
296,96,23445,5,0,0:0:0:0:
296,96,23533,1,0,0:0:0:0:
296,96,23620,2,0,P|332:76|374:81,1,85
125,22,23969,2,0,P|161:41|203:36,1,85
225,23,24230,1,0,0:0:0:0:
225,23,24317,6,0,P|213:63|214:106,1,85
126,173,24579,1,0,0:0:0:0:
137,161,24666,2,0,P|148:201|147:244,1,85
274,296,25015,5,0,0:0:0:0:
262,283,25102,1,0,0:0:0:0:
240,304,25190,1,0,0:0:0:0:
240,333,25277,1,0,0:0:0:0:
252,359,25364,2,0,B|298:368|298:368|326:355|326:355|375:362,1,127.5
442,297,25713,6,0,B|425:275|410:252|410:252|401:306|375:362,1,170
243,185,26236,1,0,0:0:0:0:
243,185,26323,1,0,0:0:0:0:
243,185,26410,2,0,B|262:160|262:160|263:186|269:213,1,85
343,204,26672,2,0,P|337:245|309:277,1,85
239,303,26934,6,0,P|220:295|200:289,1,42.5
151,228,27108,1,0,0:0:0:0:
151,228,27195,1,0,0:0:0:0:
148,359,27370,5,0,0:0:0:0:
148,359,27457,2,0,P|105:360|65:375,1,85
5,261,27719,5,0,0:0:0:0:
5,261,27806,2,0,L|105:270,1,85
66,235,28067,2,0,L|166:226,1,85
122,188,28329,1,0,0:0:0:0:
12,54,28503,5,0,0:0:0:0:
6,70,28591,1,0,0:0:0:0:
0,85,28678,2,0,L|40:72,1,42.5
111,107,28852,6,0,L|148:113,1,38.2499988327027
12,54,29201,5,0,0:0:0:0:
6,70,29289,1,0,0:0:0:0:
0,85,29376,2,0,L|40:72,1,42.5
111,107,29550,6,0,L|148:113,1,38.2499988327027
12,54,29899,5,0,0:0:0:0:
6,70,29987,1,0,0:0:0:0:
0,85,30073,2,0,L|40:72,1,42.5
111,107,30248,6,0,L|148:113,1,38.2499988327027
286,50,30597,6,0,L|348:33,1,63.7500024318696
197,9,30771,6,0,P|203:40|213:70,1,63.7499980545045
376,187,31294,5,0,0:0:0:0:
484,122,31469,5,0,0:0:0:0:
459,113,31556,1,0,0:0:0:0:
434,114,31643,1,0,0:0:0:0:
410,122,31730,1,0,0:0:0:0:
391,139,31817,1,0,0:0:0:0:
379,162,31905,1,0,0:0:0:0:
376,187,31992,1,0,0:0:0:0:
379,314,32166,5,0,0:0:0:0:
399,296,32253,1,0,0:0:0:0:
410,274,32340,1,0,0:0:0:0:
416,249,32427,1,0,0:0:0:0:
410,224,32514,1,0,0:0:0:0:
396,203,32602,1,0,0:0:0:0:
376,187,32689,1,0,0:0:0:0:
264,126,32864,5,0,0:0:0:0:
270,152,32951,1,0,0:0:0:0:
283,173,33038,1,0,0:0:0:0:
302,190,33125,1,0,0:0:0:0:
327,198,33212,1,0,0:0:0:0:
352,196,33300,1,0,0:0:0:0:
376,187,33387,1,0,0:0:0:0:
460,348,33562,6,0,B|416:361|374:345|393:333|339:319|294:338,1,170
129,199,34085,5,0,0:0:0:0:
235,282,34259,1,0,0:0:0:0:
48,374,34434,1,0,0:0:0:0:
150,292,34608,6,0,B|34:263|34:263|69:305,1,170
197,354,35131,2,0,P|225:323|235:282,1,85
174,135,35480,5,0,0:0:0:0:
295,231,35655,1,0,0:0:0:0:
300,219,35742,1,0,0:0:0:0:
305,206,35829,2,0,P|241:203|220:198,1,85
168,123,36091,5,0,0:0:0:0:
174,135,36178,2,0,P|132:143|89:143,1,85
30,72,36527,1,0,0:0:0:0:
176,11,36701,5,0,0:0:0:0:
165,16,36788,1,0,0:0:0:0:
153,22,36876,2,0,P|195:30|238:30,1,85
414,105,37224,1,0,0:0:0:0:
260,122,37399,2,0,B|294:111|314:89|314:89|358:112|358:112|413:104,1,170
319,180,37922,1,0,0:0:0:0:
376,27,38097,1,0,0:0:0:0:
316,194,38271,1,0,0:0:0:0:
450,118,38445,5,0,0:0:0:0:
437,114,38533,1,0,0:0:0:0:
425,108,38620,2,0,L|439:199,1,85
291,204,38969,5,0,0:0:0:0:
304,200,39057,1,0,0:0:0:0:
316,194,39144,2,0,L|302:285,1,85
485,301,39492,5,0,0:0:0:0:
472,297,39580,1,0,0:0:0:0:
460,291,39667,2,0,L|474:382,1,85
303,278,40015,1,0,0:0:0:0:
398,377,40190,2,0,B|364:366|344:344|344:344|300:367|300:367|245:359,1,170
43,308,40713,2,0,L|128:300,1,85
128,300,40974,1,0,0:0:0:0:
127,299,41062,1,0,0:0:0:0:
227,199,41236,5,0,0:0:0:0:
235,209,41323,1,0,0:0:0:0:
243,217,41410,2,0,L|158:209,1,85
33,116,41759,5,0,0:0:0:0:
25,126,41846,1,0,0:0:0:0:
17,134,41933,2,0,L|102:126,1,85
253,30,42283,5,0,0:0:0:0:
261,40,42370,1,0,0:0:0:0:
269,48,42457,2,0,L|184:40,1,85
156,20,42719,5,0,0:0:0:0:
156,20,42806,2,0,P|167:60|173:102,1,85
437,44,43155,5,0,0:0:0:0:
437,44,43242,1,0,0:0:0:0:
437,44,43329,2,0,L|352:33,1,85
292,192,43678,5,0,0:0:0:0:
292,192,43765,1,0,0:0:0:0:
292,192,43852,2,0,B|273:180|252:174|252:174|328:164|371:137,1,170
488,271,44899,6,0,L|459:263,3,29.7499990921021
419,202,45248,2,0,P|443:283|459:366,1,170
220,328,46294,2,0,P|224:307|231:286,1,42.5
346,241,46469,2,0,L|357:282,1,42.5
297,330,46643,5,0,0:0:0:0:
297,330,46992,2,0,B|200:305|200:305|163:346|163:346|99:306|19:306,1,305.999990661621
165,135,49259,5,0,0:0:0:0:
165,135,49347,1,0,0:0:0:0:
165,135,49434,2,0,B|146:257|146:257|110:206,1,178.499994552612
0,156,50829,6,0,L|74:139,1,76.4999976654053
41,68,51527,1,0,0:0:0:0:
81,147,51701,1,0,0:0:0:0:
125,73,51876,5,0,0:0:0:0:
125,73,51963,1,0,0:0:0:0:
125,73,52050,1,0,0:0:0:0:
125,73,52137,1,0,0:0:0:0:
125,73,52224,2,0,B|167:111|167:111|198:88|240:71,1,140.24999571991
262,50,53271,6,0,P|266:64|270:78,3,29.7499990921021
382,11,53620,2,0,P|368:60|355:109,2,101.999996887207
512,129,55364,6,0,P|441:136|433:206,1,152.999995330811
320,202,56759,2,0,P|333:251|346:300,1,101.999996887207
346,300,57806,5,0,0:0:0:0:
479,346,57980,1,0,0:0:0:0:
317,380,58155,5,0,0:0:0:0:
432,205,58329,1,0,0:0:0:0:
400,367,58503,5,0,0:0:0:0:
197,311,58678,1,0,0:0:0:0:
420,128,58852,5,0,0:0:0:0:
346,300,59027,1,0,0:0:0:0:
295,68,59201,5,0,0:0:0:0:
497,156,59376,1,0,0:0:0:0:
497,156,59463,1,0,0:0:0:0:
497,156,59550,1,0,0:0:0:0:
268,265,59724,1,0,0:0:0:0:
376,53,59899,5,0,0:0:0:0:
346,300,60073,1,0,0:0:0:0:
420,128,60248,1,0,0:0:0:0:
337,220,60422,1,0,0:0:0:0:
303,26,60597,6,0,L|295:68,1,42.5
244,174,60771,1,0,0:0:0:0:
242,181,60945,1,0,0:0:0:0:
240,189,61120,1,0,0:0:0:0:
238,197,61294,6,0,L|231:155,1,42.5
166,48,61469,1,0,0:0:0:0:
164,41,61643,1,0,0:0:0:0:
162,33,61818,1,0,0:0:0:0:
160,25,61992,6,0,L|153:66,1,42.5
107,240,62166,1,0,0:0:0:0:
105,247,62340,1,0,0:0:0:0:
103,255,62515,1,0,0:0:0:0:
101,263,62690,6,0,L|94:221,1,42.5
30,26,62864,1,0,0:0:0:0:
28,19,63038,6,0,L|21:60,1,42.5
83,104,63213,2,0,P|85:125|91:145,1,42.5
162,182,63387,5,0,0:0:0:0:
429,46,63736,2,0,L|303:26,1,127.5
274,8,64085,2,0,P|283:49|289:91,1,85
467,256,64434,1,0,0:0:0:0:
469,234,64521,1,0,0:0:0:0:
472,213,64608,1,0,0:0:0:0:
477,193,64695,1,0,0:0:0:0:
482,172,64783,6,0,B|421:160|421:160|387:183|387:183|321:172,1,170
120,334,65306,1,0,0:0:0:0:
120,334,65393,1,0,0:0:0:0:
120,334,65480,2,0,P|163:339|204:349,1,85
277,251,65829,2,0,P|247:255|218:261,1,59.4999981842042
203,246,66091,1,0,0:0:0:0:
203,246,66178,6,0,P|182:184|203:125,1,127.5
202,127,66527,1,0,0:0:0:0:
67,191,66701,1,0,0:0:0:0:
67,191,66788,1,0,0:0:0:0:
67,191,66876,1,0,0:0:0:0:
106,43,67050,1,0,0:0:0:0:
106,43,67137,1,0,0:0:0:0:
106,43,67224,2,0,P|116:84|122:127,1,85
428,43,67573,6,0,L|300:32,1,127.5
291,13,67922,2,0,P|281:54|275:96,1,85
274,109,68184,1,0,0:0:0:0:
274,121,68271,1,0,0:0:0:0:
429,126,68445,5,0,0:0:0:0:
409,117,68533,1,0,0:0:0:0:
387,118,68620,1,0,0:0:0:0:
367,126,68707,1,0,0:0:0:0:
353,142,68794,1,0,0:0:0:0:
348,162,68881,1,0,0:0:0:0:
351,183,68969,6,0,P|354:206|363:240,1,42.5
383,240,69143,2,0,P|403:236|424:233,1,42.5
449,217,69317,2,0,P|453:284|442:346,1,127.5
419,364,69666,6,0,P|398:359|377:356,1,42.5
307,312,69841,2,0,P|286:316|265:319,1,42.5
248,345,70015,2,0,L|163:332,1,85
141,329,70277,1,0,0:0:0:0:
141,329,70364,6,0,P|144:186|275:245,2,340
190,251,72457,5,0,0:0:0:0:
190,251,72544,1,0,0:0:0:0:
13,113,73155,5,0,0:0:0:0:
13,113,73242,2,0,L|139:98,1,127.5
139,98,73591,1,0,0:0:0:0:
318,24,73852,5,0,0:0:0:0:
318,24,73939,2,0,L|303:150,1,127.5
139,98,74550,5,0,0:0:0:0:
