osu file format v14

[General]
AudioFilename: audio.mp3
AudioLeadIn: 0
PreviewTime: 111
Countdown: 0
SampleSet: Normal
StackLeniency: 0.7
Mode: 1
LetterboxInBreaks: 0
WidescreenStoryboard: 1

[Editor]
Bookmarks: 22588
DistanceSpacing: 0.8
BeatDivisor: 4
GridSize: 4
TimelineZoom: 1

[Metadata]
Title:Ruins of Alph
TitleUnicode:アルフのいせき
Artist:Masuda Junichi
ArtistUnicode:増田順一
Creator:Slyme
Version:Kantan
Source:ポケットモンスター ハートゴールド・ソウルシルバー
Tags:pokemon pokémon poke poké center pokecenter pokécenter heartgold soulsilver heart gold soul silver kanto johto gamefreak freak video game instrumental ds nds gen 4 iv pocket monsters nintendo 景山将太 kageyama shouta mari_0hara mari 0hara ohara iamwayneking shota ジョウト カントー ost original soundtrack no iseki
BeatmapID:3778103
BeatmapSetID:1803329

[Difficulty]
HPDrainRate:8
CircleSize:2
OverallDifficulty:3
ApproachRate:10
SliderMultiplier:1.4
SliderTickRate:1

[Events]
//Background and Video events
0,0,"Unown.jpg",0,50
//Break Periods
//Storyboard Layer 0 (Background)
//Storyboard Layer 1 (Fail)
//Storyboard Layer 2 (Pass)
//Storyboard Layer 3 (Foreground)
//Storyboard Layer 4 (Overlay)
//Storyboard Sound Samples

[TimingPoints]
200,705.882352941176,4,1,0,60,1,0
200,-100,4,1,0,60,0,0
6905,-100,4,1,0,61,0,0
8670,-100,4,1,0,62,0,0
10435,-100,4,1,0,63,0,0
11847,-100,4,1,0,64,0,0
13611,-100,4,1,0,65,0,0
15376,-100,4,1,0,66,0,0
17141,-100,4,1,0,67,0,0
18905,-100,4,1,0,68,0,0
20317,-100,4,1,0,69,0,0
22082,-100,4,1,0,70,0,0
34788,-100,4,1,0,60,0,0
35494,-100,4,1,0,55,0,0
36905,-100,4,1,0,50,0,0
37611,-100,4,1,0,40,0,0
38317,-100,4,1,0,30,0,0
39023,-100,4,1,0,20,0,0

[HitObjects]
256,192,200,5,8,0:0:0:0:
256,192,905,1,0,0:0:0:0:
256,192,1611,1,0,0:0:0:0:
256,192,1964,1,8,0:0:0:0:
256,192,2317,1,0,0:0:0:0:
256,192,3023,1,8,0:0:0:0:
256,192,3729,1,0,0:0:0:0:
256,192,4435,1,8,0:0:0:0:
64,64,5847,1,8,0:0:0:0:
256,192,6199,1,8,0:0:0:0:
256,192,6552,1,0,0:0:0:0:
256,192,7258,1,8,0:0:0:0:
256,192,7964,1,0,0:0:0:0:
256,192,8670,1,8,0:0:0:0:
256,192,9023,1,0,0:0:0:0:
256,192,9376,1,0,0:0:0:0:
256,192,10082,1,0,0:0:0:0:
256,192,11494,1,8,0:0:0:0:
256,192,11847,1,0,0:0:0:0:
256,192,12199,1,8,0:0:0:0:
256,192,12552,1,8,0:0:0:0:
256,192,12905,1,0,0:0:0:0:
256,192,13611,1,8,0:0:0:0:
256,192,14317,1,0,0:0:0:0:
256,192,14670,1,0,0:0:0:0:
256,192,15023,1,8,0:0:0:0:
256,192,15376,1,0,0:0:0:0:
256,192,15729,1,8,0:0:0:0:
256,192,17141,1,8,0:0:0:0:
256,192,17494,1,0,0:0:0:0:
256,192,17847,1,0,0:0:0:0:
256,192,18199,1,8,0:0:0:0:
256,192,18552,1,8,0:0:0:0:
256,192,19258,1,0,0:0:0:0:
256,192,19964,1,0,0:0:0:0:
256,192,20317,1,8,0:0:0:0:
256,192,20670,1,0,0:0:0:0:
256,192,21023,1,8,0:0:0:0:
256,192,21376,1,8,0:0:0:0:
256,192,22788,1,0,0:0:0:0:
256,192,23141,1,8,0:0:0:0:
256,192,23494,1,8,0:0:0:0:
256,192,23847,1,0,0:0:0:0:
256,192,24199,1,8,0:0:0:0:
256,192,24905,1,0,0:0:0:0:
256,192,25611,1,8,0:0:0:0:
256,192,25964,1,0,0:0:0:0:
256,192,26317,1,0,0:0:0:0:
256,192,26670,1,8,0:0:0:0:
256,192,27023,1,8,0:0:0:0:
256,192,28435,1,8,0:0:0:0:
256,192,28788,1,0,0:0:0:0:
256,192,29141,1,8,0:0:0:0:
256,192,29494,1,0,0:0:0:0:
256,192,29847,1,8,0:0:0:0:
256,192,30552,1,0,0:0:0:0:
256,192,31258,1,8,0:0:0:0:
256,192,31611,1,8,0:0:0:0:
256,192,31964,1,0,0:0:0:0:
256,192,32317,1,8,0:0:0:0:
256,192,32670,1,0,0:0:0:0:
256,192,33376,1,8,0:0:0:0:
256,192,33729,1,0,0:0:0:0:
256,192,34082,1,8,0:0:0:0:
256,192,34788,1,0,0:0:0:0:
256,192,35494,1,8,0:0:0:0:
256,192,35847,1,8,0:0:0:0:
256,192,36199,1,0,0:0:0:0:
256,192,36905,1,8,0:0:0:0:
256,192,37611,1,0,0:0:0:0:
256,192,38317,1,8,0:0:0:0:
256,192,39023,1,0,0:0:0:0:
