osu file format v14

[General]
AudioFilename: audio.mp3
AudioLeadIn: 0
PreviewTime: 17153
Countdown: 0
SampleSet: Normal
StackLeniency: 0.7
Mode: 1
LetterboxInBreaks: 0
WidescreenStoryboard: 1

[Editor]
Bookmarks: 1188,5362,9536,13710
DistanceSpacing: 0.5
BeatDivisor: 4
GridSize: 32
TimelineZoom: 1

[Metadata]
Title:Pokemon Center
TitleUnicode:ポケモンセンター
Artist:Masuda Junichi
ArtistUnicode:増田順一
Creator:Vaf
Version:Muzukashii
Source:ポケットモンスター ハートゴールド・ソウルシルバー
Tags:pokémon poke poké pokecenter pokécenter heartgold soulsilver heart gold soul silver kanto johto gamefreak freak video game instrumental ds nds gen 4 iv pocket monsters nintendo 景山将太 kageyama shouta
BeatmapID:2788739
BeatmapSetID:1346471

[Difficulty]
HPDrainRate:6.5
CircleSize:5
OverallDifficulty:4
ApproachRate:5
SliderMultiplier:1.4
SliderTickRate:1

[Events]
//Background and Video events
0,0,"unknown (1).png",0,0
//Break Periods
//Storyboard Layer 0 (Background)
//Storyboard Layer 1 (Fail)
//Storyboard Layer 2 (Pass)
//Storyboard Layer 3 (Foreground)
//Storyboard Layer 4 (Overlay)
//Storyboard Sound Samples

[TimingPoints]
406,526.315789473684,4,1,0,50,1,0

[HitObjects]
255,202,406,5,8,0:0:0:0:
255,202,669,1,0,0:0:0:0:
248,198,932,1,8,0:0:0:0:
243,187,1195,1,8,0:0:0:0:
238,174,1721,1,8,0:0:0:0:
249,176,2248,1,8,0:0:0:0:
249,176,2511,1,8,0:0:0:0:
158,198,2774,1,0,0:0:0:0:
227,151,3300,1,0,0:0:0:0:
227,151,3432,1,8,0:0:0:0:
220,148,3827,1,8,0:0:0:0:
224,159,4090,1,0,0:0:0:0:
225,160,4221,1,8,0:0:0:0:
238,150,4616,1,8,0:0:0:0:
206,147,4879,1,0,0:0:0:0:
207,147,5142,1,8,0:0:0:0:
206,147,5405,1,8,0:0:0:0:
221,217,5932,1,0,0:0:0:0:
314,250,6458,1,0,0:0:0:0:
224,201,6721,1,0,0:0:0:0:
224,201,6984,1,8,0:0:0:0:
237,154,7511,1,8,0:0:0:0:
237,154,7642,1,0,0:0:0:0:
239,130,8037,1,8,0:0:0:0:
239,130,8300,1,0,0:0:0:0:
238,131,8432,1,8,0:0:0:0:
231,163,8827,1,8,0:0:0:0:
231,163,9090,1,0,0:0:0:0:
231,163,9353,1,8,0:0:0:0:
231,163,9616,1,8,0:0:0:0:
241,148,10142,1,8,0:0:0:0:
241,148,10669,1,8,0:0:0:0:
241,148,10932,1,8,0:0:0:0:
241,148,11195,1,0,0:0:0:0:
260,154,11721,1,0,0:0:0:0:
260,154,11853,1,8,0:0:0:0:
259,153,12248,1,8,0:0:0:0:
266,152,12511,1,0,0:0:0:0:
266,152,12642,1,8,0:0:0:0:
268,161,13037,1,8,0:0:0:0:
268,161,13300,1,0,0:0:0:0:
268,161,13563,1,8,0:0:0:0:
268,161,13827,1,8,0:0:0:0:
227,180,14353,1,0,0:0:0:0:
196,187,14879,1,8,0:0:0:0:
201,185,15142,1,4,0:0:0:0:
222,165,15932,1,8,0:0:0:0:
222,165,16063,1,0,0:0:0:0:
219,157,16458,1,8,0:0:0:0:
219,157,16721,1,0,0:0:0:0:
219,157,16853,1,8,0:0:0:0:
231,152,17248,1,12,0:0:0:0:
219,157,17774,1,8,0:0:0:0:
235,173,18169,1,0,0:0:0:0:
312,207,18300,1,8,0:0:0:0:
257,159,18563,1,0,0:0:0:0:
257,161,18827,1,0,0:0:0:0:
160,224,18958,1,0,0:0:0:0:
241,202,19353,1,0,0:0:0:0:
259,186,19616,1,8,0:0:0:0:
241,202,19879,1,8,0:0:0:0:
255,171,20011,1,8,0:0:0:0:
241,202,20274,1,0,0:0:0:0:
253,202,20669,1,8,0:0:0:0:
253,202,20932,1,8,0:0:0:0:
253,202,21063,1,0,0:0:0:0:
257,191,21458,1,12,0:0:0:0:
232,124,22379,1,0,0:0:0:0:
240,157,22511,1,8,0:0:0:0:
231,174,22774,1,0,0:0:0:0:
263,166,23037,1,0,0:0:0:0:
128,192,23169,1,0,0:0:0:0:
249,144,23563,1,0,0:0:0:0:
255,136,23827,1,8,0:0:0:0:
255,136,24090,1,8,0:0:0:0:
247,123,24221,1,0,0:0:0:0:
253,124,24484,1,0,0:0:0:0:
242,181,24879,1,8,0:0:0:0:
241,134,25142,1,0,0:0:0:0:
240,134,25274,1,8,0:0:0:0:
223,118,25669,1,12,0:0:0:0:
217,153,26195,1,8,0:0:0:0:
228,165,26590,1,0,0:0:0:0:
228,165,26721,1,8,0:0:0:0:
231,142,26984,1,0,0:0:0:0:
236,127,27248,1,0,0:0:0:0:
192,192,27379,1,0,0:0:0:0:
244,141,27774,1,8,0:0:0:0:
243,141,28037,1,0,0:0:0:0:
225,114,28300,1,8,0:0:0:0:
246,138,28432,1,8,0:0:0:0:
244,141,28695,1,8,0:0:0:0:
213,166,29353,1,8,0:0:0:0:
231,170,29616,1,0,0:0:0:0:
213,179,29879,1,12,0:0:0:0:
235,169,30405,1,8,0:0:0:0:
225,168,30669,1,0,0:0:0:0:
224,159,30800,1,8,0:0:0:0:
20,185,31195,1,8,0:0:0:0:
192,192,31590,1,0,0:0:0:0:
238,157,31721,1,0,0:0:0:0:
224,127,31984,1,8,0:0:0:0:
222,133,32248,1,0,0:0:0:0:
223,140,32511,1,8,0:0:0:0:
233,143,32642,1,8,0:0:0:0:
233,143,32905,1,0,0:0:0:0:
173,157,33037,1,8,0:0:0:0:
121,156,33300,1,0,0:0:0:0:
149,139,33563,1,8,0:0:0:0:
146,179,33827,1,0,0:0:0:0:
242,258,34090,1,12,0:0:0:0:
