osu file format v14

[General]
AudioFilename: audio.mp3
AudioLeadIn: 0
PreviewTime: 17138
Countdown: 0
SampleSet: Drum
StackLeniency: 0.4
Mode: 0
LetterboxInBreaks: 0
WidescreenStoryboard: 1

[Editor]
Bookmarks: 49664,59769,74927,79979,100190
DistanceSpacing: 1.1
BeatDivisor: 4
GridSize: 16
TimelineZoom: 1.4

[Metadata]
Title:Kessen! N
TitleUnicode:決戦!N
Artist:Masuda Junichi
ArtistUnicode:増田順一
Creator:FrenZ396
Version:Normal
Source:ポケットモンスターブラック・ホワイト
Tags:decisive battle champion N's theme rival Pokémon Black and White pocket monsters pokemon bw Jun'ichi Go Ichinose 一之瀬剛 Shota Kageyama 景山 将太 Hitomi Sato 佐藤 仁美 Morikazu Aoki Minako Adachi 足立 美奈子 game freak video game vgm instrumental electronic ost
BeatmapID:2478764
BeatmapSetID:1084585

[Difficulty]
HPDrainRate:3
CircleSize:3
OverallDifficulty:5
ApproachRate:6
SliderMultiplier:1
SliderTickRate:1

[Events]
//Background and Video events
0,0,"pokemon N 1 2x.png",0,0
//Break Periods
//Storyboard Layer 0 (Background)
//Storyboard Layer 1 (Fail)
//Storyboard Layer 2 (Pass)
//Storyboard Layer 3 (Foreground)
//Storyboard Layer 4 (Overlay)
//Storyboard Sound Samples

[TimingPoints]
401,315.789473684211,4,2,1,50,1,0
558,-100,4,2,1,50,0,0
2927,-100,4,3,1,70,0,0
7979,-100,4,2,1,50,0,0
12558,-100,4,3,1,70,0,0
17137,-100,4,3,1,90,0,0
49664,-100,4,3,1,60,0,0
59769,-100,4,3,1,70,0,0
69874,-100,4,3,1,80,0,0
74927,-100,4,3,1,90,0,0
82506,-100,4,3,1,70,0,0
85032,-100,4,3,1,78,0,0
87558,-100,4,3,1,86,0,0
90085,-100,4,3,1,93,0,0
92611,-100,4,3,1,100,0,0
95137,-100,4,3,1,85,0,0

[Colours]
Combo1 : 255,94,55
Combo2 : 173,255,95
Combo3 : 17,254,176
Combo4 : 255,88,100

[HitObjects]
19,357,558,5,2,0:0:0:0:
19,357,716,2,0,L|28:291,1,50,2|0,0:0|0:0,0:0:0:0:
64,268,1032,2,0,L|55:150,2,100,2|2|0,0:0|0:0|0:0,0:0:0:0:
144,343,1979,6,0,P|170:349|204:344,1,50,2|0,0:0|0:0,0:0:0:0:
245,328,2295,1,2,0:0:0:0:
347,287,2611,1,2,0:0:0:0:
431,357,2927,6,0,P|469:332|504:279,1,100,2|8,1:0|0:0,0:0:0:0:
500,177,3558,2,0,L|492:115,1,50,2|2,1:0|0:0,0:0:0:0:
486,72,3874,1,10,0:0:0:0:
389,18,4190,6,0,L|376:126,1,100,2|8,1:0|0:0,0:0:0:0:
281,173,4822,2,0,L|273:111,1,50,2|2,1:0|0:0,0:0:0:0:
267,68,5137,1,10,0:0:0:0:
171,14,5453,6,0,P|125:27|87:73,1,100,2|8,1:0|0:0,0:0:0:0:
60,170,6085,2,0,L|53:219,1,50,2|2,1:0|0:0,0:0:0:0:
46,275,6401,1,10,0:0:0:0:
28,383,6716,6,0,L|137:375,1,100,2|8,1:0|0:0,0:0:0:0:
223,320,7348,2,0,P|227:294|219:253,1,50,2|2,1:0|0:0,0:0:0:0:
251,222,7664,2,0,P|235:200|200:177,1,50,10|2,0:0|0:0,0:0:0:0:
170,155,7979,5,2,0:0:0:0:
348,26,8611,2,0,L|400:20,2,50,2|2|2,0:0|0:0|0:0,0:0:0:0:
257,89,9243,5,2,0:0:0:0:
445,201,9874,2,0,L|497:195,2,50,2|2|2,0:0|0:0|0:0,0:0:0:0:
345,152,10506,5,2,0:0:0:0:
401,364,11137,2,0,L|453:358,2,50,2|2|2,0:0|0:0|0:0,0:0:0:0:
299,320,11769,6,0,B|266:307|266:307|193:317,1,100,2|2,0:0|0:0,0:0:0:0:
44,364,12558,1,2,0:0:0:0:
44,364,12716,2,0,P|45:336|39:304,1,50,2|2,0:0|0:0,0:0:0:0:
13,266,13032,6,0,L|26:158,1,100,2|8,1:0|0:0,0:0:0:0:
50,62,13664,1,2,1:0:0:0:
50,62,13822,2,0,L|-6:69,2,50,2|10|0,0:0|0:0|0:0,0:0:0:0:
89,24,14295,6,0,P|137:13|201:36,1,100,2|8,1:0|0:0,0:0:0:0:
257,116,14927,1,2,1:0:0:0:
257,116,15085,2,0,P|253:151|260:179,2,50,2|10|0,0:0|0:0|0:0,0:0:0:0:
289,71,15558,6,0,L|406:59,1,100,2|8,1:0|0:0,0:0:0:0:
499,93,16190,1,2,1:0:0:0:
499,93,16348,2,0,L|506:27,2,50,2|10|0,0:0|0:0|0:0,0:0:0:0:
492,147,16822,1,2,0:0:0:0:
481,256,17137,6,0,B|435:248|435:248|369:261,1,100,6|2,1:0|0:0,0:0:0:0:
364,310,17611,2,0,B|337:271|337:271|281:234,1,100,6|2,2:0|0:0,0:0:0:0:
249,276,18085,2,0,B|257:229|257:229|244:163,1,100,6|8,0:2|0:0,0:0:0:0:
215,132,18558,1,0,0:0:0:0:
215,132,18716,1,0,1:0:0:0:
178,28,19032,2,0,P|151:35|114:34,1,50,8|0,0:0|0:0,0:0:0:0:
77,15,19348,6,0,L|67:117,1,100,0|8,1:0|0:0,0:0:0:0:
0,201,19979,2,0,L|9:260,1,50,0|0,1:0|0:0,0:0:0:0:
18,304,20295,1,8,0:0:0:0:
94,382,20611,6,0,P|125:350|196:335,1,100,0|8,1:0|0:0,0:0:0:0:
285,295,21243,1,0,1:0:0:0:
285,295,21401,1,0,0:0:0:0:
285,295,21558,2,0,L|294:358,1,50,8|0,0:0|0:0,0:0:0:0:
334,380,21874,6,0,P|375:359|428:349,1,100,2|8,1:0|0:0,0:0:0:0:
507,273,22506,2,0,P|466:252|413:242,1,100,2|8,1:0|0:0,0:0:0:0:
306,213,23137,6,0,L|299:155,1,50,2|0,1:0|0:0,0:0:0:0:
294,108,23453,1,8,0:0:0:0:
207,176,23769,2,0,L|171:129,1,50,2|0,1:0|0:0,0:0:0:0:
144,91,24085,1,8,0:0:0:0:
82,182,24401,2,0,L|28:159,1,50,2|0,1:0|0:0,0:0:0:0:
7,115,24716,6,0,B|11:65|11:65|43:22,1,100,6|2,1:0|0:0,0:0:0:0:
94,4,25190,2,0,L|202:12,1,100,6|2,2:0|0:0,0:0:0:0:
240,40,25664,2,0,L|348:32,1,100,6|8,0:2|0:0,0:0:0:0:
449,21,26295,1,0,1:0:0:0:
449,21,26453,2,0,L|512:15,2,50,0|8|0,0:0|0:0|0:0,0:0:0:0:
426,71,26927,6,0,P|418:124|431:187,1,100,0|8,1:0|0:0,0:0:0:0:
474,205,27401,1,0,0:0:0:0:
474,205,27558,2,0,P|482:258|469:321,1,100,0|8,1:0|0:0,0:0:0:0:
386,369,28190,5,0,1:0:0:0:
386,369,28348,2,0,L|269:357,1,100,2|0,0:0|0:0,0:0:0:0:
246,321,28822,2,0,L|186:328,1,50,2|0,1:0|0:0,0:0:0:0:
159,367,29137,1,8,0:0:0:0:
159,367,29295,1,2,0:0:0:0:
29,264,29769,6,0,B|38:217|38:217|32:150,1,100,6|2,1:0|0:0,0:0:0:0:
5,116,30243,2,0,B|50:100|50:100|105:61,1,100,6|2,2:0|0:0,0:0:0:0:
108,17,30716,2,0,B|144:48|144:48|205:76,1,100,6|8,0:2|0:0,0:0:0:0:
248,57,31190,1,0,0:0:0:0:
248,57,31348,1,2,1:0:0:0:
353,26,31664,2,0,L|422:34,1,50,8|0,0:0|0:0,0:0:0:0:
454,12,31979,6,0,P|449:64|462:128,1,100,0|8,1:0|0:0,0:0:0:0:
507,208,32611,2,0,L|499:273,1,50,2|0,1:0|0:0,0:0:0:0:
449,278,32927,2,0,L|457:343,1,50,10|0,0:0|0:0,0:0:0:0:
488,371,33243,6,0,P|433:367|376:383,1,100,0|8,1:0|0:0,0:0:0:0:
282,351,33874,1,2,1:0:0:0:
282,351,34032,2,0,P|285:328|279:284,1,50,0|8,0:0|0:0,0:0:0:0:
305,250,34348,1,2,0:0:0:0:
305,250,34506,2,0,P|290:231|255:204,1,50,0|0,1:0|0:0,0:0:0:0:
252,161,34822,2,0,P|205:151|146:173,1,100,8|0,0:0|1:0,0:0:0:0:
58,216,35453,1,10,0:0:0:0:
2,121,35769,6,0,L|10:64,1,50,2|0,1:0|0:0,0:0:0:0:
16,16,36085,1,8,0:0:0:0:
106,80,36401,2,0,L|151:45,1,50,2|0,1:0|0:0,0:0:0:0:
192,20,36716,1,8,0:0:0:0:
279,85,37032,2,0,L|335:93,1,50,2|0,1:0|0:0,0:0:0:0:
380,110,37348,6,0,B|388:162|388:162|375:216,1,100,6|2,1:0|0:0,0:0:0:0:
347,255,37822,2,0,B|305:287|305:287|252:303,1,100,6|2,2:0|0:0,0:0:0:0:
205,297,38295,2,0,B|155:277|155:277|115:239,1,100,6|8,0:2|0:0,0:0:0:0:
112,195,38769,1,0,0:0:0:0:
112,195,38927,1,0,1:0:0:0:
28,122,39243,2,0,P|10:143|1:169,1,50,8|0,0:0|0:0,0:0:0:0:
4,218,39558,6,0,L|18:323,1,100,0|8,1:0|0:0,0:0:0:0:
29,376,40032,1,0,0:0:0:0:
29,376,40190,2,0,P|79:364|129:372,1,100,0|8,1:0|0:0,0:0:0:0:
225,321,40822,6,0,P|280:330|331:316,1,100,0|8,1:0|0:0,0:0:0:0:
372,297,41295,1,0,0:0:0:0:
372,297,41453,2,0,L|382:355,1,50,0|0,1:0|0:0,0:0:0:0:
427,376,41769,2,0,L|485:386,1,50,8|0,0:0|0:0,0:0:0:0:
511,342,42085,1,0,1:0:0:0:
502,232,42401,6,0,B|493:212|493:212|406:197,1,100,6|0,1:0|0:0,0:0:0:0:
382,155,42874,2,0,B|373:135|373:135|286:120,1,100,6|0,2:0|0:0,0:0:0:0:
252,87,43348,2,0,B|232:96|232:96|217:183,1,100,6|0,0:2|0:0,0:0:0:0:
179,211,43822,1,4,0:2:0:0:
179,211,43979,2,0,P|155:223|117:225,1,50,8|8,2:0|2:0,0:0:0:0:
76,228,44295,2,0,P|53:213|32:181,1,50,8|8,2:0|2:0,0:0:0:0:
17,144,44611,5,4,1:0:0:0:
64,44,44927,2,0,L|176:36,1,100,8|0,0:0|1:0,0:0:0:0:
213,72,45401,1,0,0:0:0:0:
213,72,45558,2,0,L|279:79,1,50,8|0,0:0|0:0,0:0:0:0:
313,33,45874,5,0,1:0:0:0:
418,1,46190,1,8,0:0:0:0:
497,76,46506,2,0,P|515:128|512:173,1,100,0|8,1:0|0:0,0:0:0:0:
496,225,46979,1,0,0:0:0:0:
472,274,47137,6,0,L|486:385,1,100,4|8,1:2|0:0,0:0:0:0:
374,370,47769,2,0,L|263:356,1,100,0|8,1:0|0:0,0:0:0:0:
221,344,48243,1,0,0:0:0:0:
221,344,48401,6,0,P|196:344|162:355,1,50,0|0,1:0|0:0,0:0:0:0:
120,369,48716,1,8,0:0:0:0:
19,322,49032,2,0,L|24:270,1,50,0|0,1:0|0:0,0:0:0:0:
67,237,49348,2,0,L|62:185,1,50,8|0,0:0|0:0,0:0:0:0:
32,140,49664,5,4,1:0:0:0:
11,32,49979,1,0,1:0:0:0:
184,140,50927,5,0,1:0:0:0:
163,32,51243,1,0,1:0:0:0:
336,140,52190,5,0,1:0:0:0:
315,32,52506,1,0,1:0:0:0:
488,140,53453,5,0,1:0:0:0:
467,32,53769,1,0,1:0:0:0:
467,352,54716,5,0,1:0:0:0:
488,244,55032,1,0,1:0:0:0:
315,352,55979,5,0,1:0:0:0:
336,244,56295,1,0,1:0:0:0:
163,352,57243,5,0,1:0:0:0:
184,244,57558,1,0,1:0:0:0:
11,352,58506,5,0,1:0:0:0:
32,244,58822,1,0,1:0:0:0:
360,276,59769,6,0,L|345:167,1,100,6|2,1:0|1:0,0:0:0:0:
393,76,60401,1,2,0:0:0:0:
182,12,61032,1,2,1:0:0:0:
72,23,61348,2,0,P|24:92|37:218,1,200,2|0,1:0|0:0,0:0:0:0:
128,252,62295,6,0,L|115:375,1,100,2|2,1:0|1:0,0:0:0:0:
11,380,62927,1,2,0:0:0:0:
226,335,63558,1,2,1:0:0:0:
332,361,63874,2,0,P|410:359|471:257,1,200,2|0,1:0|0:0,0:0:0:0:
477,153,64822,5,2,1:0:0:0:
452,46,65137,1,2,1:0:0:0:
353,3,65453,1,2,0:0:0:0:
186,146,66085,5,2,1:0:0:0:
288,104,66401,2,0,P|316:193|290:303,1,200,2|0,1:0|0:0,0:0:0:0:
217,374,67348,5,2,1:0:0:0:
145,289,67664,1,2,1:0:0:0:
65,366,67979,1,2,0:0:0:0:
10,149,68611,5,2,1:0:0:0:
23,39,68927,1,2,1:0:0:0:
129,9,69243,6,0,L|139:69,1,50,0|0,1:0|0:0,0:0:0:0:
185,84,69558,2,0,L|175:144,1,50,8|8,0:0|0:0,0:0:0:0:
143,177,69874,6,0,L|85:185,2,50,6|2|10,1:0|0:0|0:0,0:0:0:0:
184,279,70506,2,0,L|126:287,2,50,2|2|10,1:0|0:0|0:0,0:0:0:0:
257,196,71137,6,0,P|282:215|300:247,1,50,2|2,1:0|0:0,0:0:0:0:
317,280,71453,1,10,0:0:0:0:
352,384,71769,2,0,P|377:364|413:355,1,50,2|2,1:0|0:0,0:0:0:0:
447,349,72085,1,10,0:0:0:0:
444,238,72401,6,0,L|504:246,2,50,2|2|10,1:0|0:0|0:0,0:0:0:0:
405,135,73032,2,0,L|465:127,2,50,2|2|10,1:0|0:0|0:0,0:0:0:0:
295,121,73664,6,0,P|288:86|291:55,1,50,2|2,1:0|0:0,0:0:0:0:
291,16,73979,1,10,0:0:0:0:
181,27,74295,2,0,P|154:50|125:63,1,50,2|2,1:0|0:0,0:0:0:0:
92,83,74611,1,10,0:0:0:0:
16,163,74927,6,0,B|13:193|13:193|20:226,2,50,6|2|10,1:0|0:0|0:0,0:0:0:0:
114,213,75558,2,0,B|117:243|117:243|110:276,2,50,2|2|10,1:0|0:0|0:0,0:0:0:0:
220,182,76190,6,0,P|246:158|275:145,1,50,2|2,1:0|0:0,0:0:0:0:
309,126,76505,1,10,0:0:0:0:
416,149,76822,2,0,P|439:175|452:204,1,50,2|2,1:0|0:0,0:0:0:0:
472,238,77137,1,10,0:0:0:0:
420,335,77453,6,0,L|363:369,2,50,2|2|10,1:0|0:0|0:0,0:0:0:0:
330,270,78085,2,0,L|297:327,2,50,2|2|10,1:0|0:0|0:0,0:0:0:0:
221,253,78716,2,0,L|220:318,2,50,2|2|10,1:0|0:0|0:0,0:0:0:0:
112,272,79348,1,2,1:0:0:0:
112,272,79506,1,2,0:0:0:0:
112,272,79664,2,0,L|144:329,1,50,10|0,0:0|0:0,0:0:0:0:
122,368,79979,6,0,B|95:377|95:377|16:356,1,100,2|10,1:0|0:0,0:0:0:0:
0,251,80611,2,0,P|1:208|22:146,1,100,2|10,1:0|0:0,0:0:0:0:
128,157,81243,2,0,B|155:166|155:166|234:145,1,100,2|10,1:0|0:0,0:0:0:0:
330,119,81875,2,0,P|329:76|308:14,1,100,2|10,1:0|0:0,0:0:0:0:
204,44,82506,6,0,P|169:50|135:46,1,50,6|0,1:0|0:0,0:0:0:0:
103,30,82822,1,8,0:0:0:0:
8,85,83137,1,0,1:0:0:0:
32,134,83295,2,0,P|36:182|26:248,1,100
14,286,83769,5,0,1:0:0:0:
89,366,84085,2,0,L|194:354,1,100,8|0,0:0|1:0,0:0:0:0:
231,320,84558,1,0,0:0:0:0:
231,320,84716,2,0,P|254:308|280:284,1,50,8|0,0:0|0:0,0:0:0:0:
294,241,85032,6,0,P|289:185|296:131,1,100,6|8,1:0|0:0,0:0:0:0:
304,31,85664,1,0,1:0:0:0:
354,52,85822,2,0,P|394:58|458:38,1,100
503,25,86295,5,0,1:0:0:0:
492,134,86611,1,8,0:0:0:0:
420,217,86927,2,0,L|435:289,1,50,0|0,1:0|0:0,0:0:0:0:
477,294,87243,2,0,L|462:366,1,50,8|0,0:0|0:0,0:0:0:0:
418,370,87558,6,0,B|370:372|370:372|315:353,1,100,6|8,1:0|0:0,0:0:0:0:
225,299,88190,1,0,1:0:0:0:
225,299,88348,2,0,P|192:299|166:308,1,50,0|8,0:0|0:0,0:0:0:0:
128,331,88664,1,0,0:0:0:0:
89,369,88822,5,0,1:0:0:0:
0,309,89137,1,8,0:0:0:0:
4,199,89453,2,0,L|16:89,1,100,0|8,1:0|0:0,0:0:0:0:
24,45,89927,1,0,0:0:0:0:
61,5,90085,6,0,P|102:24|130:25,1,50,6|2,1:0|0:0,0:0:0:0:
161,22,90401,1,8,0:0:0:0:
270,12,90716,2,0,P|267:58|281:115,1,100,0|8,1:0|0:0,0:0:0:0:
324,142,91190,1,0,0:0:0:0:
324,142,91348,6,0,L|381:135,1,50,0|0,1:0|0:0,0:0:0:0:
413,173,91664,2,0,L|470:180,1,50,8|0,0:0|0:0,0:0:0:0:
497,222,91979,1,0,1:0:0:0:
495,332,92295,1,8,0:0:0:0:
495,332,92453,1,0,0:0:0:0:
495,332,92611,6,0,P|446:347|388:340,1,100,6|8,1:0|0:0,0:0:0:0:
349,316,93085,1,0,0:0:0:0:
349,316,93243,2,0,P|321:303|282:298,1,50,0|0,1:0|0:0,0:0:0:0:
248,309,93558,1,8,0:0:0:0:
150,360,93874,6,0,L|133:248,1,100,0|8,1:0|0:0,0:0:0:0:
182,230,94348,1,0,0:0:0:0:
182,230,94506,2,0,L|191:160,1,50,0|0,1:0|0:0,0:0:0:0:
226,140,94822,2,0,L|217:70,1,50,8|0,0:0|0:0,0:0:0:0:
190,43,95137,5,6,1:0:0:0:
83,16,95453,2,0,P|85:42|77:75,1,50,8|8,0:2|2:0,0:0:0:0:
37,99,95769,1,8,1:2:0:0:
37,99,95927,2,0,P|21:143|33:217,1,100,2|0,0:0|0:0,0:0:0:0:
48,245,96401,5,2,1:0:0:0:
17,353,96716,1,8,0:0:0:0:
17,353,96874,2,0,L|129:341,1,100,2|0,0:0|0:0,0:0:0:0:
163,312,97348,2,0,P|194:309|230:320,1,50,10|0,0:0|0:0,0:0:0:0:
259,341,97664,5,4,1:0:0:0:
288,235,97979,2,0,P|273:206|271:174,1,50,8|8,0:2|2:0,0:0:0:0:
278,134,98295,1,8,1:2:0:0:
278,134,98453,2,0,L|389:119,1,100,2|0,0:0|0:0,0:0:0:0:
420,86,98927,5,2,1:0:0:0:
449,39,99085,1,2,0:0:0:0:
506,132,99401,2,0,L|499:203,1,50,2|0,0:0|1:0,0:0:0:0:
458,218,99716,1,0,0:0:0:0:
458,218,99874,2,0,L|465:289,1,50,8|8,0:0|0:0,0:0:0:0:
497,311,100190,5,4,1:0:0:0:
