osu file format v14

[General]
AudioFilename: audio.mp3
AudioLeadIn: 0
PreviewTime: 17138
Countdown: 0
SampleSet: Drum
StackLeniency: 0.4
Mode: 0
LetterboxInBreaks: 0
WidescreenStoryboard: 1

[Editor]
Bookmarks: 49664,59769,79979,100190
DistanceSpacing: 0.7
BeatDivisor: 4
GridSize: 16
TimelineZoom: 2.2

[Metadata]
Title:Kessen! N
TitleUnicode:決戦!N
Artist:Masuda Junichi
ArtistUnicode:増田順一
Creator:FrenZ396
Version:Insane
Source:ポケットモンスターブラック・ホワイト
Tags:decisive battle champion N's theme rival Pokémon Black and White pocket monsters pokemon bw Jun'ichi Go Ichinose 一之瀬剛 Shota Kageyama 景山 将太 Hitomi Sato 佐藤 仁美 Morikazu Aoki Minako Adachi 足立 美奈子 game freak video game vgm instrumental electronic ost
BeatmapID:3045646
BeatmapSetID:1084585

[Difficulty]
HPDrainRate:5
CircleSize:4
OverallDifficulty:8
ApproachRate:9
SliderMultiplier:1.6
SliderTickRate:1

[Events]
//Background and Video events
0,0,"pokemon N 1 2x.png",0,0
//Break Periods
//Storyboard Layer 0 (Background)
//Storyboard Layer 1 (Fail)
//Storyboard Layer 2 (Pass)
//Storyboard Layer 3 (Foreground)
//Storyboard Layer 4 (Overlay)
//Storyboard Sound Samples

[TimingPoints]
401,315.789473684211,4,2,1,50,1,0
558,-142.857142857143,4,2,1,50,0,0
2927,-100,4,3,1,70,0,0
7979,-142.857142857143,4,2,1,50,0,0
12558,-142.857142857143,4,3,1,70,0,0
13032,-111.111111111111,4,3,1,70,0,0
17137,-71.4285714285714,4,3,1,90,0,0
18085,-80,4,3,1,90,0,0
24716,-71.4285714285714,4,3,1,90,0,0
25664,-80,4,3,1,90,0,0
29769,-71.4285714285714,4,3,1,90,0,0
30716,-80,4,3,1,90,0,0
31348,-71.4285714285714,4,3,1,90,0,0
31979,-80,4,3,1,90,0,0
32611,-71.4285714285714,4,3,1,90,0,0
32927,-62.5,4,3,1,90,0,0
33243,-80,4,3,1,90,0,0
37348,-71.4285714285714,4,3,1,90,0,0
38295,-80,4,3,1,90,0,0
42401,-71.4285714285714,4,3,1,90,0,0
44611,-80,4,3,1,90,0,0
49664,-133.333333333333,4,3,1,60,0,0
59769,-133.333333333333,4,3,1,70,0,0
69874,-100,4,3,1,80,0,0
74927,-100,4,3,1,90,0,0
79979,-100,4,3,1,60,0,0
82506,-80,4,3,1,70,0,0
85032,-75.4716981132076,4,3,1,78,0,0
87558,-71.4285714285714,4,3,1,86,0,0
90085,-67.7966101694915,4,3,1,93,0,0
92611,-64.5161290322581,4,3,1,100,0,0
95137,-80,4,3,1,85,0,0

[Colours]
Combo1 : 255,94,55
Combo2 : 173,255,95
Combo3 : 17,254,176
Combo4 : 255,88,100

[HitObjects]
420,363,558,5,2,0:0:0:0:
466,293,716,2,0,L|463:265,3,27.9999991455078,2|0|0|0,0:0|0:0|0:0|0:0,0:0:0:0:
392,228,1032,2,0,L|389:200,3,27.9999991455078,2|0|0|0,0:0|0:0|0:0|0:0,0:0:0:0:
458,155,1348,2,0,L|455:127,7,27.9999991455078,2|0|0|0|0|0|0|0,0:0|0:0|0:0|0:0|0:0|0:0|0:0|0:0,0:0:0:0:
397,49,1979,2,0,P|380:45|347:46,1,27.9999991455078,2|0,0:0|0:0,0:0:0:0:
293,12,2137,2,0,P|281:24|265:53,1,27.9999991455078,2|0,0:0|0:0,0:0:0:0:
233,119,2295,5,2,0:0:0:0:
231,132,2611,1,2,0:0:0:0:
36,106,2927,5,2,1:0:0:0:
34,96,3005,1,0,0:0:0:0:
32,86,3084,1,0,0:0:0:0:
30,76,3163,1,0,0:0:0:0:
28,66,3243,2,0,L|18:9,3,40,8|0|0|0,0:0|0:0|0:0|0:0,0:0:0:0:
116,42,3558,2,0,L|138:142,1,80,2|0,1:0|0:0,0:0:0:0:
55,195,3874,2,0,L|24:292,1,80,10|0,0:0|0:0,0:0:0:0:
37,373,4190,5,2,1:0:0:0:
47,371,4268,1,0,0:0:0:0:
57,369,4347,1,0,0:0:0:0:
67,367,4426,1,0,0:0:0:0:
77,365,4506,2,0,L|134:355,3,40,8|0|0|0,0:0|0:0|0:0|0:0,0:0:0:0:
158,282,4822,2,0,P|199:283|242:310,1,80,2|0,1:0|0:0,0:0:0:0:
323,378,5137,2,0,P|328:335|353:296,1,80,10|0,0:0|0:0,0:0:0:0:
476,367,5453,5,2,1:0:0:0:
474,357,5531,1,0,0:0:0:0:
472,347,5610,1,0,0:0:0:0:
470,337,5689,1,0,0:0:0:0:
468,327,5769,2,0,L|458:270,3,40,8|0|0|0,0:0|0:0|0:0|0:0,0:0:0:0:
493,209,6085,2,0,B|451:201|451:201|406:211,1,80,2|0,1:0|0:0,0:0:0:0:
296,232,6401,2,0,B|304:190|304:190|294:145,1,80,10|0,0:0|0:0,0:0:0:0:
199,40,6716,5,2,1:0:0:0:
197,50,6794,1,0,0:0:0:0:
195,60,6873,1,0,0:0:0:0:
193,70,6952,1,0,0:0:0:0:
191,80,7032,2,0,L|181:137,3,40,8|0|0|0,0:0|0:0|0:0|0:0,0:0:0:0:
87,86,7348,2,0,L|99:189,1,80,2|0,1:0|0:0,0:0:0:0:
193,236,7664,2,0,L|205:339,1,80,10|0,0:0|0:0,0:0:0:0:
302,368,7979,6,0,P|321:363|335:349,7,27.9999991455078,2|0|0|0|0|0|0|0,0:0|0:0|0:0|0:0|0:0|0:0|0:0|0:0,0:0:0:0:
350,334,8611,2,0,L|355:267,2,55.9999982910157,2|2|2,0:0|0:0|0:0,0:0:0:0:
428,377,9085,1,2,0:0:0:0:
481,309,9243,6,0,P|476:290|462:276,7,27.9999991455078,2|0|0|0|0|0|0|0,0:0|0:0|0:0|0:0|0:0|0:0|0:0|0:0,0:0:0:0:
447,261,9875,2,0,L|380:256,2,55.9999982910157,2|2|2,0:0|0:0|0:0,0:0:0:0:
490,183,10349,1,2,0:0:0:0:
412,145,10506,6,0,P|393:150|379:164,7,27.9999991455078,2|0|0|0|0|0|0|0,0:0|0:0|0:0|0:0|0:0|0:0|0:0|0:0,0:0:0:0:
364,179,11138,2,0,L|359:246,2,55.9999982910157,2|2|2,0:0|0:0|0:0,0:0:0:0:
286,136,11612,1,2,0:0:0:0:
214,206,11769,6,0,P|196:238|171:258,1,55.9999982910157,2|0,0:0|0:0,0:0:0:0:
100,215,12085,2,0,P|63:215|33:203,1,55.9999982910157,2|0,0:0|0:0,0:0:0:0:
15,117,12401,1,2,0:0:0:0:
15,117,12558,1,2,1:0:0:0:
92,51,12716,1,2,1:0:0:0:
160,122,12874,1,2,1:0:0:0:
244,10,13032,5,2,1:0:0:0:
261,13,13110,1,0,0:0:0:0:
279,16,13189,1,0,0:0:0:0:
314,116,13348,2,0,L|403:102,1,71.9999978027344,8|0,0:0|0:0,0:0:0:0:
507,18,13664,2,0,P|514:56|501:95,1,71.9999978027344,0|0,1:0|0:0,0:0:0:0:
493,111,13900,1,0,0:0:0:0:
490,138,13979,1,8,0:0:0:0:
494,164,14058,1,0,0:0:0:0:
506,188,14137,1,0,0:0:0:0:
429,295,14295,6,0,L|383:286,3,35.9999989013672,2|0|0|0,1:0|0:0|0:0|0:0,0:0:0:0:
338,223,14611,2,0,L|299:249,3,35.9999989013672,8|0|0|0,0:0|0:0|0:0|0:0,0:0:0:0:
256,322,14927,1,0,1:0:0:0:
259,339,15005,1,0,0:0:0:0:
262,357,15084,1,0,0:0:0:0:
171,269,15243,1,8,0:0:0:0:
174,251,15322,1,0,0:0:0:0:
177,234,15400,1,0,0:0:0:0:
106,361,15558,6,0,L|62:369,3,35.9999989013672,2|0|0|0,1:0|0:0|0:0|0:0,0:0:0:0:
35,291,15874,2,0,L|-9:283,3,35.9999989013672,8|0|0|0,0:0|0:0|0:0|0:0,0:0:0:0:
17,200,16190,2,0,P|24:162|11:123,1,71.9999978027344,0|0,1:0|0:0,0:0:0:0:
3,107,16426,1,0,0:0:0:0:
0,80,16505,1,8,0:0:0:0:
4,54,16584,1,0,0:0:0:0:
16,30,16663,1,0,0:0:0:0:
114,129,16822,1,0,0:0:0:0:
196,14,16979,1,0,0:0:0:0:
240,4,17058,1,0,0:0:0:0:
282,19,17137,6,0,L|303:201,1,167.999994873047,6|2,1:0|0:0,0:0:0:0:
282,208,17453,1,2,0:0:0:0:
410,70,17611,6,0,L|384:249,1,167.999994873047,6|2,2:0|0:0,0:0:0:0:
360,256,17927,1,2,0:0:0:0:
512,167,18085,6,0,L|491:212,1,50,6|0,0:2|0:0,0:0:0:0:
458,286,18243,2,0,L|410:391,1,100,0|8,0:0|0:0,0:0:0:0:
300,317,18558,1,0,0:0:0:0:
176,381,18716,2,0,P|186:324|165:273,1,100,0|0,1:0|0:0,0:0:0:0:
159,264,18953,1,0,0:0:0:0:
139,249,19032,1,8,0:0:0:0:
115,242,19111,1,0,0:0:0:0:
90,242,19190,1,0,0:0:0:0:
20,380,19348,6,0,B|-1:285|-1:285|23:182,1,200,0|8,1:0|0:0,0:0:0:0:
115,101,19822,1,0,0:0:0:0:
47,18,19979,1,0,1:0:0:0:
22,21,20057,1,0,0:0:0:0:
0,25,20136,1,0,0:0:0:0:
138,103,20295,1,8,0:0:0:0:
162,106,20373,1,0,0:0:0:0:
187,109,20452,1,0,0:0:0:0:
303,32,20611,6,0,P|397:26|470:116,1,200,0|8,1:0|0:0,0:0:0:0:
410,279,21085,2,0,L|398:179,1,100,0|0,0:0|1:0,0:0:0:0:
289,129,21401,1,0,0:0:0:0:
286,153,21479,1,0,0:0:0:0:
283,178,21558,1,8,0:0:0:0:
280,203,21637,1,0,0:0:0:0:
277,228,21716,1,0,0:0:0:0:
357,361,21874,5,2,1:0:0:0:
357,361,21953,1,0,0:0:0:0:
357,361,22032,2,0,P|380:366|406:368,1,50
500,343,22190,2,0,L|488:243,1,100,8|0,0:0|0:0,0:0:0:0:
271,317,22506,5,2,1:0:0:0:
271,317,22585,1,0,0:0:0:0:
271,317,22664,2,0,P|248:322|222:324,1,50
128,299,22822,2,0,L|139:199,1,100,8|0,0:0|0:0,0:0:0:0:
289,129,23137,5,2,1:0:0:0:
314,121,23216,1,0,0:0:0:0:
342,122,23295,2,0,P|369:129|389:144,1,50
512,171,23453,2,0,L|500:71,1,100,8|0,0:0|0:0,0:0:0:0:
263,25,23769,5,2,1:0:0:0:
221,17,23848,1,0,0:0:0:0:
180,20,23927,2,0,P|150:24|123:38,1,50
11,108,24085,2,0,L|0:9,1,100,8|0,0:0|0:0,0:0:0:0:
117,170,24401,5,2,1:0:0:0:
120,218,24479,1,0,0:0:0:0:
92,259,24558,1,0,0:0:0:0:
46,274,24637,1,0,0:0:0:0:
0,258,24716,6,0,P|21:333|126:342,1,167.999994873047,6|2,1:0|0:0,0:0:0:0:
135,338,25032,1,2,0:0:0:0:
215,220,25190,6,0,P|282:181|363:249,1,167.999994873047,6|2,2:0|0:0,0:0:0:0:
367,258,25506,1,2,0:0:0:0:
491,368,25664,6,0,L|498:313,3,50,6|0|0|0,0:2|0:0|0:0|0:0,0:0:0:0:
467,242,25979,2,0,P|457:178|477:119,1,100,8|0,0:0|0:0,0:0:0:0:
507,26,26295,2,0,L|404:35,1,100,0|0,1:0|0:0,0:0:0:0:
382,36,26532,1,0,0:0:0:0:
357,38,26611,1,8,0:0:0:0:
332,40,26690,1,0,0:0:0:0:
307,42,26769,1,0,0:0:0:0:
166,152,26927,6,0,P|173:96|153:44,1,100,0|0,1:0|0:0,0:0:0:0:
47,10,27243,1,8,0:0:0:0:
5,126,27401,1,0,0:0:0:0:
72,249,27558,1,0,1:0:0:0:
96,245,27636,1,0,0:0:0:0:
121,242,27715,1,0,0:0:0:0:
260,171,27874,2,0,L|248:286,1,100,8|0,0:0|0:0,0:0:0:0:
125,361,28190,5,2,1:0:0:0:
101,357,28268,1,2,0:0:0:0:
76,354,28347,1,2,0:0:0:0:
43,238,28506,2,0,L|146:223,1,100,8|0,0:0|0:0,0:0:0:0:
237,364,28822,1,2,1:0:0:0:
340,271,28979,1,0,0:0:0:0:
466,378,29137,1,8,0:0:0:0:
462,354,29215,1,0,0:0:0:0:
459,329,29294,1,2,0:0:0:0:
502,212,29453,1,0,1:0:0:0:
511,174,29531,1,0,0:0:0:0:
511,137,29610,1,0,0:0:0:0:
503,100,29689,1,0,0:0:0:0:
486,66,29769,6,0,P|415:40|326:96,1,167.999994873047,6|2,1:0|0:0,0:0:0:0:
326,112,30085,1,2,0:0:0:0:
252,244,30243,6,0,P|181:270|92:214,1,167.999994873047,6|2,2:0|0:0,0:0:0:0:
92,198,30559,1,2,0:0:0:0:
205,28,30716,6,0,L|192:147,1,100,6|0,0:2|0:0,0:0:0:0:
25,48,31032,2,0,L|12:167,1,100,8|0,0:0|0:0,0:0:0:0:
11,326,31348,2,0,B|38:363|92:377|142:356|136:322|136:322|131:301|109:299|91:312|86:338,1,223.999993164063,2|8,1:0|0:0,0:0:0:0:
231,370,31822,1,0,0:0:0:0:
231,370,31901,1,0,0:0:0:0:
231,370,31979,2,0,P|278:359|313:315,1,100,0|0,1:0|0:0,0:0:0:0:
302,173,32295,2,0,L|404:159,1,100,8|0,0:0|0:0,0:0:0:0:
499,341,32611,6,0,P|450:347|480:264,1,167.999994873047,2|0,1:0|0:0,0:0:0:0:
467,263,32927,2,0,B|497:222|497:222|483:76,1,192,10|0,0:0|0:0,0:0:0:0:
481,56,33243,1,0,0:0:0:0:
478,31,33321,1,0,0:0:0:0:
475,6,33401,1,0,0:0:0:0:
338,59,33558,2,0,L|238:45,1,100,8|0,0:0|0:0,0:0:0:0:
90,29,33874,5,2,1:0:0:0:
19,140,34032,1,2,0:0:0:0:
19,140,34111,1,0,0:0:0:0:
19,140,34190,2,0,L|28:203,3,50,8|0|0|0,0:0|0:0|0:0|0:0,0:0:0:0:
119,178,34506,2,0,L|105:240,3,50,2|0|0|0,1:0|0:0|0:0|0:0,0:0:0:0:
199,247,34822,2,0,L|165:301,3,50,10|0|0|0,0:0|0:0|0:0|0:0,0:0:0:0:
250,339,35137,1,2,1:0:0:0:
240,346,35215,1,0,0:0:0:0:
230,354,35294,1,0,0:0:0:0:
220,362,35373,1,0,0:0:0:0:
208,370,35453,2,0,P|135:375|78:308,1,150,8|0,0:0|0:0,0:0:0:0:
108,226,35769,5,2,1:0:0:0:
111,214,35847,1,0,0:0:0:0:
113,202,35926,1,0,0:0:0:0:
116,190,36005,1,0,0:0:0:0:
119,178,36085,2,0,L|129:129,3,50,8|0|0|0,0:0|0:0|0:0|0:0,0:0:0:0:
24,139,36401,5,2,1:0:0:0:
26,126,36479,1,0,0:0:0:0:
29,114,36558,1,0,0:0:0:0:
31,102,36637,1,0,0:0:0:0:
34,90,36717,2,0,L|44:41,3,50,8|0|0|0,0:0|0:0|0:0|0:0,0:0:0:0:
156,25,37032,5,2,1:0:0:0:
191,14,37110,1,0,0:0:0:0:
228,19,37189,1,0,0:0:0:0:
258,40,37268,1,0,0:0:0:0:
277,72,37348,6,0,B|258:151|258:151|278:248,1,167.999994873047,6|2,1:0|0:0,0:0:0:0:
297,255,37664,1,2,0:0:0:0:
369,124,37822,6,0,B|411:193|411:193|494:247,1,167.999994873047,6|2,2:0|0:0,0:0:0:0:
512,239,38138,1,2,0:0:0:0:
402,39,38295,6,0,L|459:45,1,50,6|0,0:2|0:0,0:0:0:0:
468,135,38453,2,0,L|358:122,1,100,0|8,0:0|0:0,0:0:0:0:
259,153,38769,1,0,0:0:0:0:
297,255,38927,2,0,P|289:314|253:354,1,100,0|0,1:0|0:0,0:0:0:0:
243,358,39164,1,0,0:0:0:0:
219,364,39243,1,8,0:0:0:0:
194,362,39322,1,0,0:0:0:0:
171,353,39401,1,0,0:0:0:0:
49,378,39558,6,0,L|34:267,1,100,0|0,1:0|0:0,0:0:0:0:
5,176,39874,1,8,0:0:0:0:
8,151,39952,1,0,0:0:0:0:
11,126,40031,1,0,0:0:0:0:
82,33,40190,2,0,P|103:19|127:12,3,50,0|0|0|0,1:0|0:0|0:0|0:0,0:0:0:0:
199,43,40506,1,8,0:0:0:0:
316,13,40664,1,0,0:0:0:0:
316,13,40743,1,0,0:0:0:0:
316,13,40822,6,0,P|305:63|327:127,1,100,0|0,1:0|0:0,0:0:0:0:
409,199,41137,1,8,0:0:0:0:
512,117,41295,1,0,0:0:0:0:
384,41,41453,2,0,P|340:68|311:129,1,100,0|0,1:0|0:0,0:0:0:0:
294,220,41769,1,8,0:0:0:0:
294,220,41848,1,0,0:0:0:0:
294,220,41927,2,0,L|304:281,1,50
371,346,42085,5,0,1:0:0:0:
403,364,42163,1,0,0:0:0:0:
440,366,42242,1,0,0:0:0:0:
474,352,42321,1,0,0:0:0:0:
497,323,42401,6,0,P|503:255|424:179,1,167.999994873047,6|2,1:0|0:0,0:0:0:0:
409,199,42716,1,2,0:0:0:0:
315,108,42874,6,0,P|247:102|171:181,1,167.999994873047,6|2,2:0|0:0,0:0:0:0:
191,196,43189,1,2,0:0:0:0:
48,202,43348,6,0,P|42:270|121:346,1,167.999994873047,6|2,0:2|0:0,0:0:0:0:
136,326,43663,1,2,0:0:0:0:
294,220,43822,5,4,0:2:0:0:
280,325,43979,1,8,2:0:0:0:
385,375,44137,2,0,L|447:359,1,55.9999982910157,8|0,2:0|0:0,0:0:0:0:
442,280,44295,2,0,L|474:224,1,55.9999982910157,8|0,2:0|0:0,0:0:0:0:
406,170,44453,2,0,L|390:108,1,55.9999982910157,8|0,2:0|0:0,0:0:0:0:
334,36,44611,6,0,P|293:19|217:26,1,100,4|0,1:0|0:0,0:0:0:0:
52,93,44927,2,0,P|93:76|165:83,1,100,8|0,0:0|0:0,0:0:0:0:
266,138,45243,2,0,L|260:254,1,100,0|0,1:0|0:0,0:0:0:0:
252,264,45479,1,0,0:0:0:0:
240,289,45558,1,8,0:0:0:0:
95,368,45716,1,0,0:0:0:0:
95,368,45795,1,0,0:0:0:0:
95,368,45874,6,0,P|44:355|12:318,1,100,0|0,1:0|0:0,0:0:0:0:
0,185,46190,2,0,P|77:181|154:272,1,200,8|0,0:0|1:0,0:0:0:0:
249,384,46664,1,0,0:0:0:0:
374,337,46822,1,8,0:0:0:0:
376,312,46900,1,0,0:0:0:0:
379,287,46979,1,0,0:0:0:0:
382,262,47058,1,0,0:0:0:0:
385,237,47137,6,0,B|379:187|379:187|353:135,1,100,4|0,1:2|0:0,0:0:0:0:
204,135,47453,2,0,B|210:85|210:85|236:33,1,100,8|0,0:0|0:0,0:0:0:0:
371,0,47769,2,0,L|481:7,1,100,0|0,1:0|0:0,0:0:0:0:
485,24,48006,1,0,0:0:0:0:
497,45,48085,1,8,0:0:0:0:
462,168,48243,1,0,0:0:0:0:
462,168,48322,1,0,0:0:0:0:
462,168,48401,6,0,B|478:275,1,100,0|0,1:0|0:0,0:0:0:0:
512,384,48716,2,0,L|302:369,1,200,8|0,0:0|1:0,0:0:0:0:
210,298,49190,1,0,1:0:0:0:
104,377,49348,1,8,0:0:0:0:
67,373,49426,1,8,0:0:0:0:
36,352,49505,1,8,0:0:0:0:
19,319,49584,1,8,0:0:0:0:
20,282,49664,6,0,B|26:268|26:268|18:207,1,60.0000022888184,12|0,1:0|0:0,0:0:0:0:
35,266,49979,2,0,B|41:252|41:252|23:129,1,120.000004577637,0|2,1:0|0:0,0:0:0:0:
14,58,50453,1,2,0:0:0:0:
14,58,50611,2,0,P|20:21|32:-2,1,60.0000022888184,2|2,2:0|0:0,0:0:0:0:
185,58,50927,6,0,B|199:52|199:52|260:60,1,60.0000022888184,0|0,1:0|0:0,0:0:0:0:
201,43,51242,2,0,B|215:37|215:37|338:55,1,120.000004577637,0|2,1:0|0:0,0:0:0:0:
396,190,51716,1,2,0:0:0:0:
396,190,51874,2,0,L|385:110,1,60.0000022888184,2|2,0:0|0:0,0:0:0:0:
495,12,52190,6,0,B|489:26|489:26|497:87,1,60.0000022888184,0|0,1:0|0:0,0:0:0:0:
480,28,52506,2,0,B|474:42|474:42|492:165,1,120.000004577637,0|2,1:0|0:0,0:0:0:0:
501,245,52979,1,2,0:0:0:0:
501,245,53137,2,0,B|507:259|507:259|499:320,1,60.0000022888184,2|2,0:0|0:0,0:0:0:0:
430,366,53453,6,0,P|398:356|349:366,1,60.0000022888184,0|0,1:0|0:0,0:0:0:0:
412,348,53769,2,0,P|357:337|291:367,1,120.000004577637,0|2,1:0|0:0,0:0:0:0:
203,353,54243,1,2,0:0:0:0:
115,376,54401,1,2,0:0:0:0:
36,334,54558,1,2,0:0:0:0:
67,181,54716,6,0,L|74:248,1,60.0000022888184,0|0,1:0|0:0,0:0:0:0:
83,159,55032,2,0,L|95:294,1,120.000004577637,0|0,1:0|0:0,0:0:0:0:
193,230,55506,1,2,0:0:0:0:
181,141,55664,2,0,P|169:103|143:72,1,60.0000022888184,2|2,0:0|0:0,0:0:0:0:
0,49,55979,6,0,B|16:34|16:34|65:31,1,60.0000022888184,0|0,1:0|0:0,0:0:0:0:
11,30,56295,2,0,B|29:14|29:14|145:9,1,120.000004577637,0|2,1:0|0:0,0:0:0:0:
233,33,56769,1,2,0:0:0:0:
332,7,56927,2,0,P|340:40|334:76,1,60.0000022888184,2|2,0:0|0:0,0:0:0:0:
297,185,57243,6,0,L|368:174,1,60.0000022888184,0|0,1:0|0:0,0:0:0:0:
285,171,57558,2,0,L|418:149,1,120.000004577637,0|2,1:0|0:0,0:0:0:0:
426,65,58032,1,2,0:0:0:0:
509,28,58190,2,0,P|515:57|512:87,1,60.0000022888184,2|2,0:0|0:0,0:0:0:0:
499,194,58506,6,0,L|489:274,1,60.0000022888184,0|0,1:0|0:0,0:0:0:0:
480,181,58822,2,0,L|464:306,1,120.000004577637,0|2,1:0|0:0,0:0:0:0:
403,371,59295,1,2,0:0:0:0:
316,365,59453,1,2,0:0:0:0:
233,355,59611,1,2,0:0:0:0:
165,262,59769,5,6,1:0:0:0:
144,270,60085,1,2,1:0:0:0:
121,278,60401,2,0,P|111:207|16:211,1,180.000006866455,2|0,0:0|0:0,0:0:0:0:
28,353,61032,2,0,L|21:278,1,60.0000022888184,2|0,1:0|0:0,0:0:0:0:
1,194,61348,2,0,B|37:125|6:27|6:27|66:65|145:55,1,300.000011444092,2|0,1:0|0:0,0:0:0:0:
251,10,62295,5,2,1:0:0:0:
272,18,62611,1,2,1:0:0:0:
295,26,62927,2,0,B|287:68|287:68|323:214,1,180.000006866455,2|0,0:0|0:0,0:0:0:0:
261,291,63558,2,0,B|276:371,1,60.0000022888184,2|0,1:0|0:0,0:0:0:0:
390,378,63874,2,0,P|443:378|414:206,1,300.000011444092,2|0,1:0|0:0,0:0:0:0:
301,192,64822,5,2,1:0:0:0:
280,184,65138,1,2,1:0:0:0:
257,176,65454,2,0,L|67:196,1,180.000006866455,2|0,0:0|0:0,0:0:0:0:
84,105,66085,2,0,L|3:113,1,60.0000022888184,2|0,1:0|0:0,0:0:0:0:
7,291,66401,2,0,B|134:278|134:278|114:315|114:315|257:300,1,300.000011444092,2|0,1:0|0:0,0:0:0:0:
341,344,67348,5,2,1:0:0:0:
368,353,67664,1,2,1:0:0:0:
395,361,67979,2,0,P|469:360|511:268,1,180.000006866455,2|0,0:0|0:0,0:0:0:0:
391,194,68611,2,0,L|309:206,1,60.0000022888184,2|0,1:0|0:0,0:0:0:0:
267,119,68927,2,0,L|185:107,1,60.0000022888184,2|0,1:0|0:0,0:0:0:0:
137,22,69243,5,0,1:0:0:0:
24,75,69401,1,8,0:0:0:0:
30,88,69479,1,8,0:0:0:0:
34,102,69558,1,8,0:0:0:0:
35,117,69637,1,8,0:0:0:0:
34,132,69716,1,8,0:0:0:0:
30,147,69795,1,8,0:0:0:0:
24,160,69874,5,14,1:0:0:0:
0,230,70032,1,2,0:0:0:0:
16,305,70190,2,0,L|103:312,1,80,10|0,0:0|0:0,0:0:0:0:
197,288,70506,5,2,1:0:0:0:
284,278,70664,1,2,0:0:0:0:
373,272,70822,2,0,L|380:359,1,80,10|0,0:0|0:0,0:0:0:0:
264,378,71137,5,2,1:0:0:0:
197,288,71295,1,2,0:0:0:0:
136,197,71453,2,0,P|134:156|142:117,1,80,10|0,0:0|0:0,0:0:0:0:
278,37,71769,5,2,1:0:0:0:
413,16,71927,1,2,0:0:0:0:
512,102,72085,2,0,P|518:144|505:193,1,80,10|0,0:0|0:0,0:0:0:0:
476,305,72401,5,0,1:0:0:0:
402,298,72558,1,0,0:0:0:0:
328,288,72716,2,0,L|241:278,1,80,8|0,0:0|0:0,0:0:0:0:
156,347,73032,5,2,1:0:0:0:
64,361,73190,1,2,0:0:0:0:
0,291,73348,2,0,P|-1:250|13:203,1,80,10|0,0:0|0:0,0:0:0:0:
138,110,73664,5,2,1:0:0:0:
91,15,73822,1,2,0:0:0:0:
6,69,73979,2,0,P|27:115|69:148,1,80,10|0,0:0|0:0,0:0:0:0:
215,185,74295,5,2,1:0:0:0:
344,138,74453,1,2,0:0:0:0:
352,12,74611,2,0,B|311:12|311:12|271:28,1,80,10|0,0:0|0:0,0:0:0:0:
215,185,74927,5,6,1:0:0:0:
226,262,75085,1,2,0:0:0:0:
242,339,75243,2,0,L|336:350,1,80,10|0,0:0|0:0,0:0:0:0:
512,372,75558,5,2,1:0:0:0:
501,280,75716,1,2,0:0:0:0:
487,187,75874,2,0,L|393:176,1,80,10|0,0:0|0:0,0:0:0:0:
264,109,76190,5,2,1:0:0:0:
151,169,76348,1,2,0:0:0:0:
47,106,76506,2,0,P|36:67|41:27,1,80,10|0,0:0|0:0,0:0:0:0:
167,42,76822,5,2,1:0:0:0:
151,169,76979,1,2,0:0:0:0:
133,296,77137,2,0,L|226:289,1,80,10|0,0:0|0:0,0:0:0:0:
379,220,77453,5,2,1:0:0:0:
423,307,77611,1,2,0:0:0:0:
331,365,77769,2,0,P|319:318|326:270,1,80,10|0,0:0|0:0,0:0:0:0:
366,137,78085,5,2,1:0:0:0:
466,231,78243,1,2,0:0:0:0:
295,209,78401,2,0,P|251:192|226:157,1,80,10|0,0:0|0:0,0:0:0:0:
422,70,78716,5,2,1:0:0:0:
379,221,78874,1,2,0:0:0:0:
286,92,79032,2,0,P|264:59|262:4,1,80,10|0,0:0|0:0,0:0:0:0:
488,146,79348,5,2,1:0:0:0:
352,146,79506,1,2,0:0:0:0:
433,53,79664,1,10,0:0:0:0:
376,237,79822,1,2,0:0:0:0:
205,136,79979,6,0,P|168:145|128:169,1,80,2|0,1:0|0:0,0:0:0:0:
59,116,80295,2,0,P|48:152|49:199,1,80,8|0,0:0|0:0,0:0:0:0:
196,220,80611,2,0,P|185:256|186:303,1,80,0|0,1:0|0:0,0:0:0:0:
105,336,80927,2,0,P|131:363|172:386,1,80,8|0,0:0|0:0,0:0:0:0:
322,335,81243,6,0,L|417:323,1,80,0|0,1:0|0:0,0:0:0:0:
379,221,81558,2,0,L|455:163,1,80,8|0,0:0|0:0,0:0:0:0:
304,96,81874,2,0,L|316:1,1,80,0|0,1:0|0:0,0:0:0:0:
128,60,82190,2,0,L|52:1,1,80,8|0,0:0|0:0,0:0:0:0:
13,214,82506,5,6,1:0:0:0:
13,214,82585,1,0,0:0:0:0:
13,214,82664,2,0,B|61:220|61:220|126:199,1,100,0|8,0:0|0:0,0:0:0:0:
214,103,82979,1,0,0:0:0:0:
295,216,83137,2,0,P|285:267|297:313,1,100,0|0,1:0|0:0,0:0:0:0:
312,331,83373,1,0,0:0:0:0:
334,344,83452,1,8,0:0:0:0:
358,349,83531,1,0,0:0:0:0:
383,346,83610,1,0,0:0:0:0:
506,270,83769,6,0,L|496:391,1,100,0|0,1:0|0:0,0:0:0:0:
373,260,84085,1,8,0:0:0:0:
475,169,84243,1,0,0:0:0:0:
475,169,84322,1,0,0:0:0:0:
475,169,84401,2,0,L|486:56,1,100,0|0,1:0|0:0,0:0:0:0:
479,37,84637,1,0,0:0:0:0:
451,10,84716,2,0,P|425:15|402:36,1,50,8|0,0:0|0:0,0:0:0:0:
334,82,84874,2,0,P|329:106|332:137,1,50
295,216,85032,6,0,P|243:226|194:211,1,106.000004447937,6|0,1:0|0:0,0:0:0:0:
102,128,85348,1,8,0:0:0:0:
10,256,85506,1,0,0:0:0:0:
10,256,85585,1,0,0:0:0:0:
10,256,85664,2,0,L|0:136,1,106.000004447937,0|0,1:0|0:0,0:0:0:0:
3,123,85900,1,0,0:0:0:0:
5,97,85979,1,8,0:0:0:0:
7,70,86058,1,0,0:0:0:0:
9,44,86137,1,0,0:0:0:0:
137,16,86295,5,0,1:0:0:0:
241,143,86453,1,0,0:0:0:0:
241,143,86532,1,0,0:0:0:0:
241,143,86611,2,0,L|251:23,1,106.000004447937,8|0,0:0|0:0,0:0:0:0:
386,5,86927,2,0,P|444:27|475:69,1,106.000004447937,0|0,1:0|0:0,0:0:0:0:
373,216,87243,2,0,P|421:176|472:170,1,106.000004447937,8|0,0:0|0:0,0:0:0:0:
512,340,87558,6,0,B|462:356|462:356|400:352,1,111.999996582031,6|0,1:0|0:0,0:0:0:0:
287,289,87874,1,8,0:0:0:0:
176,358,88032,1,0,0:0:0:0:
67,199,88190,2,0,P|51:257|69:319,1,111.999996582031,0|0,1:0|0:0,0:0:0:0:
76,332,88426,1,0,0:0:0:0:
96,351,88505,1,8,0:0:0:0:
121,362,88584,1,0,0:0:0:0:
149,365,88663,1,0,0:0:0:0:
176,358,88742,1,0,0:0:0:0:
201,345,88821,5,0,1:0:0:0:
162,226,88979,1,0,0:0:0:0:
162,226,89058,1,0,0:0:0:0:
162,226,89137,2,0,L|151:115,1,111.999996582031,8|0,0:0|0:0,0:0:0:0:
36,26,89453,1,0,1:0:0:0:
15,111,89611,1,0,0:0:0:0:
130,1,89769,1,8,0:0:0:0:
208,41,89927,1,0,0:0:0:0:
247,222,90085,6,0,B|305:209|305:209|366:148,1,118.000003826141,6|0,1:0|0:0,0:0:0:0:
334,51,90401,1,8,0:0:0:0:
442,5,90558,1,0,0:0:0:0:
512,91,90716,2,0,L|500:214,1,118.000003826141,0|0,1:0|0:0,0:0:0:0:
497,237,90953,1,0,0:0:0:0:
494,266,91032,1,8,0:0:0:0:
492,296,91111,1,0,0:0:0:0:
489,325,91190,1,0,0:0:0:0:
487,354,91269,1,0,0:0:0:0:
484,384,91348,5,0,1:0:0:0:
391,284,91506,2,0,P|395:312|390:352,1,59.0000019130707
304,368,91664,2,0,P|313:304|292:233,1,118.000003826141,8|0,0:0|0:0,0:0:0:0:
276,239,91901,1,0,0:0:0:0:
246,228,91979,1,0,1:0:0:0:
196,373,92137,1,0,0:0:0:0:
104,242,92295,2,0,P|122:268|128:305,1,59.0000019130707,8|0,0:0|0:0,0:0:0:0:
52,361,92453,2,0,P|16:352|-13:322,1,59.0000019130707
7,215,92611,6,0,P|7:156|31:86,1,124.000000946045,6|0,1:0|0:0,0:0:0:0:
151,30,92927,1,8,0:0:0:0:
177,171,93085,1,0,0:0:0:0:
292,77,93243,2,0,P|354:67|421:91,1,124.000000946045,0|0,1:0|0:0,0:0:0:0:
433,105,93479,1,0,0:0:0:0:
449,131,93558,1,8,0:0:0:0:
459,160,93637,1,0,0:0:0:0:
461,191,93716,1,0,0:0:0:0:
455,221,93795,1,0,0:0:0:0:
442,249,93874,5,0,1:0:0:0:
261,227,94032,1,0,0:0:0:0:
360,196,94190,1,8,0:0:0:0:
360,196,94269,1,0,0:0:0:0:
360,196,94348,1,0,0:0:0:0:
417,347,94506,5,8,1:0:0:0:
373,341,94585,1,8,0:0:0:0:
329,334,94664,2,0,L|266:325,1,62.0000004730225,8|8,0:0|0:0,0:0:0:0:
154,271,94822,1,0,1:0:0:0:
154,271,94901,1,0,1:0:0:0:
154,271,94979,2,0,L|144:352,1,62.0000004730225,0|0,1:0|1:0,0:0:0:0:
18,372,95137,6,0,P|31:317|15:255,1,100,6|8,1:0|2:0,0:0:0:0:
0,163,95453,1,8,0:2:0:0:
44,53,95611,1,8,2:0:0:0:
160,15,95769,2,0,P|171:68|208:113,1,100,8|0,1:2|0:0,0:0:0:0:
228,122,96006,1,0,0:0:0:0:
268,127,96085,1,8,0:0:0:0:
331,18,96243,1,0,0:0:0:0:
512,85,96401,6,0,L|392:100,1,100,2|0,1:0|0:0,0:0:0:0:
377,109,96637,1,0,0:0:0:0:
351,135,96716,1,8,0:0:0:0:
338,170,96795,1,0,0:0:0:0:
342,207,96874,2,0,P|364:250|419:276,1,100,2|0,0:0|1:0,0:0:0:0:
482,199,97190,1,0,0:0:0:0:
476,329,97348,2,0,P|434:355|385:354,1,100,10|0,0:0|0:0,0:0:0:0:
209,348,97664,6,0,L|221:248,1,100,6|8,1:0|2:0,0:0:0:0:
234,134,97979,1,8,0:2:0:0:
155,34,98137,1,8,2:0:0:0:
35,26,98295,2,0,P|24:92|40:138,1,100,8|0,1:2|0:0,0:0:0:0:
40,145,98532,1,0,0:0:0:0:
43,170,98611,1,8,0:0:0:0:
41,195,98690,1,0,0:0:0:0:
34,218,98769,1,0,0:0:0:0:
0,327,98927,5,2,1:0:0:0:
136,377,99085,1,2,0:0:0:0:
266,297,99243,1,8,0:0:0:0:
266,297,99322,1,0,0:0:0:0:
266,297,99401,2,0,L|275:186,1,100,0|0,0:0|1:0,0:0:0:0:
345,96,99716,1,0,1:0:0:0:
468,187,99874,1,8,0:0:0:0:
462,149,99952,1,8,0:0:0:0:
457,112,100031,1,8,0:0:0:0:
452,75,100110,1,8,0:0:0:0:
446,38,100189,5,12,1:0:0:0:
