osu file format v14

[General]
AudioFilename: audio.mp3
AudioLeadIn: 0
PreviewTime: 17138
Countdown: 0
SampleSet: Drum
StackLeniency: 0.4
Mode: 0
LetterboxInBreaks: 0
WidescreenStoryboard: 1

[Editor]
Bookmarks: 49664,59769,79979,100190
DistanceSpacing: 1.4
BeatDivisor: 4
GridSize: 16
TimelineZoom: 2.1

[Metadata]
Title:Kessen! N
TitleUnicode:決戦!N
Artist:Masuda Junichi
ArtistUnicode:増田順一
Creator:FrenZ396
Version:Extra
Source:ポケットモンスターブラック・ホワイト
Tags:decisive battle champion N's theme rival Pokémon Black and White pocket monsters pokemon bw Jun'ichi Go Ichinose 一之瀬剛 Shota Kageyama 景山 将太 Hitomi Sato 佐藤 仁美 Morikazu Aoki Minako Adachi 足立 美奈子 game freak video game vgm instrumental electronic ost
BeatmapID:2320694
BeatmapSetID:1084585

[Difficulty]
HPDrainRate:5
CircleSize:4
OverallDifficulty:8.8
ApproachRate:9.3
SliderMultiplier:1.8
SliderTickRate:1

[Events]
//Background and Video events
0,0,"pokemon N 1 2x.png",0,0
//Break Periods
//Storyboard Layer 0 (Background)
//Storyboard Layer 1 (Fail)
//Storyboard Layer 2 (Pass)
//Storyboard Layer 3 (Foreground)
//Storyboard Layer 4 (Overlay)
//Storyboard Sound Samples

[TimingPoints]
401,315.789473684211,4,2,1,50,1,0
558,-142.857142857143,4,2,1,50,0,0
2611,-250,4,2,1,50,0,0
2927,-111.111111111111,4,3,1,70,0,0
7979,-142.857142857143,4,2,1,50,0,0
9242,-181.818181818182,4,2,1,50,0,0
10505,-250,4,2,1,50,0,0
11769,-142.857142857143,4,2,1,50,0,0
12558,-99.9999999999999,4,3,1,70,0,0
17137,-66.6666666666667,4,3,1,90,0,0
18084,-80,4,3,1,90,0,0
24716,-66.6666666666667,4,3,1,90,0,0
25663,-80,4,3,1,90,0,0
29769,-66.6666666666667,4,3,1,90,0,0
31348,-57.1428571428571,4,3,1,90,0,0
31663,-80,4,3,1,90,0,0
32611,-66.6666666666667,4,3,1,90,0,0
32927,-50,4,3,1,90,0,0
33243,-80,4,3,1,90,0,0
37348,-66.6666666666667,4,3,1,90,0,0
38295,-80,4,3,1,90,0,0
42400,-66.6666666666667,4,3,1,90,0,0
44611,-80,4,3,1,90,0,0
49663,-142.857142857143,4,3,1,60,0,0
59769,-117.647058823529,4,3,1,70,0,0
61348,-80,4,3,1,70,0,0
62295,-117.647058823529,4,3,1,70,0,0
63558,-125,4,3,1,70,0,0
63874,-80,4,3,1,70,0,0
64822,-125,4,3,1,70,0,0
66401,-80,4,3,1,70,0,0
67348,-125,4,3,1,70,0,0
69874,-100,4,3,1,80,0,0
74927,-100,4,3,1,90,0,0
79979,-80,4,3,1,60,0,0
82506,-90.9090909090909,4,3,1,70,0,0
85032,-83.3333333333333,4,3,1,78,0,0
87558,-76.9230769230769,4,3,1,86,0,0
90085,-71.4285714285714,4,3,1,93,0,0
92611,-66.6666666666667,4,3,1,100,0,0
94979,-100,4,3,1,100,0,0
95137,-80,4,3,1,85,0,0

[Colours]
Combo1 : 255,94,55
Combo2 : 173,255,95
Combo3 : 17,254,176
Combo4 : 255,88,100

[HitObjects]
468,39,558,6,0,L|420:45,1,31.4999990386963,2|0,0:0|0:0,0:0:0:0:
391,109,716,2,0,L|343:115,3,31.4999990386963,2|0|0|0,0:0|0:0|0:0|0:0,0:0:0:0:
302,176,1032,2,0,L|254:182,3,31.4999990386963,2|0|0|0,0:0|0:0|0:0|0:0,0:0:0:0:
221,246,1348,2,0,L|173:252,7,31.4999990386963,2|0|0|0|0|0|0|0,0:0|0:0|0:0|0:0|0:0|0:0|0:0|0:0,0:0:0:0:
123,184,1979,6,0,L|75:178,1,31.4999990386963,2|0,0:0|0:0,0:0:0:0:
61,103,2137,2,0,L|13:97,1,31.4999990386963,2|0,0:0|0:0,0:0:0:0:
7,16,2295,2,0,P|44:15|88:37,1,62.9999980773926,2|0,0:0|0:0,0:0:0:0:
175,59,2611,2,0,P|153:59|133:64,1,36,2|0,0:0|0:0,0:0:0:0:
8,176,2927,5,2,1:0:0:0:
9,196,3005,1,0,0:0:0:0:
10,216,3084,1,0,0:0:0:0:
12,236,3163,1,0,0:0:0:0:
14,257,3243,2,0,P|16:279|23:295,1,40.4999987640381,8|0,0:0|0:0,0:0:0:0:
80,364,3401,2,0,P|92:347|108:336,1,40.4999987640381
211,279,3558,2,0,L|205:361,1,80.9999975280763,2|0,1:0|0:0,0:0:0:0:
337,291,3874,2,0,L|331:373,1,80.9999975280763,10|0,0:0|0:0,0:0:0:0:
474,369,4190,5,2,1:0:0:0:
473,349,4268,1,0,0:0:0:0:
472,329,4347,1,0,0:0:0:0:
470,309,4426,1,0,0:0:0:0:
468,288,4506,2,0,P|466:266|459:250,1,40.4999987640381,8|0,0:0|0:0,0:0:0:0:
358,171,4664,2,0,P|378:180|395:182,1,40.4999987640381
470,125,4822,2,0,L|504:38,1,80.9999975280763,2|0,1:0|0:0,0:0:0:0:
326,87,5137,2,0,L|311:-5,1,80.9999975280763,10|0,0:0|0:0,0:0:0:0:
243,159,5453,5,2,1:0:0:0:
222,161,5531,1,0,0:0:0:0:
202,159,5610,1,0,0:0:0:0:
182,155,5689,1,0,0:0:0:0:
162,146,5769,2,0,P|142:121|138:97,1,40.4999987640381,8|0,0:0|0:0,0:0:0:0:
195,31,5927,2,0,P|164:21|136:22,1,40.4999987640381
37,18,6085,2,0,L|45:103,1,80.9999975280763,2|0,1:0|0:0,0:0:0:0:
88,201,6401,2,0,L|80:286,1,80.9999975280763,10|0,0:0|0:0,0:0:0:0:
1,377,6716,5,2,1:0:0:0:
21,382,6794,1,0,0:0:0:0:
41,384,6873,1,0,0:0:0:0:
61,383,6952,1,0,0:0:0:0:
83,378,7032,2,0,P|108:368|126:351,1,40.4999987640381,8|0,0:0|0:0,0:0:0:0:
173,279,7190,2,0,P|198:288|216:306,1,40.4999987640381
319,376,7348,2,0,L|311:295,1,80.9999975280763,2|0,1:0|0:0,0:0:0:0:
361,217,7664,2,0,L|353:136,1,80.9999975280763,10|0,0:0|0:0,0:0:0:0:
410,21,7979,6,0,L|433:48,7,31.4999990386963,2|0|0|0|0|0|0|0,0:0|0:0|0:0|0:0|0:0|0:0|0:0|0:0,0:0:0:0:
456,69,8611,2,0,P|458:111|449:141,1,62.9999980773926,2|2,0:0|0:0,0:0:0:0:
350,123,8927,2,0,P|314:145|284:152,1,62.9999980773926,2|2,0:0|0:0,0:0:0:0:
179,102,9243,6,0,L|148:88,7,24.7500007553101,2|0|0|0|0|0|0|0,0:0|0:0|0:0|0:0|0:0|0:0|0:0|0:0,0:0:0:0:
133,50,9875,2,0,P|104:50|70:63,1,49.5000015106202,2|2,0:0|0:0,0:0:0:0:
77,129,10191,2,0,P|55:165|49:189,1,49.5000015106202,2|2,0:0|0:0,0:0:0:0:
18,249,10506,6,0,L|22:279,7,18,2|0|0|0|0|0|0|0,0:0|0:0|0:0|0:0|0:0|0:0|0:0|0:0,0:0:0:0:
45,286,11137,2,0,P|47:319|44:337,1,36,2|2,0:0|0:0,0:0:0:0:
25,341,11453,2,0,P|23:374|26:392,1,36,2|2,0:0|0:0,0:0:0:0:
204,370,11769,6,0,B|176:376|176:376|142:371,1,62.9999980773926,2|0,0:0|0:0,0:0:0:0:
252,255,12085,2,0,B|218:250|218:250|190:256,1,62.9999980773926,2|0,0:0|0:0,0:0:0:0:
366,384,12401,2,0,L|361:337,1,31.4999990386963,2|0,0:0|0:0,0:0:0:0:
328,281,12558,1,2,1:0:0:0:
491,369,12716,1,2,1:0:0:0:
511,196,12874,1,2,1:0:0:0:
328,281,13032,5,2,1:0:0:0:
328,281,13111,1,0,0:0:0:0:
328,281,13190,1,0,0:0:0:0:
338,167,13348,1,8,0:0:0:0:
351,56,13506,1,0,0:0:0:0:
228,0,13664,1,0,1:0:0:0:
140,111,13822,1,0,0:0:0:0:
113,125,13900,1,0,0:0:0:0:
84,130,13979,1,8,0:0:0:0:
55,124,14058,1,0,0:0:0:0:
29,108,14137,1,0,0:0:0:0:
10,85,14216,1,0,0:0:0:0:
1,57,14295,5,2,1:0:0:0:
231,91,14453,1,0,0:0:0:0:
231,91,14532,1,0,0:0:0:0:
231,91,14611,2,0,L|223:192,1,90,8|0,0:0|0:0,0:0:0:0:
119,240,14927,1,0,1:0:0:0:
121,266,15005,1,0,0:0:0:0:
123,293,15084,1,0,0:0:0:0:
23,306,15243,1,8,0:0:0:0:
25,332,15321,1,0,0:0:0:0:
27,359,15400,1,0,0:0:0:0:
205,384,15558,6,0,P|212:355|213:326,1,45,2|0,1:0|0:0,0:0:0:0:
201,256,15716,1,0,0:0:0:0:
317,273,15874,1,8,0:0:0:0:
443,286,16032,1,0,0:0:0:0:
339,382,16190,1,0,1:0:0:0:
363,204,16348,1,0,0:0:0:0:
375,176,16426,1,0,0:0:0:0:
396,155,16505,1,8,0:0:0:0:
424,144,16584,1,0,0:0:0:0:
453,143,16663,1,0,0:0:0:0:
481,153,16742,1,0,0:0:0:0:
504,172,16821,1,0,0:0:0:0:
401,26,16979,1,0,0:0:0:0:
401,26,17058,1,0,0:0:0:0:
401,26,17137,6,0,P|336:45|253:35,1,135.000005149842,6|2,1:0|0:0,0:0:0:0:
230,28,17374,1,2,0:0:0:0:
194,9,17453,1,2,0:0:0:0:
273,159,17611,6,0,P|207:142|140:92,1,135.000005149842,6|2,2:0|0:0,0:0:0:0:
123,75,17848,1,2,0:0:0:0:
102,40,17927,1,2,0:0:0:0:
103,233,18085,6,0,P|71:210|50:173,1,56.25,6|0,0:2|0:0,0:0:0:0:
21,106,18243,1,0,0:0:0:0:
194,170,18401,1,8,0:0:0:0:
96,324,18558,1,0,0:0:0:0:
294,368,18716,2,0,P|310:303|302:243,1,112.5,0|0,1:0|0:0,0:0:0:0:
297,221,18953,1,0,0:0:0:0:
304,185,19032,1,8,0:0:0:0:
326,154,19111,1,0,0:0:0:0:
358,136,19190,1,0,0:0:0:0:
395,132,19269,1,0,0:0:0:0:
430,143,19348,5,0,1:0:0:0:
512,314,19506,1,0,0:0:0:0:
512,314,19585,1,0,0:0:0:0:
512,314,19664,2,0,L|384:306,1,112.5,8|0,0:0|0:0,0:0:0:0:
304,185,19979,1,0,1:0:0:0:
326,154,20058,1,0,0:0:0:0:
358,136,20137,1,0,0:0:0:0:
482,71,20295,1,8,0:0:0:0:
460,40,20374,1,0,0:0:0:0:
428,22,20453,2,0,P|400:18|362:27,1,56.25
264,68,20611,5,0,1:0:0:0:
226,65,20689,1,0,0:0:0:0:
189,62,20768,1,0,0:0:0:0:
43,11,20927,1,8,0:0:0:0:
0,158,21085,1,0,0:0:0:0:
150,210,21243,1,0,1:0:0:0:
189,62,21401,1,0,0:0:0:0:
152,70,21479,1,0,0:0:0:0:
120,90,21558,1,8,0:0:0:0:
95,117,21637,1,0,0:0:0:0:
80,152,21716,2,0,P|69:191|68:219,1,56.25
101,344,21874,5,2,1:0:0:0:
139,341,21952,1,0,0:0:0:0:
176,338,22032,2,0,L|246:330,1,56.25
311,262,22190,1,8,0:0:0:0:
150,210,22348,1,0,0:0:0:0:
179,371,22506,5,2,1:0:0:0:
217,368,22584,1,0,0:0:0:0:
254,365,22664,2,0,L|324:357,1,56.25
389,289,22822,1,8,0:0:0:0:
228,237,22980,1,0,0:0:0:0:
474,332,23137,5,2,1:0:0:0:
471,294,23215,1,0,0:0:0:0:
468,257,23295,2,0,L|460:187,1,56.25
363,101,23453,1,8,0:0:0:0:
311,262,23611,1,0,0:0:0:0:
504,253,23769,5,2,1:0:0:0:
501,215,23847,1,0,0:0:0:0:
498,178,23927,2,0,L|490:108,1,56.25
393,22,24085,1,8,0:0:0:0:
341,183,24243,1,0,0:0:0:0:
212,64,24401,5,2,1:0:0:0:
162,40,24479,1,0,0:0:0:0:
108,51,24558,1,0,0:0:0:0:
71,92,24637,1,0,0:0:0:0:
68,147,24716,6,0,L|76:303,1,135.000005149842,6|2,1:0|0:0,0:0:0:0:
102,303,24953,1,2,0:0:0:0:
131,319,25032,1,2,0:0:0:0:
245,186,25190,2,0,L|253:342,1,135.000005149842,6|2,2:0|0:0,0:0:0:0:
279,342,25427,1,2,0:0:0:0:
308,358,25506,1,2,0:0:0:0:
504,253,25664,5,6,0:2:0:0:
504,253,25743,1,0,0:0:0:0:
504,253,25822,2,0,P|488:194|450:149,1,112.5,0|8,0:0|0:0,0:0:0:0:
323,73,26137,1,0,0:0:0:0:
375,268,26295,1,0,1:0:0:0:
162,201,26453,1,0,0:0:0:0:
127,187,26531,1,0,0:0:0:0:
90,190,26610,1,8,0:0:0:0:
57,207,26689,1,0,0:0:0:0:
35,237,26768,1,0,0:0:0:0:
27,273,26847,1,0,0:0:0:0:
35,310,26926,5,0,1:0:0:0:
245,186,27085,1,0,0:0:0:0:
75,8,27243,2,0,L|58:86,1,56.25,8|0,0:0|0:0,0:0:0:0:
8,122,27401,1,0,0:0:0:0:
162,55,27558,2,0,L|288:62,1,112.5,0|0,1:0|0:0,0:0:0:0:
332,183,27874,1,8,0:0:0:0:
373,180,27952,1,0,0:0:0:0:
415,176,28031,1,0,0:0:0:0:
512,14,28190,5,2,1:0:0:0:
365,68,28348,1,2,0:0:0:0:
367,96,28426,1,0,0:0:0:0:
369,124,28505,1,8,0:0:0:0:
371,152,28584,1,0,0:0:0:0:
373,180,28664,2,0,L|376:250,1,56.25
497,141,28822,1,2,1:0:0:0:
499,169,28900,1,0,0:0:0:0:
501,197,28979,1,0,0:0:0:0:
503,225,29058,1,0,0:0:0:0:
505,253,29138,2,0,L|508:323,1,56.25,8|0,0:0|0:0,0:0:0:0:
382,384,29295,2,0,L|379:327,1,56.25,2|0,0:0|0:0,0:0:0:0:
303,278,29453,1,0,1:0:0:0:
80,366,29611,1,0,0:0:0:0:
38,327,29690,1,0,0:0:0:0:
22,275,29769,6,0,P|17:219|49:133,1,135.000005149842,6|0,1:0|0:0,0:0:0:0:
75,113,30006,1,2,0:0:0:0:
75,113,30085,1,2,0:0:0:0:
217,276,30243,6,0,P|222:220|190:134,1,135.000005149842,6|0,2:0|0:0,0:0:0:0:
164,114,30480,1,2,0:0:0:0:
164,114,30559,1,2,0:0:0:0:
331,28,30716,5,6,0:2:0:0:
373,180,30874,1,0,0:0:0:0:
217,276,31032,2,0,P|222:220|190:134,1,135.000005149842,8|0,0:0|0:0,0:0:0:0:
1,21,31348,2,0,B|60:50|99:-9|177:33,1,157.500001502037,2|0,1:0|0:0,0:0:0:0:
280,95,31664,1,8,0:0:0:0:
320,105,31742,1,0,0:0:0:0:
362,100,31821,1,0,0:0:0:0:
399,81,31900,1,0,0:0:0:0:
426,49,31979,1,0,1:0:0:0:
485,215,32137,2,0,L|480:272,1,56.25
392,315,32295,1,8,0:0:0:0:
395,343,32374,1,0,0:0:0:0:
398,372,32452,1,0,0:0:0:0:
276,256,32611,6,0,P|209:279|266:237,1,202.500007724762,2|0,1:0|0:0,0:0:0:0:
227,332,32927,2,0,P|183:224|299:215,1,270,10|0,0:0|0:0,0:0:0:0:
392,315,33243,5,0,1:0:0:0:
395,343,33322,1,0,0:0:0:0:
398,372,33400,1,0,0:0:0:0:
276,256,33558,1,8,0:0:0:0:
139,379,33716,1,0,0:0:0:0:
33,228,33874,6,0,L|26:168,1,56.25,2|0,1:0|0:0,0:0:0:0:
16,65,34032,1,2,0:0:0:0:
51,43,34110,1,0,0:0:0:0:
93,38,34189,1,8,0:0:0:0:
132,51,34268,1,0,0:0:0:0:
163,80,34348,2,0,P|194:98|221:103,1,56.25
309,54,34506,5,2,1:0:0:0:
350,48,34584,1,0,0:0:0:0:
392,43,34663,1,0,0:0:0:0:
434,38,34742,1,0,0:0:0:0:
476,33,34822,2,0,L|469:102,1,56.25,8|0,0:0|0:0,0:0:0:0:
510,194,34979,2,0,L|456:237,1,56.25
378,303,35137,5,2,1:0:0:0:
351,294,35215,1,0,0:0:0:0:
323,292,35294,1,0,0:0:0:0:
295,297,35373,1,0,0:0:0:0:
270,308,35453,2,0,B|231:337|231:337|257:273|237:214,1,168.75,8|0,0:0|0:0,0:0:0:0:
147,162,35769,5,2,1:0:0:0:
108,142,35847,1,0,0:0:0:0:
67,147,35926,1,0,0:0:0:0:
34,172,36005,1,0,0:0:0:0:
20,211,36084,1,8,0:0:0:0:
29,252,36163,1,0,0:0:0:0:
58,280,36242,1,0,0:0:0:0:
99,291,36321,1,0,0:0:0:0:
138,277,36401,6,0,L|132:338,1,56.25,2|0,1:0|0:0,0:0:0:0:
245,203,36558,2,0,L|239:147,1,56.25
308,320,36716,2,0,L|302:381,1,56.25,8|0,0:0|0:0,0:0:0:0:
415,246,36874,2,0,L|409:190,1,56.25
324,104,37032,1,2,1:0:0:0:
344,52,37110,1,0,0:0:0:0:
389,20,37189,1,0,0:0:0:0:
445,19,37268,1,0,0:0:0:0:
491,49,37348,6,0,L|508:198,1,135.000005149842,6|2,1:0|0:0,0:0:0:0:
507,223,37585,1,2,0:0:0:0:
496,259,37664,1,2,0:0:0:0:
324,104,37822,2,0,L|288:248,1,135.000005149842,6|2,2:0|0:0,0:0:0:0:
278,271,38059,1,2,0:0:0:0:
256,301,38138,1,2,0:0:0:0:
146,113,38295,6,0,L|104:174,1,56.25,6|0,0:2|0:0,0:0:0:0:
125,246,38453,2,0,L|64:289,1,56.25
0,320,38611,1,8,0:0:0:0:
31,155,38769,1,0,0:0:0:0:
196,194,38927,2,0,P|228:141|233:68,1,112.5,0|0,1:0|0:0,0:0:0:0:
152,17,39243,1,8,0:0:0:0:
123,19,39321,1,0,0:0:0:0:
95,21,39400,1,0,0:0:0:0:
67,24,39479,1,0,0:0:0:0:
39,26,39558,5,0,1:0:0:0:
244,15,39716,1,0,0:0:0:0:
244,15,39795,1,0,0:0:0:0:
248,19,39874,2,0,L|372:36,1,112.5,8|0,0:0|0:0,0:0:0:0:
453,128,40190,1,0,1:0:0:0:
473,109,40268,1,0,0:0:0:0:
486,83,40347,1,0,0:0:0:0:
443,305,40506,1,8,0:0:0:0:
421,288,40584,1,0,0:0:0:0:
406,264,40663,1,0,0:0:0:0:
402,236,40743,1,0,0:0:0:0:
408,208,40822,6,0,L|333:223,1,56.25,0|0,1:0|0:0,0:0:0:0:
294,288,40979,1,0,0:0:0:0:
194,164,41137,1,8,0:0:0:0:
52,215,41295,1,0,0:0:0:0:
54,382,41453,1,0,1:0:0:0:
204,339,41611,1,0,0:0:0:0:
204,339,41690,1,0,0:0:0:0:
204,339,41769,2,0,P|207:306|202:277,1,56.25,8|0,0:0|0:0,0:0:0:0:
91,254,41927,2,0,P|70:228|45:211,1,56.25
8,99,42085,1,0,1:0:0:0:
32,49,42163,1,0,0:0:0:0:
81,22,42242,1,0,0:0:0:0:
136,28,42321,1,0,0:0:0:0:
178,65,42401,6,0,L|324:58,1,135.000005149842,6|0,1:0|0:0,0:0:0:0:
459,47,42716,1,0,0:0:0:0:
194,164,42874,2,0,L|340:157,1,135.000005149842,6|2,2:0|0:0,0:0:0:0:
379,154,43111,1,2,0:0:0:0:
425,150,43190,2,0,P|432:188|423:232,1,67.5000025749208,2|0,0:0|0:0,0:0:0:0:
379,358,43348,5,6,0:2:0:0:
325,248,43506,1,0,0:0:0:0:
485,358,43664,1,0,0:0:0:0:
317,229,43822,1,4,0:2:0:0:
171,375,43980,2,0,L|114:314,1,67.5000025749208,8|0,2:0|0:0,0:0:0:0:
194,164,44137,2,0,L|148:212,1,67.5000025749208,8|0,2:0|0:0,0:0:0:0:
58,372,44295,2,0,L|1:311,1,67.5000025749208,8|0,2:0|0:0,0:0:0:0:
101,124,44453,2,0,L|55:172,1,67.5000025749208,8|0,2:0|0:0,0:0:0:0:
229,291,44611,6,0,P|289:282|332:232,1,112.5,4|0,1:0|0:0,0:0:0:0:
287,31,44927,2,0,L|281:158,1,112.5,8|0,0:0|0:0,0:0:0:0:
413,239,45243,1,0,1:0:0:0:
507,149,45401,2,0,L|501:79,1,56.25
493,12,45558,1,8,0:0:0:0:
407,155,45716,2,0,L|401:85,1,56.25
391,0,45874,6,0,P|349:25|278:31,1,112.5,0|0,1:0|0:0,0:0:0:0:
167,14,46190,2,0,P|170:85|30:86,1,225,8|0,0:0|1:0,0:0:0:0:
82,26,46664,1,0,0:0:0:0:
15,190,46822,1,8,0:0:0:0:
27,196,46900,1,0,0:0:0:0:
40,201,46979,1,0,0:0:0:0:
54,205,47058,1,0,0:0:0:0:
68,206,47137,5,4,1:2:0:0:
171,369,47295,2,0,L|165:299,1,56.25
158,235,47452,1,8,0:0:0:0:
270,361,47611,2,0,L|264:291,1,56.25
257,227,47768,1,0,1:0:0:0:
387,311,47927,1,0,0:0:0:0:
452,163,48085,1,8,0:0:0:0:
389,330,48243,1,0,0:0:0:0:
391,349,48322,1,0,0:0:0:0:
394,371,48401,5,0,1:0:0:0:
494,281,48558,1,0,0:0:0:0:
370,221,48716,2,0,L|359:103,1,112.5,8|0,0:0|0:0,0:0:0:0:
427,33,49032,1,8,1:0:0:0:
454,36,49110,1,8,0:0:0:0:
482,40,49189,1,8,0:0:0:0:
284,37,49348,1,0,1:0:0:0:
257,40,49426,1,0,1:0:0:0:
229,44,49506,1,0,1:0:0:0:
202,47,49585,1,0,1:0:0:0:
174,51,49664,6,0,L|168:130,1,62.9999980773926,6|0,1:0|0:0,0:0:0:0:
116,181,49979,2,0,L|122:260,1,62.9999980773926,2|0,1:0|0:0,0:0:0:0:
58,20,50295,2,0,L|52:99,1,62.9999980773926,2|0,0:0|0:0,0:0:0:0:
0,150,50611,2,0,L|6:229,1,62.9999980773926,2|0,0:0|0:0,0:0:0:0:
57,323,50927,5,2,1:0:0:0:
73,343,51085,1,2,0:0:0:0:
178,335,51243,1,2,1:0:0:0:
194,355,51401,1,2,0:0:0:0:
268,256,51558,5,2,0:0:0:0:
350,368,51716,1,2,0:0:0:0:
294,279,51874,1,2,0:0:0:0:
314,352,52032,1,2,0:0:0:0:
450,320,52190,6,0,P|489:334|515:366,1,62.9999980773926,2|0,1:0|0:0,0:0:0:0:
437,233,52506,2,0,P|406:241|382:261,1,62.9999980773926,2|0,1:0|0:0,0:0:0:0:
448,155,52822,2,0,P|487:169|513:201,1,62.9999980773926,2|0,0:0|0:0,0:0:0:0:
435,68,53138,2,0,P|404:76|380:96,1,62.9999980773926,2|0,0:0|0:0,0:0:0:0:
299,153,53453,5,2,1:0:0:0:
283,133,53611,1,2,0:0:0:0:
194,64,53769,1,2,1:0:0:0:
210,44,53927,1,2,0:0:0:0:
88,16,54084,5,2,0:0:0:0:
0,136,54242,1,2,0:0:0:0:
60,23,54400,1,2,0:0:0:0:
33,128,54558,1,2,0:0:0:0:
158,190,54716,6,0,L|96:209,1,62.9999980773926,0|0,1:0|0:0,0:0:0:0:
24,281,55032,2,0,L|86:300,1,62.9999980773926,0|0,1:0|0:0,0:0:0:0:
253,252,55348,2,0,L|191:271,1,62.9999980773926
144,361,55664,2,0,L|206:380,1,62.9999980773926
333,359,55979,5,2,1:0:0:0:
349,339,56137,1,2,0:0:0:0:
482,338,56295,1,2,1:0:0:0:
499,359,56453,1,2,0:0:0:0:
340,224,56611,5,2,0:0:0:0:
487,227,56769,1,2,0:0:0:0:
361,248,56927,1,2,0:0:0:0:
463,249,57085,1,2,0:0:0:0:
430,130,57243,6,0,P|434:97|428:57,1,62.9999980773926,2|0,1:0|0:0,0:0:0:0:
319,112,57558,2,0,P|323:79|317:39,1,62.9999980773926,2|0,1:0|0:0,0:0:0:0:
208,94,57874,2,0,P|212:61|206:21,1,62.9999980773926,2|0,0:0|0:0,0:0:0:0:
97,76,58190,2,0,P|101:43|95:3,1,62.9999980773926,2|0,0:0|0:0,0:0:0:0:
0,164,58506,5,2,1:0:0:0:
7,240,58664,1,2,0:0:0:0:
143,205,58822,1,2,1:0:0:0:
150,281,58980,1,2,0:0:0:0:
13,384,59137,5,2,0:0:0:0:
129,286,59295,1,2,0:0:0:0:
214,365,59453,1,2,0:0:0:0:
271,313,59611,1,2,0:0:0:0:
413,373,59769,6,0,B|435:338|435:338|415:208,1,153.000002918243,6|2,1:0|1:0,0:0:0:0:
281,48,60401,2,0,L|522:70,1,229.500004377365,2|0,0:0|0:0,0:0:0:0:
345,161,61032,2,0,L|261:172,1,76.5000014591217,2|0,1:0|0:0,0:0:0:0:
165,225,61348,2,0,B|130:256|121:310|138:349|160:386|160:386|53:354|34:275|48:196|88:155|88:155|128:115|118:62,1,562.5,2|0,1:0|0:0,0:0:0:0:
3,9,62295,6,0,P|46:70|125:64,1,153.000002918243,2|2,1:0|1:0,0:0:0:0:
415,38,62927,2,0,L|186:17,1,229.500004377365,2|0,0:0|0:0,0:0:0:0:
234,133,63558,2,0,P|234:180|245:212,1,72,2|0,1:0|0:0,0:0:0:0:
337,252,63874,2,0,B|519:218|519:218|509:352|509:352|439:322|376:357|376:357|320:382|272:356,1,562.5,2|0,1:0|0:0,0:0:0:0:
137,246,64822,6,0,B|68:237|68:237|4:287,1,144,2|2,1:0|1:0,0:0:0:0:
180,384,65453,2,0,P|158:279|180:168,1,216,2|0,0:0|0:0,0:0:0:0:
152,53,66085,2,0,P|190:54|236:33,1,72,2|0,1:0|0:0,0:0:0:0:
372,17,66401,2,0,B|387:151|387:151|346:182|347:221|358:260|402:276|402:276|434:284|475:276|501:233|495:172|495:172|481:65,1,562.5,2|0,1:0|0:0,0:0:0:0:
372,17,67348,6,0,P|308:40|219:26,1,144,2|2,1:0|1:0,0:0:0:0:
24,11,67979,2,0,L|38:226,1,216,2|0,0:0|0:0,0:0:0:0:
36,374,68611,2,0,L|8:304,1,72,2|0,1:0|0:0,0:0:0:0:
122,243,68927,2,0,L|132:168,1,72,2|0,1:0|0:0,0:0:0:0:
289,96,69243,1,0,1:0:0:0:
371,210,69401,1,8,0:0:0:0:
371,210,69479,1,8,0:0:0:0:
371,210,69558,2,0,L|426:205,1,36,8|8,0:0|0:0,0:0:0:0:
469,113,69716,2,0,L|433:116,1,36,8|8,0:0|0:0,0:0:0:0:
246,197,69874,5,14,1:0:0:0:
283,286,70032,1,2,0:0:0:0:
378,303,70190,2,0,L|486:290,1,90,10|0,0:0|0:0,0:0:0:0:
227,201,70506,5,2,1:0:0:0:
269,308,70664,1,2,0:0:0:0:
175,371,70822,2,0,L|85:363,1,90,10|0,0:0|0:0,0:0:0:0:
37,209,71137,5,2,1:0:0:0:
166,278,71295,1,2,0:0:0:0:
145,136,71453,1,10,0:0:0:0:
145,136,71611,1,0,0:0:0:0:
4,35,71769,5,2,1:0:0:0:
147,31,71927,1,2,0:0:0:0:
294,31,72085,1,10,0:0:0:0:
294,31,72243,1,0,0:0:0:0:
418,172,72401,5,2,1:0:0:0:
459,89,72558,1,2,0:0:0:0:
382,30,72716,2,0,P|327:24|279:35,1,90,10|0,0:0|0:0,0:0:0:0:
246,181,73032,5,2,1:0:0:0:
330,261,73190,1,2,0:0:0:0:
418,172,73348,2,0,P|436:225|427:268,1,90,10|0,0:0|0:0,0:0:0:0:
294,364,73664,5,2,1:0:0:0:
188,263,73822,1,2,0:0:0:0:
69,367,73979,1,10,0:0:0:0:
54,337,74137,1,0,0:0:0:0:
0,186,74295,5,2,1:0:0:0:
84,28,74453,1,2,0:0:0:0:
249,39,74610,1,10,0:0:0:0:
163,89,74768,1,0,0:0:0:0:
188,263,74927,5,6,1:0:0:0:
277,280,75085,1,2,0:0:0:0:
343,216,75243,2,0,L|349:118,1,90,10|0,0:0|0:0,0:0:0:0:
221,349,75558,5,2,1:0:0:0:
109,318,75716,1,2,0:0:0:0:
84,196,75874,2,0,L|77:94,1,90,10|0,0:0|0:0,0:0:0:0:
249,39,76190,5,2,1:0:0:0:
360,111,76348,1,2,0:0:0:0:
463,20,76506,1,10,0:0:0:0:
463,20,76664,1,0,0:0:0:0:
264,21,76822,5,2,1:0:0:0:
375,93,76980,1,2,0:0:0:0:
486,165,77137,1,10,0:0:0:0:
486,165,77295,1,0,0:0:0:0:
387,352,77453,5,2,1:0:0:0:
277,280,77611,1,2,0:0:0:0:
482,249,77769,2,0,L|473:359,1,90,10|0,0:0|0:0,0:0:0:0:
299,363,78085,5,2,1:0:0:0:
244,173,78243,1,2,0:0:0:0:
411,79,78401,2,0,L|402:189,1,90,10|0,0:0|0:0,0:0:0:0:
257,273,78716,5,2,1:0:0:0:
183,99,78874,1,2,0:0:0:0:
47,244,79032,1,10,0:0:0:0:
139,291,79190,1,2,0:0:0:0:
70,122,79348,5,2,1:0:0:0:
15,328,79506,1,2,0:0:0:0:
157,185,79664,1,10,0:0:0:0:
6,59,79822,1,2,0:0:0:0:
284,32,79979,6,0,P|341:40|414:22,1,112.5,2|0,1:0|0:0,0:0:0:0:
399,155,80295,2,0,P|452:133|506:81,1,112.5,10|0,0:0|0:0,0:0:0:0:
351,329,80611,2,0,P|297:307|243:255,1,112.5,2|0,1:0|0:0,0:0:0:0:
189,378,80927,2,0,P|153:332|132:260,1,112.5,10|0,0:0|0:0,0:0:0:0:
286,149,81243,6,0,L|429:156,1,112.5,2|0,1:0|0:0,0:0:0:0:
112,23,81558,2,0,L|-31:30,1,112.5,10|0,0:0|0:0,0:0:0:0:
135,281,81874,2,0,L|212:160,1,112.5,2|0,1:0|0:0,0:0:0:0:
0,28,82190,2,0,L|77:148,1,112.5,10|0,0:0|0:0,0:0:0:0:
256,272,82506,5,6,1:0:0:0:
279,265,82584,1,0,0:0:0:0:
301,253,82663,1,0,0:0:0:0:
401,153,82822,2,0,L|409:251,1,99.0000030212403,8|0,0:0|0:0,0:0:0:0:
476,345,83137,1,0,1:0:0:0:
322,344,83295,1,0,0:0:0:0:
299,351,83373,1,0,0:0:0:0:
273,363,83453,2,0,P|251:365|220:359,1,49.5000015106202,8|0,0:0|0:0,0:0:0:0:
139,383,83611,2,0,P|126:364|115:335,1,49.5000015106202
50,259,83768,5,0,1:0:0:0:
191,214,83927,1,0,0:0:0:0:
32,268,84085,2,0,L|22:366,1,99.0000030212403,8|0,0:0|0:0,0:0:0:0:
21,366,84322,1,0,0:0:0:0:
21,366,84401,1,0,1:0:0:0:
114,195,84558,1,0,0:0:0:0:
121,172,84636,1,0,0:0:0:0:
128,147,84716,2,0,L|122:94,1,49.5000015106202,8|0,0:0|0:0,0:0:0:0:
36,95,84874,2,0,L|30:42,1,49.5000015106202
128,8,85032,5,6,1:0:0:0:
154,11,85110,1,0,0:0:0:0:
181,14,85189,1,0,0:0:0:0:
263,176,85348,2,0,P|254:111|277:57,1,107.999996704102,8|0,0:0|0:0,0:0:0:0:
384,14,85664,1,0,1:0:0:0:
476,114,85822,1,0,0:0:0:0:
474,141,85901,1,0,0:0:0:0:
472,168,85980,1,8,0:0:0:0:
470,195,86059,1,0,0:0:0:0:
469,222,86138,1,0,0:0:0:0:
467,249,86217,1,0,0:0:0:0:
465,277,86295,5,0,1:0:0:0:
311,267,86453,1,0,0:0:0:0:
311,267,86532,1,0,0:0:0:0:
311,267,86611,2,0,L|320:398,1,107.999996704102,8|0,0:0|0:0,0:0:0:0:
377,200,86927,1,0,1:0:0:0:
374,172,87005,1,0,0:0:0:0:
373,145,87084,1,0,0:0:0:0:
263,176,87243,1,8,0:0:0:0:
241,158,87321,1,0,0:0:0:0:
221,139,87400,1,0,0:0:0:0:
159,232,87558,6,0,L|100:237,1,58.4999973220826,6|0,1:0|0:0,0:0:0:0:
11,297,87716,1,0,0:0:0:0:
178,364,87874,2,0,P|185:313|167:247,1,116.999994644165,8|0,0:0|0:0,0:0:0:0:
82,141,88190,1,0,1:0:0:0:
195,43,88348,1,0,0:0:0:0:
158,53,88426,1,0,0:0:0:0:
121,42,88505,1,8,0:0:0:0:
96,13,88585,1,0,0:0:0:0:
59,2,88664,1,0,0:0:0:0:
21,12,88742,1,0,0:0:0:0:
0,46,88822,6,0,L|6:138,1,58.4999973220826,0|0,1:0|0:0,0:0:0:0:
20,223,88979,1,0,0:0:0:0:
20,223,89058,1,0,0:0:0:0:
20,223,89137,2,0,L|32:353,1,116.999994644165,8|0,0:0|0:0,0:0:0:0:
178,364,89453,1,0,1:0:0:0:
181,325,89531,1,0,0:0:0:0:
183,287,89610,1,0,0:0:0:0:
308,265,89769,1,8,0:0:0:0:
343,248,89847,1,0,0:0:0:0:
377,230,89926,1,0,0:0:0:0:
448,342,90085,5,6,1:0:0:0:
480,363,90163,1,0,0:0:0:0:
512,384,90242,1,0,0:0:0:0:
482,217,90401,2,0,L|467:85,1,125.999996154785,8|0,0:0|0:0,0:0:0:0:
373,10,90716,1,0,1:0:0:0:
210,81,90874,1,0,0:0:0:0:
204,122,90952,1,0,0:0:0:0:
199,163,91031,1,8,0:0:0:0:
194,204,91110,1,0,0:0:0:0:
189,245,91189,1,0,0:0:0:0:
183,287,91268,1,0,0:0:0:0:
178,328,91348,6,0,P|142:325|114:309,1,62.9999980773926,0|0,1:0|0:0,0:0:0:0:
18,303,91506,1,0,0:0:0:0:
18,303,91585,1,0,0:0:0:0:
18,303,91664,2,0,P|34:248|28:177,1,125.999996154785,8|0,0:0|0:0,0:0:0:0:
0,0,91979,1,0,1:0:0:0:
42,3,92057,1,0,0:0:0:0:
83,6,92137,2,0,P|111:15|138:50,1,62.9999980773926
158,191,92295,1,8,0:0:0:0:
181,156,92373,1,0,0:0:0:0:
204,122,92453,2,0,P|225:102|269:96,1,62.9999980773926
388,116,92611,5,6,1:0:0:0:
325,292,92769,1,0,0:0:0:0:
509,377,92927,2,0,P|519:315|500:227,1,135.000005149842,8|0,0:0|0:0,0:0:0:0:
378,90,93243,1,0,1:0:0:0:
393,339,93401,1,0,0:0:0:0:
349,369,93479,1,0,0:0:0:0:
295,367,93558,1,8,0:0:0:0:
253,331,93637,1,0,0:0:0:0:
244,278,93716,1,0,0:0:0:0:
269,230,93795,1,0,0:0:0:0:
320,209,93874,5,0,1:0:0:0:
507,244,94032,1,0,0:0:0:0:
501,187,94110,1,0,0:0:0:0:
496,132,94189,1,8,0:0:0:0:
491,77,94268,1,0,0:0:0:0:
486,21,94348,2,0,L|407:1,1,67.5000025749208
310,7,94506,1,8,1:0:0:0:
280,52,94585,1,8,0:0:0:0:
252,99,94664,2,0,L|211:165,1,67.5000025749208,8|8,0:0|0:0,0:0:0:0:
130,241,94822,1,0,1:0:0:0:
100,234,94901,1,0,1:0:0:0:
70,227,94979,2,0,L|13:214,1,45,0|0,1:0|1:0,0:0:0:0:
0,66,95137,5,6,1:0:0:0:
143,53,95295,2,0,L|188:48,1,28.125,8|0,2:0|0:0,0:0:0:0:
216,156,95453,2,0,L|260:162,1,28.125,8|0,0:2|0:0,0:0:0:0:
357,73,95611,2,0,L|398:91,1,28.125,8|0,2:0|0:0,0:0:0:0:
367,198,95769,2,0,L|402:226,1,28.125,8|0,1:2|0:0,0:0:0:0:
493,154,95927,1,0,0:0:0:0:
493,154,96006,1,0,0:0:0:0:
493,154,96085,2,0,P|503:185|499:221,1,56.25,8|0,0:0|0:0,0:0:0:0:
476,304,96243,2,0,P|454:328|420:342,1,56.25
327,340,96401,6,0,L|189:330,1,112.5,2|0,1:0|0:0,0:0:0:0:
186,331,96637,1,0,0:0:0:0:
186,331,96716,1,8,0:0:0:0:
101,223,96874,2,0,L|23:337,1,112.5,2|0,0:0|1:0,0:0:0:0:
22,340,97110,1,0,0:0:0:0:
22,340,97189,1,0,0:0:0:0:
194,238,97348,1,10,0:0:0:0:
194,209,97426,1,0,0:0:0:0:
186,183,97505,1,0,0:0:0:0:
170,160,97584,1,0,0:0:0:0:
148,142,97663,5,4,1:0:0:0:
21,76,97822,2,0,L|16:31,1,28.125,8|0,2:0|0:0,0:0:0:0:
135,40,97979,2,0,L|141:-4,1,28.125,8|0,0:2|0:0,0:0:0:0:
256,28,98137,2,0,L|274:-13,1,28.125,8|0,2:0|0:0,0:0:0:0:
385,47,98295,2,0,L|413:11,1,28.125,8|0,1:2|0:0,0:0:0:0:
475,132,98453,1,0,0:0:0:0:
475,132,98532,1,0,0:0:0:0:
475,132,98611,2,0,L|470:207,1,56.25,8|0,0:0|0:0,0:0:0:0:
354,165,98769,2,0,L|349:240,1,56.25
292,305,98927,5,0,1:0:0:0:
492,292,99085,1,0,0:0:0:0:
492,292,99164,1,0,0:0:0:0:
492,292,99243,2,0,L|488:352,1,56.25,8|0,0:0|0:0,0:0:0:0:
400,376,99401,2,0,L|336:383,1,56.25
202,310,99558,1,8,1:0:0:0:
172,303,99637,1,8,0:0:0:0:
144,310,99716,2,0,P|117:325|91:353,1,56.25,8|8,0:0|0:0,0:0:0:0:
36,266,99874,1,0,1:0:0:0:
14,288,99953,1,0,1:0:0:0:
7,316,100032,2,0,P|6:346|17:383,1,56.25,0|0,1:0|1:0,0:0:0:0:
128,212,100190,5,4,1:0:0:0:
