osu file format v14

[General]
AudioFilename: audio.mp3
AudioLeadIn: 0
PreviewTime: 1795
Countdown: 0
SampleSet: Normal
StackLeniency: 0.2
Mode: 1
LetterboxInBreaks: 0
WidescreenStoryboard: 0

[Editor]
Bookmarks: 1972,17036,24595,32208
DistanceSpacing: 1.3
BeatDivisor: 4
GridSize: 32
TimelineZoom: 1.000001

[Metadata]
Title:Hanada City
TitleUnicode:ハナダシティ
Artist:Masuda Junichi
ArtistUnicode:増田順一
Creator:Wanpachi
Version:Luke's Floral Lagoon
Source:ポケットモンスター ハートゴールド・ソウルシルバー
Tags:pokemon pokémon heart gold soul silver fire red leaf green blue yellow cerulean nintendo gamefreak reverie sukijames strickluke cycopton johto kanto video game instrumental heartgold soulsilver ds nds nintendo freak creatures inc. pocket monsters hg ss lg fr
BeatmapID:2668974
BeatmapSetID:1099218

[Difficulty]
HPDrainRate:5
CircleSize:2
OverallDifficulty:5.5
ApproachRate:5
SliderMultiplier:1.4
SliderTickRate:1

[Events]
//Background and Video events
0,0,"1514218867413150.jpeg",0,0
//Break Periods
//Storyboard Layer 0 (Background)
//Storyboard Layer 1 (Fail)
//Storyboard Layer 2 (Pass)
//Storyboard Layer 3 (Foreground)
//Storyboard Layer 4 (Overlay)
//Storyboard Sound Samples

[TimingPoints]
83,472.44094488189,4,1,0,40,1,0
1972,472.44094488189,4,1,0,40,1,0

[HitObjects]
256,192,83,5,8,0:0:0:0:
256,192,319,1,8,0:0:0:0:
256,192,555,1,0,0:0:0:0:
256,192,791,1,0,0:0:0:0:
256,192,1027,1,8,0:0:0:0:
256,192,1264,1,8,0:0:0:0:
256,192,1500,1,8,0:0:0:0:
256,192,1618,1,8,0:0:0:0:
256,192,1736,1,0,0:0:0:0:
256,192,1854,1,0,0:0:0:0:
256,192,1972,1,12,0:0:0:0:
256,192,2444,1,8,0:0:0:0:
256,192,2680,1,0,0:0:0:0:
256,192,2798,1,0,0:0:0:0:
256,192,2916,1,8,0:0:0:0:
256,192,3153,1,0,0:0:0:0:
256,192,3389,1,8,0:0:0:0:
256,192,3507,1,0,0:0:0:0:
256,192,3625,1,8,0:0:0:0:
256,192,3743,1,8,0:0:0:0:
256,192,3861,1,0,0:0:0:0:
256,192,4334,1,8,0:0:0:0:
256,192,4570,1,8,0:0:0:0:
256,192,4688,1,8,0:0:0:0:
256,192,4806,1,0,0:0:0:0:
256,192,5042,1,0,0:0:0:0:
256,192,5160,1,0,0:0:0:0:
256,192,5279,1,8,0:0:0:0:
256,192,5515,1,0,0:0:0:0:
256,192,5751,1,8,0:0:0:0:
256,192,6223,1,8,0:0:0:0:
256,192,6460,1,8,0:0:0:0:
256,192,6578,1,0,0:0:0:0:
256,192,6696,1,8,0:0:0:0:
256,192,6932,1,0,0:0:0:0:
256,192,7168,1,8,0:0:0:0:
256,192,7286,1,0,0:0:0:0:
256,192,7405,1,8,0:0:0:0:
256,192,7523,1,8,0:0:0:0:
256,192,7641,1,0,0:0:0:0:
256,192,7759,1,8,0:0:0:0:
256,192,7877,1,0,0:0:0:0:
256,192,8113,1,8,0:0:0:0:
256,192,8349,5,8,0:0:0:0:
256,192,8468,1,0,0:0:0:0:
256,192,8586,1,8,0:0:0:0:
256,192,8704,1,0,0:0:0:0:
256,192,8822,1,0,0:0:0:0:
256,192,9058,1,8,0:0:0:0:
256,192,9294,1,0,0:0:0:0:
256,192,9412,5,0,0:0:0:0:
256,192,9531,5,12,0:0:0:0:
256,192,10003,5,8,0:0:0:0:
256,192,10239,5,8,0:0:0:0:
256,192,10357,5,8,0:0:0:0:
256,192,10475,5,0,0:0:0:0:
256,192,10712,5,0,0:0:0:0:
256,192,10948,5,8,0:0:0:0:
256,192,11066,5,0,0:0:0:0:
256,192,11184,5,0,0:0:0:0:
256,192,11302,5,0,0:0:0:0:
256,192,11420,5,8,0:0:0:0:
256,192,11893,5,8,0:0:0:0:
256,192,12129,5,8,0:0:0:0:
256,192,12247,5,8,0:0:0:0:
256,192,12365,5,0,0:0:0:0:
256,192,12601,5,0,0:0:0:0:
256,192,12720,5,0,0:0:0:0:
256,192,12838,5,8,0:0:0:0:
256,192,13310,5,8,0:0:0:0:
256,192,13428,5,8,0:0:0:0:
256,192,13546,5,8,0:0:0:0:
256,192,13664,5,8,0:0:0:0:
256,192,13783,5,4,0:0:0:0:
256,192,14019,5,8,0:0:0:0:
256,192,14137,5,0,0:0:0:0:
256,192,14255,5,8,0:0:0:0:
256,192,14491,5,0,0:0:0:0:
256,192,14727,5,8,0:0:0:0:
256,192,14846,5,0,0:0:0:0:
256,192,14964,5,8,0:0:0:0:
256,192,15082,5,8,0:0:0:0:
256,192,15200,5,0,0:0:0:0:
256,192,15318,5,8,0:0:0:0:
256,192,15436,5,0,0:0:0:0:
256,192,15672,5,8,0:0:0:0:
256,192,15909,5,0,0:0:0:0:
256,192,16027,1,0,0:0:0:0:
256,192,16145,1,8,0:0:0:0:
256,192,16381,1,8,0:0:0:0:
256,192,16499,1,0,0:0:0:0:
256,192,16617,1,8,0:0:0:0:
256,192,16735,1,8,0:0:0:0:
256,192,16853,1,0,0:0:0:0:
256,192,17090,1,12,0:0:0:0:
256,192,17326,1,0,0:0:0:0:
256,192,17444,1,0,0:0:0:0:
256,192,17562,1,8,0:0:0:0:
256,192,18034,1,8,0:0:0:0:
256,192,18153,1,0,0:0:0:0:
256,192,18271,1,0,0:0:0:0:
256,192,18507,1,8,0:0:0:0:
256,192,18743,1,0,0:0:0:0:
256,192,18979,1,8,0:0:0:0:
256,192,19097,1,0,0:0:0:0:
256,192,19216,1,0,0:0:0:0:
256,192,19334,1,0,0:0:0:0:
256,192,19452,1,8,0:0:0:0:
256,192,19924,1,8,0:0:0:0:
256,192,20042,1,8,0:0:0:0:
256,192,20160,1,0,0:0:0:0:
256,192,20397,1,8,0:0:0:0:
256,192,20515,1,0,0:0:0:0:
256,192,20633,1,0,0:0:0:0:
256,192,20869,1,12,0:0:0:0:
256,192,21105,1,0,0:0:0:0:
256,192,21223,1,0,0:0:0:0:
256,192,21342,1,8,0:0:0:0:
256,192,21578,1,12,0:0:0:0:
256,192,21814,1,0,0:0:0:0:
256,192,21932,1,0,0:0:0:0:
256,192,22050,1,8,0:0:0:0:
256,192,22286,1,12,0:0:0:0:
256,192,22523,1,0,0:0:0:0:
256,192,22641,1,0,0:0:0:0:
256,192,22759,1,8,0:0:0:0:
256,192,22877,1,0,0:0:0:0:
256,192,22995,1,12,0:0:0:0:
256,192,23231,1,12,0:0:0:0:
256,192,23468,1,0,0:0:0:0:
256,192,23586,1,0,0:0:0:0:
256,192,23704,1,8,0:0:0:0:
256,192,24176,1,4,0:0:0:0:
256,192,24649,1,0,0:0:0:0:
256,192,25121,1,8,0:0:0:0:
256,192,25594,1,0,0:0:0:0:
256,192,25830,1,0,0:0:0:0:
256,192,26066,1,8,0:0:0:0:
256,192,26538,1,8,0:0:0:0:
256,192,26775,1,0,0:0:0:0:
256,192,27011,1,8,0:0:0:0:
256,192,27247,1,0,0:0:0:0:
256,192,27483,1,8,0:0:0:0:
256,192,27956,1,8,0:0:0:0:
256,192,28428,1,0,0:0:0:0:
256,192,28664,1,0,0:0:0:0:
256,192,28901,1,8,0:0:0:0:
256,192,29373,1,8,0:0:0:0:
256,192,29609,1,0,0:0:0:0:
256,192,29846,1,8,0:0:0:0:
256,192,30318,1,8,0:0:0:0:
256,192,30554,1,0,0:0:0:0:
256,192,30790,1,8,0:0:0:0:
256,192,31027,1,0,0:0:0:0:
256,192,31263,1,8,0:0:0:0:
256,192,31499,1,8,0:0:0:0:
256,192,31735,1,8,0:0:0:0:
256,192,31972,1,0,0:0:0:0:
256,192,32090,1,0,0:0:0:0:
256,192,32208,1,12,0:0:0:0:
