osu file format v14

[General]
AudioFilename: audio.mp3
AudioLeadIn: 0
PreviewTime: 16262
Countdown: 0
SampleSet: Normal
StackLeniency: 0.7
Mode: 1
LetterboxInBreaks: 0
WidescreenStoryboard: 1

[Editor]
Bookmarks: 9968,16368,22768,29168,35568,41968,48368,54768,61168
DistanceSpacing: 1.7
BeatDivisor: 8
GridSize: 4
TimelineZoom: 1

[Metadata]
Title:Arceus
TitleUnicode:アルセウス
Artist:Masuda Junichi
ArtistUnicode:増田順一
Creator:The Default Guy
Version:Muzukashii
Source:ポケットモンスター ハートゴールド・ソウルシルバー
Tags:video game instrumental pokemon pokémon diamond pearl platinum battle mythical legendary theme heart gold soul silver heartgold soulsilver ds nds nintendo freak creatures inc. sinnoh johto ダイヤモンド パール event pocket monsters
BeatmapID:2346466
BeatmapSetID:1122858

[Difficulty]
HPDrainRate:7
CircleSize:2
OverallDifficulty:5
ApproachRate:10
SliderMultiplier:1.6
SliderTickRate:1

[Events]
//Background and Video events
0,0,"arceus.jpg",0,-5
//Break Periods
2,70962,76712
//Storyboard Layer 0 (Background)
//Storyboard Layer 1 (Fail)
//Storyboard Layer 2 (Pass)
//Storyboard Layer 3 (Foreground)
//Storyboard Layer 4 (Overlay)
//Storyboard Sound Samples

[TimingPoints]
362,800,4,1,0,45,1,0
662,-100,4,1,0,50,0,0
1062,-100,4,1,0,40,0,0
1462,-100,4,1,0,30,0,0
3462,-100,4,1,0,45,0,0
3862,-100,4,1,0,50,0,0
4262,-100,4,1,0,40,0,0
4662,-100,4,1,0,30,0,0
6262,-100,4,1,0,50,0,0
9862,-66.6666666666667,4,1,0,50,0,0
15162,-57.1428571428571,4,1,0,50,0,0
22762,-57.1428571428571,4,1,0,50,0,1
29162,-57.1428571428571,4,1,0,50,0,0
35562,-57.1428571428571,4,1,0,50,0,1
41962,-57.1428571428571,4,1,0,50,0,0
48362,-57.1428571428571,4,1,0,50,0,1
54762,-57.1428571428571,4,1,0,50,0,0

[HitObjects]
133,320,362,5,0,0:0:0:0:
133,320,762,1,12,0:0:0:0:
131,185,1162,1,0,0:0:0:0:
131,185,1562,1,0,0:0:0:0:
176,238,3562,1,0,0:0:0:0:
151,152,3962,1,12,0:0:0:0:
151,152,4362,1,8,0:0:0:0:
151,152,4762,1,8,0:0:0:0:
151,152,6362,1,8,0:0:0:0:
200,187,6762,1,4,0:0:0:0:
149,214,9962,1,4,0:0:0:0:
149,214,11562,1,4,0:0:0:0:
149,214,13162,1,4,0:0:0:0:
149,214,14762,1,4,0:0:0:0:
149,214,16362,1,12,0:0:0:0:
240,182,16962,1,0,0:0:0:0:
240,182,17162,1,8,0:0:0:0:
240,182,17562,1,8,0:0:0:0:
240,182,17762,1,0,0:0:0:0:
240,182,17962,1,4,0:0:0:0:
240,182,18362,1,8,0:0:0:0:
240,182,18562,1,8,0:0:0:0:
240,182,18762,1,0,0:0:0:0:
160,186,18962,1,8,0:0:0:0:
240,182,19162,1,0,0:0:0:0:
266,195,19362,1,0,0:0:0:0:
149,214,19562,1,12,0:0:0:0:
240,182,20162,1,0,0:0:0:0:
240,182,20362,1,8,0:0:0:0:
240,182,20762,1,8,0:0:0:0:
240,182,20962,1,0,0:0:0:0:
240,182,21162,1,4,0:0:0:0:
240,182,21562,1,8,0:0:0:0:
240,182,21762,1,8,0:0:0:0:
240,182,21962,1,0,0:0:0:0:
160,186,22162,1,8,0:0:0:0:
173,169,22362,1,0,0:0:0:0:
149,214,22762,1,12,0:0:0:0:
209,236,22962,1,0,0:0:0:0:
209,236,23062,1,0,0:0:0:0:
240,182,23162,1,0,0:0:0:0:
216,152,23362,1,0,0:0:0:0:
240,182,23562,1,8,0:0:0:0:
180,188,23962,1,0,0:0:0:0:
240,182,24162,1,8,0:0:0:0:
208,236,24262,1,8,0:0:0:0:
240,182,24362,1,8,0:0:0:0:
264,132,24562,1,0,0:0:0:0:
170,182,24762,1,0,0:0:0:0:
240,182,24962,1,8,0:0:0:0:
248,140,25062,1,8,0:0:0:0:
240,182,25162,1,8,0:0:0:0:
240,182,25362,1,8,0:0:0:0:
240,182,25562,1,0,0:0:0:0:
149,214,25962,1,12,0:0:0:0:
209,236,26162,1,0,0:0:0:0:
209,236,26262,1,0,0:0:0:0:
240,182,26362,1,0,0:0:0:0:
216,152,26562,1,0,0:0:0:0:
240,182,26962,1,8,0:0:0:0:
180,188,27162,1,0,0:0:0:0:
240,182,27362,1,8,0:0:0:0:
208,236,27462,1,8,0:0:0:0:
240,182,27562,1,8,0:0:0:0:
264,132,27762,1,0,0:0:0:0:
170,182,27962,1,0,0:0:0:0:
240,182,28162,1,8,0:0:0:0:
248,140,28262,1,8,0:0:0:0:
240,182,28362,1,8,0:0:0:0:
240,182,28562,1,8,0:0:0:0:
101,152,28762,1,0,0:0:0:0:
266,195,28962,1,0,0:0:0:0:
149,214,29162,1,12,0:0:0:0:
240,182,29762,1,0,0:0:0:0:
240,182,29962,1,8,0:0:0:0:
240,182,30362,1,8,0:0:0:0:
240,182,30562,1,0,0:0:0:0:
240,182,30762,1,4,0:0:0:0:
240,182,31162,1,8,0:0:0:0:
240,182,31362,1,8,0:0:0:0:
240,182,31562,1,0,0:0:0:0:
170,182,31762,1,8,0:0:0:0:
240,182,31962,1,0,0:0:0:0:
266,195,32162,1,0,0:0:0:0:
149,214,32362,1,12,0:0:0:0:
240,182,32962,1,0,0:0:0:0:
240,182,33162,1,8,0:0:0:0:
240,182,33562,1,8,0:0:0:0:
240,182,33762,1,0,0:0:0:0:
240,182,33962,1,4,0:0:0:0:
240,182,34362,1,8,0:0:0:0:
240,182,34562,1,8,0:0:0:0:
240,182,34762,1,0,0:0:0:0:
240,182,34962,1,8,0:0:0:0:
142,162,35162,1,0,0:0:0:0:
149,214,35562,1,12,0:0:0:0:
209,236,35762,1,0,0:0:0:0:
209,236,35862,1,0,0:0:0:0:
240,182,35962,1,0,0:0:0:0:
216,152,36162,1,0,0:0:0:0:
240,182,36362,1,8,0:0:0:0:
180,188,36762,1,0,0:0:0:0:
240,182,36962,1,8,0:0:0:0:
208,236,37062,1,8,0:0:0:0:
240,182,37162,1,8,0:0:0:0:
264,132,37362,1,0,0:0:0:0:
173,175,37562,1,0,0:0:0:0:
240,182,37762,1,8,0:0:0:0:
248,140,37862,1,8,0:0:0:0:
240,182,37962,1,8,0:0:0:0:
240,182,38162,1,8,0:0:0:0:
240,182,38362,1,0,0:0:0:0:
149,214,38762,1,12,0:0:0:0:
209,236,38962,1,0,0:0:0:0:
209,236,39062,1,0,0:0:0:0:
240,182,39162,1,0,0:0:0:0:
216,152,39362,1,0,0:0:0:0:
240,182,39762,1,8,0:0:0:0:
180,188,39962,1,0,0:0:0:0:
240,182,40162,1,8,0:0:0:0:
208,236,40262,1,8,0:0:0:0:
240,182,40362,1,8,0:0:0:0:
264,132,40562,1,0,0:0:0:0:
173,175,40762,1,0,0:0:0:0:
240,182,40962,1,8,0:0:0:0:
248,140,41062,1,8,0:0:0:0:
240,182,41162,1,8,0:0:0:0:
240,182,41362,1,8,0:0:0:0:
240,182,41562,1,0,0:0:0:0:
266,195,41762,1,0,0:0:0:0:
208,164,41962,1,12,0:0:0:0:
240,182,42562,1,0,0:0:0:0:
240,182,42762,1,8,0:0:0:0:
240,182,43162,1,8,0:0:0:0:
240,182,43362,1,0,0:0:0:0:
240,182,43562,1,4,0:0:0:0:
240,182,43962,1,8,0:0:0:0:
240,182,44162,1,8,0:0:0:0:
240,182,44362,1,0,0:0:0:0:
173,175,44562,1,8,0:0:0:0:
240,182,44762,1,0,0:0:0:0:
266,195,44962,1,0,0:0:0:0:
149,214,45162,1,12,0:0:0:0:
240,182,45762,1,0,0:0:0:0:
240,182,45962,1,8,0:0:0:0:
240,182,46362,1,8,0:0:0:0:
240,182,46562,1,0,0:0:0:0:
240,182,46762,1,4,0:0:0:0:
240,182,47162,1,8,0:0:0:0:
240,182,47362,1,8,0:0:0:0:
240,182,47562,1,0,0:0:0:0:
240,182,47762,1,0,0:0:0:0:
240,182,47962,1,8,0:0:0:0:
149,214,48362,1,12,0:0:0:0:
209,236,48562,1,0,0:0:0:0:
209,236,48662,1,0,0:0:0:0:
240,182,48762,1,0,0:0:0:0:
216,152,48962,1,0,0:0:0:0:
240,182,49162,1,8,0:0:0:0:
180,188,49562,1,0,0:0:0:0:
240,182,49762,1,8,0:0:0:0:
208,236,49862,1,8,0:0:0:0:
240,182,49962,1,8,0:0:0:0:
264,132,50162,1,0,0:0:0:0:
166,189,50362,1,0,0:0:0:0:
240,182,50562,1,8,0:0:0:0:
248,140,50662,1,8,0:0:0:0:
240,182,50762,1,8,0:0:0:0:
240,182,50962,1,8,0:0:0:0:
240,182,51162,1,0,0:0:0:0:
149,214,51562,1,12,0:0:0:0:
209,236,51762,1,0,0:0:0:0:
209,236,51862,1,0,0:0:0:0:
240,182,51962,1,0,0:0:0:0:
216,152,52162,1,0,0:0:0:0:
240,182,52562,1,8,0:0:0:0:
180,188,52762,1,0,0:0:0:0:
240,182,52962,1,8,0:0:0:0:
208,236,53062,1,8,0:0:0:0:
240,182,53162,1,8,0:0:0:0:
264,132,53362,1,0,0:0:0:0:
167,178,53562,1,0,0:0:0:0:
240,182,53762,1,8,0:0:0:0:
248,140,53862,1,8,0:0:0:0:
240,182,53962,1,8,0:0:0:0:
240,182,54162,1,8,0:0:0:0:
240,182,54362,1,8,0:0:0:0:
266,195,54562,1,8,0:0:0:0:
176,196,54762,1,4,0:0:0:0:
240,182,55362,1,0,0:0:0:0:
240,182,55562,1,8,0:0:0:0:
240,182,55962,1,8,0:0:0:0:
240,182,56162,1,0,0:0:0:0:
240,182,56362,1,4,0:0:0:0:
240,182,56762,1,8,0:0:0:0:
240,182,56962,1,8,0:0:0:0:
240,182,57162,1,0,0:0:0:0:
167,178,57362,1,8,0:0:0:0:
240,182,57562,1,0,0:0:0:0:
266,195,57762,1,0,0:0:0:0:
149,214,57962,1,12,0:0:0:0:
240,182,58562,1,0,0:0:0:0:
240,182,58762,1,8,0:0:0:0:
240,182,59162,1,8,0:0:0:0:
240,182,59362,1,0,0:0:0:0:
240,182,59562,1,4,0:0:0:0:
240,182,59962,1,8,0:0:0:0:
240,182,60162,1,8,0:0:0:0:
240,182,60362,1,0,0:0:0:0:
167,178,60562,1,8,0:0:0:0:
240,182,60762,1,0,0:0:0:0:
266,195,60962,1,0,0:0:0:0:
256,160,61162,1,4,0:0:0:0:
244,176,62762,1,4,0:0:0:0:
244,176,64362,1,4,0:0:0:0:
244,176,65962,1,4,0:0:0:0:
244,176,67162,1,0,0:0:0:0:
244,176,67562,1,8,0:0:0:0:
284,152,70362,1,8,0:0:0:0:
224,140,70762,1,4,0:0:0:0:
244,176,77162,5,4,0:0:0:0:
