osu file format v14

[General]
AudioFilename: audio.mp3
AudioLeadIn: 0
PreviewTime: 227
Countdown: 0
SampleSet: Soft
StackLeniency: 0.3
Mode: 0
LetterboxInBreaks: 0
WidescreenStoryboard: 1

[Editor]
DistanceSpacing: 2
BeatDivisor: 4
GridSize: 16
TimelineZoom: 1.1

[Metadata]
Title:New Bark Town
TitleUnicode:ワカバタウン
Artist:Masuda Junichi & Ichinose Go
ArtistUnicode:增田順一 & 一之瀬剛
Creator:[Paw]OchiKouri
Version:Insane
Source:ポケットモンスター 金・銀・クリスタルバージョン
Tags:[paw]zeidad kukupa naimutongzi muziyami Pokemon Pokémon Gold Silver Crystal wakaba town Video Game Instrumental
BeatmapID:1715721
BeatmapSetID:817181

[Difficulty]
HPDrainRate:5
CircleSize:4
OverallDifficulty:7
ApproachRate:8
SliderMultiplier:1.8
SliderTickRate:1

[Events]
//Background and Video events
0,0,"maxresdefault.jpg",0,0
//Break Periods
//Storyboard Layer 0 (Background)
//Storyboard Layer 1 (Fail)
//Storyboard Layer 2 (Pass)
//Storyboard Layer 3 (Foreground)
//Storyboard Layer 4 (Overlay)
//Storyboard Sound Samples

[TimingPoints]
809,581.33901753706,4,2,1,75,1,0
19411,-80,4,2,1,75,0,0
38014,-80,4,2,1,65,0,0

[Colours]
Combo1 : 0,255,0
Combo2 : 88,44,44
Combo3 : 18,124,255
Combo4 : 222,222,222

[HitObjects]
90,107,809,5,4,3:0:0:0:
251,27,1099,1,0,3:0:0:0:
410,110,1390,2,0,P|413:160|410:212,1,90,2|0,0:0|3:0,0:0:0:0:
368,279,1826,1,0,3:0:0:0:
281,256,1971,6,0,P|233:255|201:264,1,45,2|0,0:1|0:0,0:0:0:0:
165,310,2262,2,0,P|107:314|92:311,1,45,0|0,3:0|0:0,0:0:0:0:
41,270,2553,2,0,P|40:208|44:153,1,90,2|0,0:0|0:0,0:0:0:0:
177,61,3134,5,2,3:0:0:0:
3,110,3425,1,0,3:0:0:0:
168,179,3715,2,0,P|234:184|270:176,1,90,2|0,0:0|3:0,0:0:0:0:
331,127,4151,1,0,3:0:0:0:
401,181,4297,6,0,L|411:264,1,45,2|0,0:1|0:0,0:0:0:0:
484,271,4587,2,0,L|479:328,1,45,0|0,3:0|0:0,0:0:0:0:
410,372,4878,2,0,P|339:359|291:369,1,90,2|0,0:0|0:0,0:0:0:0:
232,377,5314,1,0,0:0:0:0:
123,346,5459,6,0,B|104:350|89:365|89:365|29:351,1,90,4|0,3:0|3:0,0:0:0:0:
6,176,6041,2,0,B|20:163|40:157|40:157|100:171,1,90,2|0,0:0|3:0,0:0:0:0:
174,198,6477,1,0,3:0:0:0:
236,133,6622,6,0,L|303:120,1,45,2|0,0:1|0:0,0:0:0:0:
338,193,6913,2,0,L|412:206,1,45,0|0,3:0|0:0,0:0:0:0:
462,159,7203,1,2,0:0:0:0:
319,48,7494,1,0,0:0:0:0:
492,3,7785,6,0,P|500:61|489:124,1,90,2|0,3:0|3:0,0:0:0:0:
395,241,8366,2,0,P|338:231|277:241,1,90,2|0,0:0|3:0,0:0:0:0:
223,269,8802,1,0,3:0:0:0:
295,322,8947,5,2,0:1:0:0:
306,233,9093,1,2,0:0:0:0:
263,153,9238,1,0,3:0:0:0:
178,122,9383,1,0,0:0:0:0:
76,169,9529,5,2,0:0:0:0:
133,237,9674,1,2,0:0:0:0:
221,256,9819,1,0,0:0:0:0:
302,217,9965,1,2,0:0:0:0:
350,113,10110,5,4,3:0:0:0:
179,171,10401,1,0,3:0:0:0:
276,20,10691,2,0,P|341:16|384:28,1,90,2|0,0:0|3:0,0:0:0:0:
441,69,11127,1,0,3:0:0:0:
376,132,11273,6,0,L|378:189,1,45,2|0,0:1|0:0,0:0:0:0:
453,224,11563,2,0,L|452:288,1,45,0|0,3:0|0:0,0:0:0:0:
393,337,11854,2,0,P|355:341|327:337,1,45,2|0,0:0|0:0,0:0:0:0:
280,281,12145,2,0,P|241:279|212:284,1,45,2|0,0:0|0:0,0:0:0:0:
164,335,12435,6,0,P|103:336|45:338,1,90,2|0,3:0|3:0,0:0:0:0:
3,170,13017,1,2,0:0:0:0:
175,219,13307,1,0,3:0:0:0:
262,195,13453,1,0,3:0:0:0:
325,131,13598,6,0,P|369:119|396:119,1,45,2|0,0:1|0:0,0:0:0:0:
453,148,13889,2,0,P|490:134|501:128,1,45,0|0,3:0|0:0,0:0:0:0:
505,41,14179,2,0,B|485:22|485:22|396:12,1,90,2|2,0:0|0:1,0:0:0:0:
336,39,14615,1,2,0:0:0:0:
229,2,14761,6,0,L|232:102,1,90,4|0,3:0|3:0,0:0:0:0:
326,245,15342,1,2,0:0:0:0:
403,82,15633,1,0,3:0:0:0:
315,60,15778,1,0,3:0:0:0:
231,91,15923,6,0,P|186:93|166:91,1,45,2|0,0:1|0:0,0:0:0:0:
126,25,16214,2,0,P|88:22|71:23,1,45,0|0,3:0|0:0,0:0:0:0:
10,78,16505,2,0,L|14:136,1,45,2|0,0:0|0:0,0:0:0:0:
83,180,16795,2,0,L|77:243,1,45,0|0,3:0|0:0,0:0:0:0:
25,298,17086,6,0,P|87:301|131:312,1,90,2|0,3:0|3:0,0:0:0:0:
278,380,17667,2,0,P|283:317|299:258,1,90,2|0,0:0|3:0,0:0:0:0:
323,207,18103,1,0,3:0:0:0:
378,277,18249,5,2,0:1:0:0:
288,290,18394,1,2,0:0:0:0:
211,243,18539,1,0,3:0:0:0:
180,158,18685,1,0,3:0:0:0:
265,52,18830,5,2,0:0:0:0:
319,123,18975,1,2,0:0:0:0:
318,212,19121,1,2,0:0:0:0:
270,288,19266,1,2,0:0:0:0:
161,315,19411,6,0,L|24:309,2,112.5,4|2|2,0:1|0:0|0:0,0:0:0:0:
379,370,20283,2,0,P|459:313|385:295,1,225,2|2,0:1|0:0,0:0:0:0:
161,315,21155,2,0,P|149:269|162:195,1,112.5,2|0,0:0|0:0,0:0:0:0:
297,27,21737,5,8,2:0:0:0:
128,72,22027,1,2,0:0:0:0:
319,158,22318,1,2,0:0:0:0:
77,143,22609,6,0,P|45:191|60:322,1,168.75,2|0,0:1|0:0,0:0:0:0:
185,372,23190,2,0,B|151:350|151:350|287:366,1,168.75,2|0,0:0|0:0,0:0:0:0:
386,384,23771,2,0,P|421:382|449:373,1,56.25,2|0,0:0|0:0,0:0:0:0:
348,313,24062,6,0,L|347:191,2,112.5,4|2|2,0:1|0:0|0:0,0:0:0:0:
427,102,24934,2,0,B|388:67|314:62|269:99|269:99|234:97|198:86,1,225,2|2,0:1|0:0,0:0:0:0:
6,4,25806,2,0,P|37:43|48:130,1,112.5,2|2,0:1|0:0,0:0:0:0:
11,351,26387,5,8,2:0:0:0:
189,181,26678,1,2,0:0:0:0:
0,207,26969,1,2,0:0:0:0:
211,356,27259,6,0,P|261:368|405:325,1,168.75,2|0,0:1|0:0,0:0:0:0:
459,222,27841,2,0,B|472:243|491:250|491:250|508:191|477:107,1,168.75,2|0,0:0|0:0,0:0:0:0:
402,51,28422,2,0,P|402:102|410:129,1,56.25,2|0,0:0|0:0,0:0:0:0:
316,35,28713,6,0,L|190:27,2,112.5,4|2|2,0:1|0:0|0:0,0:0:0:0:
494,173,29585,2,0,B|457:176|413:151|413:151|408:238|300:261,1,225,2|2,0:1|0:0,0:0:0:0:
125,158,30457,2,0,P|120:108|137:35,1,112.5,2|2,0:0|0:0,0:0:0:0:
247,240,31038,5,8,2:0:0:0:
44,208,31329,1,2,0:0:0:0:
236,113,31619,1,2,0:0:0:0:
23,27,31910,6,0,B|13:78|13:78|40:202,1,168.75,2|0,0:1|0:0,0:0:0:0:
102,340,32491,2,0,B|117:311|111:280|111:280|237:298,1,168.75,2|0,0:0|0:0,0:0:0:0:
314,341,33073,2,0,L|384:325,1,56.25,2|0,0:0|0:0,0:0:0:0:
307,233,33363,6,0,L|447:200,2,112.5,4|2|2,0:1|0:0|0:0,0:0:0:0:
86,278,34235,2,0,P|17:260|91:182,1,225,2|2,0:1|0:0,0:0:0:0:
247,341,35108,2,0,P|304:351|374:328,1,112.5,2|2,0:1|0:0,0:0:0:0:
466,141,35689,5,8,2:0:0:0:
305,228,35980,1,2,0:0:0:0:
481,331,36270,1,2,0:0:0:0:
351,116,36561,6,0,B|310:96|310:96|167:126,1,168.75,2|0,0:1|0:0,0:0:0:0:
77,107,37142,2,0,P|102:164|89:285,1,168.75,2|0,0:0|0:0,0:0:0:0:
26,356,37724,5,2,0:0:0:0:
13,244,37869,1,2,0:0:0:0:
77,107,38014,5,4,3:0:0:0:
