osu file format v14

[General]
AudioFilename: audio.mp3
AudioLeadIn: 0
PreviewTime: 227
Countdown: 0
SampleSet: Soft
StackLeniency: 0.7
Mode: 0
LetterboxInBreaks: 0
WidescreenStoryboard: 1

[Editor]
DistanceSpacing: 1.7
BeatDivisor: 4
GridSize: 16
TimelineZoom: 1

[Metadata]
Title:New Bark Town
TitleUnicode:ワカバタウン
Artist:Masuda Junichi & Ichinose Go
ArtistUnicode:增田順一 & 一之瀬剛
Creator:[Paw]OchiKouri
Version:Hard
Source:ポケットモンスター 金・銀・クリスタルバージョン
Tags:[paw]zeidad kukupa naimutongzi muziyami Pokemon Pokémon Gold Silver Crystal wakaba town Video Game Instrumental
BeatmapID:1715976
BeatmapSetID:817181

[Difficulty]
HPDrainRate:5
CircleSize:4
OverallDifficulty:6
ApproachRate:7
SliderMultiplier:1.7
SliderTickRate:1

[Events]
//Background and Video events
0,0,"maxresdefault.jpg",0,0
//Break Periods
//Storyboard Layer 0 (Background)
//Storyboard Layer 1 (Fail)
//Storyboard Layer 2 (Pass)
//Storyboard Layer 3 (Foreground)
//Storyboard Layer 4 (Overlay)
//Storyboard Sound Samples

[TimingPoints]
809,581.33901753706,4,2,1,75,1,0
19411,-90.9090909090909,4,2,1,75,0,0
38014,-90.9090909090909,4,2,1,65,0,0

[Colours]
Combo1 : 0,255,0
Combo2 : 88,44,44
Combo3 : 18,124,255
Combo4 : 222,222,222

[HitObjects]
83,118,809,6,0,P|134:126|175:146,1,85,4|0,3:0|3:0,0:0:0:0:
270,41,1390,1,2,0:0:0:0:
392,117,1681,2,0,L|440:122,1,42.5,0|0,3:0|3:0,0:0:0:0:
345,174,1971,2,0,P|354:239|352:289,1,85,2|0,0:1|3:0,0:0:0:0:
256,366,2553,1,2,0:0:0:0:
151,266,2843,1,0,0:0:0:0:
42,361,3134,6,0,P|39:320|44:251,1,85,2|0,3:0|3:0,0:0:0:0:
70,134,3715,1,2,0:0:0:0:
194,207,4006,2,0,L|189:261,1,42.5,0|0,3:0|3:0,0:0:0:0:
237,145,4297,2,0,P|290:147|349:131,1,85,2|0,0:1|3:0,0:0:0:0:
438,56,4878,1,2,0:0:0:0:
295,30,5169,1,0,0:0:0:0:
150,12,5459,6,0,P|86:9|49:20,1,85,4|0,3:0|3:0,0:0:0:0:
6,145,6041,1,2,0:0:0:0:
105,250,6331,2,0,L|102:316,1,42.5,0|0,3:0|3:0,0:0:0:0:
146,188,6622,2,0,P|187:178|232:186,1,85,2|0,0:1|3:0,0:0:0:0:
340,277,7203,1,2,0:0:0:0:
409,150,7494,1,0,0:0:0:0:
487,270,7785,6,0,P|488:326|475:371,1,85,2|0,3:0|3:0,0:0:0:0:
336,357,8366,1,2,0:0:0:0:
284,229,8657,1,0,3:0:0:0:
284,229,8802,1,0,3:0:0:0:
269,152,8947,6,0,L|220:145,1,42.5,2|2,0:1|0:0,0:0:0:0:
207,76,9238,2,0,L|159:89,1,42.5,0|0,3:0|0:0,0:0:0:0:
109,41,9529,2,0,L|84:81,1,42.5,2|2,0:0|0:0,0:0:0:0:
15,60,9819,2,0,L|9:112,1,42.5,0|2,0:0|0:0,0:0:0:0:
67,146,10110,6,0,P|73:209|66:259,1,85,4|0,3:0|3:0,0:0:0:0:
18,365,10691,1,2,0:0:0:0:
161,346,10982,2,0,L|206:357,1,42.5,0|0,3:0|3:0,0:0:0:0:
140,276,11273,2,0,B|150:247|150:247|203:189,1,85,2|0,0:1|3:0,0:0:0:0:
299,116,11854,1,2,0:0:0:0:
373,240,12145,1,2,0:0:0:0:
489,155,12435,6,0,B|497:32|497:32|449:78,1,170,2|2,3:0|0:0,0:0:0:0:
364,169,13307,1,0,3:0:0:0:
373,240,13453,1,0,3:0:0:0:
443,256,13598,2,0,P|488:290|511:335,1,85,2|0,0:1|3:0,0:0:0:0:
374,380,14179,1,2,0:0:0:0:
281,269,14470,2,0,L|277:204,1,42.5,2|2,0:1|0:0,0:0:0:0:
234,325,14761,6,0,P|169:320|129:332,1,85,4|0,3:0|3:0,0:0:0:0:
11,366,15342,1,2,0:0:0:0:
94,247,15633,2,0,L|155:240,1,42.5,0|0,3:0|3:0,0:0:0:0:
35,205,15923,2,0,P|34:162|40:112,1,85,2|0,0:1|3:0,0:0:0:0:
128,7,16505,1,2,0:0:0:0:
196,134,16795,1,0,3:0:0:0:
276,14,17086,6,0,P|348:9|388:14,1,85,2|0,3:0|3:0,0:0:0:0:
473,100,17667,1,2,0:0:0:0:
353,184,17958,1,0,3:0:0:0:
353,184,18103,1,0,3:0:0:0:
394,243,18249,6,0,L|389:293,1,42.5,2|2,0:1|0:0,0:0:0:0:
317,279,18539,2,0,L|293:315,1,42.5,0|0,3:0|3:0,0:0:0:0:
230,278,18830,2,0,L|179:292,1,42.5,2|2,0:0|0:0,0:0:0:0:
165,221,19121,2,0,L|97:198,1,42.5,2|2,0:0|0:0,0:0:0:0:
148,131,19411,6,0,P|142:69|163:22,1,93.5000028533936,4|2,0:1|0:0,0:0:0:0:
306,2,19993,1,2,0:0:0:0:
428,103,20283,2,0,P|450:184|429:288,1,187.000005706787,2|2,0:1|0:0,0:0:0:0:
298,371,21155,1,2,0:0:0:0:
193,250,21446,1,0,0:0:0:0:
62,341,21737,6,0,P|116:359|189:358,1,93.5000028533936,8|2,2:0|0:0,0:0:0:0:
288,279,22318,1,2,0:0:0:0:
430,349,22609,2,0,P|433:290|432:189,1,140.25000428009,2|0,0:1|0:0,0:0:0:0:
489,153,23190,2,0,P|416:164|346:128,1,140.25000428009,2|0,0:0|0:0,0:0:0:0:
311,72,23771,1,2,0:0:0:0:
163,14,24062,6,0,P|84:14|27:24,1,93.5000028533936,4|2,0:1|0:0,0:0:0:0:
199,108,24643,1,2,0:0:0:0:
56,176,24934,2,0,P|68:237|63:376,1,187.000005706787,2|2,0:1|0:0,0:0:0:0:
184,255,25806,1,2,0:1:0:0:
297,366,26097,1,2,0:0:0:0:
426,273,26387,6,0,P|369:262|305:279,1,93.5000028533936,8|2,2:0|0:0,0:0:0:0:
198,349,26969,1,2,0:0:0:0:
109,217,27259,2,0,P|104:151|122:72,1,140.25000428009,2|0,0:1|0:0,0:0:0:0:
64,21,27841,2,0,P|132:52|234:48,1,140.25000428009,2|0,0:0|0:0,0:0:0:0:
273,32,28422,1,2,0:0:0:0:
418,93,28713,6,0,P|356:85|296:100,1,93.5000028533936,4|2,0:1|0:0,0:0:0:0:
185,165,29294,1,2,0:0:0:0:
63,62,29585,2,0,B|35:35|35:35|47:182,1,187.000005706787,2|2,0:1|0:0,0:0:0:0:
60,341,30457,1,2,0:0:0:0:
198,263,30747,1,2,0:0:0:0:
132,117,31038,6,0,P|127:185|142:251,1,93.5000028533936,8|2,2:0|0:0,0:0:0:0:
218,342,31619,1,2,0:0:0:0:
300,206,31910,2,0,P|367:196|465:211,1,140.25000428009,2|0,0:1|0:0,0:0:0:0:
481,270,32491,2,0,P|476:205|483:107,1,140.25000428009,2|0,0:0|0:0,0:0:0:0:
493,52,33073,1,2,0:0:0:0:
341,2,33363,6,0,P|338:50|343:125,1,93.5000028533936,4|2,0:1|0:0,0:0:0:0:
370,251,33945,1,2,0:0:0:0:
232,170,34235,2,0,B|163:144|104:156|104:156|111:203|144:225,1,187.000005706787,2|2,0:1|0:0,0:0:0:0:
254,300,35108,1,2,0:1:0:0:
347,171,35398,1,2,0:0:0:0:
229,64,35689,6,0,P|221:127|235:193,1,93.5000028533936,8|2,2:0|0:0,0:0:0:0:
343,262,36270,1,2,0:0:0:0:
465,160,36561,2,0,P|473:96|463:22,1,140.25000428009,2|0,0:1|0:0,0:0:0:0:
388,51,37142,2,0,P|332:61|238:45,1,140.25000428009,2|0,0:0|0:0,0:0:0:0:
177,17,37724,2,0,L|172:71,1,46.7500014266968,2|2,0:0|0:0,0:0:0:0:
161,143,38014,5,4,3:0:0:0:
