osu file format v14

[General]
AudioFilename: audio.mp3
AudioLeadIn: 0
PreviewTime: -1
Countdown: 0
SampleSet: None
StackLeniency: 0.7
Mode: 3
LetterboxInBreaks: 0
SpecialStyle: 0
WidescreenStoryboard: 0

[Editor]
DistanceSpacing: 0.8
BeatDivisor: 1
GridSize: 32
TimelineZoom: 1

[Metadata]
Title:Overdose Party | Geometry Dash Demons
TitleUnicode:Overdose Party | Geometry Dash Demons
Artist:Masters of Hardcore
ArtistUnicode:Masters of Hardcore
Creator:cyberspace649
Version:OVERDOSE PARTY!
Source:
Tags:
BeatmapID:4576651
BeatmapSetID:2168890

[Difficulty]
HPDrainRate:8
CircleSize:4
OverallDifficulty:5
ApproachRate:5
SliderMultiplier:1.4
SliderTickRate:1

[Events]
//Background and Video events
0,0,"overdose party.jpg",0,0
//Break Periods
//Storyboard Layer 0 (Background)
//Storyboard Layer 1 (Fail)
//Storyboard Layer 2 (Pass)
//Storyboard Layer 3 (Foreground)
//Storyboard Layer 4 (Overlay)
//Storyboard Sound Samples

[TimingPoints]
0,193.548387096774,4,1,0,100,1,0
90193,500,4,1,0,100,1,0

[HitObjects]
448,192,0,5,0,0:0:0:0:
64,192,0,1,0,0:0:0:0:
192,192,189,1,0,0:0:0:0:
320,192,189,1,0,0:0:0:0:
64,192,189,1,0,0:0:0:0:
64,192,384,1,0,0:0:0:0:
320,192,384,1,0,0:0:0:0:
192,192,385,128,0,847:0:0:0:0:
448,192,385,128,0,847:0:0:0:0:
64,192,967,128,0,1741:0:0:0:0:
320,192,967,128,0,1741:0:0:0:0:
192,192,1935,1,0,0:0:0:0:
448,192,1935,1,0,0:0:0:0:
64,192,1935,1,0,0:0:0:0:
448,192,6000,1,0,0:0:0:0:
192,192,6000,1,0,0:0:0:0:
320,192,6000,1,0,0:0:0:0:
64,192,6193,1,0,0:0:0:0:
320,192,6193,1,0,0:0:0:0:
320,192,6387,1,0,0:0:0:0:
192,192,6387,1,0,0:0:0:0:
448,192,6387,128,0,6580:0:0:0:0:
320,192,6774,128,0,6967:0:0:0:0:
192,192,6967,1,0,0:0:0:0:
64,192,7161,1,0,0:0:0:0:
320,192,7161,1,0,0:0:0:0:
192,192,7161,128,0,7548:0:0:0:0:
320,192,7741,1,0,0:0:0:0:
448,192,7741,1,0,0:0:0:0:
64,192,7935,1,0,0:0:0:0:
192,192,7935,1,0,0:0:0:0:
448,192,7935,1,0,0:0:0:0:
192,192,8129,1,0,0:0:0:0:
320,192,8129,1,0,0:0:0:0:
448,192,8322,128,0,8903:0:0:0:0:
320,192,9096,1,0,0:0:0:0:
64,192,9096,1,0,0:0:0:0:
192,192,9096,128,0,9290:0:0:0:0:
320,192,9290,1,0,0:0:0:0:
448,192,9290,128,0,9483:0:0:0:0:
320,192,9483,1,0,0:0:0:0:
192,192,9483,1,0,0:0:0:0:
64,192,9483,128,0,9677:0:0:0:0:
192,192,9677,1,0,0:0:0:0:
320,192,9677,128,0,10064:0:0:0:0:
192,192,10451,128,0,10645:0:0:0:0:
448,192,10451,1,0,0:0:0:0:
64,192,10451,1,0,0:0:0:0:
448,192,10645,1,0,0:0:0:0:
64,192,10838,1,0,0:0:0:0:
320,192,10838,128,0,11032:0:0:0:0:
192,192,11032,128,0,11225:0:0:0:0:
64,192,11032,1,0,0:0:0:0:
448,192,11225,128,0,11612:0:0:0:0:
320,192,11225,1,0,0:0:0:0:
192,192,11806,128,0,12774:0:0:0:0:
320,192,11806,128,0,11999:0:0:0:0:
64,192,11806,1,0,0:0:0:0:
448,192,13354,128,0,13741:0:0:0:0:
320,192,13741,128,0,14129:0:0:0:0:
64,192,14129,128,0,14516:0:0:0:0:
192,192,14516,128,0,14903:0:0:0:0:
448,192,14903,128,0,15290:0:0:0:0:
64,192,14903,128,0,15096:0:0:0:0:
320,192,15290,128,0,15483:0:0:0:0:
64,192,15290,128,0,15483:0:0:0:0:
192,192,15483,128,0,15677:0:0:0:0:
64,192,15677,128,0,15870:0:0:0:0:
320,192,15677,128,0,15870:0:0:0:0:
448,192,15677,128,0,15870:0:0:0:0:
192,192,15870,128,0,16064:0:0:0:0:
320,192,16064,128,0,16258:0:0:0:0:
64,192,16451,1,0,0:0:0:0:
192,192,16451,1,0,0:0:0:0:
448,192,16451,1,0,0:0:0:0:
320,192,16451,1,0,0:0:0:0:
320,192,16838,1,0,0:0:0:0:
320,192,17032,1,0,0:0:0:0:
64,192,17032,1,0,0:0:0:0:
448,192,17032,1,0,0:0:0:0:
192,192,17225,1,0,0:0:0:0:
192,192,17419,1,0,0:0:0:0:
448,192,17419,1,0,0:0:0:0:
64,192,17419,1,0,0:0:0:0:
192,192,17612,1,0,0:0:0:0:
320,192,17612,128,0,17999:0:0:0:0:
192,192,18193,1,0,0:0:0:0:
64,192,18387,1,0,0:0:0:0:
320,192,18387,1,0,0:0:0:0:
448,192,18387,1,0,0:0:0:0:
448,192,18774,1,0,0:0:0:0:
448,192,18967,1,0,0:0:0:0:
64,192,18967,1,0,0:0:0:0:
192,192,18967,1,0,0:0:0:0:
320,192,19354,1,0,0:0:0:0:
320,192,19548,1,0,0:0:0:0:
64,192,19548,1,0,0:0:0:0:
448,192,19548,1,0,0:0:0:0:
64,192,19741,128,0,20129:0:0:0:0:
64,192,20322,1,0,0:0:0:0:
320,192,20322,1,0,0:0:0:0:
448,192,20322,1,0,0:0:0:0:
192,192,20516,1,0,0:0:0:0:
320,192,20903,1,0,0:0:0:0:
320,192,21096,1,0,0:0:0:0:
448,192,21096,1,0,0:0:0:0:
64,192,21290,1,0,0:0:0:0:
64,192,21483,1,0,0:0:0:0:
192,192,21483,1,0,0:0:0:0:
448,192,21870,1,0,0:0:0:0:
320,192,21870,1,0,0:0:0:0:
64,192,21870,1,0,0:0:0:0:
192,192,21870,128,0,22064:0:0:0:0:
448,192,22258,1,0,0:0:0:0:
320,192,22451,128,0,22838:0:0:0:0:
192,192,23032,1,0,0:0:0:0:
192,192,23225,1,0,0:0:0:0:
448,192,23225,1,0,0:0:0:0:
64,192,23225,1,0,0:0:0:0:
320,192,23419,1,0,0:0:0:0:
320,192,23612,1,0,0:0:0:0:
192,192,23612,1,0,0:0:0:0:
64,192,23806,1,0,0:0:0:0:
192,192,23806,1,0,0:0:0:0:
192,192,24193,1,0,0:0:0:0:
448,192,24193,1,0,0:0:0:0:
64,192,24193,1,0,0:0:0:0:
320,192,24387,1,0,0:0:0:0:
448,192,24387,1,0,0:0:0:0:
192,192,24387,1,0,0:0:0:0:
320,192,24580,1,0,0:0:0:0:
64,192,24580,1,0,0:0:0:0:
448,192,24580,1,0,0:0:0:0:
448,192,24774,1,0,0:0:0:0:
64,192,24774,1,0,0:0:0:0:
320,192,24774,128,0,25161:0:0:0:0:
448,192,25161,128,0,25354:0:0:0:0:
64,192,25354,128,0,25548:0:0:0:0:
320,192,25354,128,0,25548:0:0:0:0:
192,192,25548,128,0,25741:0:0:0:0:
448,192,25548,128,0,25741:0:0:0:0:
320,192,25741,128,0,25935:0:0:0:0:
192,192,25935,128,0,26129:0:0:0:0:
64,192,26129,128,0,26322:0:0:0:0:
320,192,26129,128,0,26322:0:0:0:0:
448,192,26322,128,0,26516:0:0:0:0:
320,192,26516,128,0,26709:0:0:0:0:
64,192,26516,128,0,26709:0:0:0:0:
192,192,26709,128,0,26903:0:0:0:0:
320,192,26903,128,0,27096:0:0:0:0:
448,192,27096,128,0,27290:0:0:0:0:
64,192,27290,128,0,27483:0:0:0:0:
320,192,27290,128,0,27483:0:0:0:0:
192,192,27483,128,0,27677:0:0:0:0:
448,192,27677,128,0,27870:0:0:0:0:
320,192,27870,128,0,28064:0:0:0:0:
64,192,28064,128,0,28258:0:0:0:0:
192,192,28258,128,0,28451:0:0:0:0:
448,192,28258,128,0,28451:0:0:0:0:
320,192,28451,128,0,28645:0:0:0:0:
64,192,28645,128,0,28838:0:0:0:0:
192,192,28838,128,0,29032:0:0:0:0:
320,192,29032,128,0,29225:0:0:0:0:
448,192,29225,1,0,0:0:0:0:
320,192,29419,1,0,0:0:0:0:
64,192,29419,1,0,0:0:0:0:
192,192,29612,1,0,0:0:0:0:
448,192,29612,1,0,0:0:0:0:
320,192,29806,1,0,0:0:0:0:
64,192,29806,1,0,0:0:0:0:
192,192,29999,1,0,0:0:0:0:
448,192,29999,1,0,0:0:0:0:
320,192,30193,1,0,0:0:0:0:
64,192,30193,1,0,0:0:0:0:
192,192,30387,1,0,0:0:0:0:
448,192,30387,1,0,0:0:0:0:
448,192,30580,1,0,0:0:0:0:
320,192,30580,1,0,0:0:0:0:
192,192,30580,1,0,0:0:0:0:
192,192,30774,1,0,0:0:0:0:
320,192,30774,1,0,0:0:0:0:
448,192,30774,1,0,0:0:0:0:
64,192,30967,1,0,0:0:0:0:
192,192,30967,1,0,0:0:0:0:
448,192,30967,1,0,0:0:0:0:
320,192,31161,1,0,0:0:0:0:
64,192,31161,1,0,0:0:0:0:
64,192,31354,1,0,0:0:0:0:
448,192,31354,1,0,0:0:0:0:
192,192,31354,1,0,0:0:0:0:
320,192,31354,1,0,0:0:0:0:
320,192,31548,1,0,0:0:0:0:
192,192,31548,1,0,0:0:0:0:
64,192,31548,1,0,0:0:0:0:
64,192,31741,1,0,0:0:0:0:
192,192,31741,1,0,0:0:0:0:
320,192,31741,1,0,0:0:0:0:
320,192,31935,1,0,0:0:0:0:
64,192,31935,1,0,0:0:0:0:
192,192,31935,1,0,0:0:0:0:
64,192,32129,1,0,0:0:0:0:
192,192,32129,1,0,0:0:0:0:
320,192,32129,1,0,0:0:0:0:
448,192,32129,1,0,0:0:0:0:
448,192,32322,1,0,0:0:0:0:
320,192,32322,1,0,0:0:0:0:
64,192,32322,1,0,0:0:0:0:
64,192,32516,1,0,0:0:0:0:
192,192,32516,1,0,0:0:0:0:
320,192,32516,1,0,0:0:0:0:
448,192,32516,1,0,0:0:0:0:
448,192,32709,1,0,0:0:0:0:
192,192,32709,1,0,0:0:0:0:
64,192,32709,1,0,0:0:0:0:
64,192,32903,1,0,0:0:0:0:
192,192,32903,1,0,0:0:0:0:
320,192,32903,1,0,0:0:0:0:
448,192,32903,1,0,0:0:0:0:
448,192,33096,1,0,0:0:0:0:
320,192,33096,1,0,0:0:0:0:
192,192,33096,1,0,0:0:0:0:
64,192,33096,1,0,0:0:0:0:
448,192,33483,1,0,0:0:0:0:
64,192,33483,1,0,0:0:0:0:
448,192,33677,1,0,0:0:0:0:
64,192,33677,1,0,0:0:0:0:
320,192,33870,1,0,0:0:0:0:
192,192,33870,1,0,0:0:0:0:
320,192,34064,1,0,0:0:0:0:
192,192,34064,1,0,0:0:0:0:
192,192,34451,128,0,34645:0:0:0:0:
448,192,34645,128,0,34838:0:0:0:0:
192,192,34838,128,0,35032:0:0:0:0:
64,192,34838,128,0,35032:0:0:0:0:
320,192,35032,128,0,35225:0:0:0:0:
448,192,35032,128,0,35225:0:0:0:0:
64,192,35225,128,0,35612:0:0:0:0:
192,192,35419,128,0,35612:0:0:0:0:
448,192,35419,128,0,35612:0:0:0:0:
448,192,35806,1,0,0:0:0:0:
320,192,35806,1,0,0:0:0:0:
64,192,35999,1,0,0:0:0:0:
192,192,35999,1,0,0:0:0:0:
448,192,35999,1,0,0:0:0:0:
448,192,36193,1,0,0:0:0:0:
320,192,36193,1,0,0:0:0:0:
192,192,36193,1,0,0:0:0:0:
64,192,36193,1,0,0:0:0:0:
192,192,36387,1,0,0:0:0:0:
448,192,36387,1,0,0:0:0:0:
192,192,36580,1,0,0:0:0:0:
320,192,36580,1,0,0:0:0:0:
448,192,36580,1,0,0:0:0:0:
64,192,36580,1,0,0:0:0:0:
192,192,36774,1,0,0:0:0:0:
320,192,36774,1,0,0:0:0:0:
448,192,36967,1,0,0:0:0:0:
64,192,36967,1,0,0:0:0:0:
192,192,36967,1,0,0:0:0:0:
320,192,37161,1,0,0:0:0:0:
64,192,37161,1,0,0:0:0:0:
320,192,37354,1,0,0:0:0:0:
448,192,37354,1,0,0:0:0:0:
192,192,37354,1,0,0:0:0:0:
64,192,37548,128,0,37741:0:0:0:0:
192,192,37548,128,0,37741:0:0:0:0:
320,192,37548,128,0,37741:0:0:0:0:
448,192,37548,128,0,37741:0:0:0:0:
448,192,37935,1,0,0:0:0:0:
192,192,37935,1,0,0:0:0:0:
320,192,37935,1,0,0:0:0:0:
64,192,38129,1,0,0:0:0:0:
192,192,38129,1,0,0:0:0:0:
320,192,38129,1,0,0:0:0:0:
320,192,38322,1,0,0:0:0:0:
64,192,38322,1,0,0:0:0:0:
64,192,38516,1,0,0:0:0:0:
192,192,38516,1,0,0:0:0:0:
320,192,38516,1,0,0:0:0:0:
448,192,38516,1,0,0:0:0:0:
448,192,38709,1,0,0:0:0:0:
192,192,38709,1,0,0:0:0:0:
448,192,38903,1,0,0:0:0:0:
192,192,38903,1,0,0:0:0:0:
320,192,38903,1,0,0:0:0:0:
64,192,38903,1,0,0:0:0:0:
64,192,39096,1,0,0:0:0:0:
192,192,39096,1,0,0:0:0:0:
320,192,39096,1,0,0:0:0:0:
448,192,39290,1,0,0:0:0:0:
320,192,39290,1,0,0:0:0:0:
192,192,39290,1,0,0:0:0:0:
64,192,39483,1,0,0:0:0:0:
320,192,39483,1,0,0:0:0:0:
64,192,39677,128,0,39870:0:0:0:0:
192,192,39677,128,0,39870:0:0:0:0:
448,192,39677,128,0,39870:0:0:0:0:
320,192,40064,1,0,0:0:0:0:
192,192,40064,1,0,0:0:0:0:
64,192,40258,1,0,0:0:0:0:
192,192,40258,1,0,0:0:0:0:
448,192,40258,1,0,0:0:0:0:
448,192,40451,1,0,0:0:0:0:
320,192,40451,1,0,0:0:0:0:
192,192,40451,1,0,0:0:0:0:
64,192,40645,1,0,0:0:0:0:
192,192,40645,1,0,0:0:0:0:
320,192,40645,1,0,0:0:0:0:
448,192,40645,1,0,0:0:0:0:
448,192,40838,1,0,0:0:0:0:
320,192,40838,1,0,0:0:0:0:
192,192,40838,1,0,0:0:0:0:
64,192,41032,1,0,0:0:0:0:
192,192,41032,1,0,0:0:0:0:
320,192,41032,1,0,0:0:0:0:
192,192,41225,1,0,0:0:0:0:
64,192,41225,1,0,0:0:0:0:
320,192,41225,1,0,0:0:0:0:
448,192,41225,1,0,0:0:0:0:
320,192,41419,1,0,0:0:0:0:
448,192,41419,1,0,0:0:0:0:
192,192,41419,1,0,0:0:0:0:
64,192,41419,1,0,0:0:0:0:
320,192,41612,1,0,0:0:0:0:
448,192,41612,1,0,0:0:0:0:
192,192,41612,1,0,0:0:0:0:
64,192,41612,1,0,0:0:0:0:
64,192,41806,128,0,42580:0:0:0:0:
192,192,41806,128,0,42774:0:0:0:0:
320,192,41806,128,0,42387:0:0:0:0:
448,192,41806,128,0,42580:0:0:0:0:
320,192,42774,128,0,42967:0:0:0:0:
448,192,42967,128,0,43161:0:0:0:0:
192,192,42967,128,0,43161:0:0:0:0:
64,192,43161,128,0,43354:0:0:0:0:
320,192,43161,128,0,43354:0:0:0:0:
192,192,43354,128,0,43548:0:0:0:0:
448,192,43354,128,0,43548:0:0:0:0:
448,192,43741,1,0,0:0:0:0:
320,192,43741,1,0,0:0:0:0:
192,192,43741,1,0,0:0:0:0:
64,192,43741,1,0,0:0:0:0:
192,192,43935,1,0,0:0:0:0:
320,192,43935,1,0,0:0:0:0:
448,192,43935,1,0,0:0:0:0:
448,192,44129,1,0,0:0:0:0:
320,192,44129,1,0,0:0:0:0:
64,192,44129,1,0,0:0:0:0:
64,192,44322,1,0,0:0:0:0:
192,192,44322,1,0,0:0:0:0:
448,192,44322,1,0,0:0:0:0:
448,192,44516,1,0,0:0:0:0:
320,192,44516,1,0,0:0:0:0:
192,192,44516,1,0,0:0:0:0:
64,192,44516,1,0,0:0:0:0:
192,192,44709,1,0,0:0:0:0:
64,192,44709,1,0,0:0:0:0:
320,192,44709,1,0,0:0:0:0:
448,192,44709,1,0,0:0:0:0:
448,192,44903,1,0,0:0:0:0:
320,192,44903,1,0,0:0:0:0:
64,192,44903,1,0,0:0:0:0:
64,192,45096,1,0,0:0:0:0:
320,192,45096,1,0,0:0:0:0:
448,192,45096,1,0,0:0:0:0:
320,192,45290,1,0,0:0:0:0:
192,192,45290,1,0,0:0:0:0:
64,192,45290,1,0,0:0:0:0:
64,192,45483,1,0,0:0:0:0:
192,192,45483,1,0,0:0:0:0:
320,192,45483,1,0,0:0:0:0:
448,192,45677,1,0,0:0:0:0:
320,192,45677,1,0,0:0:0:0:
192,192,45677,1,0,0:0:0:0:
64,192,45677,1,0,0:0:0:0:
448,192,45870,1,0,0:0:0:0:
320,192,45870,1,0,0:0:0:0:
192,192,45870,1,0,0:0:0:0:
64,192,45870,1,0,0:0:0:0:
448,192,46064,1,0,0:0:0:0:
64,192,46064,1,0,0:0:0:0:
192,192,46064,1,0,0:0:0:0:
320,192,46064,1,0,0:0:0:0:
448,192,46258,1,0,0:0:0:0:
320,192,46258,1,0,0:0:0:0:
64,192,46258,1,0,0:0:0:0:
64,192,46451,1,0,0:0:0:0:
320,192,46451,1,0,0:0:0:0:
448,192,46451,1,0,0:0:0:0:
448,192,46645,1,0,0:0:0:0:
192,192,46645,1,0,0:0:0:0:
64,192,46645,1,0,0:0:0:0:
192,192,46838,1,0,0:0:0:0:
320,192,46838,1,0,0:0:0:0:
448,192,46838,1,0,0:0:0:0:
448,192,47032,1,0,0:0:0:0:
320,192,47032,1,0,0:0:0:0:
192,192,47032,1,0,0:0:0:0:
64,192,47225,1,0,0:0:0:0:
192,192,47225,1,0,0:0:0:0:
448,192,47225,1,0,0:0:0:0:
448,192,47419,128,0,47612:0:0:0:0:
64,192,47419,128,0,47612:0:0:0:0:
320,192,47612,128,0,47806:0:0:0:0:
192,192,47612,128,0,47806:0:0:0:0:
448,192,47806,128,0,47999:0:0:0:0:
64,192,47806,128,0,47999:0:0:0:0:
320,192,48193,1,0,0:0:0:0:
192,192,48193,1,0,0:0:0:0:
448,192,48193,1,0,0:0:0:0:
64,192,48387,1,0,0:0:0:0:
192,192,48387,1,0,0:0:0:0:
320,192,48387,1,0,0:0:0:0:
448,192,48387,1,0,0:0:0:0:
448,192,48580,1,0,0:0:0:0:
320,192,48580,1,0,0:0:0:0:
64,192,48580,1,0,0:0:0:0:
64,192,48774,1,0,0:0:0:0:
320,192,48774,1,0,0:0:0:0:
448,192,48774,1,0,0:0:0:0:
192,192,48774,1,0,0:0:0:0:
320,192,48967,1,0,0:0:0:0:
448,192,48967,1,0,0:0:0:0:
192,192,48967,1,0,0:0:0:0:
64,192,48967,1,0,0:0:0:0:
64,192,49161,1,0,0:0:0:0:
192,192,49161,1,0,0:0:0:0:
320,192,49161,1,0,0:0:0:0:
448,192,49161,1,0,0:0:0:0:
448,192,49354,1,0,0:0:0:0:
64,192,49354,1,0,0:0:0:0:
192,192,49354,1,0,0:0:0:0:
64,192,49548,1,0,0:0:0:0:
320,192,49548,1,0,0:0:0:0:
448,192,49548,1,0,0:0:0:0:
448,192,49741,128,0,49935:0:0:0:0:
320,192,49741,128,0,49935:0:0:0:0:
192,192,49741,128,0,49935:0:0:0:0:
64,192,49741,128,0,49935:0:0:0:0:
448,192,50129,1,0,0:0:0:0:
320,192,50322,1,0,0:0:0:0:
64,192,50322,1,0,0:0:0:0:
192,192,50516,1,0,0:0:0:0:
448,192,50516,1,0,0:0:0:0:
320,192,50709,1,0,0:0:0:0:
64,192,50709,1,0,0:0:0:0:
192,192,50903,1,0,0:0:0:0:
448,192,50903,1,0,0:0:0:0:
320,192,51096,1,0,0:0:0:0:
64,192,51096,1,0,0:0:0:0:
192,192,51290,128,0,51483:0:0:0:0:
448,192,51290,128,0,51483:0:0:0:0:
320,192,51483,128,0,51677:0:0:0:0:
192,192,51677,128,0,51870:0:0:0:0:
64,192,51677,128,0,51870:0:0:0:0:
448,192,51870,128,0,52064:0:0:0:0:
320,192,52258,1,0,0:0:0:0:
320,192,52451,1,0,0:0:0:0:
64,192,52451,1,0,0:0:0:0:
64,192,52645,1,0,0:0:0:0:
192,192,52645,1,0,0:0:0:0:
448,192,52645,1,0,0:0:0:0:
448,192,52838,1,0,0:0:0:0:
320,192,52838,1,0,0:0:0:0:
192,192,53032,1,0,0:0:0:0:
192,192,53225,1,0,0:0:0:0:
448,192,53225,1,0,0:0:0:0:
448,192,53419,1,0,0:0:0:0:
64,192,53419,1,0,0:0:0:0:
64,192,53612,1,0,0:0:0:0:
192,192,53612,1,0,0:0:0:0:
320,192,53612,1,0,0:0:0:0:
320,192,53806,1,0,0:0:0:0:
192,192,53999,1,0,0:0:0:0:
64,192,53999,1,0,0:0:0:0:
448,192,53999,1,0,0:0:0:0:
448,192,54193,1,0,0:0:0:0:
192,192,54193,1,0,0:0:0:0:
320,192,54387,1,0,0:0:0:0:
320,192,54580,1,0,0:0:0:0:
64,192,54580,1,0,0:0:0:0:
64,192,54774,1,0,0:0:0:0:
448,192,54774,1,0,0:0:0:0:
192,192,54967,1,0,0:0:0:0:
320,192,54967,1,0,0:0:0:0:
192,192,55161,1,0,0:0:0:0:
448,192,55161,1,0,0:0:0:0:
64,192,55161,1,0,0:0:0:0:
448,192,55354,1,0,0:0:0:0:
192,192,55354,1,0,0:0:0:0:
320,192,55548,1,0,0:0:0:0:
192,192,55548,1,0,0:0:0:0:
64,192,55548,1,0,0:0:0:0:
320,192,55741,1,0,0:0:0:0:
448,192,55741,1,0,0:0:0:0:
192,192,55741,1,0,0:0:0:0:
64,192,55741,1,0,0:0:0:0:
192,192,55935,1,0,0:0:0:0:
64,192,55935,1,0,0:0:0:0:
64,192,56129,1,0,0:0:0:0:
320,192,56709,1,0,0:0:0:0:
192,192,56903,1,0,0:0:0:0:
192,192,57096,1,0,0:0:0:0:
448,192,57096,1,0,0:0:0:0:
448,192,57290,1,0,0:0:0:0:
64,192,57290,1,0,0:0:0:0:
64,192,57483,1,0,0:0:0:0:
320,192,57483,1,0,0:0:0:0:
448,192,57483,1,0,0:0:0:0:
320,192,57677,1,0,0:0:0:0:
192,192,57677,1,0,0:0:0:0:
192,192,57870,1,0,0:0:0:0:
448,192,57870,1,0,0:0:0:0:
64,192,57870,1,0,0:0:0:0:
448,192,58064,1,0,0:0:0:0:
320,192,58064,1,0,0:0:0:0:
320,192,58258,1,0,0:0:0:0:
64,192,58258,1,0,0:0:0:0:
448,192,58258,1,0,0:0:0:0:
64,192,58451,1,0,0:0:0:0:
320,192,58451,1,0,0:0:0:0:
64,192,58645,1,0,0:0:0:0:
192,192,58645,1,0,0:0:0:0:
448,192,58645,1,0,0:0:0:0:
64,192,58838,1,0,0:0:0:0:
320,192,58838,1,0,0:0:0:0:
64,192,59032,1,0,0:0:0:0:
320,192,59032,1,0,0:0:0:0:
448,192,59032,1,0,0:0:0:0:
192,192,59225,128,0,59419:0:0:0:0:
320,192,59225,128,0,59419:0:0:0:0:
448,192,59225,128,0,59419:0:0:0:0:
64,192,59612,1,0,0:0:0:0:
192,192,59612,1,0,0:0:0:0:
320,192,59612,1,0,0:0:0:0:
320,192,59806,1,0,0:0:0:0:
448,192,59806,1,0,0:0:0:0:
192,192,59806,1,0,0:0:0:0:
192,192,59999,128,0,60193:0:0:0:0:
320,192,60387,128,0,60774:0:0:0:0:
448,192,60387,128,0,60774:0:0:0:0:
192,192,60774,128,0,60967:0:0:0:0:
64,192,60774,128,0,60967:0:0:0:0:
320,192,61161,1,0,0:0:0:0:
448,192,61161,1,0,0:0:0:0:
320,192,61354,1,0,0:0:0:0:
448,192,61354,1,0,0:0:0:0:
192,192,61354,1,0,0:0:0:0:
64,192,61354,1,0,0:0:0:0:
192,192,61548,1,0,0:0:0:0:
320,192,61548,1,0,0:0:0:0:
448,192,61548,1,0,0:0:0:0:
320,192,61741,1,0,0:0:0:0:
192,192,61741,1,0,0:0:0:0:
64,192,61741,1,0,0:0:0:0:
64,192,61935,1,0,0:0:0:0:
320,192,61935,1,0,0:0:0:0:
448,192,61935,1,0,0:0:0:0:
448,192,62129,1,0,0:0:0:0:
320,192,62129,1,0,0:0:0:0:
64,192,62129,1,0,0:0:0:0:
192,192,62322,1,0,0:0:0:0:
320,192,62322,1,0,0:0:0:0:
64,192,62322,1,0,0:0:0:0:
192,192,62516,1,0,0:0:0:0:
320,192,62516,1,0,0:0:0:0:
448,192,62516,1,0,0:0:0:0:
448,192,62709,1,0,0:0:0:0:
320,192,62709,1,0,0:0:0:0:
64,192,62709,1,0,0:0:0:0:
448,192,62903,128,0,63096:0:0:0:0:
64,192,62903,128,0,63096:0:0:0:0:
192,192,62903,128,0,63096:0:0:0:0:
320,192,63290,1,0,0:0:0:0:
448,192,63290,1,0,0:0:0:0:
64,192,63483,1,0,0:0:0:0:
192,192,63483,1,0,0:0:0:0:
448,192,63483,1,0,0:0:0:0:
320,192,63677,1,0,0:0:0:0:
64,192,63677,1,0,0:0:0:0:
448,192,63677,1,0,0:0:0:0:
320,192,63870,1,0,0:0:0:0:
192,192,63870,1,0,0:0:0:0:
64,192,63870,1,0,0:0:0:0:
448,192,63870,1,0,0:0:0:0:
320,192,64064,1,0,0:0:0:0:
320,192,64258,1,0,0:0:0:0:
192,192,64258,128,0,65032:0:0:0:0:
64,192,64451,128,0,65032:0:0:0:0:
448,192,64451,128,0,65032:0:0:0:0:
320,192,65225,1,0,0:0:0:0:
64,192,65225,1,0,0:0:0:0:
320,192,65419,1,0,0:0:0:0:
448,192,65419,1,0,0:0:0:0:
192,192,65419,1,0,0:0:0:0:
64,192,65419,1,0,0:0:0:0:
192,192,65612,1,0,0:0:0:0:
320,192,65612,1,0,0:0:0:0:
448,192,65612,1,0,0:0:0:0:
64,192,65612,1,0,0:0:0:0:
192,192,65806,1,0,0:0:0:0:
320,192,65806,1,0,0:0:0:0:
448,192,65806,1,0,0:0:0:0:
320,192,65999,1,0,0:0:0:0:
64,192,65999,1,0,0:0:0:0:
64,192,66193,1,0,0:0:0:0:
192,192,66193,1,0,0:0:0:0:
320,192,66193,1,0,0:0:0:0:
448,192,66193,1,0,0:0:0:0:
448,192,66387,1,0,0:0:0:0:
320,192,66387,1,0,0:0:0:0:
192,192,66387,1,0,0:0:0:0:
64,192,66580,1,0,0:0:0:0:
192,192,66580,1,0,0:0:0:0:
448,192,66580,1,0,0:0:0:0:
448,192,66774,1,0,0:0:0:0:
320,192,66774,1,0,0:0:0:0:
192,192,66774,1,0,0:0:0:0:
64,192,66967,1,0,0:0:0:0:
192,192,66967,1,0,0:0:0:0:
320,192,66967,1,0,0:0:0:0:
320,192,67161,1,0,0:0:0:0:
448,192,67161,1,0,0:0:0:0:
192,192,67161,1,0,0:0:0:0:
192,192,67354,1,0,0:0:0:0:
320,192,67354,1,0,0:0:0:0:
448,192,67354,1,0,0:0:0:0:
64,192,67354,1,0,0:0:0:0:
64,192,67548,1,0,0:0:0:0:
192,192,67548,1,0,0:0:0:0:
448,192,67548,1,0,0:0:0:0:
448,192,67741,1,0,0:0:0:0:
320,192,67741,1,0,0:0:0:0:
192,192,67741,1,0,0:0:0:0:
64,192,67741,1,0,0:0:0:0:
64,192,67935,1,0,0:0:0:0:
192,192,67935,1,0,0:0:0:0:
320,192,67935,1,0,0:0:0:0:
448,192,68129,1,0,0:0:0:0:
64,192,68322,1,0,0:0:0:0:
192,192,68322,1,0,0:0:0:0:
320,192,68322,1,0,0:0:0:0:
448,192,68516,128,0,68709:0:0:0:0:
64,192,68709,128,0,68903:0:0:0:0:
320,192,68709,128,0,69096:0:0:0:0:
192,192,68903,128,0,69483:0:0:0:0:
320,192,69677,1,0,0:0:0:0:
448,192,69677,1,0,0:0:0:0:
64,192,69677,1,0,0:0:0:0:
64,192,69870,1,0,0:0:0:0:
192,192,69870,1,0,0:0:0:0:
448,192,70064,1,0,0:0:0:0:
320,192,70064,1,0,0:0:0:0:
64,192,70064,1,0,0:0:0:0:
192,192,70258,1,0,0:0:0:0:
320,192,70258,1,0,0:0:0:0:
448,192,70258,1,0,0:0:0:0:
320,192,70451,1,0,0:0:0:0:
192,192,70451,128,0,70645:0:0:0:0:
64,192,70838,1,0,0:0:0:0:
448,192,70838,1,0,0:0:0:0:
192,192,70838,1,0,0:0:0:0:
448,192,71032,1,0,0:0:0:0:
320,192,71032,1,0,0:0:0:0:
192,192,71032,1,0,0:0:0:0:
192,192,71225,1,0,0:0:0:0:
64,192,71225,1,0,0:0:0:0:
320,192,71225,1,0,0:0:0:0:
448,192,71419,1,0,0:0:0:0:
320,192,71419,1,0,0:0:0:0:
192,192,71419,1,0,0:0:0:0:
64,192,71419,1,0,0:0:0:0:
320,192,71612,1,0,0:0:0:0:
64,192,71612,1,0,0:0:0:0:
64,192,71806,1,0,0:0:0:0:
192,192,71806,1,0,0:0:0:0:
320,192,71806,1,0,0:0:0:0:
448,192,71806,1,0,0:0:0:0:
448,192,71999,1,0,0:0:0:0:
320,192,71999,1,0,0:0:0:0:
192,192,71999,1,0,0:0:0:0:
64,192,71999,1,0,0:0:0:0:
320,192,72193,1,0,0:0:0:0:
192,192,72193,1,0,0:0:0:0:
192,192,72387,1,0,0:0:0:0:
320,192,72387,1,0,0:0:0:0:
448,192,72387,1,0,0:0:0:0:
448,192,72580,1,0,0:0:0:0:
320,192,72580,1,0,0:0:0:0:
192,192,72580,1,0,0:0:0:0:
64,192,72774,1,0,0:0:0:0:
192,192,72774,1,0,0:0:0:0:
320,192,72774,1,0,0:0:0:0:
192,192,72967,1,0,0:0:0:0:
64,192,72967,1,0,0:0:0:0:
192,192,73161,1,0,0:0:0:0:
64,192,73161,1,0,0:0:0:0:
448,192,73354,1,0,0:0:0:0:
320,192,73354,1,0,0:0:0:0:
192,192,73354,1,0,0:0:0:0:
64,192,73354,1,0,0:0:0:0:
64,192,73548,128,0,73741:0:0:0:0:
192,192,73548,128,0,73741:0:0:0:0:
320,192,73548,128,0,73741:0:0:0:0:
448,192,73548,128,0,73741:0:0:0:0:
448,192,75677,128,0,75870:0:0:0:0:
64,192,75870,128,0,76064:0:0:0:0:
192,192,76064,128,0,76258:0:0:0:0:
320,192,76064,128,0,76258:0:0:0:0:
448,192,76064,128,0,76645:0:0:0:0:
64,192,76645,128,0,77225:0:0:0:0:
192,192,76645,128,0,77032:0:0:0:0:
320,192,76645,128,0,77612:0:0:0:0:
64,192,77806,1,0,0:0:0:0:
192,192,77806,1,0,0:0:0:0:
320,192,77806,1,0,0:0:0:0:
448,192,77806,1,0,0:0:0:0:
320,192,77999,1,0,0:0:0:0:
192,192,77999,1,0,0:0:0:0:
448,192,77999,1,0,0:0:0:0:
448,192,78193,1,0,0:0:0:0:
320,192,78193,1,0,0:0:0:0:
64,192,78193,1,0,0:0:0:0:
192,192,78387,1,0,0:0:0:0:
320,192,78387,1,0,0:0:0:0:
64,192,78580,1,0,0:0:0:0:
448,192,78580,1,0,0:0:0:0:
320,192,78580,1,0,0:0:0:0:
320,192,78774,1,0,0:0:0:0:
64,192,78774,1,0,0:0:0:0:
448,192,78774,1,0,0:0:0:0:
192,192,78967,1,0,0:0:0:0:
64,192,78967,1,0,0:0:0:0:
448,192,78967,1,0,0:0:0:0:
192,192,79161,1,0,0:0:0:0:
64,192,79161,1,0,0:0:0:0:
320,192,79354,1,0,0:0:0:0:
192,192,79354,1,0,0:0:0:0:
64,192,79354,1,0,0:0:0:0:
320,192,79548,1,0,0:0:0:0:
448,192,79548,1,0,0:0:0:0:
448,192,79741,1,0,0:0:0:0:
320,192,79741,1,0,0:0:0:0:
64,192,79935,1,0,0:0:0:0:
192,192,79935,1,0,0:0:0:0:
448,192,79935,1,0,0:0:0:0:
320,192,80129,1,0,0:0:0:0:
192,192,80129,1,0,0:0:0:0:
64,192,80129,1,0,0:0:0:0:
64,192,80322,1,0,0:0:0:0:
320,192,80322,1,0,0:0:0:0:
448,192,80322,1,0,0:0:0:0:
448,192,80516,1,0,0:0:0:0:
320,192,80516,1,0,0:0:0:0:
64,192,80516,1,0,0:0:0:0:
192,192,80516,1,0,0:0:0:0:
320,192,80709,1,0,0:0:0:0:
64,192,80709,1,0,0:0:0:0:
192,192,80709,1,0,0:0:0:0:
192,192,80903,128,0,81096:0:0:0:0:
320,192,80903,128,0,81096:0:0:0:0:
448,192,80903,128,0,81096:0:0:0:0:
448,192,81290,1,0,0:0:0:0:
320,192,81290,1,0,0:0:0:0:
192,192,81290,1,0,0:0:0:0:
64,192,81290,1,0,0:0:0:0:
448,192,81483,1,0,0:0:0:0:
320,192,81483,1,0,0:0:0:0:
192,192,81483,1,0,0:0:0:0:
64,192,81483,1,0,0:0:0:0:
64,192,81677,1,0,0:0:0:0:
192,192,81677,1,0,0:0:0:0:
320,192,81677,1,0,0:0:0:0:
448,192,81677,1,0,0:0:0:0:
320,192,81870,128,0,82064:0:0:0:0:
448,192,82064,128,0,82258:0:0:0:0:
192,192,82064,128,0,82258:0:0:0:0:
64,192,82064,128,0,82258:0:0:0:0:
320,192,82258,128,0,82451:0:0:0:0:
192,192,82451,128,0,82645:0:0:0:0:
448,192,82451,128,0,83032:0:0:0:0:
320,192,82645,128,0,82838:0:0:0:0:
64,192,82645,128,0,82838:0:0:0:0:
192,192,82838,128,0,83032:0:0:0:0:
320,192,83032,128,0,83612:0:0:0:0:
192,192,83225,128,0,83419:0:0:0:0:
64,192,83225,128,0,83419:0:0:0:0:
448,192,83225,128,0,83419:0:0:0:0:
192,192,83612,128,0,83806:0:0:0:0:
320,192,83999,1,0,0:0:0:0:
320,192,84193,1,0,0:0:0:0:
448,192,84387,128,0,84580:0:0:0:0:
448,192,84774,1,0,0:0:0:0:
448,192,84967,1,0,0:0:0:0:
320,192,84967,1,0,0:0:0:0:
448,192,85161,1,0,0:0:0:0:
320,192,85161,1,0,0:0:0:0:
192,192,85161,1,0,0:0:0:0:
448,192,85354,1,0,0:0:0:0:
320,192,85354,1,0,0:0:0:0:
192,192,85354,1,0,0:0:0:0:
64,192,85354,1,0,0:0:0:0:
448,192,85548,1,0,0:0:0:0:
320,192,85548,1,0,0:0:0:0:
192,192,85548,1,0,0:0:0:0:
64,192,85548,1,0,0:0:0:0:
448,192,85741,1,0,0:0:0:0:
320,192,85741,1,0,0:0:0:0:
192,192,85741,1,0,0:0:0:0:
64,192,85741,1,0,0:0:0:0:
448,192,85935,1,0,0:0:0:0:
320,192,85935,1,0,0:0:0:0:
192,192,85935,1,0,0:0:0:0:
64,192,85935,1,0,0:0:0:0:
448,192,86129,1,0,0:0:0:0:
64,192,86129,1,0,0:0:0:0:
320,192,86129,128,0,86709:0:0:0:0:
192,192,86129,128,0,86709:0:0:0:0:
448,192,86709,128,0,87870:0:0:0:0:
64,192,86709,128,0,87483:0:0:0:0:
192,192,87483,128,0,87870:0:0:0:0:
320,192,87870,128,0,88451:0:0:0:0:
448,192,90193,128,0,91193:0:0:0:0:
320,192,90193,128,0,92193:0:0:0:0:
192,192,90193,128,0,92693:0:0:0:0:
64,192,90193,128,0,93193:0:0:0:0:
