osu file format v14

[General]
AudioFilename: Dreadnought.mp3
AudioLeadIn: 0
PreviewTime: 134408
Countdown: 0
SampleSet: Normal
StackLeniency: 0.7
Mode: 1
LetterboxInBreaks: 0
WidescreenStoryboard: 0

[Editor]
DistanceSpacing: 2
BeatDivisor: 4
GridSize: 4
TimelineZoom: 2.4

[Metadata]
Title:Dreadnought
TitleUnicode:Dreadnought
Artist:Mastermind(xi+nora2r)
ArtistUnicode:Mastermind(xi+nora2r)
Creator:Charlotte
Version:Bravery Taiko Soul
Source:BMS
Tags:World Fragments Diverse System DVSP-0145 C89 Breakthrough 大血戦 -THE BMS OF FIGHTERS ULTIMATE- BOFU2015 Yusuke Ishiwata Kohei Ohtsu
BeatmapID:1280900
BeatmapSetID:606308

[Difficulty]
HPDrainRate:4.4
CircleSize:5
OverallDifficulty:6.6
ApproachRate:5
SliderMultiplier:1.4
SliderTickRate:1

[Events]
//Background and Video events
0,0,"BG.jpg",0,0
//Break Periods
//Storyboard Layer 0 (Background)
//Storyboard Layer 1 (Fail)
//Storyboard Layer 2 (Pass)
//Storyboard Layer 3 (Foreground)
//Storyboard Sound Samples

[TimingPoints]
1908,312.5,4,1,0,70,1,0
31986,-66.6666666666667,4,1,0,70,0,0
33158,-50,4,1,0,70,0,0
34408,-40,4,1,0,70,0,0
35658,-33.3333333333333,4,1,0,70,0,0
36908,-28.5714285714286,4,1,0,70,0,0
38158,-25,4,1,0,70,0,0
39408,-66.6666666666667,4,1,0,70,0,0
40658,-100,4,1,0,70,0,0
124486,-66.6666666666667,4,1,0,70,0,0
125658,-50,4,1,0,70,0,0
126908,-40,4,1,0,70,0,0
128158,-33.3333333333333,4,1,0,70,0,0
129408,-28.5714285714286,4,1,0,70,0,0
130658,-25,4,1,0,70,0,0
131908,-66.6666666666667,4,1,0,70,0,0
132845,-100,4,1,0,70,0,0
134408,-100,4,1,0,80,0,1
154095,-100,4,1,0,70,0,0
164408,-100,4,1,0,80,0,1
174095,-100,4,1,0,70,0,0
212220,-100,4,1,0,80,0,1
241595,-100,4,1,0,70,0,0
251908,-100,4,1,0,80,0,1
261595,-100,4,1,0,70,0,0

[HitObjects]
256,192,1908,5,8,0:0:0:0:
256,192,2220,1,8,0:0:0:0:
256,192,2533,1,8,0:0:0:0:
256,192,2845,1,8,0:0:0:0:
256,192,3001,1,0,0:0:0:0:
256,192,3079,1,0,0:0:0:0:
256,192,3158,1,8,0:0:0:0:
256,192,3470,1,8,0:0:0:0:
256,192,3783,1,8,0:0:0:0:
256,192,3939,1,0,0:0:0:0:
256,192,4095,1,8,0:0:0:0:
256,192,4251,1,0,0:0:0:0:
256,192,4329,1,0,0:0:0:0:
256,192,4408,1,8,0:0:0:0:
256,192,4720,1,8,0:0:0:0:
256,192,5033,1,8,0:0:0:0:
256,192,5345,1,8,0:0:0:0:
256,192,5501,1,0,0:0:0:0:
256,192,5579,1,0,0:0:0:0:
256,192,5658,1,8,0:0:0:0:
256,192,5970,1,8,0:0:0:0:
256,192,6283,1,8,0:0:0:0:
256,192,6361,1,8,0:0:0:0:
256,192,6439,1,0,0:0:0:0:
256,192,6595,1,8,0:0:0:0:
256,192,6673,1,8,0:0:0:0:
256,192,6751,1,8,0:0:0:0:
256,192,6908,1,4,0:0:0:0:
256,192,7220,1,8,0:0:0:0:
256,192,7533,1,8,0:0:0:0:
256,192,7845,1,8,0:0:0:0:
256,192,8001,1,8,0:0:0:0:
256,192,8158,1,4,0:0:0:0:
256,192,8470,1,8,0:0:0:0:
256,192,8783,1,8,0:0:0:0:
256,192,9095,1,0,0:0:0:0:
256,192,9251,1,8,0:0:0:0:
256,192,9408,1,4,0:0:0:0:
256,192,9720,1,8,0:0:0:0:
256,192,9876,1,8,0:0:0:0:
256,192,10033,1,4,0:0:0:0:
256,192,10345,1,8,0:0:0:0:
256,192,10658,1,0,0:0:0:0:
256,192,10736,1,0,0:0:0:0:
256,192,10814,1,8,0:0:0:0:
256,192,10970,1,0,0:0:0:0:
256,192,11048,1,0,0:0:0:0:
256,192,11126,1,8,0:0:0:0:
256,192,11283,1,0,0:0:0:0:
256,192,11361,1,8,0:0:0:0:
256,192,11439,1,0,0:0:0:0:
256,192,11517,1,0,0:0:0:0:
256,192,11595,1,8,0:0:0:0:
256,192,11673,1,8,0:0:0:0:
256,192,11751,1,8,0:0:0:0:
256,192,11908,1,4,0:0:0:0:
256,192,12064,1,8,0:0:0:0:
256,192,12142,1,8,0:0:0:0:
256,192,12220,1,0,0:0:0:0:
256,192,12376,1,8,0:0:0:0:
256,192,12533,1,0,0:0:0:0:
256,192,12611,1,0,0:0:0:0:
256,192,12689,1,8,0:0:0:0:
256,192,12767,1,8,0:0:0:0:
256,192,12845,1,0,0:0:0:0:
256,192,13158,1,0,0:0:0:0:
256,192,13314,1,8,0:0:0:0:
256,192,13392,1,0,0:0:0:0:
256,192,13470,1,0,0:0:0:0:
256,192,13626,1,8,0:0:0:0:
256,192,13783,1,0,0:0:0:0:
256,192,13861,1,0,0:0:0:0:
256,192,13939,1,8,0:0:0:0:
256,192,14017,1,0,0:0:0:0:
256,192,14095,1,0,0:0:0:0:
256,192,14173,1,0,0:0:0:0:
256,192,14251,1,8,0:0:0:0:
256,192,14408,1,0,0:0:0:0:
256,192,14564,1,8,0:0:0:0:
256,192,14642,1,8,0:0:0:0:
256,192,14720,1,0,0:0:0:0:
256,192,14876,1,8,0:0:0:0:
256,192,15033,1,0,0:0:0:0:
256,192,15189,1,8,0:0:0:0:
256,192,15345,1,0,0:0:0:0:
256,192,15423,1,0,0:0:0:0:
256,192,15501,1,0,0:0:0:0:
256,192,15579,1,8,0:0:0:0:
256,192,15658,1,0,0:0:0:0:
256,192,15814,1,8,0:0:0:0:
256,192,15892,1,8,0:0:0:0:
256,192,15970,1,0,0:0:0:0:
256,192,16126,1,8,0:0:0:0:
256,192,16283,1,0,0:0:0:0:
256,192,16439,1,8,0:0:0:0:
256,192,16517,1,0,0:0:0:0:
256,192,16595,1,8,0:0:0:0:
256,192,16673,1,0,0:0:0:0:
256,192,16751,1,8,0:0:0:0:
256,192,16829,1,8,0:0:0:0:
256,192,16908,1,0,0:0:0:0:
256,192,17064,1,8,0:0:0:0:
256,192,17142,1,8,0:0:0:0:
256,192,17220,1,0,0:0:0:0:
256,192,17376,1,8,0:0:0:0:
256,192,17533,1,0,0:0:0:0:
256,192,17611,1,0,0:0:0:0:
256,192,17689,1,8,0:0:0:0:
256,192,17845,1,0,0:0:0:0:
256,192,17923,1,0,0:0:0:0:
256,192,18001,1,8,0:0:0:0:
256,192,18053,1,8,0:0:0:0:
256,192,18105,1,8,0:0:0:0:
256,192,18158,1,0,0:0:0:0:
256,192,18314,1,8,0:0:0:0:
256,192,18392,1,0,0:0:0:0:
256,192,18470,1,0,0:0:0:0:
256,192,18626,1,8,0:0:0:0:
256,192,18783,1,0,0:0:0:0:
256,192,18861,1,0,0:0:0:0:
256,192,18939,1,8,0:0:0:0:
256,192,19017,1,8,0:0:0:0:
256,192,19095,1,0,0:0:0:0:
256,192,19251,1,8,0:0:0:0:
256,192,19408,1,0,0:0:0:0:
256,192,19564,1,8,0:0:0:0:
256,192,19642,1,8,0:0:0:0:
256,192,19720,1,0,0:0:0:0:
256,192,19798,1,0,0:0:0:0:
256,192,19876,1,8,0:0:0:0:
256,192,20033,1,0,0:0:0:0:
256,192,20189,1,8,0:0:0:0:
256,192,20267,1,8,0:0:0:0:
256,192,20345,1,0,0:0:0:0:
256,192,20397,1,0,0:0:0:0:
256,192,20449,1,0,0:0:0:0:
256,192,20501,1,8,0:0:0:0:
256,192,20658,1,0,0:0:0:0:
256,192,20736,1,0,0:0:0:0:
256,192,20814,1,0,0:0:0:0:
256,192,20970,1,0,0:0:0:0:
256,192,21048,1,0,0:0:0:0:
256,192,21126,1,0,0:0:0:0:
256,192,21283,1,8,0:0:0:0:
256,192,21361,1,0,0:0:0:0:
256,192,21439,1,8,0:0:0:0:
256,192,21517,1,8,0:0:0:0:
256,192,21595,1,0,0:0:0:0:
256,192,21673,1,0,0:0:0:0:
256,192,21751,1,8,0:0:0:0:
256,192,21908,1,4,0:0:0:0:
256,192,22064,1,8,0:0:0:0:
256,192,22142,1,8,0:0:0:0:
256,192,22220,1,0,0:0:0:0:
256,192,22376,1,8,0:0:0:0:
256,192,22533,1,0,0:0:0:0:
256,192,22611,1,0,0:0:0:0:
256,192,22689,1,8,0:0:0:0:
256,192,22767,1,8,0:0:0:0:
256,192,22845,1,0,0:0:0:0:
256,192,23158,1,0,0:0:0:0:
256,192,23314,1,8,0:0:0:0:
256,192,23392,1,8,0:0:0:0:
256,192,23470,1,0,0:0:0:0:
256,192,23626,1,8,0:0:0:0:
256,192,23783,1,0,0:0:0:0:
256,192,23861,1,0,0:0:0:0:
256,192,23939,1,0,0:0:0:0:
256,192,24017,1,0,0:0:0:0:
256,192,24095,1,8,0:0:0:0:
256,192,24173,1,8,0:0:0:0:
256,192,24251,1,8,0:0:0:0:
256,192,24408,1,0,0:0:0:0:
256,192,24564,1,8,0:0:0:0:
256,192,24642,1,8,0:0:0:0:
256,192,24720,1,0,0:0:0:0:
256,192,24876,1,8,0:0:0:0:
256,192,25033,1,0,0:0:0:0:
256,192,25189,1,8,0:0:0:0:
256,192,25345,1,0,0:0:0:0:
256,192,25423,1,0,0:0:0:0:
256,192,25501,1,0,0:0:0:0:
256,192,25579,1,8,0:0:0:0:
256,192,25658,1,0,0:0:0:0:
256,192,25814,1,8,0:0:0:0:
256,192,25892,1,8,0:0:0:0:
256,192,25970,1,0,0:0:0:0:
256,192,26126,1,8,0:0:0:0:
256,192,26283,1,0,0:0:0:0:
256,192,26361,1,8,0:0:0:0:
256,192,26439,1,0,0:0:0:0:
256,192,26517,1,0,0:0:0:0:
256,192,26595,1,8,0:0:0:0:
256,192,26673,1,0,0:0:0:0:
256,192,26751,1,8,0:0:0:0:
256,192,26829,1,8,0:0:0:0:
256,192,26908,1,0,0:0:0:0:
256,192,27064,1,8,0:0:0:0:
256,192,27142,1,8,0:0:0:0:
256,192,27220,1,0,0:0:0:0:
256,192,27376,1,8,0:0:0:0:
256,192,27533,1,0,0:0:0:0:
256,192,27611,1,0,0:0:0:0:
256,192,27689,1,8,0:0:0:0:
256,192,27845,1,0,0:0:0:0:
256,192,27923,1,0,0:0:0:0:
256,192,28001,1,8,0:0:0:0:
256,192,28053,1,8,0:0:0:0:
256,192,28105,1,8,0:0:0:0:
256,192,28158,1,0,0:0:0:0:
256,192,28314,1,8,0:0:0:0:
256,192,28392,1,0,0:0:0:0:
256,192,28470,1,0,0:0:0:0:
256,192,28548,1,0,0:0:0:0:
256,192,28626,1,8,0:0:0:0:
256,192,28783,1,0,0:0:0:0:
256,192,28861,1,8,0:0:0:0:
256,192,28939,1,0,0:0:0:0:
256,192,29017,1,0,0:0:0:0:
256,192,29095,1,8,0:0:0:0:
256,192,29173,1,0,0:0:0:0:
256,192,29251,1,8,0:0:0:0:
256,192,29408,1,0,0:0:0:0:
256,192,29564,1,8,0:0:0:0:
256,192,29642,1,8,0:0:0:0:
256,192,29720,1,0,0:0:0:0:
256,192,29798,1,0,0:0:0:0:
256,192,29876,1,8,0:0:0:0:
256,192,30033,1,0,0:0:0:0:
256,192,30189,1,8,0:0:0:0:
256,192,30267,1,8,0:0:0:0:
256,192,30345,1,0,0:0:0:0:
256,192,30397,1,0,0:0:0:0:
256,192,30449,1,0,0:0:0:0:
256,192,30501,1,8,0:0:0:0:
256,192,30658,1,8,0:0:0:0:
256,192,30736,1,8,0:0:0:0:
256,192,30814,1,0,0:0:0:0:
256,192,30970,1,8,0:0:0:0:
256,192,31022,1,8,0:0:0:0:
256,192,31074,1,8,0:0:0:0:
256,192,31126,1,0,0:0:0:0:
256,192,31283,1,8,0:0:0:0:
256,192,31361,1,0,0:0:0:0:
256,192,31439,1,8,0:0:0:0:
256,192,31517,1,8,0:0:0:0:
256,192,31595,1,0,0:0:0:0:
256,192,31673,1,0,0:0:0:0:
256,192,31751,1,8,0:0:0:0:
256,192,31908,1,4,0:0:0:0:
256,192,31986,12,0,39408,0:0:0:0:
256,192,39720,5,4,0:0:0:0:
256,192,40658,6,0,L|256:148,12,35
256,192,41908,1,4,0:0:0:0:
256,192,43158,1,8,0:0:0:0:
256,192,43783,1,0,0:0:0:0:
256,192,44095,1,0,0:0:0:0:
256,192,44408,1,8,0:0:0:0:
256,192,45033,1,8,0:0:0:0:
256,192,45658,1,0,0:0:0:0:
256,192,46283,1,8,0:0:0:0:
256,192,46595,1,8,0:0:0:0:
256,192,46673,1,8,0:0:0:0:
256,192,46751,1,8,0:0:0:0:
256,192,46908,1,0,0:0:0:0:
256,192,47376,1,0,0:0:0:0:
256,192,47533,1,0,0:0:0:0:
256,192,48158,1,8,0:0:0:0:
256,192,48626,1,0,0:0:0:0:
256,192,48783,1,8,0:0:0:0:
256,192,49251,1,0,0:0:0:0:
256,192,49408,1,0,0:0:0:0:
256,192,49642,1,8,0:0:0:0:
256,192,49876,1,0,0:0:0:0:
256,192,50033,1,8,0:0:0:0:
256,192,50111,1,8,0:0:0:0:
256,192,50189,1,0,0:0:0:0:
256,192,50267,1,0,0:0:0:0:
256,192,50345,1,8,0:0:0:0:
256,192,50397,1,8,0:0:0:0:
256,192,50449,1,8,0:0:0:0:
256,192,50501,1,8,0:0:0:0:
256,192,50579,1,8,0:0:0:0:
256,192,50658,1,0,0:0:0:0:
256,192,51908,1,8,0:0:0:0:
256,192,53783,1,0,0:0:0:0:
256,192,53939,1,0,0:0:0:0:
256,192,54017,1,0,0:0:0:0:
256,192,54095,1,8,0:0:0:0:
256,192,54173,1,0,0:0:0:0:
256,192,54251,1,8,0:0:0:0:
256,192,54329,1,8,0:0:0:0:
256,192,54408,1,0,0:0:0:0:
256,192,54876,1,0,0:0:0:0:
256,192,55189,1,0,0:0:0:0:
256,192,55345,1,0,0:0:0:0:
256,192,55814,1,8,0:0:0:0:
256,192,56283,1,0,0:0:0:0:
256,192,56595,1,8,0:0:0:0:
256,192,56908,1,4,0:0:0:0:
256,192,57220,1,8,0:0:0:0:
256,192,57533,1,0,0:0:0:0:
256,192,57689,1,0,0:0:0:0:
256,192,58158,1,8,0:0:0:0:
256,192,58626,1,8,0:0:0:0:
256,192,58939,1,0,0:0:0:0:
256,192,59095,1,0,0:0:0:0:
256,192,59173,1,0,0:0:0:0:
256,192,59251,1,8,0:0:0:0:
256,192,59408,1,0,0:0:0:0:
256,192,59486,1,0,0:0:0:0:
256,192,59564,1,8,0:0:0:0:
256,192,59642,1,0,0:0:0:0:
256,192,59720,1,8,0:0:0:0:
256,192,59798,1,8,0:0:0:0:
256,192,59876,1,0,0:0:0:0:
256,192,60033,1,0,0:0:0:0:
256,192,60111,1,0,0:0:0:0:
256,192,60189,1,8,0:0:0:0:
256,192,60267,1,8,0:0:0:0:
256,192,60345,1,0,0:0:0:0:
256,192,60501,1,8,0:0:0:0:
256,192,60658,1,0,0:0:0:0:
256,192,60736,1,0,0:0:0:0:
256,192,60814,1,8,0:0:0:0:
256,192,60892,1,0,0:0:0:0:
256,192,60970,1,0,0:0:0:0:
256,192,61048,1,0,0:0:0:0:
256,192,61126,1,8,0:0:0:0:
256,192,61283,1,8,0:0:0:0:
256,192,61361,1,8,0:0:0:0:
256,192,61439,1,0,0:0:0:0:
256,192,61517,1,0,0:0:0:0:
256,192,61595,1,8,0:0:0:0:
256,192,61673,1,0,0:0:0:0:
256,192,61751,1,8,0:0:0:0:
256,192,61908,1,0,0:0:0:0:
256,192,62064,1,0,0:0:0:0:
256,192,62142,1,0,0:0:0:0:
256,192,62220,1,8,0:0:0:0:
256,192,62376,1,8,0:0:0:0:
256,192,62454,1,0,0:0:0:0:
256,192,62533,1,0,0:0:0:0:
256,192,62689,1,0,0:0:0:0:
256,192,62767,1,0,0:0:0:0:
256,192,62845,1,8,0:0:0:0:
256,192,63001,1,8,0:0:0:0:
256,192,63079,1,8,0:0:0:0:
256,192,63158,1,0,0:0:0:0:
256,192,63314,1,0,0:0:0:0:
256,192,63470,1,8,0:0:0:0:
256,192,63783,1,8,0:0:0:0:
256,192,63835,1,8,0:0:0:0:
256,192,63887,1,8,0:0:0:0:
256,192,63939,1,0,0:0:0:0:
256,192,63991,1,0,0:0:0:0:
256,192,64043,1,0,0:0:0:0:
256,192,64095,1,8,0:0:0:0:
256,192,64251,1,8,0:0:0:0:
256,192,64408,1,4,0:0:0:0:
256,192,64564,1,8,0:0:0:0:
256,192,64642,1,8,0:0:0:0:
256,192,64720,1,0,0:0:0:0:
256,192,64798,1,0,0:0:0:0:
256,192,64876,1,8,0:0:0:0:
256,192,65033,1,8,0:0:0:0:
256,192,65111,1,0,0:0:0:0:
256,192,65189,1,8,0:0:0:0:
256,192,65267,1,8,0:0:0:0:
256,192,65345,1,0,0:0:0:0:
256,192,65423,1,0,0:0:0:0:
256,192,65501,1,8,0:0:0:0:
256,192,65658,1,8,0:0:0:0:
256,192,65736,1,8,0:0:0:0:
256,192,65814,1,0,0:0:0:0:
256,192,65892,1,8,0:0:0:0:
256,192,65970,1,0,0:0:0:0:
256,192,66048,1,0,0:0:0:0:
256,192,66126,1,8,0:0:0:0:
256,192,66283,1,8,0:0:0:0:
256,192,66361,1,0,0:0:0:0:
256,192,66439,1,0,0:0:0:0:
256,192,66517,1,8,0:0:0:0:
256,192,66595,1,0,0:0:0:0:
256,192,66673,1,0,0:0:0:0:
256,192,66751,1,8,0:0:0:0:
256,192,66829,1,8,0:0:0:0:
256,192,66908,1,0,0:0:0:0:
256,192,67064,1,0,0:0:0:0:
256,192,67142,1,0,0:0:0:0:
256,192,67220,1,8,0:0:0:0:
256,192,67298,1,8,0:0:0:0:
256,192,67376,1,0,0:0:0:0:
256,192,67533,1,0,0:0:0:0:
256,192,67611,1,8,0:0:0:0:
256,192,67689,1,0,0:0:0:0:
256,192,67767,1,0,0:0:0:0:
256,192,67845,1,8,0:0:0:0:
256,192,67923,1,8,0:0:0:0:
256,192,68001,1,0,0:0:0:0:
256,192,68158,1,0,0:0:0:0:
256,192,68236,1,0,0:0:0:0:
256,192,68314,1,8,0:0:0:0:
256,192,68392,1,0,0:0:0:0:
256,192,68470,1,8,0:0:0:0:
256,192,68548,1,8,0:0:0:0:
256,192,68626,1,0,0:0:0:0:
256,192,68783,1,0,0:0:0:0:
256,192,68861,1,8,0:0:0:0:
256,192,68939,1,8,0:0:0:0:
256,192,69017,1,0,0:0:0:0:
256,192,69095,1,8,0:0:0:0:
256,192,69173,1,8,0:0:0:0:
256,192,69251,1,0,0:0:0:0:
256,192,69329,1,0,0:0:0:0:
256,192,69408,1,8,0:0:0:0:
256,192,69564,1,0,0:0:0:0:
256,192,69642,1,0,0:0:0:0:
256,192,69720,1,8,0:0:0:0:
256,192,69876,1,0,0:0:0:0:
256,192,69954,1,0,0:0:0:0:
256,192,70033,1,8,0:0:0:0:
256,192,70189,1,0,0:0:0:0:
256,192,70267,1,0,0:0:0:0:
256,192,70345,1,8,0:0:0:0:
256,192,70423,1,8,0:0:0:0:
256,192,70501,1,0,0:0:0:0:
256,192,70658,1,8,0:0:0:0:
256,192,70736,1,8,0:0:0:0:
256,192,70814,1,0,0:0:0:0:
256,192,70892,1,0,0:0:0:0:
256,192,70970,1,8,0:0:0:0:
256,192,71048,1,8,0:0:0:0:
256,192,71126,1,0,0:0:0:0:
256,192,71204,1,8,0:0:0:0:
256,192,71283,1,0,0:0:0:0:
256,192,71335,1,0,0:0:0:0:
256,192,71387,1,0,0:0:0:0:
256,192,71439,1,8,0:0:0:0:
256,192,71517,1,0,0:0:0:0:
256,192,71595,1,8,0:0:0:0:
256,192,71647,1,8,0:0:0:0:
256,192,71699,1,8,0:0:0:0:
256,192,71751,1,0,0:0:0:0:
256,192,71829,1,0,0:0:0:0:
256,192,71908,1,8,0:0:0:0:
256,192,73158,1,8,0:0:0:0:
256,192,73236,1,8,0:0:0:0:
256,192,73314,1,8,0:0:0:0:
256,192,73392,1,8,0:0:0:0:
256,192,73470,1,8,0:0:0:0:
256,192,73626,1,8,0:0:0:0:
256,192,73704,1,8,0:0:0:0:
256,192,73783,1,8,0:0:0:0:
256,192,73861,1,8,0:0:0:0:
256,192,73939,1,8,0:0:0:0:
256,192,74095,1,4,0:0:0:0:
256,192,74408,1,0,0:0:0:0:
256,192,74564,1,8,0:0:0:0:
256,192,74642,1,8,0:0:0:0:
256,192,74720,1,0,0:0:0:0:
256,192,74876,1,8,0:0:0:0:
256,192,75033,1,0,0:0:0:0:
256,192,75111,1,0,0:0:0:0:
256,192,75189,1,8,0:0:0:0:
256,192,75267,1,8,0:0:0:0:
256,192,75345,1,0,0:0:0:0:
256,192,75501,1,8,0:0:0:0:
256,192,75658,1,0,0:0:0:0:
256,192,75814,1,8,0:0:0:0:
256,192,75892,1,8,0:0:0:0:
256,192,75970,1,0,0:0:0:0:
256,192,76126,1,0,0:0:0:0:
256,192,76204,1,8,0:0:0:0:
256,192,76283,1,0,0:0:0:0:
256,192,76439,1,0,0:0:0:0:
256,192,76517,1,0,0:0:0:0:
256,192,76595,1,8,0:0:0:0:
256,192,76751,1,8,0:0:0:0:
256,192,76908,1,0,0:0:0:0:
256,192,77064,1,8,0:0:0:0:
256,192,77142,1,8,0:0:0:0:
256,192,77220,1,0,0:0:0:0:
256,192,77376,1,8,0:0:0:0:
256,192,77533,1,0,0:0:0:0:
256,192,77611,1,0,0:0:0:0:
256,192,77689,1,8,0:0:0:0:
256,192,77767,1,8,0:0:0:0:
256,192,77845,1,0,0:0:0:0:
256,192,78001,1,8,0:0:0:0:
256,192,78158,1,0,0:0:0:0:
256,192,78314,1,8,0:0:0:0:
256,192,78392,1,8,0:0:0:0:
256,192,78470,1,0,0:0:0:0:
256,192,78626,1,0,0:0:0:0:
256,192,78704,1,8,0:0:0:0:
256,192,78783,1,0,0:0:0:0:
256,192,78939,1,0,0:0:0:0:
256,192,79017,1,0,0:0:0:0:
256,192,79095,1,8,0:0:0:0:
256,192,79251,1,8,0:0:0:0:
256,192,79408,1,0,0:0:0:0:
256,192,79564,1,8,0:0:0:0:
256,192,79642,1,8,0:0:0:0:
256,192,79720,1,0,0:0:0:0:
256,192,79876,1,8,0:0:0:0:
256,192,80033,1,0,0:0:0:0:
256,192,80111,1,8,0:0:0:0:
256,192,80189,1,8,0:0:0:0:
256,192,80267,1,0,0:0:0:0:
256,192,80345,1,8,0:0:0:0:
256,192,80423,1,0,0:0:0:0:
256,192,80501,1,8,0:0:0:0:
256,192,80579,1,8,0:0:0:0:
256,192,80658,1,0,0:0:0:0:
256,192,80814,1,0,0:0:0:0:
256,192,80892,1,8,0:0:0:0:
256,192,80970,1,0,0:0:0:0:
256,192,81048,1,0,0:0:0:0:
256,192,81126,1,8,0:0:0:0:
256,192,81283,1,8,0:0:0:0:
256,192,81361,1,8,0:0:0:0:
256,192,81439,1,0,0:0:0:0:
256,192,81517,1,0,0:0:0:0:
256,192,81595,1,8,0:0:0:0:
256,192,81673,1,0,0:0:0:0:
256,192,81751,1,8,0:0:0:0:
256,192,81908,1,0,0:0:0:0:
256,192,82064,1,8,0:0:0:0:
256,192,82142,1,8,0:0:0:0:
256,192,82220,1,0,0:0:0:0:
256,192,82376,1,8,0:0:0:0:
256,192,82533,1,0,0:0:0:0:
256,192,82611,1,0,0:0:0:0:
256,192,82689,1,8,0:0:0:0:
256,192,82767,1,0,0:0:0:0:
256,192,82845,1,8,0:0:0:0:
256,192,82923,1,8,0:0:0:0:
256,192,83001,1,0,0:0:0:0:
256,192,83079,1,8,0:0:0:0:
256,192,83158,1,0,0:0:0:0:
256,192,83314,1,8,0:0:0:0:
256,192,83392,1,8,0:0:0:0:
256,192,83470,1,0,0:0:0:0:
256,192,83548,1,0,0:0:0:0:
256,192,83626,1,8,0:0:0:0:
256,192,83783,1,8,0:0:0:0:
256,192,83861,1,0,0:0:0:0:
256,192,83939,1,0,0:0:0:0:
256,192,84017,1,8,0:0:0:0:
256,192,84095,1,0,0:0:0:0:
256,192,84173,1,0,0:0:0:0:
256,192,84251,1,8,0:0:0:0:
256,192,84408,1,0,0:0:0:0:
256,192,84564,1,8,0:0:0:0:
256,192,84642,1,8,0:0:0:0:
256,192,84720,1,0,0:0:0:0:
256,192,84876,1,8,0:0:0:0:
256,192,85033,1,0,0:0:0:0:
256,192,85189,1,8,0:0:0:0:
256,192,85267,1,0,0:0:0:0:
256,192,85423,1,0,0:0:0:0:
256,192,85501,1,8,0:0:0:0:
256,192,85658,1,0,0:0:0:0:
256,192,85814,1,8,0:0:0:0:
256,192,85892,1,8,0:0:0:0:
256,192,85970,1,0,0:0:0:0:
256,192,86074,1,8,0:0:0:0:
256,192,86178,1,8,0:0:0:0:
256,192,86283,1,0,0:0:0:0:
256,192,86361,1,0,0:0:0:0:
256,192,86439,1,8,0:0:0:0:
256,192,86517,1,8,0:0:0:0:
256,192,86595,1,0,0:0:0:0:
256,192,86751,1,8,0:0:0:0:
256,192,86908,1,0,0:0:0:0:
256,192,87064,1,8,0:0:0:0:
256,192,87142,1,8,0:0:0:0:
256,192,87220,1,0,0:0:0:0:
256,192,87376,1,8,0:0:0:0:
256,192,87533,1,0,0:0:0:0:
256,192,87689,1,8,0:0:0:0:
256,192,87767,1,8,0:0:0:0:
256,192,87923,1,0,0:0:0:0:
256,192,88001,1,8,0:0:0:0:
256,192,88079,1,8,0:0:0:0:
256,192,88158,1,0,0:0:0:0:
256,192,88314,1,8,0:0:0:0:
256,192,88392,1,8,0:0:0:0:
256,192,88470,1,0,0:0:0:0:
256,192,88574,1,8,0:0:0:0:
256,192,88678,1,8,0:0:0:0:
256,192,88783,1,0,0:0:0:0:
256,192,88939,1,8,0:0:0:0:
256,192,89017,1,0,0:0:0:0:
256,192,89095,1,8,0:0:0:0:
256,192,89173,1,8,0:0:0:0:
256,192,89251,1,0,0:0:0:0:
256,192,89329,1,0,0:0:0:0:
256,192,89408,1,8,0:0:0:0:
256,192,89564,1,8,0:0:0:0:
256,192,89642,1,8,0:0:0:0:
256,192,89720,1,0,0:0:0:0:
256,192,89876,1,0,0:0:0:0:
256,192,89954,1,0,0:0:0:0:
256,192,90033,1,8,0:0:0:0:
256,192,90189,1,0,0:0:0:0:
256,192,90345,1,8,0:0:0:0:
256,192,90423,1,8,0:0:0:0:
256,192,90501,1,0,0:0:0:0:
256,192,90579,1,0,0:0:0:0:
256,192,90658,1,8,0:0:0:0:
256,192,90814,1,8,0:0:0:0:
256,192,90892,1,8,0:0:0:0:
256,192,90970,1,0,0:0:0:0:
256,192,91126,1,8,0:0:0:0:
256,192,91204,1,0,0:0:0:0:
256,192,91283,1,8,0:0:0:0:
256,192,91439,1,8,0:0:0:0:
256,192,91517,1,8,0:0:0:0:
256,192,91595,1,0,0:0:0:0:
256,192,91699,1,8,0:0:0:0:
256,192,91803,1,8,0:0:0:0:
256,192,91908,1,0,0:0:0:0:
256,192,91986,1,0,0:0:0:0:
256,192,92064,1,8,0:0:0:0:
256,192,92142,1,0,0:0:0:0:
256,192,92220,1,8,0:0:0:0:
256,192,92298,1,8,0:0:0:0:
256,192,92376,1,0,0:0:0:0:
256,192,92533,1,8,0:0:0:0:
256,192,92611,1,8,0:0:0:0:
256,192,92689,1,0,0:0:0:0:
256,192,92767,1,8,0:0:0:0:
256,192,92845,1,0,0:0:0:0:
256,192,92923,1,0,0:0:0:0:
256,192,93001,1,8,0:0:0:0:
256,192,93079,1,0,0:0:0:0:
256,192,93158,1,8,0:0:0:0:
256,192,93210,1,8,0:0:0:0:
256,192,93262,1,8,0:0:0:0:
256,192,93314,1,0,0:0:0:0:
256,192,93366,1,0,0:0:0:0:
256,192,93418,1,0,0:0:0:0:
256,192,93470,1,8,0:0:0:0:
256,192,93574,1,8,0:0:0:0:
256,192,93678,1,8,0:0:0:0:
256,192,93783,1,0,0:0:0:0:
256,192,93939,1,0,0:0:0:0:
256,192,94095,1,8,0:0:0:0:
256,192,94408,1,4,0:0:0:0:
256,192,95658,1,0,0:0:0:0:
256,192,96283,1,0,0:0:0:0:
256,192,96908,1,8,0:0:0:0:
256,192,97845,1,0,0:0:0:0:
256,192,98158,1,8,0:0:0:0:
256,192,98783,1,8,0:0:0:0:
256,192,99408,1,0,0:0:0:0:
256,192,100658,1,0,0:0:0:0:
256,192,101283,1,0,0:0:0:0:
256,192,101908,1,8,0:0:0:0:
256,192,102533,1,8,0:0:0:0:
256,192,103158,1,0,0:0:0:0:
256,192,103470,1,8,0:0:0:0:
256,192,103626,1,8,0:0:0:0:
256,192,103783,1,0,0:0:0:0:
256,192,103939,1,8,0:0:0:0:
256,192,104017,1,8,0:0:0:0:
256,192,104095,1,8,0:0:0:0:
256,192,104173,1,8,0:0:0:0:
256,192,104251,1,8,0:0:0:0:
256,192,104329,1,8,0:0:0:0:
256,192,104408,1,0,0:0:0:0:
256,192,105033,1,0,0:0:0:0:
256,192,105658,1,8,0:0:0:0:
256,192,106283,1,0,0:0:0:0:
256,192,106908,1,8,0:0:0:0:
256,192,108158,1,0,0:0:0:0:
256,192,108783,1,0,0:0:0:0:
256,192,109408,1,8,0:0:0:0:
256,192,110658,1,8,0:0:0:0:
256,192,111283,1,8,0:0:0:0:
256,192,111517,1,0,0:0:0:0:
256,192,111751,1,8,0:0:0:0:
256,192,111908,1,8,0:0:0:0:
256,192,113158,1,8,0:0:0:0:
256,192,113236,1,8,0:0:0:0:
256,192,113314,1,8,0:0:0:0:
256,192,113392,1,8,0:0:0:0:
256,192,113470,1,0,0:0:0:0:
256,192,113548,1,0,0:0:0:0:
256,192,113626,1,8,0:0:0:0:
256,192,113704,1,0,0:0:0:0:
256,192,113783,1,8,0:0:0:0:
256,192,113861,1,8,0:0:0:0:
256,192,113939,1,8,0:0:0:0:
256,192,114017,1,8,0:0:0:0:
256,192,114095,1,8,0:0:0:0:
256,192,114408,1,4,0:0:0:0:
256,192,114564,1,0,0:0:0:0:
256,192,114642,1,0,0:0:0:0:
256,192,114720,1,8,0:0:0:0:
256,192,114798,1,0,0:0:0:0:
256,192,114876,1,8,0:0:0:0:
256,192,114954,1,8,0:0:0:0:
256,192,115033,1,0,0:0:0:0:
256,192,115111,1,8,0:0:0:0:
256,192,115189,1,0,0:0:0:0:
256,192,115267,1,8,0:0:0:0:
256,192,115345,1,8,0:0:0:0:
256,192,115423,1,0,0:0:0:0:
256,192,115501,1,8,0:0:0:0:
256,192,115579,1,8,0:0:0:0:
256,192,115658,1,0,0:0:0:0:
256,192,115736,1,8,0:0:0:0:
256,192,115814,1,0,0:0:0:0:
256,192,115892,1,0,0:0:0:0:
256,192,115970,1,8,0:0:0:0:
256,192,116048,1,0,0:0:0:0:
256,192,116126,1,8,0:0:0:0:
256,192,116204,1,8,0:0:0:0:
256,192,116283,1,0,0:0:0:0:
256,192,116361,1,8,0:0:0:0:
256,192,116439,1,0,0:0:0:0:
256,192,116517,1,0,0:0:0:0:
256,192,116595,1,8,0:0:0:0:
256,192,116673,1,8,0:0:0:0:
256,192,116751,1,0,0:0:0:0:
256,192,116908,1,4,0:0:0:0:
256,192,117064,1,0,0:0:0:0:
256,192,117142,1,0,0:0:0:0:
256,192,117220,1,8,0:0:0:0:
256,192,117298,1,0,0:0:0:0:
256,192,117376,1,8,0:0:0:0:
256,192,117454,1,0,0:0:0:0:
256,192,117533,1,8,0:0:0:0:
256,192,117611,1,8,0:0:0:0:
256,192,117689,1,0,0:0:0:0:
256,192,117767,1,0,0:0:0:0:
256,192,117845,1,8,0:0:0:0:
256,192,117923,1,0,0:0:0:0:
256,192,118001,1,8,0:0:0:0:
256,192,118079,1,8,0:0:0:0:
256,192,118158,1,0,0:0:0:0:
256,192,118236,1,8,0:0:0:0:
256,192,118314,1,0,0:0:0:0:
256,192,118392,1,0,0:0:0:0:
256,192,118470,1,8,0:0:0:0:
256,192,118548,1,0,0:0:0:0:
256,192,118626,1,8,0:0:0:0:
256,192,118704,1,0,0:0:0:0:
256,192,118783,1,8,0:0:0:0:
256,192,118861,1,8,0:0:0:0:
256,192,118939,1,0,0:0:0:0:
256,192,119017,1,8,0:0:0:0:
256,192,119095,1,0,0:0:0:0:
256,192,119173,1,0,0:0:0:0:
256,192,119251,1,8,0:0:0:0:
256,192,119408,1,4,0:0:0:0:
256,192,119564,1,0,0:0:0:0:
256,192,119642,1,0,0:0:0:0:
256,192,119720,1,8,0:0:0:0:
256,192,119798,1,0,0:0:0:0:
256,192,119876,1,8,0:0:0:0:
256,192,119954,1,8,0:0:0:0:
256,192,120033,1,0,0:0:0:0:
256,192,120111,1,8,0:0:0:0:
256,192,120189,1,0,0:0:0:0:
256,192,120267,1,0,0:0:0:0:
256,192,120345,1,8,0:0:0:0:
256,192,120423,1,8,0:0:0:0:
256,192,120501,1,0,0:0:0:0:
256,192,120658,1,4,0:0:0:0:
256,192,120814,1,0,0:0:0:0:
256,192,120892,1,0,0:0:0:0:
256,192,120970,1,8,0:0:0:0:
256,192,121048,1,0,0:0:0:0:
256,192,121126,1,8,0:0:0:0:
256,192,121204,1,0,0:0:0:0:
256,192,121283,1,8,0:0:0:0:
256,192,121361,1,8,0:0:0:0:
256,192,121439,1,0,0:0:0:0:
256,192,121517,1,0,0:0:0:0:
256,192,121595,1,8,0:0:0:0:
256,192,121673,1,8,0:0:0:0:
256,192,121751,1,0,0:0:0:0:
256,192,121908,1,4,0:0:0:0:
256,192,122064,1,0,0:0:0:0:
256,192,122142,1,0,0:0:0:0:
256,192,122220,1,8,0:0:0:0:
256,192,122298,1,8,0:0:0:0:
256,192,122376,1,8,0:0:0:0:
256,192,122533,1,4,0:0:0:0:
256,192,122689,1,0,0:0:0:0:
256,192,122767,1,0,0:0:0:0:
256,192,122845,1,8,0:0:0:0:
256,192,122923,1,8,0:0:0:0:
256,192,123001,1,8,0:0:0:0:
256,192,123158,1,4,0:0:0:0:
256,192,123470,1,4,0:0:0:0:
256,192,123783,1,8,0:0:0:0:
256,192,123939,1,8,0:0:0:0:
256,192,124095,1,0,0:0:0:0:
256,192,124173,1,0,0:0:0:0:
256,192,124251,1,0,0:0:0:0:
256,192,124408,1,12,0:0:0:0:
256,192,124486,12,0,131908,0:0:0:0:
256,192,132220,5,4,0:0:0:0:
256,192,132845,1,8,0:0:0:0:
256,192,132923,1,8,0:0:0:0:
256,192,133001,1,0,0:0:0:0:
256,192,133158,1,8,0:0:0:0:
256,192,133314,1,0,0:0:0:0:
256,192,133392,1,0,0:0:0:0:
256,192,133470,1,8,0:0:0:0:
256,192,133626,1,0,0:0:0:0:
256,192,133783,1,8,0:0:0:0:
256,192,133861,1,8,0:0:0:0:
256,192,133939,1,0,0:0:0:0:
256,192,134017,1,8,0:0:0:0:
256,192,134095,1,0,0:0:0:0:
256,192,134173,1,0,0:0:0:0:
256,192,134251,1,8,0:0:0:0:
256,192,134329,1,8,0:0:0:0:
256,192,134408,1,0,0:0:0:0:
256,192,134564,1,0,0:0:0:0:
256,192,134642,1,0,0:0:0:0:
256,192,134720,1,8,0:0:0:0:
256,192,134876,1,8,0:0:0:0:
256,192,134954,1,8,0:0:0:0:
256,192,135033,1,0,0:0:0:0:
256,192,135189,1,8,0:0:0:0:
256,192,135345,1,8,0:0:0:0:
256,192,135423,1,0,0:0:0:0:
256,192,135501,1,8,0:0:0:0:
256,192,135579,1,8,0:0:0:0:
256,192,135658,1,0,0:0:0:0:
256,192,135736,1,0,0:0:0:0:
256,192,135814,1,8,0:0:0:0:
256,192,135970,1,8,0:0:0:0:
256,192,136048,1,8,0:0:0:0:
256,192,136126,1,0,0:0:0:0:
256,192,136283,1,0,0:0:0:0:
256,192,136361,1,0,0:0:0:0:
256,192,136439,1,8,0:0:0:0:
256,192,136517,1,0,0:0:0:0:
256,192,136595,1,8,0:0:0:0:
256,192,136673,1,8,0:0:0:0:
256,192,136751,1,0,0:0:0:0:
256,192,136908,1,0,0:0:0:0:
256,192,137064,1,0,0:0:0:0:
256,192,137142,1,0,0:0:0:0:
256,192,137220,1,8,0:0:0:0:
256,192,137376,1,8,0:0:0:0:
256,192,137533,1,8,0:0:0:0:
256,192,137611,1,8,0:0:0:0:
256,192,137689,1,0,0:0:0:0:
256,192,137767,1,0,0:0:0:0:
256,192,137845,1,8,0:0:0:0:
256,192,138001,1,0,0:0:0:0:
256,192,138158,1,8,0:0:0:0:
256,192,138236,1,0,0:0:0:0:
256,192,138314,1,0,0:0:0:0:
256,192,138470,1,0,0:0:0:0:
256,192,138548,1,8,0:0:0:0:
256,192,138626,1,0,0:0:0:0:
256,192,138783,1,8,0:0:0:0:
256,192,138861,1,0,0:0:0:0:
256,192,138939,1,0,0:0:0:0:
256,192,139017,1,0,0:0:0:0:
256,192,139095,1,8,0:0:0:0:
256,192,139173,1,8,0:0:0:0:
256,192,139251,1,0,0:0:0:0:
256,192,139329,1,8,0:0:0:0:
256,192,139408,1,0,0:0:0:0:
256,192,139564,1,0,0:0:0:0:
256,192,139642,1,0,0:0:0:0:
256,192,139720,1,8,0:0:0:0:
256,192,139876,1,8,0:0:0:0:
256,192,139954,1,8,0:0:0:0:
256,192,140033,1,0,0:0:0:0:
256,192,140189,1,8,0:0:0:0:
256,192,140345,1,8,0:0:0:0:
256,192,140423,1,0,0:0:0:0:
256,192,140501,1,8,0:0:0:0:
256,192,140579,1,8,0:0:0:0:
256,192,140658,1,0,0:0:0:0:
256,192,140736,1,0,0:0:0:0:
256,192,140814,1,8,0:0:0:0:
256,192,140970,1,8,0:0:0:0:
256,192,141048,1,8,0:0:0:0:
256,192,141126,1,0,0:0:0:0:
256,192,141283,1,0,0:0:0:0:
256,192,141361,1,0,0:0:0:0:
256,192,141439,1,8,0:0:0:0:
256,192,141491,1,8,0:0:0:0:
256,192,141543,1,8,0:0:0:0:
256,192,141595,1,0,0:0:0:0:
256,192,141673,1,0,0:0:0:0:
256,192,141751,1,8,0:0:0:0:
256,192,141829,1,8,0:0:0:0:
256,192,141908,1,0,0:0:0:0:
256,192,142064,1,8,0:0:0:0:
256,192,142142,1,8,0:0:0:0:
256,192,142220,1,0,0:0:0:0:
256,192,142298,1,0,0:0:0:0:
256,192,142376,1,8,0:0:0:0:
256,192,142533,1,4,0:0:0:0:
256,192,142767,1,4,0:0:0:0:
256,192,143001,1,12,0:0:0:0:
256,192,143236,1,4,0:0:0:0:
256,192,143470,1,12,0:0:0:0:
256,192,143704,1,4,0:0:0:0:
256,192,143939,1,4,0:0:0:0:
256,192,144095,1,8,0:0:0:0:
256,192,144173,1,8,0:0:0:0:
256,192,144251,1,8,0:0:0:0:
256,192,144408,1,0,0:0:0:0:
256,192,144720,1,12,0:0:0:0:
256,192,144876,1,8,0:0:0:0:
256,192,144954,1,8,0:0:0:0:
256,192,145033,1,0,0:0:0:0:
256,192,145189,1,8,0:0:0:0:
256,192,145345,1,8,0:0:0:0:
256,192,145423,1,0,0:0:0:0:
256,192,145501,1,8,0:0:0:0:
256,192,145579,1,8,0:0:0:0:
256,192,145658,1,0,0:0:0:0:
256,192,145736,1,0,0:0:0:0:
256,192,145814,1,8,0:0:0:0:
256,192,145970,1,8,0:0:0:0:
256,192,146048,1,8,0:0:0:0:
256,192,146126,1,0,0:0:0:0:
256,192,146283,1,0,0:0:0:0:
256,192,146361,1,0,0:0:0:0:
256,192,146439,1,8,0:0:0:0:
256,192,146517,1,0,0:0:0:0:
256,192,146595,1,8,0:0:0:0:
256,192,146673,1,8,0:0:0:0:
256,192,146751,1,0,0:0:0:0:
256,192,146908,1,0,0:0:0:0:
256,192,147064,1,8,0:0:0:0:
256,192,147142,1,8,0:0:0:0:
256,192,147220,1,0,0:0:0:0:
256,192,147376,1,0,0:0:0:0:
256,192,147533,1,8,0:0:0:0:
256,192,147585,1,8,0:0:0:0:
256,192,147637,1,8,0:0:0:0:
256,192,147689,1,0,0:0:0:0:
256,192,147845,1,0,0:0:0:0:
256,192,147923,1,0,0:0:0:0:
256,192,148001,1,8,0:0:0:0:
256,192,148158,1,4,0:0:0:0:
256,192,148366,1,4,0:0:0:0:
256,192,148574,1,12,0:0:0:0:
256,192,148783,1,4,0:0:0:0:
256,192,148991,1,4,0:0:0:0:
256,192,149199,1,12,0:0:0:0:
256,192,149408,1,4,0:0:0:0:
256,192,149564,1,0,0:0:0:0:
256,192,149642,1,0,0:0:0:0:
256,192,149720,1,8,0:0:0:0:
256,192,149876,1,8,0:0:0:0:
256,192,149954,1,8,0:0:0:0:
256,192,150033,1,0,0:0:0:0:
256,192,150189,1,0,0:0:0:0:
256,192,150267,1,0,0:0:0:0:
256,192,150345,1,8,0:0:0:0:
256,192,150423,1,8,0:0:0:0:
256,192,150501,1,0,0:0:0:0:
256,192,150658,1,8,0:0:0:0:
256,192,150814,1,0,0:0:0:0:
256,192,150892,1,0,0:0:0:0:
256,192,150970,1,8,0:0:0:0:
256,192,151126,1,8,0:0:0:0:
256,192,151204,1,0,0:0:0:0:
256,192,151283,1,8,0:0:0:0:
256,192,151439,1,0,0:0:0:0:
256,192,151517,1,0,0:0:0:0:
256,192,151595,1,8,0:0:0:0:
256,192,151673,1,0,0:0:0:0:
256,192,151751,1,8,0:0:0:0:
256,192,151829,1,8,0:0:0:0:
256,192,151908,1,0,0:0:0:0:
256,192,151986,1,8,0:0:0:0:
256,192,152064,1,0,0:0:0:0:
256,192,152142,1,0,0:0:0:0:
256,192,152220,1,8,0:0:0:0:
256,192,152376,1,0,0:0:0:0:
256,192,152533,1,8,0:0:0:0:
256,192,152611,1,8,0:0:0:0:
256,192,152689,1,8,0:0:0:0:
256,192,152767,1,8,0:0:0:0:
256,192,152845,1,8,0:0:0:0:
256,192,153001,1,0,0:0:0:0:
256,192,153158,1,8,0:0:0:0:
256,192,153236,1,0,0:0:0:0:
256,192,153314,1,8,0:0:0:0:
256,192,153392,1,8,0:0:0:0:
256,192,153470,1,0,0:0:0:0:
256,192,153626,1,8,0:0:0:0:
256,192,153704,1,0,0:0:0:0:
256,192,153783,1,8,0:0:0:0:
256,192,153861,1,0,0:0:0:0:
256,192,153939,1,8,0:0:0:0:
256,192,154017,1,8,0:0:0:0:
256,192,154095,1,0,0:0:0:0:
256,192,154408,1,4,0:0:0:0:
256,192,154564,1,8,0:0:0:0:
256,192,154642,1,8,0:0:0:0:
256,192,154720,1,0,0:0:0:0:
256,192,154876,1,8,0:0:0:0:
256,192,155033,1,0,0:0:0:0:
256,192,155111,1,0,0:0:0:0:
256,192,155189,1,8,0:0:0:0:
256,192,155267,1,8,0:0:0:0:
256,192,155345,1,0,0:0:0:0:
256,192,155501,1,8,0:0:0:0:
256,192,155658,1,0,0:0:0:0:
256,192,155814,1,8,0:0:0:0:
256,192,155892,1,8,0:0:0:0:
256,192,155970,1,0,0:0:0:0:
256,192,156126,1,8,0:0:0:0:
256,192,156204,1,0,0:0:0:0:
256,192,156283,1,0,0:0:0:0:
256,192,156439,1,8,0:0:0:0:
256,192,156517,1,8,0:0:0:0:
256,192,156595,1,0,0:0:0:0:
256,192,156673,1,0,0:0:0:0:
256,192,156751,1,8,0:0:0:0:
256,192,156908,1,0,0:0:0:0:
256,192,157064,1,8,0:0:0:0:
256,192,157142,1,8,0:0:0:0:
256,192,157220,1,0,0:0:0:0:
256,192,157376,1,8,0:0:0:0:
256,192,157533,1,0,0:0:0:0:
256,192,157611,1,0,0:0:0:0:
256,192,157689,1,8,0:0:0:0:
256,192,157767,1,8,0:0:0:0:
256,192,157845,1,0,0:0:0:0:
256,192,158001,1,8,0:0:0:0:
256,192,158158,1,0,0:0:0:0:
256,192,158314,1,8,0:0:0:0:
256,192,158392,1,8,0:0:0:0:
256,192,158470,1,0,0:0:0:0:
256,192,158626,1,8,0:0:0:0:
256,192,158704,1,0,0:0:0:0:
256,192,158783,1,0,0:0:0:0:
256,192,158939,1,8,0:0:0:0:
256,192,159017,1,8,0:0:0:0:
256,192,159095,1,0,0:0:0:0:
256,192,159173,1,0,0:0:0:0:
256,192,159251,1,8,0:0:0:0:
256,192,159408,1,0,0:0:0:0:
256,192,159564,1,8,0:0:0:0:
256,192,159642,1,8,0:0:0:0:
256,192,159720,1,0,0:0:0:0:
256,192,159876,1,8,0:0:0:0:
256,192,160033,1,0,0:0:0:0:
256,192,160111,1,0,0:0:0:0:
256,192,160189,1,8,0:0:0:0:
256,192,160267,1,0,0:0:0:0:
256,192,160345,1,8,0:0:0:0:
256,192,160423,1,8,0:0:0:0:
256,192,160501,1,0,0:0:0:0:
256,192,160658,1,0,0:0:0:0:
256,192,160814,1,8,0:0:0:0:
256,192,160892,1,0,0:0:0:0:
256,192,160970,1,0,0:0:0:0:
256,192,161048,1,8,0:0:0:0:
256,192,161126,1,8,0:0:0:0:
256,192,161204,1,0,0:0:0:0:
256,192,161283,1,8,0:0:0:0:
256,192,161361,1,8,0:0:0:0:
256,192,161439,1,0,0:0:0:0:
256,192,161517,1,0,0:0:0:0:
256,192,161595,1,8,0:0:0:0:
256,192,161751,1,8,0:0:0:0:
256,192,161829,1,8,0:0:0:0:
256,192,161908,1,0,0:0:0:0:
256,192,162064,1,0,0:0:0:0:
256,192,162142,1,0,0:0:0:0:
256,192,162220,1,8,0:0:0:0:
256,192,162376,1,8,0:0:0:0:
256,192,162454,1,8,0:0:0:0:
256,192,162533,1,0,0:0:0:0:
256,192,162611,1,8,0:0:0:0:
256,192,162689,1,0,0:0:0:0:
256,192,162767,1,0,0:0:0:0:
256,192,162845,1,8,0:0:0:0:
256,192,162923,1,8,0:0:0:0:
256,192,163001,1,0,0:0:0:0:
256,192,163158,1,8,0:0:0:0:
256,192,163236,1,0,0:0:0:0:
256,192,163314,1,0,0:0:0:0:
256,192,163470,1,8,0:0:0:0:
256,192,163548,1,8,0:0:0:0:
256,192,163626,1,0,0:0:0:0:
256,192,163678,1,0,0:0:0:0:
256,192,163730,1,0,0:0:0:0:
256,192,163783,1,8,0:0:0:0:
256,192,163861,1,0,0:0:0:0:
256,192,163939,1,8,0:0:0:0:
256,192,164095,1,0,0:0:0:0:
256,192,164173,1,8,0:0:0:0:
256,192,164251,1,0,0:0:0:0:
256,192,164329,1,0,0:0:0:0:
256,192,164408,1,8,0:0:0:0:
256,192,164564,1,0,0:0:0:0:
256,192,164642,1,0,0:0:0:0:
256,192,164720,1,8,0:0:0:0:
256,192,164876,1,8,0:0:0:0:
256,192,164954,1,8,0:0:0:0:
256,192,165033,1,0,0:0:0:0:
256,192,165189,1,8,0:0:0:0:
256,192,165345,1,8,0:0:0:0:
256,192,165423,1,0,0:0:0:0:
256,192,165501,1,8,0:0:0:0:
256,192,165579,1,8,0:0:0:0:
256,192,165658,1,0,0:0:0:0:
256,192,165736,1,0,0:0:0:0:
256,192,165814,1,8,0:0:0:0:
256,192,165970,1,8,0:0:0:0:
256,192,166048,1,8,0:0:0:0:
256,192,166126,1,0,0:0:0:0:
256,192,166283,1,0,0:0:0:0:
256,192,166361,1,0,0:0:0:0:
256,192,166439,1,8,0:0:0:0:
256,192,166517,1,0,0:0:0:0:
256,192,166595,1,8,0:0:0:0:
256,192,166673,1,8,0:0:0:0:
256,192,166751,1,0,0:0:0:0:
256,192,166908,1,0,0:0:0:0:
256,192,167064,1,8,0:0:0:0:
256,192,167142,1,8,0:0:0:0:
256,192,167220,1,0,0:0:0:0:
256,192,167298,1,0,0:0:0:0:
256,192,167376,1,8,0:0:0:0:
256,192,167454,1,0,0:0:0:0:
256,192,167533,1,0,0:0:0:0:
256,192,167585,1,0,0:0:0:0:
256,192,167637,1,0,0:0:0:0:
256,192,167689,1,8,0:0:0:0:
256,192,167845,1,0,0:0:0:0:
256,192,167923,1,0,0:0:0:0:
256,192,168001,1,8,0:0:0:0:
256,192,168158,1,4,0:0:0:0:
256,192,168366,1,4,0:0:0:0:
256,192,168574,1,12,0:0:0:0:
256,192,168783,1,4,0:0:0:0:
256,192,168991,1,4,0:0:0:0:
256,192,169199,1,12,0:0:0:0:
256,192,169408,1,4,0:0:0:0:
256,192,169564,1,0,0:0:0:0:
256,192,169642,1,0,0:0:0:0:
256,192,169720,1,8,0:0:0:0:
256,192,169876,1,8,0:0:0:0:
256,192,169954,1,8,0:0:0:0:
256,192,170033,1,0,0:0:0:0:
256,192,170189,1,0,0:0:0:0:
256,192,170267,1,0,0:0:0:0:
256,192,170345,1,8,0:0:0:0:
256,192,170423,1,8,0:0:0:0:
256,192,170501,1,0,0:0:0:0:
256,192,170658,1,8,0:0:0:0:
256,192,170736,1,0,0:0:0:0:
256,192,170814,1,0,0:0:0:0:
256,192,170892,1,0,0:0:0:0:
256,192,170970,1,8,0:0:0:0:
256,192,171126,1,8,0:0:0:0:
256,192,171204,1,0,0:0:0:0:
256,192,171283,1,8,0:0:0:0:
256,192,171361,1,8,0:0:0:0:
256,192,171439,1,0,0:0:0:0:
256,192,171517,1,0,0:0:0:0:
256,192,171595,1,8,0:0:0:0:
256,192,171673,1,0,0:0:0:0:
256,192,171751,1,8,0:0:0:0:
256,192,171829,1,8,0:0:0:0:
256,192,171908,1,0,0:0:0:0:
256,192,171986,1,8,0:0:0:0:
256,192,172064,1,0,0:0:0:0:
256,192,172142,1,0,0:0:0:0:
256,192,172220,1,8,0:0:0:0:
256,192,172376,1,0,0:0:0:0:
256,192,172533,1,8,0:0:0:0:
256,192,172611,1,0,0:0:0:0:
256,192,172689,1,8,0:0:0:0:
256,192,172767,1,8,0:0:0:0:
256,192,172845,1,8,0:0:0:0:
256,192,172923,1,8,0:0:0:0:
256,192,173001,1,0,0:0:0:0:
256,192,173158,1,8,0:0:0:0:
256,192,173236,1,0,0:0:0:0:
256,192,173314,1,8,0:0:0:0:
256,192,173392,1,8,0:0:0:0:
256,192,173470,1,0,0:0:0:0:
256,192,173548,1,8,0:0:0:0:
256,192,173626,1,8,0:0:0:0:
256,192,173704,1,0,0:0:0:0:
256,192,173783,1,8,0:0:0:0:
256,192,173835,1,0,0:0:0:0:
256,192,173887,1,0,0:0:0:0:
256,192,173939,1,8,0:0:0:0:
256,192,174017,1,8,0:0:0:0:
256,192,174095,1,0,0:0:0:0:
256,192,174408,1,8,0:0:0:0:
256,192,174486,1,8,0:0:0:0:
256,192,174564,1,8,0:0:0:0:
256,192,174720,1,4,0:0:0:0:
256,192,174798,12,0,178158,0:0:0:0:
256,192,178314,5,0,0:0:0:0:
256,192,178470,1,8,0:0:0:0:
256,192,178626,1,0,0:0:0:0:
256,192,178783,1,8,0:0:0:0:
256,192,178861,1,0,0:0:0:0:
256,192,178939,1,8,0:0:0:0:
256,192,179017,1,0,0:0:0:0:
256,192,179095,1,8,0:0:0:0:
256,192,179173,1,8,0:0:0:0:
256,192,179251,1,0,0:0:0:0:
256,192,179329,1,0,0:0:0:0:
256,192,179408,1,8,0:0:0:0:
256,192,179564,1,8,0:0:0:0:
256,192,179642,1,0,0:0:0:0:
256,192,179720,1,0,0:0:0:0:
256,192,179876,1,8,0:0:0:0:
256,192,179954,1,8,0:0:0:0:
256,192,180033,1,0,0:0:0:0:
256,192,180111,1,0,0:0:0:0:
256,192,180189,1,8,0:0:0:0:
256,192,180345,1,0,0:0:0:0:
256,192,180501,1,8,0:0:0:0:
256,192,180579,1,8,0:0:0:0:
256,192,180658,1,0,0:0:0:0:
256,192,180814,1,8,0:0:0:0:
256,192,180892,1,8,0:0:0:0:
256,192,180970,1,0,0:0:0:0:
256,192,181048,1,0,0:0:0:0:
256,192,181126,1,8,0:0:0:0:
256,192,181204,1,0,0:0:0:0:
256,192,181283,1,8,0:0:0:0:
256,192,181361,1,8,0:0:0:0:
256,192,181439,1,0,0:0:0:0:
256,192,181517,1,0,0:0:0:0:
256,192,181595,1,8,0:0:0:0:
256,192,181751,1,8,0:0:0:0:
256,192,181908,1,0,0:0:0:0:
256,192,182064,1,8,0:0:0:0:
256,192,182220,1,0,0:0:0:0:
256,192,182298,1,0,0:0:0:0:
256,192,182376,1,8,0:0:0:0:
256,192,182454,1,8,0:0:0:0:
256,192,182533,1,0,0:0:0:0:
256,192,182689,1,0,0:0:0:0:
256,192,182845,1,8,0:0:0:0:
256,192,182923,1,8,0:0:0:0:
256,192,183001,1,0,0:0:0:0:
256,192,183079,1,8,0:0:0:0:
256,192,183158,1,0,0:0:0:0:
256,192,183236,1,0,0:0:0:0:
256,192,183314,1,8,0:0:0:0:
256,192,183392,1,8,0:0:0:0:
256,192,183470,1,0,0:0:0:0:
256,192,183626,1,0,0:0:0:0:
256,192,183704,1,0,0:0:0:0:
256,192,183783,1,8,0:0:0:0:
256,192,183861,1,0,0:0:0:0:
256,192,183939,1,8,0:0:0:0:
256,192,184017,1,8,0:0:0:0:
256,192,184095,1,0,0:0:0:0:
256,192,184173,1,0,0:0:0:0:
256,192,184251,1,8,0:0:0:0:
256,192,184408,1,0,0:0:0:0:
256,192,184564,1,8,0:0:0:0:
256,192,184642,1,0,0:0:0:0:
256,192,184720,1,0,0:0:0:0:
256,192,184876,1,8,0:0:0:0:
256,192,185033,1,0,0:0:0:0:
256,192,185189,1,8,0:0:0:0:
256,192,185267,1,0,0:0:0:0:
256,192,185345,1,0,0:0:0:0:
256,192,185423,1,8,0:0:0:0:
256,192,185501,1,8,0:0:0:0:
256,192,185658,1,0,0:0:0:0:
256,192,185736,1,0,0:0:0:0:
256,192,185814,1,8,0:0:0:0:
256,192,185970,1,8,0:0:0:0:
256,192,186048,1,0,0:0:0:0:
256,192,186126,1,0,0:0:0:0:
256,192,186283,1,8,0:0:0:0:
256,192,186361,1,8,0:0:0:0:
256,192,186439,1,0,0:0:0:0:
256,192,186517,1,0,0:0:0:0:
256,192,186595,1,8,0:0:0:0:
256,192,186673,1,0,0:0:0:0:
256,192,186751,1,8,0:0:0:0:
256,192,186908,1,0,0:0:0:0:
256,192,187064,1,8,0:0:0:0:
256,192,187220,1,0,0:0:0:0:
256,192,187298,1,8,0:0:0:0:
256,192,187376,1,0,0:0:0:0:
256,192,187454,1,8,0:0:0:0:
256,192,187533,1,0,0:0:0:0:
256,192,187689,1,8,0:0:0:0:
256,192,187845,1,8,0:0:0:0:
256,192,187923,1,8,0:0:0:0:
256,192,188001,1,0,0:0:0:0:
256,192,188158,1,0,0:0:0:0:
256,192,188236,1,8,0:0:0:0:
256,192,188314,1,8,0:0:0:0:
256,192,188392,1,0,0:0:0:0:
256,192,188470,1,8,0:0:0:0:
256,192,188548,1,8,0:0:0:0:
256,192,188626,1,0,0:0:0:0:
256,192,188704,1,8,0:0:0:0:
256,192,188783,1,0,0:0:0:0:
256,192,188861,1,0,0:0:0:0:
256,192,188939,1,8,0:0:0:0:
256,192,189017,1,0,0:0:0:0:
256,192,189095,1,8,0:0:0:0:
256,192,189173,1,8,0:0:0:0:
256,192,189251,1,0,0:0:0:0:
256,192,189329,1,0,0:0:0:0:
256,192,189408,1,8,0:0:0:0:
256,192,189564,1,8,0:0:0:0:
256,192,189642,1,0,0:0:0:0:
256,192,189720,1,0,0:0:0:0:
256,192,189876,1,8,0:0:0:0:
256,192,189954,1,8,0:0:0:0:
256,192,190033,1,0,0:0:0:0:
256,192,190111,1,0,0:0:0:0:
256,192,190189,1,8,0:0:0:0:
256,192,190345,1,0,0:0:0:0:
256,192,190501,1,8,0:0:0:0:
256,192,190579,1,8,0:0:0:0:
256,192,190658,1,0,0:0:0:0:
256,192,190814,1,8,0:0:0:0:
256,192,190892,1,8,0:0:0:0:
256,192,190970,1,0,0:0:0:0:
256,192,191048,1,8,0:0:0:0:
256,192,191126,1,0,0:0:0:0:
256,192,191204,1,8,0:0:0:0:
256,192,191283,1,8,0:0:0:0:
256,192,191361,1,0,0:0:0:0:
256,192,191439,1,8,0:0:0:0:
256,192,191517,1,8,0:0:0:0:
256,192,191595,1,0,0:0:0:0:
256,192,191673,1,0,0:0:0:0:
256,192,191751,1,8,0:0:0:0:
256,192,191908,1,0,0:0:0:0:
256,192,192064,1,8,0:0:0:0:
256,192,192220,1,0,0:0:0:0:
256,192,192298,1,0,0:0:0:0:
256,192,192376,1,8,0:0:0:0:
256,192,192454,1,8,0:0:0:0:
256,192,192533,1,0,0:0:0:0:
256,192,192689,1,8,0:0:0:0:
256,192,192845,1,8,0:0:0:0:
256,192,192923,1,8,0:0:0:0:
256,192,193001,1,0,0:0:0:0:
256,192,193079,1,0,0:0:0:0:
256,192,193158,1,8,0:0:0:0:
256,192,193236,1,0,0:0:0:0:
256,192,193314,1,0,0:0:0:0:
256,192,193392,1,8,0:0:0:0:
256,192,193470,1,0,0:0:0:0:
256,192,193548,1,8,0:0:0:0:
256,192,193626,1,8,0:0:0:0:
256,192,193704,1,0,0:0:0:0:
256,192,193783,1,8,0:0:0:0:
256,192,193861,1,0,0:0:0:0:
256,192,193939,1,8,0:0:0:0:
256,192,194017,1,8,0:0:0:0:
256,192,194095,1,0,0:0:0:0:
256,192,194173,1,0,0:0:0:0:
256,192,194251,1,8,0:0:0:0:
256,192,194408,1,0,0:0:0:0:
256,192,194564,1,8,0:0:0:0:
256,192,194642,1,0,0:0:0:0:
256,192,194720,1,0,0:0:0:0:
256,192,194876,1,8,0:0:0:0:
256,192,195033,1,0,0:0:0:0:
256,192,195189,1,8,0:0:0:0:
256,192,195267,1,0,0:0:0:0:
256,192,195345,1,0,0:0:0:0:
256,192,195423,1,8,0:0:0:0:
256,192,195501,1,8,0:0:0:0:
256,192,195658,1,0,0:0:0:0:
256,192,195736,1,0,0:0:0:0:
256,192,195814,1,8,0:0:0:0:
256,192,195892,1,0,0:0:0:0:
256,192,195970,1,8,0:0:0:0:
256,192,196048,1,8,0:0:0:0:
256,192,196126,1,0,0:0:0:0:
256,192,196204,1,0,0:0:0:0:
256,192,196283,1,8,0:0:0:0:
256,192,196361,1,0,0:0:0:0:
256,192,196439,1,8,0:0:0:0:
256,192,196517,1,8,0:0:0:0:
256,192,196595,1,0,0:0:0:0:
256,192,196647,1,0,0:0:0:0:
256,192,196699,1,0,0:0:0:0:
256,192,196751,1,0,0:0:0:0:
256,192,196829,1,0,0:0:0:0:
256,192,196908,1,8,0:0:0:0:
256,192,197064,1,0,0:0:0:0:
256,192,197220,1,8,0:0:0:0:
256,192,197298,1,8,0:0:0:0:
256,192,197376,1,0,0:0:0:0:
256,192,197454,1,0,0:0:0:0:
256,192,197533,1,8,0:0:0:0:
256,192,197689,1,0,0:0:0:0:
256,192,197845,1,8,0:0:0:0:
256,192,197923,1,0,0:0:0:0:
256,192,198001,1,8,0:0:0:0:
256,192,198079,1,0,0:0:0:0:
256,192,198158,1,8,0:0:0:0:
256,192,198314,1,0,0:0:0:0:
256,192,198470,1,8,0:0:0:0:
256,192,198548,1,8,0:0:0:0:
256,192,198626,1,0,0:0:0:0:
256,192,198704,1,0,0:0:0:0:
256,192,198783,1,8,0:0:0:0:
256,192,198939,1,0,0:0:0:0:
256,192,199095,1,8,0:0:0:0:
256,192,199173,1,0,0:0:0:0:
256,192,199251,1,8,0:0:0:0:
256,192,199329,1,0,0:0:0:0:
256,192,199408,1,8,0:0:0:0:
256,192,199486,1,8,0:0:0:0:
256,192,199564,1,0,0:0:0:0:
256,192,199642,1,0,0:0:0:0:
256,192,199720,1,8,0:0:0:0:
256,192,199798,1,8,0:0:0:0:
256,192,199876,1,0,0:0:0:0:
256,192,199954,1,0,0:0:0:0:
256,192,200033,1,8,0:0:0:0:
256,192,200111,1,0,0:0:0:0:
256,192,200189,1,0,0:0:0:0:
256,192,200267,1,0,0:0:0:0:
256,192,200345,1,8,0:0:0:0:
256,192,200423,1,0,0:0:0:0:
256,192,200501,1,0,0:0:0:0:
256,192,200579,1,0,0:0:0:0:
256,192,200658,1,8,0:0:0:0:
256,192,200736,1,0,0:0:0:0:
256,192,200814,1,8,0:0:0:0:
256,192,200892,1,0,0:0:0:0:
256,192,200970,1,8,0:0:0:0:
256,192,201048,1,8,0:0:0:0:
256,192,201126,1,0,0:0:0:0:
256,192,201204,1,8,0:0:0:0:
256,192,201283,1,0,0:0:0:0:
256,192,201361,1,0,0:0:0:0:
256,192,201439,1,8,0:0:0:0:
256,192,201517,1,0,0:0:0:0:
256,192,201595,1,8,0:0:0:0:
256,192,201673,1,0,0:0:0:0:
256,192,201751,1,8,0:0:0:0:
256,192,201829,1,8,0:0:0:0:
256,192,201908,1,0,0:0:0:0:
256,192,202220,1,8,0:0:0:0:
256,192,202376,1,8,0:0:0:0:
256,192,202689,1,8,0:0:0:0:
256,192,202845,1,8,0:0:0:0:
256,192,203001,1,0,0:0:0:0:
256,192,203158,1,8,0:0:0:0:
256,192,203470,1,0,0:0:0:0:
256,192,203783,1,8,0:0:0:0:
256,192,204095,1,8,0:0:0:0:
256,192,204408,1,0,0:0:0:0:
256,192,204720,1,8,0:0:0:0:
256,192,204876,1,8,0:0:0:0:
256,192,205189,1,8,0:0:0:0:
256,192,205345,1,0,0:0:0:0:
256,192,205501,1,0,0:0:0:0:
256,192,205658,1,8,0:0:0:0:
256,192,205970,1,8,0:0:0:0:
256,192,206283,1,0,0:0:0:0:
256,192,206595,1,8,0:0:0:0:
256,192,206908,1,4,0:0:0:0:
256,192,207064,1,0,0:0:0:0:
256,192,207142,1,0,0:0:0:0:
256,192,207220,1,8,0:0:0:0:
256,192,207376,1,8,0:0:0:0:
256,192,207454,1,8,0:0:0:0:
256,192,207533,1,0,0:0:0:0:
256,192,207611,1,0,0:0:0:0:
256,192,207689,1,8,0:0:0:0:
256,192,207845,1,8,0:0:0:0:
256,192,207923,1,0,0:0:0:0:
256,192,208001,1,8,0:0:0:0:
256,192,208158,1,0,0:0:0:0:
256,192,208236,1,0,0:0:0:0:
256,192,208314,1,8,0:0:0:0:
256,192,208392,1,0,0:0:0:0:
256,192,208470,1,8,0:0:0:0:
256,192,208548,1,8,0:0:0:0:
256,192,208626,1,0,0:0:0:0:
256,192,208783,1,0,0:0:0:0:
256,192,208861,1,0,0:0:0:0:
256,192,208939,1,8,0:0:0:0:
256,192,208991,1,8,0:0:0:0:
256,192,209043,1,8,0:0:0:0:
256,192,209095,1,0,0:0:0:0:
256,192,209173,1,0,0:0:0:0:
256,192,209251,1,8,0:0:0:0:
256,192,209329,1,8,0:0:0:0:
256,192,209408,1,0,0:0:0:0:
256,192,209564,1,8,0:0:0:0:
256,192,209642,1,8,0:0:0:0:
256,192,209720,1,0,0:0:0:0:
256,192,209798,1,0,0:0:0:0:
256,192,209876,1,8,0:0:0:0:
256,192,210033,1,4,0:0:0:0:
256,192,210267,1,4,0:0:0:0:
256,192,210501,1,12,0:0:0:0:
256,192,210736,1,4,0:0:0:0:
256,192,210970,1,12,0:0:0:0:
256,192,211204,1,4,0:0:0:0:
256,192,211439,1,4,0:0:0:0:
256,192,211595,1,8,0:0:0:0:
256,192,211673,1,8,0:0:0:0:
256,192,211751,1,8,0:0:0:0:
256,192,211908,1,0,0:0:0:0:
256,192,212220,1,12,0:0:0:0:
256,192,212376,1,8,0:0:0:0:
256,192,212454,1,8,0:0:0:0:
256,192,212533,1,0,0:0:0:0:
256,192,212611,1,0,0:0:0:0:
256,192,212689,1,8,0:0:0:0:
256,192,212845,1,8,0:0:0:0:
256,192,212923,1,0,0:0:0:0:
256,192,213001,1,8,0:0:0:0:
256,192,213158,1,0,0:0:0:0:
256,192,213236,1,0,0:0:0:0:
256,192,213314,1,8,0:0:0:0:
256,192,213392,1,0,0:0:0:0:
256,192,213470,1,8,0:0:0:0:
256,192,213548,1,8,0:0:0:0:
256,192,213626,1,0,0:0:0:0:
256,192,213783,1,8,0:0:0:0:
256,192,213861,1,8,0:0:0:0:
256,192,213939,1,0,0:0:0:0:
256,192,214017,1,0,0:0:0:0:
256,192,214095,1,8,0:0:0:0:
256,192,214173,1,8,0:0:0:0:
256,192,214251,1,0,0:0:0:0:
256,192,214408,1,0,0:0:0:0:
256,192,214564,1,8,0:0:0:0:
256,192,214642,1,8,0:0:0:0:
256,192,214720,1,0,0:0:0:0:
256,192,214798,1,8,0:0:0:0:
256,192,214876,1,0,0:0:0:0:
256,192,214954,1,0,0:0:0:0:
256,192,215033,1,8,0:0:0:0:
256,192,215085,1,8,0:0:0:0:
256,192,215137,1,8,0:0:0:0:
256,192,215189,1,0,0:0:0:0:
256,192,215267,1,8,0:0:0:0:
256,192,215345,1,0,0:0:0:0:
256,192,215423,1,0,0:0:0:0:
256,192,215501,1,8,0:0:0:0:
256,192,215658,1,4,0:0:0:0:
256,192,215866,1,4,0:0:0:0:
256,192,216074,1,12,0:0:0:0:
256,192,216283,1,4,0:0:0:0:
256,192,216491,1,4,0:0:0:0:
256,192,216699,1,12,0:0:0:0:
256,192,216908,1,4,0:0:0:0:
256,192,217064,1,0,0:0:0:0:
256,192,217142,1,0,0:0:0:0:
256,192,217220,1,8,0:0:0:0:
256,192,217376,1,8,0:0:0:0:
256,192,217454,1,8,0:0:0:0:
256,192,217533,1,0,0:0:0:0:
256,192,217689,1,0,0:0:0:0:
256,192,217767,1,0,0:0:0:0:
256,192,217845,1,8,0:0:0:0:
256,192,217923,1,8,0:0:0:0:
256,192,218001,1,0,0:0:0:0:
256,192,218158,1,8,0:0:0:0:
256,192,218314,1,0,0:0:0:0:
256,192,218392,1,0,0:0:0:0:
256,192,218470,1,8,0:0:0:0:
256,192,218626,1,8,0:0:0:0:
256,192,218704,1,0,0:0:0:0:
256,192,218783,1,8,0:0:0:0:
256,192,218939,1,0,0:0:0:0:
256,192,219017,1,0,0:0:0:0:
256,192,219095,1,8,0:0:0:0:
256,192,219173,1,0,0:0:0:0:
256,192,219251,1,8,0:0:0:0:
256,192,219408,1,0,0:0:0:0:
256,192,219486,1,8,0:0:0:0:
256,192,219564,1,8,0:0:0:0:
256,192,219642,1,0,0:0:0:0:
256,192,219720,1,8,0:0:0:0:
256,192,219798,1,0,0:0:0:0:
256,192,219876,1,0,0:0:0:0:
256,192,219954,1,8,0:0:0:0:
256,192,220033,1,0,0:0:0:0:
256,192,220111,1,0,0:0:0:0:
256,192,220189,1,8,0:0:0:0:
256,192,220267,1,0,0:0:0:0:
256,192,220345,1,8,0:0:0:0:
256,192,220423,1,8,0:0:0:0:
256,192,220501,1,0,0:0:0:0:
256,192,220658,1,8,0:0:0:0:
256,192,220736,1,8,0:0:0:0:
256,192,220814,1,8,0:0:0:0:
256,192,220892,1,8,0:0:0:0:
256,192,220970,1,8,0:0:0:0:
256,192,221126,1,0,0:0:0:0:
256,192,221283,1,8,0:0:0:0:
256,192,221361,1,0,0:0:0:0:
256,192,221439,1,8,0:0:0:0:
256,192,221517,1,8,0:0:0:0:
256,192,221595,1,0,0:0:0:0:
256,192,221673,1,0,0:0:0:0:
256,192,221751,1,8,0:0:0:0:
256,192,221829,1,8,0:0:0:0:
256,192,221908,1,0,0:0:0:0:
256,192,222064,1,0,0:0:0:0:
256,192,222142,1,0,0:0:0:0:
256,192,222220,1,8,0:0:0:0:
256,192,222298,1,0,0:0:0:0:
256,192,222376,1,8,0:0:0:0:
256,192,222454,1,8,0:0:0:0:
256,192,222533,1,0,0:0:0:0:
256,192,222689,1,8,0:0:0:0:
256,192,222845,1,8,0:0:0:0:
256,192,222923,1,0,0:0:0:0:
256,192,223001,1,8,0:0:0:0:
256,192,223079,1,8,0:0:0:0:
256,192,223158,1,0,0:0:0:0:
256,192,223236,1,0,0:0:0:0:
256,192,223314,1,8,0:0:0:0:
256,192,223392,1,0,0:0:0:0:
256,192,223470,1,8,0:0:0:0:
256,192,223548,1,8,0:0:0:0:
256,192,223626,1,0,0:0:0:0:
256,192,223783,1,8,0:0:0:0:
256,192,223861,1,0,0:0:0:0:
256,192,223939,1,8,0:0:0:0:
256,192,224017,1,0,0:0:0:0:
256,192,224095,1,8,0:0:0:0:
256,192,224173,1,8,0:0:0:0:
256,192,224251,1,0,0:0:0:0:
256,192,224408,1,0,0:0:0:0:
256,192,224564,1,0,0:0:0:0:
256,192,224642,1,0,0:0:0:0:
256,192,224720,1,8,0:0:0:0:
256,192,224876,1,8,0:0:0:0:
256,192,224954,1,8,0:0:0:0:
256,192,225033,1,0,0:0:0:0:
256,192,225111,1,0,0:0:0:0:
256,192,225189,1,8,0:0:0:0:
256,192,225345,1,0,0:0:0:0:
256,192,225423,1,8,0:0:0:0:
256,192,225501,1,0,0:0:0:0:
256,192,225579,1,0,0:0:0:0:
256,192,225658,1,8,0:0:0:0:
256,192,225736,1,8,0:0:0:0:
256,192,225814,1,0,0:0:0:0:
256,192,225970,1,0,0:0:0:0:
256,192,226048,1,8,0:0:0:0:
256,192,226126,1,0,0:0:0:0:
256,192,226283,1,0,0:0:0:0:
256,192,226361,1,8,0:0:0:0:
256,192,226439,1,8,0:0:0:0:
256,192,226517,1,0,0:0:0:0:
256,192,226595,1,8,0:0:0:0:
256,192,226673,1,0,0:0:0:0:
256,192,226751,1,8,0:0:0:0:
256,192,226829,1,8,0:0:0:0:
256,192,226908,1,0,0:0:0:0:
256,192,227064,1,0,0:0:0:0:
256,192,227142,1,0,0:0:0:0:
256,192,227220,1,8,0:0:0:0:
256,192,227298,1,0,0:0:0:0:
256,192,227376,1,8,0:0:0:0:
256,192,227454,1,8,0:0:0:0:
256,192,227533,1,0,0:0:0:0:
256,192,227689,1,8,0:0:0:0:
256,192,227845,1,8,0:0:0:0:
256,192,227923,1,0,0:0:0:0:
256,192,228001,1,8,0:0:0:0:
256,192,228079,1,8,0:0:0:0:
256,192,228158,1,0,0:0:0:0:
256,192,228236,1,0,0:0:0:0:
256,192,228314,1,8,0:0:0:0:
256,192,228392,1,0,0:0:0:0:
256,192,228470,1,8,0:0:0:0:
256,192,228548,1,8,0:0:0:0:
256,192,228626,1,0,0:0:0:0:
256,192,228783,1,0,0:0:0:0:
256,192,228861,1,0,0:0:0:0:
256,192,228939,1,8,0:0:0:0:
256,192,228991,1,8,0:0:0:0:
256,192,229043,1,8,0:0:0:0:
256,192,229095,1,0,0:0:0:0:
256,192,229173,1,0,0:0:0:0:
256,192,229251,1,8,0:0:0:0:
256,192,229329,1,0,0:0:0:0:
256,192,229408,1,8,0:0:0:0:
256,192,229486,1,0,0:0:0:0:
256,192,229564,1,8,0:0:0:0:
256,192,229642,1,8,0:0:0:0:
256,192,229720,1,0,0:0:0:0:
256,192,229798,1,0,0:0:0:0:
256,192,229876,1,8,0:0:0:0:
256,192,230033,1,4,0:0:0:0:
256,192,230267,1,4,0:0:0:0:
256,192,230501,1,12,0:0:0:0:
256,192,230736,1,4,0:0:0:0:
256,192,230970,1,12,0:0:0:0:
256,192,231204,1,4,0:0:0:0:
256,192,231439,1,4,0:0:0:0:
256,192,231595,1,8,0:0:0:0:
256,192,231673,1,8,0:0:0:0:
256,192,231751,1,8,0:0:0:0:
256,192,231908,1,0,0:0:0:0:
256,192,232220,1,12,0:0:0:0:
256,192,232376,1,8,0:0:0:0:
256,192,232454,1,8,0:0:0:0:
256,192,232533,1,0,0:0:0:0:
256,192,232611,1,0,0:0:0:0:
256,192,232689,1,8,0:0:0:0:
256,192,232845,1,8,0:0:0:0:
256,192,232923,1,0,0:0:0:0:
256,192,233001,1,8,0:0:0:0:
256,192,233079,1,8,0:0:0:0:
256,192,233158,1,0,0:0:0:0:
256,192,233236,1,0,0:0:0:0:
256,192,233314,1,8,0:0:0:0:
256,192,233392,1,0,0:0:0:0:
256,192,233470,1,8,0:0:0:0:
256,192,233548,1,8,0:0:0:0:
256,192,233626,1,0,0:0:0:0:
256,192,233783,1,8,0:0:0:0:
256,192,233861,1,0,0:0:0:0:
256,192,233939,1,8,0:0:0:0:
256,192,234017,1,0,0:0:0:0:
256,192,234095,1,8,0:0:0:0:
256,192,234173,1,8,0:0:0:0:
256,192,234251,1,0,0:0:0:0:
256,192,234408,1,0,0:0:0:0:
256,192,234486,1,0,0:0:0:0:
256,192,234564,1,8,0:0:0:0:
256,192,234642,1,0,0:0:0:0:
256,192,234720,1,8,0:0:0:0:
256,192,234798,1,8,0:0:0:0:
256,192,234876,1,0,0:0:0:0:
256,192,234954,1,8,0:0:0:0:
256,192,235033,1,0,0:0:0:0:
256,192,235085,1,0,0:0:0:0:
256,192,235137,1,0,0:0:0:0:
256,192,235189,1,8,0:0:0:0:
256,192,235267,1,8,0:0:0:0:
256,192,235345,1,0,0:0:0:0:
256,192,235423,1,0,0:0:0:0:
256,192,235501,1,8,0:0:0:0:
256,192,235658,1,4,0:0:0:0:
256,192,235866,1,4,0:0:0:0:
256,192,236074,1,12,0:0:0:0:
256,192,236283,1,4,0:0:0:0:
256,192,236491,1,4,0:0:0:0:
256,192,236699,1,12,0:0:0:0:
256,192,236908,1,4,0:0:0:0:
256,192,237064,1,0,0:0:0:0:
256,192,237142,1,0,0:0:0:0:
256,192,237220,1,8,0:0:0:0:
256,192,237298,1,0,0:0:0:0:
256,192,237376,1,8,0:0:0:0:
256,192,237454,1,8,0:0:0:0:
256,192,237533,1,0,0:0:0:0:
256,192,237689,1,0,0:0:0:0:
256,192,237767,1,0,0:0:0:0:
256,192,237845,1,8,0:0:0:0:
256,192,237923,1,8,0:0:0:0:
256,192,238001,1,0,0:0:0:0:
256,192,238158,1,8,0:0:0:0:
256,192,238314,1,8,0:0:0:0:
256,192,238392,1,8,0:0:0:0:
256,192,238470,1,0,0:0:0:0:
256,192,238548,1,8,0:0:0:0:
256,192,238626,1,0,0:0:0:0:
256,192,238704,1,0,0:0:0:0:
256,192,238783,1,8,0:0:0:0:
256,192,238939,1,0,0:0:0:0:
256,192,239017,1,0,0:0:0:0:
256,192,239095,1,8,0:0:0:0:
256,192,239173,1,0,0:0:0:0:
256,192,239251,1,8,0:0:0:0:
256,192,239408,1,0,0:0:0:0:
256,192,239486,1,8,0:0:0:0:
256,192,239564,1,0,0:0:0:0:
256,192,239642,1,0,0:0:0:0:
256,192,239720,1,8,0:0:0:0:
256,192,239798,1,8,0:0:0:0:
256,192,239876,1,0,0:0:0:0:
256,192,239954,1,0,0:0:0:0:
256,192,240033,1,8,0:0:0:0:
256,192,240111,1,0,0:0:0:0:
256,192,240189,1,8,0:0:0:0:
256,192,240267,1,0,0:0:0:0:
256,192,240345,1,8,0:0:0:0:
256,192,240423,1,8,0:0:0:0:
256,192,240501,1,0,0:0:0:0:
256,192,240658,1,8,0:0:0:0:
256,192,240736,1,0,0:0:0:0:
256,192,240814,1,8,0:0:0:0:
256,192,240892,1,8,0:0:0:0:
256,192,240970,1,0,0:0:0:0:
256,192,241048,1,8,0:0:0:0:
256,192,241126,1,8,0:0:0:0:
256,192,241204,1,0,0:0:0:0:
256,192,241283,1,8,0:0:0:0:
256,192,241361,1,0,0:0:0:0:
256,192,241439,1,8,0:0:0:0:
256,192,241517,1,8,0:0:0:0:
256,192,241595,1,0,0:0:0:0:
256,192,241908,1,4,0:0:0:0:
256,192,242064,1,8,0:0:0:0:
256,192,242142,1,8,0:0:0:0:
256,192,242220,1,0,0:0:0:0:
256,192,242376,1,8,0:0:0:0:
256,192,242533,1,0,0:0:0:0:
256,192,242611,1,0,0:0:0:0:
256,192,242689,1,8,0:0:0:0:
256,192,242845,1,0,0:0:0:0:
256,192,242923,1,8,0:0:0:0:
256,192,243001,1,8,0:0:0:0:
256,192,243158,1,0,0:0:0:0:
256,192,243314,1,8,0:0:0:0:
256,192,243392,1,8,0:0:0:0:
256,192,243470,1,0,0:0:0:0:
256,192,243626,1,8,0:0:0:0:
256,192,243704,1,0,0:0:0:0:
256,192,243783,1,0,0:0:0:0:
256,192,243939,1,8,0:0:0:0:
256,192,244017,1,8,0:0:0:0:
256,192,244095,1,0,0:0:0:0:
256,192,244173,1,0,0:0:0:0:
256,192,244251,1,8,0:0:0:0:
256,192,244408,1,0,0:0:0:0:
256,192,244564,1,8,0:0:0:0:
256,192,244642,1,8,0:0:0:0:
256,192,244720,1,0,0:0:0:0:
256,192,244876,1,8,0:0:0:0:
256,192,245033,1,0,0:0:0:0:
256,192,245111,1,0,0:0:0:0:
256,192,245189,1,8,0:0:0:0:
256,192,245345,1,0,0:0:0:0:
256,192,245423,1,8,0:0:0:0:
256,192,245501,1,8,0:0:0:0:
256,192,245658,1,0,0:0:0:0:
256,192,245814,1,8,0:0:0:0:
256,192,245892,1,8,0:0:0:0:
256,192,245970,1,0,0:0:0:0:
256,192,246126,1,8,0:0:0:0:
256,192,246204,1,0,0:0:0:0:
256,192,246283,1,0,0:0:0:0:
256,192,246439,1,8,0:0:0:0:
256,192,246517,1,8,0:0:0:0:
256,192,246595,1,0,0:0:0:0:
256,192,246673,1,0,0:0:0:0:
256,192,246751,1,8,0:0:0:0:
256,192,246908,1,0,0:0:0:0:
256,192,247064,1,8,0:0:0:0:
256,192,247142,1,8,0:0:0:0:
256,192,247220,1,0,0:0:0:0:
256,192,247298,1,8,0:0:0:0:
256,192,247376,1,8,0:0:0:0:
256,192,247533,1,0,0:0:0:0:
256,192,247611,1,0,0:0:0:0:
256,192,247689,1,8,0:0:0:0:
256,192,247767,1,0,0:0:0:0:
256,192,247845,1,8,0:0:0:0:
256,192,247923,1,8,0:0:0:0:
256,192,248001,1,0,0:0:0:0:
256,192,248158,1,0,0:0:0:0:
256,192,248314,1,8,0:0:0:0:
256,192,248392,1,0,0:0:0:0:
256,192,248470,1,0,0:0:0:0:
256,192,248548,1,8,0:0:0:0:
256,192,248626,1,0,0:0:0:0:
256,192,248704,1,8,0:0:0:0:
256,192,248783,1,0,0:0:0:0:
256,192,248861,1,0,0:0:0:0:
256,192,248939,1,8,0:0:0:0:
256,192,249017,1,0,0:0:0:0:
256,192,249095,1,8,0:0:0:0:
256,192,249173,1,0,0:0:0:0:
256,192,249251,1,8,0:0:0:0:
256,192,249329,1,8,0:0:0:0:
256,192,249408,1,0,0:0:0:0:
256,192,249564,1,0,0:0:0:0:
256,192,249642,1,0,0:0:0:0:
256,192,249720,1,8,0:0:0:0:
256,192,249876,1,8,0:0:0:0:
256,192,249954,1,8,0:0:0:0:
256,192,250033,1,0,0:0:0:0:
256,192,250189,1,0,0:0:0:0:
256,192,250267,1,0,0:0:0:0:
256,192,250345,1,8,0:0:0:0:
256,192,250423,1,8,0:0:0:0:
256,192,250501,1,0,0:0:0:0:
256,192,250658,1,8,0:0:0:0:
256,192,250736,1,0,0:0:0:0:
256,192,250814,1,0,0:0:0:0:
256,192,250970,1,8,0:0:0:0:
256,192,251048,1,8,0:0:0:0:
256,192,251126,1,0,0:0:0:0:
256,192,251178,1,0,0:0:0:0:
256,192,251230,1,0,0:0:0:0:
256,192,251283,1,8,0:0:0:0:
256,192,251361,1,0,0:0:0:0:
256,192,251439,1,8,0:0:0:0:
256,192,251517,1,8,0:0:0:0:
256,192,251595,1,0,0:0:0:0:
256,192,251673,1,8,0:0:0:0:
256,192,251751,1,0,0:0:0:0:
256,192,251829,1,0,0:0:0:0:
256,192,251908,1,8,0:0:0:0:
256,192,252064,1,0,0:0:0:0:
256,192,252142,1,0,0:0:0:0:
256,192,252220,1,8,0:0:0:0:
256,192,252298,1,0,0:0:0:0:
256,192,252376,1,8,0:0:0:0:
256,192,252454,1,8,0:0:0:0:
256,192,252533,1,0,0:0:0:0:
256,192,252611,1,0,0:0:0:0:
256,192,252689,1,8,0:0:0:0:
256,192,252845,1,8,0:0:0:0:
256,192,252923,1,0,0:0:0:0:
256,192,253001,1,8,0:0:0:0:
256,192,253079,1,8,0:0:0:0:
256,192,253158,1,0,0:0:0:0:
256,192,253236,1,0,0:0:0:0:
256,192,253314,1,8,0:0:0:0:
256,192,253392,1,0,0:0:0:0:
256,192,253470,1,8,0:0:0:0:
256,192,253548,1,8,0:0:0:0:
256,192,253626,1,0,0:0:0:0:
256,192,253704,1,0,0:0:0:0:
256,192,253783,1,8,0:0:0:0:
256,192,253861,1,0,0:0:0:0:
256,192,253939,1,8,0:0:0:0:
256,192,254017,1,0,0:0:0:0:
256,192,254095,1,8,0:0:0:0:
256,192,254173,1,8,0:0:0:0:
256,192,254251,1,0,0:0:0:0:
256,192,254408,1,0,0:0:0:0:
256,192,254486,1,0,0:0:0:0:
256,192,254564,1,8,0:0:0:0:
256,192,254642,1,0,0:0:0:0:
256,192,254720,1,8,0:0:0:0:
256,192,254798,1,8,0:0:0:0:
256,192,254876,1,0,0:0:0:0:
256,192,254954,1,8,0:0:0:0:
256,192,255033,1,0,0:0:0:0:
256,192,255085,1,0,0:0:0:0:
256,192,255137,1,0,0:0:0:0:
256,192,255189,1,8,0:0:0:0:
256,192,255267,1,8,0:0:0:0:
256,192,255345,1,0,0:0:0:0:
256,192,255423,1,0,0:0:0:0:
256,192,255501,1,8,0:0:0:0:
256,192,255658,1,4,0:0:0:0:
256,192,255866,1,4,0:0:0:0:
256,192,256074,1,12,0:0:0:0:
256,192,256283,1,4,0:0:0:0:
256,192,256491,1,4,0:0:0:0:
256,192,256699,1,12,0:0:0:0:
256,192,256908,1,4,0:0:0:0:
256,192,257064,1,0,0:0:0:0:
256,192,257142,1,0,0:0:0:0:
256,192,257220,1,8,0:0:0:0:
256,192,257298,1,0,0:0:0:0:
256,192,257376,1,8,0:0:0:0:
256,192,257454,1,8,0:0:0:0:
256,192,257533,1,0,0:0:0:0:
256,192,257611,1,8,0:0:0:0:
256,192,257689,1,0,0:0:0:0:
256,192,257767,1,0,0:0:0:0:
256,192,257845,1,8,0:0:0:0:
256,192,257923,1,8,0:0:0:0:
256,192,258001,1,0,0:0:0:0:
256,192,258158,1,8,0:0:0:0:
256,192,258314,1,8,0:0:0:0:
256,192,258392,1,8,0:0:0:0:
256,192,258470,1,0,0:0:0:0:
256,192,258548,1,8,0:0:0:0:
256,192,258626,1,0,0:0:0:0:
256,192,258704,1,0,0:0:0:0:
256,192,258783,1,8,0:0:0:0:
256,192,258861,1,0,0:0:0:0:
256,192,258939,1,8,0:0:0:0:
256,192,259017,1,8,0:0:0:0:
256,192,259095,1,0,0:0:0:0:
256,192,259173,1,0,0:0:0:0:
256,192,259251,1,8,0:0:0:0:
256,192,259408,1,0,0:0:0:0:
256,192,259486,1,8,0:0:0:0:
256,192,259564,1,8,0:0:0:0:
256,192,259642,1,0,0:0:0:0:
256,192,259720,1,8,0:0:0:0:
256,192,259798,1,0,0:0:0:0:
256,192,259876,1,0,0:0:0:0:
256,192,259954,1,8,0:0:0:0:
256,192,260033,1,0,0:0:0:0:
256,192,260111,1,8,0:0:0:0:
256,192,260189,1,8,0:0:0:0:
256,192,260267,1,0,0:0:0:0:
256,192,260345,1,8,0:0:0:0:
256,192,260423,1,8,0:0:0:0:
256,192,260501,1,0,0:0:0:0:
256,192,260579,1,0,0:0:0:0:
256,192,260658,1,8,0:0:0:0:
256,192,260736,1,0,0:0:0:0:
256,192,260814,1,8,0:0:0:0:
256,192,260892,1,8,0:0:0:0:
256,192,260970,1,0,0:0:0:0:
256,192,261048,1,8,0:0:0:0:
256,192,261126,1,8,0:0:0:0:
256,192,261204,1,0,0:0:0:0:
256,192,261283,1,8,0:0:0:0:
256,192,261335,1,0,0:0:0:0:
256,192,261387,1,0,0:0:0:0:
256,192,261439,1,8,0:0:0:0:
256,192,261517,1,8,0:0:0:0:
256,192,261595,1,0,0:0:0:0:
256,192,261908,1,8,0:0:0:0:
256,192,261986,1,8,0:0:0:0:
256,192,262064,1,8,0:0:0:0:
256,192,262220,1,4,0:0:0:0:
256,192,262533,1,8,0:0:0:0:
256,192,262845,1,8,0:0:0:0:
256,192,263158,1,8,0:0:0:0:
256,192,263470,1,8,0:0:0:0:
256,192,263783,1,8,0:0:0:0:
256,192,264095,1,8,0:0:0:0:
256,192,264408,1,8,0:0:0:0:
256,192,264720,1,8,0:0:0:0:
256,192,265033,1,8,0:0:0:0:
256,192,265345,1,8,0:0:0:0:
256,192,265423,1,8,0:0:0:0:
256,192,265501,1,0,0:0:0:0:
256,192,265658,1,8,0:0:0:0:
256,192,265814,1,0,0:0:0:0:
256,192,265970,1,8,0:0:0:0:
256,192,266283,1,8,0:0:0:0:
256,192,266595,1,8,0:0:0:0:
256,192,266751,1,8,0:0:0:0:
256,192,266908,1,8,0:0:0:0:
256,192,267064,1,0,0:0:0:0:
256,192,267220,1,8,0:0:0:0:
256,192,267533,1,8,0:0:0:0:
256,192,267845,1,8,0:0:0:0:
256,192,268001,1,0,0:0:0:0:
256,192,268053,1,0,0:0:0:0:
256,192,268105,1,0,0:0:0:0:
256,192,268158,1,8,0:0:0:0:
256,192,268470,1,8,0:0:0:0:
256,192,268783,1,8,0:0:0:0:
256,192,269095,1,0,0:0:0:0:
256,192,269251,1,0,0:0:0:0:
256,192,269408,1,8,0:0:0:0:
256,192,269720,1,0,0:0:0:0:
256,192,269876,1,8,0:0:0:0:
256,192,270033,1,0,0:0:0:0:
256,192,270111,1,0,0:0:0:0:
256,192,270189,1,0,0:0:0:0:
256,192,270345,1,0,0:0:0:0:
256,192,270423,1,0,0:0:0:0:
256,192,270501,1,0,0:0:0:0:
256,192,270658,1,0,0:0:0:0:
256,192,270736,1,0,0:0:0:0:
256,192,270814,1,0,0:0:0:0:
256,192,270892,1,0,0:0:0:0:
256,192,270970,1,8,0:0:0:0:
256,192,271126,1,0,0:0:0:0:
256,192,271283,1,8,0:0:0:0:
256,192,271361,1,8,0:0:0:0:
256,192,271439,1,0,0:0:0:0:
256,192,271517,1,8,0:0:0:0:
256,192,271595,1,0,0:0:0:0:
256,192,271673,1,0,0:0:0:0:
256,192,271751,1,8,0:0:0:0:
256,192,271908,1,4,0:0:0:0:
256,192,272064,1,8,0:0:0:0:
256,192,272142,1,8,0:0:0:0:
256,192,272220,1,0,0:0:0:0:
256,192,272376,1,8,0:0:0:0:
256,192,272533,1,0,0:0:0:0:
256,192,272611,1,0,0:0:0:0:
256,192,272689,1,8,0:0:0:0:
256,192,272767,1,8,0:0:0:0:
256,192,272845,1,0,0:0:0:0:
256,192,273158,1,0,0:0:0:0:
256,192,273314,1,8,0:0:0:0:
256,192,273392,1,0,0:0:0:0:
256,192,273470,1,0,0:0:0:0:
256,192,273626,1,8,0:0:0:0:
256,192,273783,1,0,0:0:0:0:
256,192,273861,1,0,0:0:0:0:
256,192,273939,1,8,0:0:0:0:
256,192,274017,1,0,0:0:0:0:
256,192,274095,1,0,0:0:0:0:
256,192,274173,1,0,0:0:0:0:
256,192,274251,1,8,0:0:0:0:
256,192,274408,1,0,0:0:0:0:
256,192,274564,1,8,0:0:0:0:
256,192,274642,1,8,0:0:0:0:
256,192,274720,1,0,0:0:0:0:
256,192,274876,1,8,0:0:0:0:
256,192,275033,1,0,0:0:0:0:
256,192,275189,1,8,0:0:0:0:
256,192,275345,1,0,0:0:0:0:
256,192,275423,1,0,0:0:0:0:
256,192,275501,1,0,0:0:0:0:
256,192,275579,1,8,0:0:0:0:
256,192,275658,1,0,0:0:0:0:
256,192,275814,1,8,0:0:0:0:
256,192,275892,1,8,0:0:0:0:
256,192,275970,1,0,0:0:0:0:
256,192,276126,1,8,0:0:0:0:
256,192,276283,1,0,0:0:0:0:
256,192,276361,1,8,0:0:0:0:
256,192,276439,1,0,0:0:0:0:
256,192,276595,1,8,0:0:0:0:
256,192,276673,1,0,0:0:0:0:
256,192,276751,1,8,0:0:0:0:
256,192,276829,1,8,0:0:0:0:
256,192,276908,1,0,0:0:0:0:
256,192,277064,1,8,0:0:0:0:
256,192,277142,1,8,0:0:0:0:
256,192,277220,1,0,0:0:0:0:
256,192,277376,1,8,0:0:0:0:
256,192,277533,1,0,0:0:0:0:
256,192,277611,1,0,0:0:0:0:
256,192,277689,1,8,0:0:0:0:
256,192,277845,1,0,0:0:0:0:
256,192,277923,1,0,0:0:0:0:
256,192,278001,1,8,0:0:0:0:
256,192,278053,1,8,0:0:0:0:
256,192,278105,1,8,0:0:0:0:
256,192,278158,1,0,0:0:0:0:
256,192,278314,1,8,0:0:0:0:
256,192,278392,1,0,0:0:0:0:
256,192,278470,1,0,0:0:0:0:
256,192,278626,1,8,0:0:0:0:
256,192,278783,1,0,0:0:0:0:
256,192,278861,1,0,0:0:0:0:
256,192,278939,1,8,0:0:0:0:
256,192,279017,1,8,0:0:0:0:
256,192,279095,1,0,0:0:0:0:
256,192,279251,1,8,0:0:0:0:
256,192,279408,1,0,0:0:0:0:
256,192,279564,1,8,0:0:0:0:
256,192,279642,1,8,0:0:0:0:
256,192,279720,1,0,0:0:0:0:
256,192,279798,1,0,0:0:0:0:
256,192,279876,1,8,0:0:0:0:
256,192,280033,1,0,0:0:0:0:
256,192,280189,1,8,0:0:0:0:
256,192,280267,1,8,0:0:0:0:
256,192,280345,1,0,0:0:0:0:
256,192,280397,1,0,0:0:0:0:
256,192,280449,1,0,0:0:0:0:
256,192,280501,1,8,0:0:0:0:
256,192,280658,1,0,0:0:0:0:
256,192,280736,1,0,0:0:0:0:
256,192,280814,1,0,0:0:0:0:
256,192,280970,1,0,0:0:0:0:
256,192,281048,1,0,0:0:0:0:
256,192,281126,1,0,0:0:0:0:
256,192,281283,1,8,0:0:0:0:
256,192,281361,1,0,0:0:0:0:
256,192,281439,1,8,0:0:0:0:
256,192,281517,1,8,0:0:0:0:
256,192,281595,1,0,0:0:0:0:
256,192,281673,1,0,0:0:0:0:
256,192,281751,1,8,0:0:0:0:
256,192,281908,1,4,0:0:0:0:
256,192,282064,1,8,0:0:0:0:
256,192,282142,1,8,0:0:0:0:
256,192,282220,1,0,0:0:0:0:
256,192,282376,1,8,0:0:0:0:
256,192,282533,1,0,0:0:0:0:
256,192,282611,1,0,0:0:0:0:
256,192,282689,1,8,0:0:0:0:
256,192,282767,1,8,0:0:0:0:
256,192,282845,1,0,0:0:0:0:
256,192,283158,1,0,0:0:0:0:
256,192,283314,1,8,0:0:0:0:
256,192,283392,1,8,0:0:0:0:
256,192,283470,1,0,0:0:0:0:
256,192,283626,1,8,0:0:0:0:
256,192,283783,1,0,0:0:0:0:
256,192,283861,1,0,0:0:0:0:
256,192,283939,1,0,0:0:0:0:
256,192,284017,1,0,0:0:0:0:
256,192,284095,1,8,0:0:0:0:
256,192,284173,1,8,0:0:0:0:
256,192,284251,1,8,0:0:0:0:
256,192,284408,1,0,0:0:0:0:
256,192,284564,1,8,0:0:0:0:
256,192,284642,1,8,0:0:0:0:
256,192,284720,1,0,0:0:0:0:
256,192,284876,1,8,0:0:0:0:
256,192,285033,1,0,0:0:0:0:
256,192,285189,1,8,0:0:0:0:
256,192,285345,1,0,0:0:0:0:
256,192,285423,1,0,0:0:0:0:
256,192,285501,1,0,0:0:0:0:
256,192,285658,1,0,0:0:0:0:
256,192,285814,1,8,0:0:0:0:
256,192,285892,1,8,0:0:0:0:
256,192,285970,1,0,0:0:0:0:
256,192,286126,1,8,0:0:0:0:
256,192,286283,1,0,0:0:0:0:
256,192,286361,1,8,0:0:0:0:
256,192,286439,1,0,0:0:0:0:
256,192,286517,1,0,0:0:0:0:
256,192,286595,1,8,0:0:0:0:
256,192,286673,1,0,0:0:0:0:
256,192,286751,1,8,0:0:0:0:
256,192,286829,1,8,0:0:0:0:
256,192,286908,1,0,0:0:0:0:
256,192,287064,1,8,0:0:0:0:
256,192,287142,1,8,0:0:0:0:
256,192,287220,1,0,0:0:0:0:
256,192,287376,1,8,0:0:0:0:
256,192,287533,1,0,0:0:0:0:
256,192,287611,1,0,0:0:0:0:
256,192,287689,1,8,0:0:0:0:
256,192,287845,1,0,0:0:0:0:
256,192,287923,1,0,0:0:0:0:
256,192,288001,1,8,0:0:0:0:
256,192,288053,1,8,0:0:0:0:
256,192,288105,1,8,0:0:0:0:
256,192,288158,1,0,0:0:0:0:
256,192,288314,1,8,0:0:0:0:
256,192,288392,1,0,0:0:0:0:
256,192,288470,1,0,0:0:0:0:
256,192,288548,1,0,0:0:0:0:
256,192,288626,1,8,0:0:0:0:
256,192,288783,1,0,0:0:0:0:
256,192,288861,1,8,0:0:0:0:
256,192,288939,1,0,0:0:0:0:
256,192,289017,1,0,0:0:0:0:
256,192,289095,1,8,0:0:0:0:
256,192,289173,1,0,0:0:0:0:
256,192,289251,1,8,0:0:0:0:
256,192,289408,1,0,0:0:0:0:
256,192,289564,1,8,0:0:0:0:
256,192,289642,1,8,0:0:0:0:
256,192,289720,1,0,0:0:0:0:
256,192,289798,1,0,0:0:0:0:
256,192,289876,1,8,0:0:0:0:
256,192,290033,1,0,0:0:0:0:
256,192,290189,1,8,0:0:0:0:
256,192,290267,1,8,0:0:0:0:
256,192,290345,1,0,0:0:0:0:
256,192,290397,1,0,0:0:0:0:
256,192,290449,1,0,0:0:0:0:
256,192,290501,1,8,0:0:0:0:
256,192,290658,1,8,0:0:0:0:
256,192,290736,1,8,0:0:0:0:
256,192,290814,1,0,0:0:0:0:
256,192,290970,1,8,0:0:0:0:
256,192,291022,1,8,0:0:0:0:
256,192,291074,1,8,0:0:0:0:
256,192,291126,1,0,0:0:0:0:
256,192,291283,1,8,0:0:0:0:
256,192,291361,1,0,0:0:0:0:
256,192,291439,1,8,0:0:0:0:
256,192,291517,1,8,0:0:0:0:
256,192,291595,1,0,0:0:0:0:
256,192,291673,1,0,0:0:0:0:
256,192,291751,1,8,0:0:0:0:
256,192,291908,1,4,0:0:0:0:
256,192,292064,1,8,0:0:0:0:
256,192,292142,1,8,0:0:0:0:
256,192,292220,1,0,0:0:0:0:
256,192,292376,1,8,0:0:0:0:
256,192,292533,1,0,0:0:0:0:
256,192,292611,1,0,0:0:0:0:
256,192,292689,1,8,0:0:0:0:
256,192,292845,1,0,0:0:0:0:
256,192,293158,1,0,0:0:0:0:
256,192,293314,1,8,0:0:0:0:
256,192,293392,1,0,0:0:0:0:
256,192,293470,1,0,0:0:0:0:
256,192,293626,1,8,0:0:0:0:
256,192,293783,1,0,0:0:0:0:
256,192,293861,1,0,0:0:0:0:
256,192,293939,1,8,0:0:0:0:
256,192,294017,1,8,0:0:0:0:
256,192,294095,1,0,0:0:0:0:
256,192,294251,1,8,0:0:0:0:
256,192,294408,1,0,0:0:0:0:
256,192,294564,1,8,0:0:0:0:
256,192,294642,1,8,0:0:0:0:
256,192,294720,1,0,0:0:0:0:
256,192,294876,1,8,0:0:0:0:
256,192,295033,1,0,0:0:0:0:
256,192,295189,1,8,0:0:0:0:
256,192,295345,1,0,0:0:0:0:
256,192,295423,1,0,0:0:0:0:
256,192,295501,1,0,0:0:0:0:
256,192,295658,1,0,0:0:0:0:
256,192,295814,1,8,0:0:0:0:
256,192,295892,1,8,0:0:0:0:
256,192,295970,1,0,0:0:0:0:
256,192,296126,1,8,0:0:0:0:
256,192,296283,1,0,0:0:0:0:
256,192,296361,1,8,0:0:0:0:
256,192,296439,1,0,0:0:0:0:
256,192,296595,1,8,0:0:0:0:
256,192,296673,1,0,0:0:0:0:
256,192,296751,1,8,0:0:0:0:
256,192,296908,1,0,0:0:0:0:
256,192,297064,1,8,0:0:0:0:
256,192,297142,1,8,0:0:0:0:
256,192,297220,1,0,0:0:0:0:
256,192,297376,1,8,0:0:0:0:
256,192,297533,1,0,0:0:0:0:
256,192,297611,1,0,0:0:0:0:
256,192,297689,1,8,0:0:0:0:
256,192,297845,1,0,0:0:0:0:
256,192,298001,1,8,0:0:0:0:
256,192,298053,1,8,0:0:0:0:
256,192,298105,1,8,0:0:0:0:
256,192,298158,1,0,0:0:0:0:
256,192,298314,1,8,0:0:0:0:
256,192,298392,1,0,0:0:0:0:
256,192,298470,1,0,0:0:0:0:
256,192,298626,1,8,0:0:0:0:
256,192,298783,1,0,0:0:0:0:
256,192,298861,1,0,0:0:0:0:
256,192,298939,1,8,0:0:0:0:
256,192,299095,1,0,0:0:0:0:
256,192,299251,1,8,0:0:0:0:
256,192,299408,1,0,0:0:0:0:
256,192,299564,1,8,0:0:0:0:
256,192,299642,1,8,0:0:0:0:
256,192,299720,1,0,0:0:0:0:
256,192,299798,1,0,0:0:0:0:
256,192,299876,1,8,0:0:0:0:
256,192,300033,1,0,0:0:0:0:
256,192,300189,1,8,0:0:0:0:
256,192,300267,1,0,0:0:0:0:
256,192,300345,1,0,0:0:0:0:
256,192,300423,1,0,0:0:0:0:
256,192,300501,1,8,0:0:0:0:
256,192,300658,1,0,0:0:0:0:
256,192,300710,1,0,0:0:0:0:
256,192,300762,1,0,0:0:0:0:
256,192,300814,1,0,0:0:0:0:
256,192,300970,1,0,0:0:0:0:
256,192,301022,1,0,0:0:0:0:
256,192,301074,1,0,0:0:0:0:
256,192,301126,1,0,0:0:0:0:
256,192,301283,1,8,0:0:0:0:
256,192,301361,1,0,0:0:0:0:
256,192,301439,1,8,0:0:0:0:
256,192,301517,1,8,0:0:0:0:
256,192,301595,1,0,0:0:0:0:
256,192,301673,1,0,0:0:0:0:
256,192,301751,1,8,0:0:0:0:
256,192,301908,1,4,0:0:0:0:
