osu file format v14

[General]
AudioFilename: Dreadnought.mp3
AudioLeadIn: 0
PreviewTime: 94323
Countdown: 0
SampleSet: Soft
StackLeniency: 0.7
Mode: 3
LetterboxInBreaks: 0
SpecialStyle: 0
WidescreenStoryboard: 1

[Editor]
DistanceSpacing: 0.8
BeatDivisor: 2
GridSize: 4
TimelineZoom: 1.5

[Metadata]
Title:Dreadnought
TitleUnicode:Dreadnought
Artist:Mastermind(xi+nora2r)
ArtistUnicode:Mastermind(xi+nora2r)
Creator:Kuo Kyoka
Version:4K Lv.4
Source:BMS
Tags:BOFU2015 BMS of Fighters Ultimate 2015 xi nora2r Yusuke Ishiwata Violin Breakthrough Ichigaki Zan_- ExPew Starry- DE-CADE [_S_a_k_u_r_a_] Kyousuke- [Shana_Lesus] Roxas MAS __M_A_S__ Sakura Collab
BeatmapID:807760
BeatmapSetID:368415

[Difficulty]
HPDrainRate:6
CircleSize:4
OverallDifficulty:6
ApproachRate:5
SliderMultiplier:1.4
SliderTickRate:1

[Events]
//Background and Video events
0,0,"BG.jpg",0,0
//Break Periods
//Storyboard Layer 0 (Background)
//Storyboard Layer 1 (Fail)
//Storyboard Layer 2 (Pass)
//Storyboard Layer 3 (Foreground)
//Storyboard Sound Samples

[TimingPoints]
2136,312.5,4,2,0,50,1,0
54636,625,4,2,0,50,1,0
54636,-50,4,2,0,50,0,0
74636,312.5,4,2,0,50,1,0
84636,156.25,4,2,0,50,1,0
84636,-200,4,2,0,50,0,0
92136,625,4,2,0,50,1,0
92136,-50,4,2,0,50,0,0
92448,312.5,5,2,0,50,1,0
94635,312.5,4,2,0,50,1,1
102760,-100,4,2,0,50,0,0
104947,-100,4,2,0,50,0,1
108385,-100,4,2,0,50,0,0
109635,-100,4,2,0,50,0,1
114635,-100,4,2,0,50,0,0
124635,-100,4,2,0,50,0,1
128385,-100,4,2,0,50,0,0
129635,-100,4,2,0,50,0,1
134635,625,4,2,0,50,1,0
134635,-50,4,2,0,50,0,0
134947,312.5,4,2,0,50,1,0

[HitObjects]
192,192,2136,5,0,0:0:0:0:
64,192,2136,1,0,0:0:0:0:
192,192,3386,1,0,0:0:0:0:
64,192,4011,1,0,0:0:0:0:
192,192,4323,1,0,0:0:0:0:
320,192,4636,1,0,0:0:0:0:
192,192,5261,1,0,0:0:0:0:
64,192,5886,1,0,0:0:0:0:
448,192,6511,1,0,0:0:0:0:
192,192,7136,1,0,0:0:0:0:
64,192,7136,1,0,0:0:0:0:
192,192,8386,128,0,9011:0:0:0:0:
320,192,9011,128,0,9636:0:0:0:0:
448,192,9636,128,0,10886:0:0:0:0:
192,192,10886,1,0,0:0:0:0:
64,192,10886,1,0,0:0:0:0:
448,192,12136,128,0,13386:0:0:0:0:
64,192,14011,128,0,14636:0:0:0:0:
320,192,14636,1,0,0:0:0:0:
448,192,14636,1,0,0:0:0:0:
320,192,15104,1,0,0:0:0:0:
320,192,15573,1,0,0:0:0:0:
448,192,16042,1,0,0:0:0:0:
192,192,16511,1,0,0:0:0:0:
192,192,16823,1,0,0:0:0:0:
320,192,17136,1,0,0:0:0:0:
448,192,17136,1,0,0:0:0:0:
64,192,17448,1,0,0:0:0:0:
64,192,17917,1,0,0:0:0:0:
192,192,18386,1,0,0:0:0:0:
192,192,18854,1,0,0:0:0:0:
320,192,19167,128,0,19636:0:0:0:0:
64,192,19636,1,0,0:0:0:0:
448,192,19636,1,0,0:0:0:0:
320,192,20104,1,0,0:0:0:0:
320,192,20573,1,0,0:0:0:0:
192,192,20886,1,0,0:0:0:0:
64,192,20886,1,0,0:0:0:0:
448,192,21042,1,0,0:0:0:0:
448,192,21511,1,0,0:0:0:0:
320,192,21823,1,0,0:0:0:0:
192,192,22136,1,0,0:0:0:0:
64,192,22136,1,0,0:0:0:0:
448,192,22448,1,0,0:0:0:0:
320,192,22761,1,0,0:0:0:0:
192,192,23073,1,0,0:0:0:0:
64,192,23386,128,0,23698:0:0:0:0:
320,192,23698,128,0,24011:0:0:0:0:
64,192,24011,128,0,24323:0:0:0:0:
320,192,24323,128,0,24636:0:0:0:0:
64,192,24636,1,0,0:0:0:0:
448,192,24636,1,0,0:0:0:0:
192,192,24948,1,0,0:0:0:0:
320,192,25261,1,0,0:0:0:0:
448,192,25573,1,0,0:0:0:0:
64,192,25886,1,0,0:0:0:0:
192,192,26198,1,0,0:0:0:0:
320,192,26511,1,0,0:0:0:0:
192,192,26823,1,0,0:0:0:0:
448,192,27136,1,0,0:0:0:0:
64,192,27136,1,0,0:0:0:0:
320,192,27448,1,0,0:0:0:0:
192,192,27761,1,0,0:0:0:0:
64,192,28073,1,0,0:0:0:0:
448,192,28386,1,0,0:0:0:0:
320,192,28698,1,0,0:0:0:0:
192,192,29011,1,0,0:0:0:0:
64,192,29323,1,0,0:0:0:0:
448,192,29636,1,0,0:0:0:0:
192,192,29948,1,0,0:0:0:0:
448,192,30261,1,0,0:0:0:0:
192,192,30573,1,0,0:0:0:0:
448,192,30886,1,0,0:0:0:0:
320,192,31042,1,0,0:0:0:0:
192,192,31198,1,0,0:0:0:0:
320,192,31354,1,0,0:0:0:0:
448,192,31511,1,0,0:0:0:0:
64,192,31667,1,0,0:0:0:0:
192,192,31823,1,0,0:0:0:0:
320,192,31979,1,0,0:0:0:0:
448,192,32136,1,0,0:0:0:0:
64,192,32136,128,0,33386:0:0:0:0:
448,192,33386,128,0,33698:0:0:0:0:
320,192,33854,128,0,34167:0:0:0:0:
192,192,34323,128,0,34636:0:0:0:0:
448,192,34636,1,0,0:0:0:0:
64,192,34636,1,0,0:0:0:0:
320,192,34948,1,0,0:0:0:0:
64,192,35261,1,0,0:0:0:0:
320,192,35573,1,0,0:0:0:0:
192,192,35886,1,0,0:0:0:0:
448,192,36198,1,0,0:0:0:0:
192,192,36511,1,0,0:0:0:0:
448,192,36823,1,0,0:0:0:0:
64,192,37136,1,0,0:0:0:0:
448,192,37448,1,0,0:0:0:0:
64,192,37761,1,0,0:0:0:0:
448,192,38073,1,0,0:0:0:0:
64,192,38386,1,0,0:0:0:0:
320,192,38698,1,0,0:0:0:0:
64,192,39011,1,0,0:0:0:0:
320,192,39323,1,0,0:0:0:0:
192,192,39636,1,0,0:0:0:0:
448,192,39948,1,0,0:0:0:0:
192,192,40261,1,0,0:0:0:0:
448,192,40573,1,0,0:0:0:0:
64,192,40886,1,0,0:0:0:0:
320,192,41198,1,0,0:0:0:0:
64,192,41511,1,0,0:0:0:0:
320,192,41823,1,0,0:0:0:0:
64,192,42136,1,0,0:0:0:0:
192,192,42136,1,0,0:0:0:0:
320,192,42448,1,0,0:0:0:0:
448,192,42761,1,0,0:0:0:0:
64,192,42761,1,0,0:0:0:0:
192,192,43073,1,0,0:0:0:0:
320,192,43386,1,0,0:0:0:0:
448,192,43386,1,0,0:0:0:0:
192,192,43698,1,0,0:0:0:0:
64,192,44011,1,0,0:0:0:0:
448,192,44323,128,0,44636:0:0:0:0:
192,192,44636,1,0,0:0:0:0:
64,192,44636,1,0,0:0:0:0:
192,192,44948,1,0,0:0:0:0:
192,192,45261,1,0,0:0:0:0:
192,192,45573,1,0,0:0:0:0:
448,192,45886,1,0,0:0:0:0:
448,192,46198,1,0,0:0:0:0:
448,192,46511,1,0,0:0:0:0:
448,192,46823,1,0,0:0:0:0:
64,192,47136,1,0,0:0:0:0:
64,192,47448,1,0,0:0:0:0:
64,192,47761,1,0,0:0:0:0:
64,192,48073,1,0,0:0:0:0:
320,192,48386,1,0,0:0:0:0:
320,192,48698,1,0,0:0:0:0:
320,192,49011,1,0,0:0:0:0:
320,192,49323,1,0,0:0:0:0:
192,192,49479,1,0,0:0:0:0:
64,192,49636,1,0,0:0:0:0:
448,192,49636,1,0,0:0:0:0:
448,192,49948,1,0,0:0:0:0:
64,192,50261,1,0,0:0:0:0:
448,192,50573,1,0,0:0:0:0:
320,192,50729,1,0,0:0:0:0:
192,192,50886,1,0,0:0:0:0:
64,192,50886,1,0,0:0:0:0:
448,192,51198,1,0,0:0:0:0:
192,192,51511,1,0,0:0:0:0:
448,192,51823,1,0,0:0:0:0:
320,192,51979,1,0,0:0:0:0:
192,192,52136,1,0,0:0:0:0:
64,192,52136,1,0,0:0:0:0:
448,192,52292,1,0,0:0:0:0:
320,192,52448,1,0,0:0:0:0:
192,192,52604,1,0,0:0:0:0:
64,192,52761,128,0,53386:0:0:0:0:
320,192,53073,128,0,53386:0:0:0:0:
192,192,53386,1,0,0:0:0:0:
448,192,53698,128,0,54011:0:0:0:0:
192,192,54011,1,0,0:0:0:0:
320,192,54323,128,0,54636:0:0:0:0:
64,192,54636,128,0,56511:0:0:0:0:
448,192,54636,1,0,0:0:0:0:
192,192,57136,128,0,59011:0:0:0:0:
320,192,59636,128,0,61511:0:0:0:0:
448,192,62136,128,0,64636:0:0:0:0:
192,192,63386,128,0,64636:0:0:0:0:
320,192,64636,1,0,0:0:0:0:
64,192,64636,128,0,66511:0:0:0:0:
192,192,67136,128,0,69011:0:0:0:0:
320,192,69636,128,0,71511:0:0:0:0:
448,192,72136,128,0,74011:0:0:0:0:
64,192,73386,128,0,74011:0:0:0:0:
192,192,74011,1,0,0:0:0:0:
320,192,74323,1,0,0:0:0:0:
448,192,74323,1,0,0:0:0:0:
64,192,74636,1,0,0:0:0:0:
192,192,74636,128,0,75886:0:0:0:0:
448,192,75886,1,0,0:0:0:0:
320,192,76198,1,0,0:0:0:0:
64,192,76511,1,0,0:0:0:0:
192,192,76823,1,0,0:0:0:0:
320,192,77136,128,0,78386:0:0:0:0:
64,192,78386,1,0,0:0:0:0:
192,192,78698,1,0,0:0:0:0:
448,192,79011,1,0,0:0:0:0:
320,192,79323,1,0,0:0:0:0:
192,192,79636,128,0,80573:0:0:0:0:
192,192,80886,128,0,81823:0:0:0:0:
320,192,82136,128,0,82448:0:0:0:0:
64,192,82448,128,0,82761:0:0:0:0:
320,192,82761,128,0,83073:0:0:0:0:
64,192,83073,128,0,83386:0:0:0:0:
448,192,83386,128,0,83698:0:0:0:0:
192,192,83698,128,0,84011:0:0:0:0:
448,192,84011,1,0,0:0:0:0:
448,192,84167,1,0,0:0:0:0:
64,192,84636,128,0,92136:0:0:0:0:
192,192,84636,128,0,92136:0:0:0:0:
448,192,92448,1,0,0:0:0:0:
448,192,94323,128,0,94635:0:0:0:0:
320,192,94635,1,0,0:0:0:0:
64,192,94635,1,0,0:0:0:0:
192,192,94947,1,0,0:0:0:0:
448,192,95260,1,0,0:0:0:0:
320,192,95572,1,0,0:0:0:0:
192,192,95885,128,0,96197:0:0:0:0:
448,192,96197,1,0,0:0:0:0:
64,192,96510,128,0,96822:0:0:0:0:
448,192,96822,1,0,0:0:0:0:
320,192,97135,1,0,0:0:0:0:
192,192,97447,1,0,0:0:0:0:
448,192,97760,1,0,0:0:0:0:
320,192,98072,1,0,0:0:0:0:
192,192,98385,128,0,98697:0:0:0:0:
448,192,98697,1,0,0:0:0:0:
64,192,99010,128,0,99322:0:0:0:0:
448,192,99322,1,0,0:0:0:0:
192,192,99635,1,0,0:0:0:0:
320,192,99947,1,0,0:0:0:0:
64,192,100260,1,0,0:0:0:0:
192,192,100572,1,0,0:0:0:0:
320,192,100885,128,0,101197:0:0:0:0:
64,192,101197,1,0,0:0:0:0:
448,192,101510,128,0,101822:0:0:0:0:
64,192,101822,1,0,0:0:0:0:
192,192,101978,1,0,0:0:0:0:
320,192,102135,1,0,0:0:0:0:
448,192,102135,1,0,0:0:0:0:
320,192,102447,1,0,0:0:0:0:
448,192,102760,1,0,0:0:0:0:
320,192,102994,1,0,0:0:0:0:
192,192,103228,1,0,0:0:0:0:
64,192,103463,1,0,0:0:0:0:
448,192,103697,1,0,0:0:0:0:
320,192,103931,1,0,0:0:0:0:
192,192,104166,1,0,0:0:0:0:
448,192,104322,1,0,0:0:0:0:
192,192,104478,128,0,104947:0:0:0:0:
448,192,104947,1,0,0:0:0:0:
64,192,104947,1,0,0:0:0:0:
320,192,105260,1,0,0:0:0:0:
192,192,105572,1,0,0:0:0:0:
64,192,105885,128,0,106197:0:0:0:0:
448,192,106197,1,0,0:0:0:0:
192,192,106510,128,0,106822:0:0:0:0:
448,192,106822,1,0,0:0:0:0:
320,192,107135,1,0,0:0:0:0:
64,192,107135,1,0,0:0:0:0:
448,192,107447,1,0,0:0:0:0:
192,192,107603,1,0,0:0:0:0:
448,192,107760,1,0,0:0:0:0:
64,192,107916,1,0,0:0:0:0:
320,192,108072,1,0,0:0:0:0:
64,192,108228,1,0,0:0:0:0:
320,192,108385,1,0,0:0:0:0:
192,192,108593,1,0,0:0:0:0:
64,192,108801,1,0,0:0:0:0:
448,192,109010,1,0,0:0:0:0:
320,192,109218,1,0,0:0:0:0:
192,192,109426,1,0,0:0:0:0:
64,192,109635,128,0,110572:0:0:0:0:
192,192,110885,128,0,111822:0:0:0:0:
320,192,112135,128,0,113385:0:0:0:0:
64,192,112760,128,0,113385:0:0:0:0:
192,192,113385,1,0,0:0:0:0:
192,192,113697,1,0,0:0:0:0:
448,192,114010,1,0,0:0:0:0:
320,192,114166,1,0,0:0:0:0:
192,192,114322,128,0,114635:0:0:0:0:
64,192,114635,1,0,0:0:0:0:
448,192,114635,1,0,0:0:0:0:
320,192,114947,1,0,0:0:0:0:
64,192,115260,1,0,0:0:0:0:
320,192,115572,1,0,0:0:0:0:
192,192,115885,1,0,0:0:0:0:
448,192,116197,1,0,0:0:0:0:
192,192,116510,1,0,0:0:0:0:
448,192,116822,1,0,0:0:0:0:
64,192,117135,1,0,0:0:0:0:
448,192,117447,1,0,0:0:0:0:
64,192,117760,1,0,0:0:0:0:
448,192,118072,1,0,0:0:0:0:
192,192,118385,1,0,0:0:0:0:
448,192,118697,1,0,0:0:0:0:
192,192,119010,1,0,0:0:0:0:
448,192,119322,1,0,0:0:0:0:
64,192,119635,1,0,0:0:0:0:
320,192,119947,1,0,0:0:0:0:
64,192,120260,1,0,0:0:0:0:
320,192,120572,1,0,0:0:0:0:
192,192,120885,1,0,0:0:0:0:
64,192,121197,1,0,0:0:0:0:
320,192,121510,1,0,0:0:0:0:
192,192,121822,1,0,0:0:0:0:
448,192,122135,1,0,0:0:0:0:
64,192,122135,1,0,0:0:0:0:
320,192,122447,1,0,0:0:0:0:
192,192,122760,1,0,0:0:0:0:
64,192,122760,1,0,0:0:0:0:
320,192,123072,1,0,0:0:0:0:
448,192,123385,1,0,0:0:0:0:
64,192,123385,1,0,0:0:0:0:
192,192,123697,1,0,0:0:0:0:
320,192,124010,1,0,0:0:0:0:
448,192,124322,128,0,124635:0:0:0:0:
192,192,124635,1,0,0:0:0:0:
64,192,124635,1,0,0:0:0:0:
320,192,124947,1,0,0:0:0:0:
64,192,125260,1,0,0:0:0:0:
192,192,125572,1,0,0:0:0:0:
320,192,125885,128,0,126197:0:0:0:0:
64,192,126197,1,0,0:0:0:0:
448,192,126510,128,0,126822:0:0:0:0:
64,192,126822,1,0,0:0:0:0:
192,192,127135,1,0,0:0:0:0:
320,192,127447,1,0,0:0:0:0:
192,192,127603,1,0,0:0:0:0:
448,192,127760,1,0,0:0:0:0:
64,192,127916,1,0,0:0:0:0:
320,192,128072,1,0,0:0:0:0:
192,192,128228,1,0,0:0:0:0:
64,192,128385,1,0,0:0:0:0:
320,192,128593,1,0,0:0:0:0:
64,192,128801,1,0,0:0:0:0:
448,192,129010,1,0,0:0:0:0:
192,192,129218,1,0,0:0:0:0:
448,192,129426,1,0,0:0:0:0:
64,192,129635,1,0,0:0:0:0:
192,192,129635,128,0,130572:0:0:0:0:
320,192,130885,128,0,131822:0:0:0:0:
448,192,132135,128,0,133385:0:0:0:0:
64,192,132760,128,0,133385:0:0:0:0:
192,192,133385,1,0,0:0:0:0:
192,192,133697,1,0,0:0:0:0:
448,192,134010,1,0,0:0:0:0:
320,192,134166,1,0,0:0:0:0:
192,192,134322,1,0,0:0:0:0:
64,192,134322,1,0,0:0:0:0:
192,192,134635,1,0,0:0:0:0:
448,192,134947,128,0,137447:0:0:0:0:
320,192,134947,128,0,137447:0:0:0:0:
